  0
SECTION
  2
HEADER
  9
$ACADVER
  1
AC1014
  9
$ACADMAINTVER
 70
     0
  9
$DWGCODEPAGE
  3
ANSI_932
  9
$INSBASE
 10
0.0
 20
0.0
 30
0.0
  9
$EXTMIN
 10
2002.202784
 20
-16859.356591
 30
0.0
  9
$EXTMAX
 10
4895.452784
 20
-14850.056591
 30
0.0
  9
$LIMMIN
 10
-26251.172216
 20
-36854.706591
  9
$LIMMAX
 10
33148.827784
 20
5145.293409
  9
$ORTHOMODE
 70
     0
  9
$REGENMODE
 70
     1
  9
$FILLMODE
 70
     1
  9
$QTEXTMODE
 70
     0
  9
$MIRRTEXT
 70
     1
  9
$DRAGMODE
 70
     2
  9
$LTSCALE
 40
100.0
  9
$OSMODE
 70
     0
  9
$ATTMODE
 70
     1
  9
$TEXTSIZE
 40
0.2
  9
$TRACEWID
 40
0.05
  9
$TEXTSTYLE
  7
STANDARD
  9
$CLAYER
  8
0
  9
$CELTYPE
  6
CONTINUOUS
  9
$CECOLOR
 62
   256
  9
$CELTSCALE
 40
1.0
  9
$DELOBJ
 70
     1
  9
$DISPSILH
 70
     0
  9
$DIMSCALE
 40
1.0
  9
$DIMASZ
 40
0.18
  9
$DIMEXO
 40
0.0625
  9
$DIMDLI
 40
0.38
  9
$DIMRND
 40
0.0
  9
$DIMDLE
 40
0.0
  9
$DIMEXE
 40
0.18
  9
$DIMTP
 40
0.0
  9
$DIMTM
 40
0.0
  9
$DIMTXT
 40
0.18
  9
$DIMCEN
 40
0.09
  9
$DIMTSZ
 40
0.0
  9
$DIMTOL
 70
     0
  9
$DIMLIM
 70
     0
  9
$DIMTIH
 70
     1
  9
$DIMTOH
 70
     1
  9
$DIMSE1
 70
     0
  9
$DIMSE2
 70
     0
  9
$DIMTAD
 70
     0
  9
$DIMZIN
 70
     0
  9
$DIMBLK
  1

  9
$DIMASO
 70
     1
  9
$DIMSHO
 70
     1
  9
$DIMPOST
  1

  9
$DIMAPOST
  1

  9
$DIMALT
 70
     0
  9
$DIMALTD
 70
     2
  9
$DIMALTF
 40
25.4
  9
$DIMLFAC
 40
1.0
  9
$DIMTOFL
 70
     0
  9
$DIMTVP
 40
0.0
  9
$DIMTIX
 70
     0
  9
$DIMSOXD
 70
     0
  9
$DIMSAH
 70
     0
  9
$DIMBLK1
  1

  9
$DIMBLK2
  1

  9
$DIMSTYLE
  2
STANDARD
  9
$DIMCLRD
 70
     0
  9
$DIMCLRE
 70
     0
  9
$DIMCLRT
 70
     0
  9
$DIMTFAC
 40
1.0
  9
$DIMGAP
 40
0.09
  9
$DIMJUST
 70
     0
  9
$DIMSD1
 70
     0
  9
$DIMSD2
 70
     0
  9
$DIMTOLJ
 70
     1
  9
$DIMTZIN
 70
     0
  9
$DIMALTZ
 70
     0
  9
$DIMALTTZ
 70
     0
  9
$DIMFIT
 70
     3
  9
$DIMUPT
 70
     0
  9
$DIMUNIT
 70
     2
  9
$DIMDEC
 70
     4
  9
$DIMTDEC
 70
     4
  9
$DIMALTU
 70
     2
  9
$DIMALTTD
 70
     2
  9
$DIMTXSTY
  7
STANDARD
  9
$DIMAUNIT
 70
     0
  9
$LUNITS
 70
     2
  9
$LUPREC
 70
     4
  9
$SKETCHINC
 40
0.1
  9
$FILLETRAD
 40
0.0
  9
$AUNITS
 70
     0
  9
$AUPREC
 70
     0
  9
$MENU
  1
acad
  9
$ELEVATION
 40
0.0
  9
$PELEVATION
 40
0.0
  9
$THICKNESS
 40
0.0
  9
$LIMCHECK
 70
     0
  9
$BLIPMODE
 70
     1
  9
$CHAMFERA
 40
0.0
  9
$CHAMFERB
 40
0.0
  9
$CHAMFERC
 40
0.0
  9
$CHAMFERD
 40
0.0
  9
$SKPOLY
 70
     0
  9
$TDCREATE
 40
0.000000000
  9
$TDUPDATE
 40
0.000000000
  9
$TDINDWG
 40
0.0000000000
  9
$TDUSRTIMER
 40
0.0000000000
  9
$USRTIMER
 70
     1
  9
$ANGBASE
 50
0.0
  9
$ANGDIR
 70
     0
  9
$PDMODE
 70
     0
  9
$PDSIZE
 40
0.0
  9
$PLINEWID
 40
0.0
  9
$COORDS
 70
     0
  9
$SPLFRAME
 70
     0
  9
$SPLINETYPE
 70
     6
  9
$SPLINESEGS
 70
     8
  9
$ATTDIA
 70
     0
  9
$ATTREQ
 70
     1
  9
$HANDLING
 70
     1
  9
$HANDSEED
  5
76D
  9
$SURFTAB1
 70
     6
  9
$SURFTAB2
 70
     6
  9
$SURFTYPE
 70
     6
  9
$SURFU
 70
     6
  9
$SURFV
 70
     6
  9
$UCSNAME
  2

  9
$UCSORG
 10
0.0
 20
0.0
 30
0.0
  9
$UCSXDIR
 10
1.0
 20
0.0
 30
0.0
  9
$UCSYDIR
 10
0.0
 20
1.0
 30
0.0
  9
$PUCSNAME
  2

  9
$PUCSORG
 10
0.0
 20
0.0
 30
0.0
  9
$PUCSXDIR
 10
1.0
 20
0.0
 30
0.0
  9
$PUCSYDIR
 10
0.0
 20
1.0
 30
0.0
  9
$USERI1
 70
     0
  9
$USERI2
 70
     0
  9
$USERI3
 70
     0
  9
$USERI4
 70
     0
  9
$USERI5
 70
     0
  9
$USERR1
 40
0.0
  9
$USERR2
 40
0.0
  9
$USERR3
 40
0.0
  9
$USERR4
 40
0.0
  9
$USERR5
 40
0.0
  9
$WORLDVIEW
 70
     1
  9
$SHADEDGE
 70
     3
  9
$SHADEDIF
 70
    70
  9
$TILEMODE
 70
     1
  9
$MAXACTVP
 70
    16
  9
$PINSBASE
 10
0.0
 20
0.0
 30
0.0
  9
$PLIMCHECK
 70
     0
  9
$PEXTMIN
 10
1.000000E+20
 20
1.000000E+20
 30
1.000000E+20
  9
$PEXTMAX
 10
-1.000000E+20
 20
-1.000000E+20
 30
-1.000000E+20
  9
$PLIMMIN
 10
0.0
 20
0.0
  9
$PLIMMAX
 10
12.0
 20
9.0
  9
$UNITMODE
 70
     0
  9
$VISRETAIN
 70
     0
  9
$PLINEGEN
 70
     1
  9
$PSLTSCALE
 70
     0
  9
$TREEDEPTH
 70
  3020
  9
$PICKSTYLE
 70
     1
  9
$CMLSTYLE
  2
STANDARD
  9
$CMLJUST
 70
     0
  9
$CMLSCALE
 40
1.0
  9
$PROXYGRAPHICS
 70
     0
  9
$MEASUREMENT
 70
     0
  0
ENDSEC
  0
SECTION
  2
CLASSES
  0
CLASS
  1
LWPOLYLINE
  2
AcDbPolyline
  3
"AutoCAD"
 90
        0
280
     0
281
     1
  0
CLASS
  1
IMAGE
  2
AcDbRasterImage
  3
ISM
 90
      127
280
     0
281
     1
  0
CLASS
  1
OLE2FRAME
  2
AcDbOle2Frame
  3
""
 90
        0
280
     0
281
     1
  0
CLASS
  1
HATCH
  2
AcDbHatch
  3
"ACAD_SEDONA"
 90
        0
280
     0
281
     1
  0
CLASS
  1
DICTIONARYVAR
  2
AcDbDictionaryVar
  3
"AutoCAD"
 90
        0
280
     0
281
     0
  0
CLASS
  1
RASTERVARIABLES
  2
AcDbRasterVariables
  3
ISM
 90
        0
280
     0
281
     0
  0
CLASS
  1
IMAGEDEF
  2
AcDbRasterImageDef
  3
ISM
 90
        0
280
     0
281
     0
  0
CLASS
  1
IMAGEDEF_REACTOR
  2
AcDbRasterImageDefReactor
  3
ISM
 90
        1
280
     0
281
     0
  0
CLASS
  1
IDBUFFER
  2
AcDbIdBuffer
  3
"Acad"
 90
        0
280
     0
281
     0
  0
CLASS
  1
SPATIAL_FILTER
  2
AcDbSpatialFilter
  3
"Acad"
 90
        0
280
     0
281
     0
  0
CLASS
  1
XRECORD
  2
AcDbXrecord
  3
"<Built In>"
 90
        0
280
     0
281
     0
  0
CLASS
  1
SORTENTSTABLE
  2
AcDbSortentsTable
  3
"AutoCAD"
 90
        0
280
     0
281
     0
  0
CLASS
  1
LAYER_INDEX
  2
AcDbLayerIndex
  3
"Acad"
 90
        0
280
     0
281
     0
  0
CLASS
  1
SPATIAL_INDEX
  2
AcDbSpatialIndex
  3
"Acad"
 90
        0
280
     0
281
     0
  0
CLASS
  1
OBJECT_PTR
  2
CAseDLPNTableRecord
  3
"ASE-LPNTableRecord"
 90
        1
280
     0
281
     0
  0
CLASS
  1
LAYOUT
  2
AcDbLayout
  3
"AutoCAD 2000"
 90
        0
280
     0
281
     0
  0
CLASS
  1
PLOTSETTINGS
  2
AcDbPlotSettings
  3
"AutoCAD 2000"
 90
        0
280
     0
281
     0
  0
CLASS
  1
ACDBDICTIONARYWDFLT
  2
AcDbDictionaryWithDefault
  3
"AutoCAD 2000"
 90
        0
280
     0
281
     0
  0
CLASS
  1
ACDBPLACEHOLDER
  2
AcDbPlaceHolder
  3
"AutoCAD 2000"
 90
        0
280
     0
281
     0
  0
CLASS
  1
VBA_PROJECT
  2
AcDbVbaProject
  3
"acadvba"
 90
        0
280
     0
281
     0
  0
CLASS
  1
WIPEOUT
  2
AcDbWipeout
  3
WipeOut|AutoCAD Express Tool|expresstools@autodesk.com
 90
      127
280
     0
281
     1
  0
CLASS
  1
WIPEOUTVARIABLES
  2
AcDbWipeoutVariables
  3
WipeOut|AutoCAD Express Tool|expresstools@autodesk.com
 90
        0
280
     0
281
     0
  0
CLASS
  1
RTEXT
  2
RText
  3
RText|AutoCAD Express Tool|expresstools@autodesk.com
 90
        0
280
     0
281
     1
  0
CLASS
  1
ARCALIGNEDTEXT
  2
AcDbArcAlignedText
  3
ATEXT|AutoCAD Express Tool|expresstools@autodesk.com
 90
        0
280
     0
281
     1
  0
ENDSEC
  0
SECTION
  2
TABLES
  0
TABLE
  2
VPORT
  5
7
100
AcDbSymbolTable
 70
     1
  0
VPORT
  5
15
100
AcDbSymbolTableRecord
100
AcDbViewportTableRecord
  2
*ACTIVE
 70
     0
 10
0.0
 20
0.0
 11
1.0
 21
1.0
 12
3448.827784
 22
-15854.706591
 13
0.0
 23
0.0
 14
1000.0
 24
1000.0
 15
1000.0
 25
1000.0
 16
0.0
 26
0.0
 36
1.0
 17
0.0
 27
0.0
 37
0.0
 40
42000.0
 41
1.414286
 42
50.0
 43
0.0
 44
0.0
 50
0.0
 51
0.0
 71
     0
 72
   100
 73
     1
 74
     1
 75
     0
 76
     0
 77
     0
 78
     0
  0
ENDTAB
  0
TABLE
  2
LTYPE
  5
4
100
AcDbSymbolTable
 70
     8
  0
LTYPE
  5
11
100
AcDbSymbolTableRecord
100
AcDbLinetypeTableRecord
  2
BYBLOCK
 70
    64
  3

 72
    65
 73
     0
 40
0.0
  0
LTYPE
  5
12
100
AcDbSymbolTableRecord
100
AcDbLinetypeTableRecord
  2
BYLAYER
 70
    64
  3

 72
    65
 73
     0
 40
0.0
  0
LTYPE
  5
13
100
AcDbSymbolTableRecord
100
AcDbLinetypeTableRecord
  2
CONTINUOUS
 70
    64
  3
Solid line
 72
    65
 73
     0
 40
0.0
  0
LTYPE
  5
12B
100
AcDbSymbolTableRecord
100
AcDbLinetypeTableRecord
  2
HIDDEN
 70
    64
  3
__ __ __ __ __ __ __ __ __ __ __ __ __ __ __ __
 72
    65
 73
     5
 40
8.0
 49
1.0
 74
     0
 49
-2.0
 74
     0
 49
2.0
 74
     0
 49
-2.0
 74
     0
 49
1.0
 74
     0
  0
LTYPE
  5
12C
100
AcDbSymbolTableRecord
100
AcDbLinetypeTableRecord
  2
DOT
 70
    64
  3
. . . . . . . . . . . . . . . . . . . . . . . .
 72
    65
 73
     3
 40
1.6
 49
0.4
 74
     0
 49
-0.8
 74
     0
 49
0.4
 74
     0
  0
LTYPE
  5
12D
100
AcDbSymbolTableRecord
100
AcDbLinetypeTableRecord
  2
CENTER
 70
    64
  3
____ _ ____ _ ____ _ ____ _ ____ _ ____ _ ____ 
 72
    65
 73
     5
 40
12.0
 49
5.0
 74
     0
 49
-0.8
 74
     0
 49
0.4
 74
     0
 49
-0.8
 74
     0
 49
5.0
 74
     0
  0
LTYPE
  5
12E
100
AcDbSymbolTableRecord
100
AcDbLinetypeTableRecord
  2
DIVIDE
 70
    64
  3
____ . . ____ . . ____ . . ____ . . ____ . . __
 72
    65
 73
     7
 40
13.2
 49
5.0
 74
     0
 49
-0.8
 74
     0
 49
0.4
 74
     0
 49
-0.8
 74
     0
 49
0.4
 74
     0
 49
-0.8
 74
     0
 49
5.0
 74
     0
  0
LTYPE
  5
12F
100
AcDbSymbolTableRecord
100
AcDbLinetypeTableRecord
  2
STYLE_07
 70
     0
  3
Solid Line
 72
    65
 73
     6
 40
7.48
 49
2.5
 74
     0
 49
-0.83
 74
     0
 49
2.5
 74
     0
 49
-0.83
 74
     0
 49
0.27
 74
     0
 49
-0.55
 74
     0
  0
ENDTAB
  0
TABLE
  2
LAYER
  5
2
100
AcDbSymbolTable
 70
     5
  0
LAYER
  5
14
100
AcDbSymbolTableRecord
100
AcDbLayerTableRecord
  2
0
 70
     0
 62
     7
  6
CONTINUOUS
  0
LAYER
  5
27
100
AcDbSymbolTableRecord
100
AcDbLayerTableRecord
  2
001
 70
     0
 62
     7
  6
CONTINUOUS
  0
LAYER
  5
28
100
AcDbSymbolTableRecord
100
AcDbLayerTableRecord
  2
002
 70
     0
 62
     7
  6
CONTINUOUS
  0
LAYER
  5
29
100
AcDbSymbolTableRecord
100
AcDbLayerTableRecord
  2
003
 70
     0
 62
     7
  6
CONTINUOUS
  0
LAYER
  5
2A
100
AcDbSymbolTableRecord
100
AcDbLayerTableRecord
  2
004
 70
     0
 62
     7
  6
CONTINUOUS
  0
ENDTAB
  0
TABLE
  2
STYLE
  5
3
100
AcDbSymbolTable
 70
     3
  0
STYLE
  5
17
100
AcDbSymbolTableRecord
100
AcDbTextStyleTableRecord
  2
STANDARD
 70
     0
 40
0.0
 41
1.0
 50
0.0
 71
     0
 42
0.0
  3
txt
  4

  0
STYLE
  5
127
100
AcDbSymbolTableRecord
100
AcDbTextStyleTableRecord
  2
DRACAD
 70
     0
 40
0.0
 41
1.0
 50
0.0
 71
     0
 42
0.0
  3
txt
  4
extfont
  0
STYLE
  5
128
100
AcDbSymbolTableRecord
100
AcDbTextStyleTableRecord
  2
TATEDRACAD
 70
     4
 40
0.0
 41
1.0
 50
0.0
 71
     0
 42
0.0
  3
txt
  4
extfont
  0
ENDTAB
  0
TABLE
  2
VIEW
  5
5
100
AcDbSymbolTable
 70
     0
  0
ENDTAB
  0
TABLE
  2
UCS
  5
6
100
AcDbSymbolTable
 70
     0
  0
ENDTAB
  0
TABLE
  2
APPID
  5
8
100
AcDbSymbolTable
 70
     1
  0
APPID
  5
16
100
AcDbSymbolTableRecord
100
AcDbRegAppTableRecord
  2
ACAD
 70
     0
  0
ENDTAB
  0
TABLE
  2
DIMSTYLE
  5
9
100
AcDbSymbolTable
 70
     2
  0
DIMSTYLE
105
18
100
AcDbSymbolTableRecord
100
AcDbDimStyleTableRecord
  2
STANDARD
 70
     0
  3

  4

  5

  6

  7

 40
1.0
 41
0.18
 42
0.0625
 43
0.38
 44
0.18
 45
0.0
 46
0.0
 47
0.0
 48
0.0
 71
     0
 72
     0
 73
     1
 74
     1
 75
     0
 76
     0
 77
     0
 78
     0
140
0.18
141
0.09
142
0.0
143
25.4
144
1.0
145
0.0
146
1.0
147
0.09
170
     0
171
     2
172
     0
173
     0
174
     0
175
     0
176
     0
177
     0
178
     0
270
     2
271
     4
272
     4
273
     2
274
     2
275
     0
280
     0
281
     0
282
     0
283
     1
284
     0
285
     0
286
     0
287
     0
288
     0
340
17
  0
DIMSTYLE
105
14F
100
AcDbSymbolTableRecord
100
AcDbDimStyleTableRecord
  2
DIMSTYLE001
 70
     0
  3

  4

  5
_ORIGIN
  6

  7

 40
1.0
 41
10.0
 42
0.0
 43
1000.0
 44
0.0
 45
0.0
 46
0.0
 47
0.0
 48
0.0
 71
     0
 72
     0
 73
     0
 74
     0
 75
     0
 76
     0
 77
     1
 78
     0
140
25.0
141
0.09
142
0.0
143
25.4
144
1.0
145
0.0
146
1.0
147
0.0
170
     0
171
     2
172
     1
173
     0
174
     1
175
     0
176
     0
177
     0
178
     0
270
     2
271
     0
272
     4
273
     2
274
     2
275
     0
280
     0
281
     0
282
     0
283
     1
284
     0
285
     0
286
     0
287
     3
288
     0
340
127
  0
ENDTAB
  0
TABLE
  2
BLOCK_RECORD
  5
1
100
AcDbSymbolTable
 70
    10
  0
BLOCK_RECORD
  5
A
100
AcDbSymbolTableRecord
100
AcDbBlockTableRecord
  2
*MODEL_SPACE
  0
BLOCK_RECORD
  5
B
100
AcDbSymbolTableRecord
100
AcDbBlockTableRecord
  2
*PAPER_SPACE
  0
BLOCK_RECORD
  5
14A
100
AcDbSymbolTableRecord
100
AcDbBlockTableRecord
  2
_ORIGIN
  0
BLOCK_RECORD
  5
150
100
AcDbSymbolTableRecord
100
AcDbBlockTableRecord
  2
1
  0
BLOCK_RECORD
  5
151
100
AcDbSymbolTableRecord
100
AcDbBlockTableRecord
  2
2
  0
BLOCK_RECORD
  5
152
100
AcDbSymbolTableRecord
100
AcDbBlockTableRecord
  2
3
  0
BLOCK_RECORD
  5
729
100
AcDbSymbolTableRecord
100
AcDbBlockTableRecord
  2
*D4
  0
BLOCK_RECORD
  5
733
100
AcDbSymbolTableRecord
100
AcDbBlockTableRecord
  2
*D5
  0
BLOCK_RECORD
  5
73D
100
AcDbSymbolTableRecord
100
AcDbBlockTableRecord
  2
*D6
  0
BLOCK_RECORD
  5
74C
100
AcDbSymbolTableRecord
100
AcDbBlockTableRecord
  2
*D7
  0
BLOCK_RECORD
  5
756
100
AcDbSymbolTableRecord
100
AcDbBlockTableRecord
  2
*D8
  0
BLOCK_RECORD
  5
763
100
AcDbSymbolTableRecord
100
AcDbBlockTableRecord
  2
*D9
  0
ENDTAB
  0
ENDSEC
  0
SECTION
  2
BLOCKS
  0
BLOCK
  5
D
100
AcDbEntity
  8
0
100
AcDbBlockBegin
  2
*MODEL_SPACE
 70
     0
 10
0.0
 20
0.0
 30
0.0
  3
*MODEL_SPACE
  1

  0
ENDBLK
  5
E
100
AcDbEntity
  8
0
100
AcDbBlockEnd
  0
BLOCK
  5
F
100
AcDbEntity
 67
     1
  8
0
100
AcDbBlockBegin
  2
*PAPER_SPACE
 70
     0
 10
0.0
 20
0.0
 30
0.0
  3
*PAPER_SPACE
  1

  0
ENDBLK
  5
10
100
AcDbEntity
 67
     1
  8
0
100
AcDbBlockEnd
  0
BLOCK
  5
14B
100
AcDbEntity
  8
0
100
AcDbBlockBegin
  2
_ORIGIN
 70
     0
 10
0.0
 20
0.0
 30
0.0
  3
_ORIGIN
  1

  0
CIRCLE
  5
14C
100
AcDbEntity
  8
0
  6
ByBlock
 62
     0
100
AcDbCircle
 10
0.0
 20
0.0
 30
0.0
 40
0.5
  0
LINE
  5
14D
100
AcDbEntity
  8
0
  6
ByBlock
 62
     0
100
AcDbLine
 10
0.0
 20
0.0
 30
0.0
 11
-1.0
 21
0.0
 31
0.0
  0
ENDBLK
  5
14E
100
AcDbEntity
  8
0
100
AcDbBlockEnd
  0
BLOCK
  5
153
100
AcDbEntity
  8
0
100
AcDbBlockBegin
  2
1
 70
     0
 10
0.0
 20
0.0
 30
0.0
  3
1
  1

  0
ARC
  5
154
100
AcDbEntity
  8
004
  6
CONTINUOUS
 62
     7
100
AcDbCircle
 10
133.068018
 20
-9.500511
 30
0.0
 40
134.969188
100
AcDbArc
 50
45.663628
 51
224.512358
  0
LINE
  5
155
100
AcDbEntity
  8
004
  6
CONTINUOUS
 62
     7
100
AcDbLine
 10
-120.089883
 20
249.590778
 30
0.0
 11
386.225919
 21
249.590778
 31
0.0
  0
LINE
  5
156
100
AcDbEntity
  8
004
  6
CONTINUOUS
 62
     7
100
AcDbLine
 10
-120.089883
 20
-268.591801
 30
0.0
 11
-120.089883
 21
249.590778
 31
0.0
  0
ARC
  5
157
100
AcDbEntity
  8
004
  6
CONTINUOUS
 62
     7
100
AcDbCircle
 10
133.068018
 20
-9.500511
 30
0.0
 40
134.969188
100
AcDbArc
 50
224.512358
 51
225.663628
  0
LINE
  5
158
100
AcDbEntity
  8
004
  6
CONTINUOUS
 62
     7
100
AcDbLine
 10
-120.089883
 20
239.590778
 30
0.0
 11
376.454927
 21
239.590778
 31
0.0
  0
LINE
  5
159
100
AcDbEntity
  8
004
  6
CONTINUOUS
 62
     7
100
AcDbLine
 10
-120.089883
 20
229.590778
 30
0.0
 11
366.683934
 21
229.590778
 31
0.0
  0
LINE
  5
15A
100
AcDbEntity
  8
004
  6
CONTINUOUS
 62
     7
100
AcDbLine
 10
-120.089883
 20
219.590778
 30
0.0
 11
356.912942
 21
219.590778
 31
0.0
  0
LINE
  5
15B
100
AcDbEntity
  8
004
  6
CONTINUOUS
 62
     7
100
AcDbLine
 10
-120.089883
 20
209.590778
 30
0.0
 11
347.14195
 21
209.590778
 31
0.0
  0
LINE
  5
15C
100
AcDbEntity
  8
004
  6
CONTINUOUS
 62
     7
100
AcDbLine
 10
-120.089883
 20
199.590778
 30
0.0
 11
337.370957
 21
199.590778
 31
0.0
  0
LINE
  5
15D
100
AcDbEntity
  8
004
  6
CONTINUOUS
 62
     7
100
AcDbLine
 10
-120.089883
 20
189.590778
 30
0.0
 11
327.599965
 21
189.590778
 31
0.0
  0
LINE
  5
15E
100
AcDbEntity
  8
004
  6
CONTINUOUS
 62
     7
100
AcDbLine
 10
-120.089883
 20
179.590778
 30
0.0
 11
317.828973
 21
179.590778
 31
0.0
  0
LINE
  5
15F
100
AcDbEntity
  8
004
  6
CONTINUOUS
 62
     7
100
AcDbLine
 10
-120.089883
 20
169.590778
 30
0.0
 11
308.05798
 21
169.590778
 31
0.0
  0
LINE
  5
160
100
AcDbEntity
  8
004
  6
CONTINUOUS
 62
     7
100
AcDbLine
 10
-120.089883
 20
159.590778
 30
0.0
 11
298.286988
 21
159.590778
 31
0.0
  0
LINE
  5
161
100
AcDbEntity
  8
004
  6
CONTINUOUS
 62
     7
100
AcDbLine
 10
-120.089883
 20
149.590778
 30
0.0
 11
288.515995
 21
149.590778
 31
0.0
  0
LINE
  5
162
100
AcDbEntity
  8
004
  6
CONTINUOUS
 62
     7
100
AcDbLine
 10
-120.089883
 20
139.590778
 30
0.0
 11
278.745003
 21
139.590778
 31
0.0
  0
LINE
  5
163
100
AcDbEntity
  8
004
  6
CONTINUOUS
 62
     7
100
AcDbLine
 10
-120.089883
 20
129.590778
 30
0.0
 11
268.974011
 21
129.590778
 31
0.0
  0
LINE
  5
164
100
AcDbEntity
  8
004
  6
CONTINUOUS
 62
     7
100
AcDbLine
 10
386.225919
 20
249.590778
 30
0.0
 11
227.393864
 21
87.036097
 31
0.0
  0
LINE
  5
165
100
AcDbEntity
  8
004
  6
CONTINUOUS
 62
     7
100
AcDbLine
 10
-120.089883
 20
-110.409222
 30
0.0
 11
34.470194
 21
-110.409222
 31
0.0
  0
LINE
  5
166
100
AcDbEntity
  8
004
  6
CONTINUOUS
 62
     7
100
AcDbLine
 10
-120.089883
 20
-120.409222
 30
0.0
 11
24.699202
 21
-120.409222
 31
0.0
  0
LINE
  5
167
100
AcDbEntity
  8
004
  6
CONTINUOUS
 62
     7
100
AcDbLine
 10
-120.089883
 20
-130.409222
 30
0.0
 11
14.928209
 21
-130.409222
 31
0.0
  0
LINE
  5
168
100
AcDbEntity
  8
004
  6
CONTINUOUS
 62
     7
100
AcDbLine
 10
-120.089883
 20
-140.409222
 30
0.0
 11
5.157217
 21
-140.409222
 31
0.0
  0
LINE
  5
169
100
AcDbEntity
  8
004
  6
CONTINUOUS
 62
     7
100
AcDbLine
 10
-120.089883
 20
-150.409222
 30
0.0
 11
-4.613776
 21
-150.409222
 31
0.0
  0
LINE
  5
16A
100
AcDbEntity
  8
004
  6
CONTINUOUS
 62
     7
100
AcDbLine
 10
-120.089883
 20
-160.409222
 30
0.0
 11
-14.384768
 21
-160.409222
 31
0.0
  0
LINE
  5
16B
100
AcDbEntity
  8
004
  6
CONTINUOUS
 62
     7
100
AcDbLine
 10
-120.089883
 20
-170.409222
 30
0.0
 11
-24.15576
 21
-170.409222
 31
0.0
  0
LINE
  5
16C
100
AcDbEntity
  8
004
  6
CONTINUOUS
 62
     7
100
AcDbLine
 10
-120.089883
 20
-180.409222
 30
0.0
 11
-33.926753
 21
-180.409222
 31
0.0
  0
LINE
  5
16D
100
AcDbEntity
  8
004
  6
CONTINUOUS
 62
     7
100
AcDbLine
 10
-120.089883
 20
-190.409222
 30
0.0
 11
-43.697745
 21
-190.409222
 31
0.0
  0
LINE
  5
16E
100
AcDbEntity
  8
004
  6
CONTINUOUS
 62
     7
100
AcDbLine
 10
-120.089883
 20
-200.409222
 30
0.0
 11
-53.468737
 21
-200.409222
 31
0.0
  0
LINE
  5
16F
100
AcDbEntity
  8
004
  6
CONTINUOUS
 62
     7
100
AcDbLine
 10
-120.089883
 20
-210.409222
 30
0.0
 11
-63.23973
 21
-210.409222
 31
0.0
  0
LINE
  5
170
100
AcDbEntity
  8
004
  6
CONTINUOUS
 62
     7
100
AcDbLine
 10
-120.089883
 20
-220.409222
 30
0.0
 11
-73.010722
 21
-220.409222
 31
0.0
  0
LINE
  5
171
100
AcDbEntity
  8
004
  6
CONTINUOUS
 62
     7
100
AcDbLine
 10
-120.089883
 20
-230.409222
 30
0.0
 11
-82.781714
 21
-230.409222
 31
0.0
  0
LINE
  5
172
100
AcDbEntity
  8
004
  6
CONTINUOUS
 62
     7
100
AcDbLine
 10
-120.089883
 20
-240.409222
 30
0.0
 11
-92.552707
 21
-240.409222
 31
0.0
  0
LINE
  5
173
100
AcDbEntity
  8
004
  6
CONTINUOUS
 62
     7
100
AcDbLine
 10
-120.089883
 20
-250.409222
 30
0.0
 11
-102.323699
 21
-250.409222
 31
0.0
  0
LINE
  5
174
100
AcDbEntity
  8
004
  6
CONTINUOUS
 62
     7
100
AcDbLine
 10
-120.089883
 20
-260.409222
 30
0.0
 11
-112.094692
 21
-260.409222
 31
0.0
  0
LINE
  5
175
100
AcDbEntity
  8
004
  6
CONTINUOUS
 62
     7
100
AcDbLine
 10
38.761214
 20
-106.017631
 30
0.0
 11
-120.089883
 21
-268.591801
 31
0.0
  0
LINE
  5
176
100
AcDbEntity
  8
004
  6
CONTINUOUS
 62
     7
100
AcDbLine
 10
-120.089883
 20
-100.409222
 30
0.0
 11
33.306863
 21
-100.409222
 31
0.0
  0
LINE
  5
177
100
AcDbEntity
  8
004
  6
CONTINUOUS
 62
     7
100
AcDbLine
 10
-120.089883
 20
-90.409222
 30
0.0
 11
25.038104
 21
-90.409222
 31
0.0
  0
LINE
  5
178
100
AcDbEntity
  8
004
  6
CONTINUOUS
 62
     7
100
AcDbLine
 10
-120.089883
 20
-80.409222
 30
0.0
 11
18.226229
 21
-80.409222
 31
0.0
  0
LINE
  5
179
100
AcDbEntity
  8
004
  6
CONTINUOUS
 62
     7
100
AcDbLine
 10
-120.089883
 20
-70.409222
 30
0.0
 11
12.623795
 21
-70.409222
 31
0.0
  0
LINE
  5
17A
100
AcDbEntity
  8
004
  6
CONTINUOUS
 62
     7
100
AcDbLine
 10
-120.089883
 20
-60.409222
 30
0.0
 11
8.068078
 21
-60.409222
 31
0.0
  0
LINE
  5
17B
100
AcDbEntity
  8
004
  6
CONTINUOUS
 62
     7
100
AcDbLine
 10
-120.089883
 20
-50.409222
 30
0.0
 11
4.447805
 21
-50.409222
 31
0.0
  0
LINE
  5
17C
100
AcDbEntity
  8
004
  6
CONTINUOUS
 62
     7
100
AcDbLine
 10
-120.089883
 20
-40.409222
 30
0.0
 11
1.685624
 21
-40.409222
 31
0.0
  0
LINE
  5
17D
100
AcDbEntity
  8
004
  6
CONTINUOUS
 62
     7
100
AcDbLine
 10
-120.089883
 20
-30.409222
 30
0.0
 11
-0.271802
 21
-30.409222
 31
0.0
  0
LINE
  5
17E
100
AcDbEntity
  8
004
  6
CONTINUOUS
 62
     7
100
AcDbLine
 10
-120.089883
 20
-20.409222
 30
0.0
 11
-1.459607
 21
-20.409222
 31
0.0
  0
LINE
  5
17F
100
AcDbEntity
  8
004
  6
CONTINUOUS
 62
     7
100
AcDbLine
 10
-120.089883
 20
-10.409222
 30
0.0
 11
-1.898111
 21
-10.409222
 31
0.0
  0
LINE
  5
180
100
AcDbEntity
  8
004
  6
CONTINUOUS
 62
     7
100
AcDbLine
 10
-120.089883
 20
-0.409222
 30
0.0
 11
-1.594635
 21
-0.409222
 31
0.0
  0
LINE
  5
181
100
AcDbEntity
  8
004
  6
CONTINUOUS
 62
     7
100
AcDbLine
 10
-120.089883
 20
9.590778
 30
0.0
 11
-0.544124
 21
9.590778
 31
0.0
  0
LINE
  5
182
100
AcDbEntity
  8
004
  6
CONTINUOUS
 62
     7
100
AcDbLine
 10
-120.089883
 20
19.590778
 30
0.0
 11
1.271286
 21
19.590778
 31
0.0
  0
LINE
  5
183
100
AcDbEntity
  8
004
  6
CONTINUOUS
 62
     7
100
AcDbLine
 10
-120.089883
 20
29.590778
 30
0.0
 11
3.883836
 21
29.590778
 31
0.0
  0
LINE
  5
184
100
AcDbEntity
  8
004
  6
CONTINUOUS
 62
     7
100
AcDbLine
 10
-120.089883
 20
39.590778
 30
0.0
 11
7.343211
 21
39.590778
 31
0.0
  0
LINE
  5
185
100
AcDbEntity
  8
004
  6
CONTINUOUS
 62
     7
100
AcDbLine
 10
-120.089883
 20
49.590778
 30
0.0
 11
11.721814
 21
49.590778
 31
0.0
  0
LINE
  5
186
100
AcDbEntity
  8
004
  6
CONTINUOUS
 62
     7
100
AcDbLine
 10
-120.089883
 20
59.590778
 30
0.0
 11
17.12374
 21
59.590778
 31
0.0
  0
LINE
  5
187
100
AcDbEntity
  8
004
  6
CONTINUOUS
 62
     7
100
AcDbLine
 10
-120.089883
 20
69.590778
 30
0.0
 11
23.70052
 21
69.590778
 31
0.0
  0
LINE
  5
188
100
AcDbEntity
  8
004
  6
CONTINUOUS
 62
     7
100
AcDbLine
 10
-120.089883
 20
79.590778
 30
0.0
 11
31.680524
 21
79.590778
 31
0.0
  0
LINE
  5
189
100
AcDbEntity
  8
004
  6
CONTINUOUS
 62
     7
100
AcDbLine
 10
-120.089883
 20
89.590778
 30
0.0
 11
41.429608
 21
89.590778
 31
0.0
  0
LINE
  5
18A
100
AcDbEntity
  8
004
  6
CONTINUOUS
 62
     7
100
AcDbLine
 10
-120.089883
 20
99.590778
 30
0.0
 11
53.596184
 21
99.590778
 31
0.0
  0
LINE
  5
18B
100
AcDbEntity
  8
004
  6
CONTINUOUS
 62
     7
100
AcDbLine
 10
-120.089883
 20
109.590778
 30
0.0
 11
69.554661
 21
109.590778
 31
0.0
  0
LINE
  5
18C
100
AcDbEntity
  8
004
  6
CONTINUOUS
 62
     7
100
AcDbLine
 10
-120.089883
 20
119.590778
 30
0.0
 11
93.671054
 21
119.590778
 31
0.0
  0
LINE
  5
18D
100
AcDbEntity
  8
004
  6
CONTINUOUS
 62
     7
100
AcDbLine
 10
172.464982
 20
119.590778
 30
0.0
 11
259.203018
 21
119.590778
 31
0.0
  0
LINE
  5
18E
100
AcDbEntity
  8
004
  6
CONTINUOUS
 62
     7
100
AcDbLine
 10
196.581375
 20
109.590778
 30
0.0
 11
249.432026
 21
109.590778
 31
0.0
  0
LINE
  5
18F
100
AcDbEntity
  8
004
  6
CONTINUOUS
 62
     7
100
AcDbLine
 10
212.539852
 20
99.590778
 30
0.0
 11
239.661034
 21
99.590778
 31
0.0
  0
ENDBLK
  5
190
100
AcDbEntity
  8
0
100
AcDbBlockEnd
  0
BLOCK
  5
191
100
AcDbEntity
  8
0
100
AcDbBlockBegin
  2
2
 70
     0
 10
0.0
 20
0.0
 30
0.0
  3
2
  1

  0
INSERT
  5
192
100
AcDbEntity
  8
004
  6
CONTINUOUS
 62
     7
100
AcDbBlockReference
  2
1
 10
-26.613604
 20
1.900102
 30
0.0
 41
0.2
 42
0.2
  0
ENDBLK
  5
193
100
AcDbEntity
  8
0
100
AcDbBlockEnd
  0
BLOCK
  5
194
100
AcDbEntity
  8
0
100
AcDbBlockBegin
  2
3
 70
     0
 10
0.0
 20
0.0
 30
0.0
  3
3
  1

  0
INSERT
  5
195
100
AcDbEntity
  8
003
  6
CONTINUOUS
 62
     7
100
AcDbBlockReference
  2
2
 10
187.309635
 20
61.739262
 30
0.0
  0
ENDBLK
  5
196
100
AcDbEntity
  8
0
100
AcDbBlockEnd
  0
BLOCK
  5
72A
100
AcDbEntity
  8
0
100
AcDbBlockBegin
  2
*D4
 70
     1
 10
0.0
 20
0.0
 30
0.0
  3
*D4
  1

  0
LINE
  5
72B
100
AcDbEntity
  8
0
  6
ByBlock
 62
     0
100
AcDbLine
 10
3166.913258
 20
-15160.905223
 30
0.0
 11
3166.913258
 21
-15019.632931
 31
0.0
  0
LINE
  5
72C
100
AcDbEntity
  8
0
  6
ByBlock
 62
     0
100
AcDbLine
 10
3809.064028
 20
-15160.905223
 30
0.0
 11
3809.064028
 21
-15019.632931
 31
0.0
  0
LINE
  5
72D
100
AcDbEntity
  8
0
  6
ByBlock
 62
     0
100
AcDbLine
 10
3166.913258
 20
-15019.632931
 30
0.0
 11
3809.064028
 21
-15019.632931
 31
0.0
  0
INSERT
  5
72E
100
AcDbEntity
  8
0
  6
ByBlock
 62
     0
100
AcDbBlockReference
  2
_ORIGIN
 10
3166.913258
 20
-15019.632931
 30
0.0
 41
10.0
 42
10.0
 43
10.0
 50
180.0
  0
INSERT
  5
72F
100
AcDbEntity
  8
0
  6
ByBlock
 62
     0
100
AcDbBlockReference
  2
_ORIGIN
 10
3809.064028
 20
-15019.632931
 30
0.0
 41
10.0
 42
10.0
 43
10.0
  0
MTEXT
  5
730
100
AcDbEntity
  8
0
  6
ByBlock
 62
     0
100
AcDbMText
 10
3487.988643
 20
-15007.132931
 30
0.0
 40
25.0
 41
0.0
 71
     5
 72
     1
  1
{\A1;642}
  7
DRACAD
  0
ENDBLK
  5
731
100
AcDbEntity
  8
0
100
AcDbBlockEnd
  0
BLOCK
  5
734
100
AcDbEntity
  8
0
100
AcDbBlockBegin
  2
*D5
 70
     1
 10
0.0
 20
0.0
 30
0.0
  3
*D5
  1

  0
LINE
  5
735
100
AcDbEntity
  8
0
  6
ByBlock
 62
     0
100
AcDbLine
 10
3830.484821
 20
-15179.719821
 30
0.0
 11
3965.554351
 21
-15179.719821
 31
0.0
  0
LINE
  5
736
100
AcDbEntity
  8
0
  6
ByBlock
 62
     0
100
AcDbLine
 10
3830.484821
 20
-15821.870591
 30
0.0
 11
3965.554351
 21
-15821.870591
 31
0.0
  0
LINE
  5
737
100
AcDbEntity
  8
0
  6
ByBlock
 62
     0
100
AcDbLine
 10
3965.554351
 20
-15179.719821
 30
0.0
 11
3965.554351
 21
-15821.870591
 31
0.0
  0
INSERT
  5
738
100
AcDbEntity
  8
0
  6
ByBlock
 62
     0
100
AcDbBlockReference
  2
_ORIGIN
 10
3965.554351
 20
-15179.719821
 30
0.0
 41
10.0
 42
10.0
 43
10.0
 50
90.0
  0
INSERT
  5
739
100
AcDbEntity
  8
0
  6
ByBlock
 62
     0
100
AcDbBlockReference
  2
_ORIGIN
 10
3965.554351
 20
-15821.870591
 30
0.0
 41
10.0
 42
10.0
 43
10.0
 50
270.0
  0
MTEXT
  5
73A
100
AcDbEntity
  8
0
  6
ByBlock
 62
     0
100
AcDbMText
 10
3953.054351
 20
-15500.795206
 30
0.0
 40
25.0
 41
0.0
 71
     5
 72
     1
  1
{\A1;642}
  7
DRACAD
 11
0.0
 21
1.0
 31
0.0
  0
ENDBLK
  5
73B
100
AcDbEntity
  8
0
100
AcDbBlockEnd
  0
BLOCK
  5
73E
100
AcDbEntity
  8
0
100
AcDbBlockBegin
  2
*D6
 70
     1
 10
0.0
 20
0.0
 30
0.0
  3
*D6
  1

  0
LINE
  5
73F
100
AcDbEntity
  8
0
  6
ByBlock
 62
     0
100
AcDbLine
 10
3095.037106
 20
-15391.205318
 30
0.0
 11
2975.748345
 21
-15391.205318
 31
0.0
  0
LINE
  5
740
100
AcDbEntity
  8
0
  6
ByBlock
 62
     0
100
AcDbLine
 10
3095.037106
 20
-15610.385117
 30
0.0
 11
2975.748345
 21
-15610.385117
 31
0.0
  0
LINE
  5
741
100
AcDbEntity
  8
0
  6
ByBlock
 62
     0
100
AcDbLine
 10
2975.748345
 20
-15391.205318
 30
0.0
 11
2975.748345
 21
-15610.385117
 31
0.0
  0
INSERT
  5
742
100
AcDbEntity
  8
0
  6
ByBlock
 62
     0
100
AcDbBlockReference
  2
_ORIGIN
 10
2975.748345
 20
-15391.205318
 30
0.0
 41
10.0
 42
10.0
 43
10.0
 50
90.0
  0
INSERT
  5
743
100
AcDbEntity
  8
0
  6
ByBlock
 62
     0
100
AcDbBlockReference
  2
_ORIGIN
 10
2975.748345
 20
-15610.385117
 30
0.0
 41
10.0
 42
10.0
 43
10.0
 50
270.0
  0
MTEXT
  5
744
100
AcDbEntity
  8
0
  6
ByBlock
 62
     0
100
AcDbMText
 10
2963.248345
 20
-15500.795218
 30
0.0
 40
25.0
 41
0.0
 71
     5
 72
     1
  1
{\A1;219}
  7
DRACAD
 11
0.0
 21
1.0
 31
0.0
  0
ENDBLK
  5
745
100
AcDbEntity
  8
0
100
AcDbBlockEnd
  0
BLOCK
  5
74D
100
AcDbEntity
  8
0
100
AcDbBlockBegin
  2
*D7
 70
     1
 10
0.0
 20
0.0
 30
0.0
  3
*D7
  1

  0
LINE
  5
74E
100
AcDbEntity
  8
0
  6
ByBlock
 62
     0
100
AcDbLine
 10
3166.913258
 20
-16399.848314
 30
0.0
 11
3166.913258
 21
-16501.759329
 31
0.0
  0
LINE
  5
74F
100
AcDbEntity
  8
0
  6
ByBlock
 62
     0
100
AcDbLine
 10
3809.064028
 20
-16399.848314
 30
0.0
 11
3809.064028
 21
-16501.759329
 31
0.0
  0
LINE
  5
750
100
AcDbEntity
  8
0
  6
ByBlock
 62
     0
100
AcDbLine
 10
3166.913258
 20
-16501.759329
 30
0.0
 11
3809.064028
 21
-16501.759329
 31
0.0
  0
INSERT
  5
751
100
AcDbEntity
  8
0
  6
ByBlock
 62
     0
100
AcDbBlockReference
  2
_ORIGIN
 10
3166.913258
 20
-16501.759329
 30
0.0
 41
10.0
 42
10.0
 43
10.0
 50
180.0
  0
INSERT
  5
752
100
AcDbEntity
  8
0
  6
ByBlock
 62
     0
100
AcDbBlockReference
  2
_ORIGIN
 10
3809.064028
 20
-16501.759329
 30
0.0
 41
10.0
 42
10.0
 43
10.0
  0
MTEXT
  5
753
100
AcDbEntity
  8
0
  6
ByBlock
 62
     0
100
AcDbMText
 10
3487.988643
 20
-16489.259329
 30
0.0
 40
25.0
 41
0.0
 71
     5
 72
     1
  1
{\A1;642}
  7
DRACAD
  0
ENDBLK
  5
754
100
AcDbEntity
  8
0
100
AcDbBlockEnd
  0
BLOCK
  5
757
100
AcDbEntity
  8
0
100
AcDbBlockBegin
  2
*D8
 70
     1
 10
0.0
 20
0.0
 30
0.0
  3
*D8
  1

  0
LINE
  5
758
100
AcDbEntity
  8
0
  6
ByBlock
 62
     0
100
AcDbLine
 10
3102.146092
 20
-16209.184933
 30
0.0
 11
3050.802554
 21
-16209.184933
 31
0.0
  0
LINE
  5
759
100
AcDbEntity
  8
0
  6
ByBlock
 62
     0
100
AcDbLine
 10
3102.146092
 20
-16361.393126
 30
0.0
 11
3050.802554
 21
-16361.393126
 31
0.0
  0
LINE
  5
75A
100
AcDbEntity
  8
0
  6
ByBlock
 62
     0
100
AcDbLine
 10
3050.802554
 20
-16209.184933
 30
0.0
 11
3050.802554
 21
-16361.393126
 31
0.0
  0
INSERT
  5
75B
100
AcDbEntity
  8
0
  6
ByBlock
 62
     0
100
AcDbBlockReference
  2
_ORIGIN
 10
3050.802554
 20
-16209.184933
 30
0.0
 41
10.0
 42
10.0
 43
10.0
 50
90.0
  0
INSERT
  5
75C
100
AcDbEntity
  8
0
  6
ByBlock
 62
     0
100
AcDbBlockReference
  2
_ORIGIN
 10
3050.802554
 20
-16361.393126
 30
0.0
 41
10.0
 42
10.0
 43
10.0
 50
270.0
  0
MTEXT
  5
75D
100
AcDbEntity
  8
0
  6
ByBlock
 62
     0
100
AcDbMText
 10
3038.302554
 20
-16285.28903
 30
0.0
 40
25.0
 41
0.0
 71
     5
 72
     1
  1
{\A1;152}
  7
DRACAD
 11
0.0
 21
1.0
 31
0.0
  0
ENDBLK
  5
75E
100
AcDbEntity
  8
0
100
AcDbBlockEnd
  0
BLOCK
  5
764
100
AcDbEntity
  8
0
100
AcDbBlockBegin
  2
*D9
 70
     1
 10
0.0
 20
0.0
 30
0.0
  3
*D9
  1

  0
LINE
  5
765
100
AcDbEntity
  8
0
  6
ByBlock
 62
     0
100
AcDbLine
 10
3307.988638
 20
-16164.339395
 30
0.0
 11
3307.988638
 21
-16109.969902
 31
0.0
  0
LINE
  5
766
100
AcDbEntity
  8
0
  6
ByBlock
 62
     0
100
AcDbLine
 10
3667.988638
 20
-16164.339395
 30
0.0
 11
3667.988638
 21
-16109.969902
 31
0.0
  0
LINE
  5
767
100
AcDbEntity
  8
0
  6
ByBlock
 62
     0
100
AcDbLine
 10
3307.988638
 20
-16109.969902
 30
0.0
 11
3667.988638
 21
-16109.969902
 31
0.0
  0
INSERT
  5
768
100
AcDbEntity
  8
0
  6
ByBlock
 62
     0
100
AcDbBlockReference
  2
_ORIGIN
 10
3307.988638
 20
-16109.969902
 30
0.0
 41
10.0
 42
10.0
 43
10.0
 50
180.0
  0
INSERT
  5
769
100
AcDbEntity
  8
0
  6
ByBlock
 62
     0
100
AcDbBlockReference
  2
_ORIGIN
 10
3667.988638
 20
-16109.969902
 30
0.0
 41
10.0
 42
10.0
 43
10.0
  0
MTEXT
  5
76A
100
AcDbEntity
  8
0
  6
ByBlock
 62
     0
100
AcDbMText
 10
3487.988638
 20
-16097.469902
 30
0.0
 40
25.0
 41
0.0
 71
     5
 72
     1
  1
{\A1;360}
  7
DRACAD
  0
ENDBLK
  5
76B
100
AcDbEntity
  8
0
100
AcDbBlockEnd
  0
ENDSEC
  0
SECTION
  2
ENTITIES
  0
TEXT
  5
197
100
AcDbEntity
  8
002
  6
CONTINUOUS
 62
     7
100
AcDbText
 10
4605.626196
 20
-16853.35095
 30
0.0
 40
17.219965
  1
1/10
 41
1.176471
  7
DRACAD
 72
     5
 11
4686.661326
 21
-16853.35095
 31
0.0
100
AcDbText
  0
POLYLINE
  5
198
100
AcDbEntity
  8
002
  6
CONTINUOUS
 62
     6
100
AcDb2dPolyline
 66
     1
 10
0.0
 20
0.0
 30
0.0
 70
   129
  0
VERTEX
  5
199
100
AcDbEntity
  8
002
  6
CONTINUOUS
 62
     6
100
AcDbVertex
100
AcDb2dVertex
 10
2002.202784
 20
-14850.056591
 30
0.0
  0
VERTEX
  5
19A
100
AcDbEntity
  8
002
  6
CONTINUOUS
 62
     6
100
AcDbVertex
100
AcDb2dVertex
 10
4895.452784
 20
-14850.056591
 30
0.0
  0
VERTEX
  5
19B
100
AcDbEntity
  8
002
  6
CONTINUOUS
 62
     6
100
AcDbVertex
100
AcDb2dVertex
 10
4895.452784
 20
-16859.356591
 30
0.0
  0
VERTEX
  5
19C
100
AcDbEntity
  8
002
  6
CONTINUOUS
 62
     6
100
AcDbVertex
100
AcDb2dVertex
 10
2002.202784
 20
-16859.356591
 30
0.0
  0
SEQEND
  5
19D
100
AcDbEntity
  8
002
  6
CONTINUOUS
 62
     6
  0
LINE
  5
19E
100
AcDbEntity
  8
002
  6
CONTINUOUS
 62
     6
100
AcDbLine
 10
2051.902784
 20
-16765.958339
 30
0.0
 11
4895.452784
 21
-16765.958339
 31
0.0
  0
LINE
  5
19F
100
AcDbEntity
  8
002
  6
CONTINUOUS
 62
     6
100
AcDbLine
 10
2002.202784
 20
-16765.958339
 30
0.0
 11
4895.452784
 21
-16765.958339
 31
0.0
  0
LINE
  5
1A0
100
AcDbEntity
  8
002
  6
CONTINUOUS
 62
     6
100
AcDbLine
 10
4895.452784
 20
-16765.958339
 30
0.0
 11
4895.452784
 21
-16857.988539
 31
0.0
  0
LINE
  5
1A1
100
AcDbEntity
  8
002
  6
CONTINUOUS
 62
     6
100
AcDbLine
 10
2716.462784
 20
-16765.958339
 30
0.0
 11
2716.462784
 21
-16857.988539
 31
0.0
  0
TEXT
  5
1A2
100
AcDbEntity
  8
002
  6
CONTINUOUS
 62
     7
100
AcDbText
 10
4757.357784
 20
-16787.145922
 30
0.0
 40
10.762478
  1
No.
 41
1.176471
  7
DRACAD
 72
     5
 11
4795.343002
 21
-16787.145922
 31
0.0
100
AcDbText
  0
LINE
  5
1A3
100
AcDbEntity
  8
002
  6
CONTINUOUS
 62
     7
100
AcDbLine
 10
4575.952784
 20
-16765.958339
 30
0.0
 11
4575.952784
 21
-16857.988539
 31
0.0
  0
TEXT
  5
1A4
100
AcDbEntity
  8
002
  6
CONTINUOUS
 62
     7
100
AcDbText
 10
4578.211176
 20
-16823.944631
 30
0.0
 40
10.762478
  1
SCALE
 41
1.176471
  7
DRACAD
 72
     5
 11
4641.519872
 21
-16823.944631
 31
0.0
100
AcDbText
  0
LINE
  5
1A5
100
AcDbEntity
  8
002
  6
CONTINUOUS
 62
     6
100
AcDbLine
 10
4753.452784
 20
-16765.958339
 30
0.0
 11
4753.452784
 21
-16857.988539
 31
0.0
  0
LINE
  5
1A6
100
AcDbEntity
  8
002
  6
CONTINUOUS
 62
     6
100
AcDbLine
 10
4220.952784
 20
-16765.958339
 30
0.0
 11
4220.952784
 21
-16857.988539
 31
0.0
  0
TEXT
  5
1A7
100
AcDbEntity
  8
002
  6
CONTINUOUS
 62
     7
100
AcDbText
 10
4578.417671
 20
-16785.354569
 30
0.0
 40
10.762478
  1
Date
 41
1.176471
  7
DRACAD
 72
     5
 11
4629.064627
 21
-16785.354569
 31
0.0
100
AcDbText
  0
LINE
  5
1A8
100
AcDbEntity
  8
002
  6
CONTINUOUS
 62
     7
100
AcDbLine
 10
4575.952784
 20
-16804.873439
 30
0.0
 11
4753.452784
 21
-16804.873439
 31
0.0
  0
TEXT
  5
1A9
100
AcDbEntity
  8
002
  6
CONTINUOUS
 62
     7
100
AcDbText
 10
4225.014578
 20
-16790.219631
 30
0.0
 40
10.762478
  1
Drawing Title
 41
1.176471
  7
DRACAD
 72
     5
 11
4389.617188
 21
-16790.219631
 31
0.0
100
AcDbText
  0
LINE
  5
1AA
100
AcDbEntity
  8
002
  6
CONTINUOUS
 62
     4
100
AcDbLine
 10
2717.444831
 20
-16811.973439
 30
0.0
 11
3716.852784
 21
-16811.973439
 31
0.0
  0
LINE
  5
1AB
100
AcDbEntity
  8
002
  6
CONTINUOUS
 62
     4
100
AcDbLine
 10
2716.561891
 20
-16788.965889
 30
0.0
 11
3716.852784
 21
-16788.965889
 31
0.0
  0
LINE
  5
1AC
100
AcDbEntity
  8
002
  6
CONTINUOUS
 62
     4
100
AcDbLine
 10
2716.561891
 20
-16834.980989
 30
0.0
 11
3716.852784
 21
-16834.980989
 31
0.0
  0
TEXT
  5
1AD
100
AcDbEntity
  8
002
  6
CONTINUOUS
 62
     7
100
AcDbText
 10
2722.489222
 20
-16785.717728
 30
0.0
 40
10.054993
  1
Memo
 41
1.176471
  7
DRACAD
 72
     5
 11
2769.806834
 21
-16785.717728
 31
0.0
100
AcDbText
  0
LINE
  5
1AE
100
AcDbEntity
  8
002
  6
CONTINUOUS
 62
     6
100
AcDbLine
 10
3716.852784
 20
-16765.958339
 30
0.0
 11
3716.852784
 21
-16857.988539
 31
0.0
  0
TEXT
  5
1AF
100
AcDbEntity
  8
002
  6
CONTINUOUS
 62
     7
100
AcDbText
 10
3722.879222
 20
-16785.354569
 30
0.0
 40
10.270983
  1
Project
 41
1.176471
  7
DRACAD
 72
     5
 11
3807.463785
 21
-16785.354569
 31
0.0
100
AcDbText
  0
TEXT
  5
1B0
100
AcDbEntity
  8
002
  6
CONTINUOUS
 62
     7
100
AcDbText
 10
3764.007867
 20
-16829.188429
 30
0.0
 40
19.410192
  1
SLT　CAD部品図面
 41
0.984706
  7
DRACAD
 72
     5
 11
4015.198593
 21
-16829.188429
 31
0.0
100
AcDbText
  0
TEXT
  5
1B1
100
AcDbEntity
  8
002
  6
CONTINUOUS
 62
     7
100
AcDbText
 10
4615.018561
 20
-16802.467841
 30
0.0
 40
15.497969
  1
11/2/10
 41
1.176471
  7
DRACAD
 72
     5
 11
4742.648892
 21
-16802.467841
 31
0.0
100
AcDbText
  0
TEXT
  5
1B2
100
AcDbEntity
  8
002
  6
CONTINUOUS
 62
     7
100
AcDbText
 10
4278.02055
 20
-16836.161477
 30
0.0
 40
19.811038
  1
ＲＢ-290-2F
 41
0.984706
  7
DRACAD
 72
     5
 11
4487.784476
 21
-16836.161477
 31
0.0
100
AcDbText
  0
TEXT
  5
1B3
100
AcDbEntity
  8
002
  6
CONTINUOUS
 62
     4
100
AcDbText
 10
2170.739027
 20
-16833.193928
 30
0.0
 40
18.941962
  1
ス カ イ ラ イ ト チ ュ ー ブ
 41
0.984706
  7
DRACAD
 72
     5
 11
2594.147585
 21
-16833.193928
 31
0.0
100
AcDbText
  0
INSERT
  5
1B4
100
AcDbEntity
  8
003
  6
CONTINUOUS
 62
     4
100
AcDbBlockReference
  2
3
 10
2002.202784
 20
-16859.356591
 30
0.0
 41
0.71
 42
0.71
  0
LINE
  5
1B5
100
AcDbEntity
  8
0
  6
CONTINUOUS
 62
     7
100
AcDbLine
 10
3669.424923
 20
-16230.49408
 30
0.0
 11
3669.424925
 21
-16213.83497
 31
0.0
  0
LINE
  5
1B6
100
AcDbEntity
  8
0
  6
CONTINUOUS
 62
     7
100
AcDbLine
 10
3306.560588
 20
-16213.83497
 30
0.0
 11
3306.56059
 21
-16230.49408
 31
0.0
  0
LINE
  5
1B7
100
AcDbEntity
  8
0
  6
CONTINUOUS
 62
     7
100
AcDbLine
 10
3305.850278
 20
-16213.83497
 30
0.0
 11
3305.850285
 21
-16230.49408
 31
0.0
  0
LINE
  5
1B8
100
AcDbEntity
  8
0
  6
CONTINUOUS
 62
     7
100
AcDbLine
 10
3670.135228
 20
-16230.49408
 30
0.0
 11
3670.135221
 21
-16213.83497
 31
0.0
  0
LINE
  5
1B9
100
AcDbEntity
  8
0
  6
CONTINUOUS
 62
     7
100
AcDbLine
 10
3167.373998
 20
-16360.682821
 30
0.0
 11
3166.917386
 21
-16360.682823
 31
0.0
  0
ARC
  5
1BA
100
AcDbEntity
  8
0
  6
CONTINUOUS
 62
     7
100
AcDbCircle
 10
3170.473781
 20
-16362.88984
 30
0.0
 40
3.805205
100
AcDbArc
 50
35.450543
 51
144.549457
  0
LINE
  5
1BB
100
AcDbEntity
  8
0
  6
CONTINUOUS
 62
     7
100
AcDbLine
 10
3270.23207
 20
-16360.682821
 30
0.0
 11
3173.573564
 21
-16360.682821
 31
0.0
  0
ARC
  5
1BC
100
AcDbEntity
  8
0
  6
CONTINUOUS
 62
     7
100
AcDbCircle
 10
3270.23207
 20
-16347.998805
 30
0.0
 40
12.684016
100
AcDbArc
 50
270.0
 51
349.053231
  0
LINE
  5
1BD
100
AcDbEntity
  8
0
  6
CONTINUOUS
 62
     7
100
AcDbLine
 10
3305.822589
 20
-16230.783119
 30
0.0
 11
3282.685289
 21
-16350.407461
 31
0.0
  0
ARC
  5
1BE
100
AcDbEntity
  8
0
  6
CONTINUOUS
 62
     7
100
AcDbCircle
 10
3304.328203
 20
-16230.49408
 30
0.0
 40
1.522082
100
AcDbArc
 50
349.053231
 51
360.0
  0
ARC
  5
1BF
100
AcDbEntity
  8
0
  6
CONTINUOUS
 62
     7
100
AcDbCircle
 10
3304.328203
 20
-16230.49408
 30
0.0
 40
2.232387
100
AcDbArc
 50
349.053231
 51
360.0
  0
LINE
  5
1C0
100
AcDbEntity
  8
0
  6
CONTINUOUS
 62
     7
100
AcDbLine
 10
3306.519969
 20
-16230.918003
 30
0.0
 11
3283.382669
 21
-16350.542346
 31
0.0
  0
ARC
  5
1C1
100
AcDbEntity
  8
0
  6
CONTINUOUS
 62
     7
100
AcDbCircle
 10
3270.23207
 20
-16347.998805
 30
0.0
 40
13.394321
100
AcDbArc
 50
270.0
 51
349.053231
  0
LINE
  5
1C2
100
AcDbEntity
  8
0
  6
CONTINUOUS
 62
     7
100
AcDbLine
 10
3270.23207
 20
-16361.393126
 30
0.0
 11
3173.182702
 21
-16361.393126
 31
0.0
  0
ARC
  5
1C3
100
AcDbEntity
  8
0
  6
CONTINUOUS
 62
     7
100
AcDbCircle
 10
3170.473781
 20
-16362.88984
 30
0.0
 40
3.0949
100
AcDbArc
 50
28.921218
 51
151.078782
  0
LINE
  5
1C4
100
AcDbEntity
  8
0
  6
CONTINUOUS
 62
     7
100
AcDbLine
 10
3167.76486
 20
-16361.393126
 30
0.0
 11
3166.917386
 21
-16361.393131
 31
0.0
  0
LINE
  5
1C5
100
AcDbEntity
  8
0
  6
CONTINUOUS
 62
     7
100
AcDbLine
 10
3166.917386
 20
-16361.393131
 30
0.0
 11
3166.917386
 21
-16360.682823
 31
0.0
  0
ARC
  5
1C6
100
AcDbEntity
  8
0
  6
CONTINUOUS
 62
     7
100
AcDbCircle
 10
3705.753443
 20
-16347.998805
 30
0.0
 40
13.394321
100
AcDbArc
 50
190.946769
 51
270.0
  0
ARC
  5
1C7
100
AcDbEntity
  8
0
  6
CONTINUOUS
 62
     7
100
AcDbCircle
 10
3705.753443
 20
-16347.998805
 30
0.0
 40
12.684016
100
AcDbArc
 50
190.946769
 51
270.0
  0
LINE
  5
1C8
100
AcDbEntity
  8
0
  6
CONTINUOUS
 62
     7
100
AcDbLine
 10
3693.300224
 20
-16350.407461
 30
0.0
 11
3670.162924
 21
-16230.783119
 31
0.0
  0
LINE
  5
1C9
100
AcDbEntity
  8
0
  6
CONTINUOUS
 62
     7
100
AcDbLine
 10
3692.602844
 20
-16350.542346
 30
0.0
 11
3669.465544
 21
-16230.918003
 31
0.0
  0
ARC
  5
1CA
100
AcDbEntity
  8
0
  6
CONTINUOUS
 62
     7
100
AcDbCircle
 10
3310.594107
 20
-16213.83497
 30
0.0
 40
4.033517
100
AcDbArc
 50
103.456344
 51
180.0
  0
ARC
  5
1CB
100
AcDbEntity
  8
0
  6
CONTINUOUS
 62
     7
100
AcDbCircle
 10
3310.594107
 20
-16213.83497
 30
0.0
 40
4.743822
100
AcDbArc
 50
101.411902
 51
180.0
  0
LINE
  5
1CC
100
AcDbEntity
  8
0
  6
CONTINUOUS
 62
     7
100
AcDbLine
 10
3309.65549
 20
-16209.912183
 30
0.0
 11
3309.65549
 21
-16209.184933
 31
0.0
  0
ARC
  5
1CD
100
AcDbEntity
  8
0
  6
CONTINUOUS
 62
     7
100
AcDbCircle
 10
3671.65731
 20
-16230.49408
 30
0.0
 40
1.522082
100
AcDbArc
 50
180.0
 51
190.946769
  0
ARC
  5
1CE
100
AcDbEntity
  8
0
  6
CONTINUOUS
 62
     7
100
AcDbCircle
 10
3665.391406
 20
-16213.83497
 30
0.0
 40
4.743822
100
AcDbArc
 50
0.0
 51
78.588098
  0
ARC
  5
1CF
100
AcDbEntity
  8
0
  6
CONTINUOUS
 62
     7
100
AcDbCircle
 10
3671.65731
 20
-16230.49408
 30
0.0
 40
2.232387
100
AcDbArc
 50
180.0
 51
190.946769
  0
ARC
  5
1D0
100
AcDbEntity
  8
0
  6
CONTINUOUS
 62
     7
100
AcDbCircle
 10
3665.391406
 20
-16213.83497
 30
0.0
 40
4.033517
100
AcDbArc
 50
0.0
 51
76.543656
  0
LINE
  5
1D1
100
AcDbEntity
  8
0
  6
CONTINUOUS
 62
     7
100
AcDbLine
 10
3666.330023
 20
-16209.184933
 30
0.0
 11
3666.330023
 21
-16209.912183
 31
0.0
  0
ARC
  5
1D2
100
AcDbEntity
  8
0
  6
CONTINUOUS
 62
     7
100
AcDbCircle
 10
3805.511732
 20
-16362.88984
 30
0.0
 40
3.0949
100
AcDbArc
 50
28.921218
 51
151.078782
  0
ARC
  5
1D3
100
AcDbEntity
  8
0
  6
CONTINUOUS
 62
     7
100
AcDbCircle
 10
3805.511732
 20
-16362.88984
 30
0.0
 40
3.805205
100
AcDbArc
 50
35.450543
 51
144.549457
  0
LINE
  5
1D4
100
AcDbEntity
  8
0
  6
CONTINUOUS
 62
     7
100
AcDbLine
 10
3809.068141
 20
-16360.682823
 30
0.0
 11
3809.068141
 21
-16361.393131
 31
0.0
  0
LINE
  5
1D5
100
AcDbEntity
  8
0
  6
CONTINUOUS
 62
     7
100
AcDbLine
 10
3809.068141
 20
-16360.682823
 30
0.0
 11
3808.611515
 21
-16360.682821
 31
0.0
  0
LINE
  5
1D6
100
AcDbEntity
  8
0
  6
CONTINUOUS
 62
     7
100
AcDbLine
 10
3809.068141
 20
-16361.393131
 30
0.0
 11
3808.220653
 21
-16361.393126
 31
0.0
  0
LINE
  5
1D7
100
AcDbEntity
  8
0
  6
CONTINUOUS
 62
     7
100
AcDbLine
 10
3802.411949
 20
-16360.682821
 30
0.0
 11
3705.753443
 21
-16360.682821
 31
0.0
  0
LINE
  5
1D8
100
AcDbEntity
  8
0
  6
CONTINUOUS
 62
     7
100
AcDbLine
 10
3802.802811
 20
-16361.393126
 30
0.0
 11
3705.753443
 21
-16361.393126
 31
0.0
  0
ARC
  5
1D9
100
AcDbEntity
  8
0
  6
CONTINUOUS
 62
     7
100
AcDbCircle
 10
3179.534012
 20
-15389.460832
 30
0.0
 40
21.568158
100
AcDbArc
 50
101.899543
 51
112.762661
  0
POLYLINE
  5
1DA
100
AcDbEntity
  8
0
  6
CONTINUOUS
 62
     7
100
AcDb2dPolyline
 66
     1
 10
0.0
 20
0.0
 30
0.0
 70
   128
  0
VERTEX
  5
1DB
100
AcDbEntity
  8
0
  6
CONTINUOUS
 62
     7
100
AcDbVertex
100
AcDb2dVertex
 10
3175.086736
 20
-15368.35616
 30
0.0
  0
VERTEX
  5
1DC
100
AcDbEntity
  8
0
  6
CONTINUOUS
 62
     7
100
AcDbVertex
100
AcDb2dVertex
 10
3175.392837
 20
-15368.295276
 30
0.0
  0
VERTEX
  5
1DD
100
AcDbEntity
  8
0
  6
CONTINUOUS
 62
     7
100
AcDbVertex
100
AcDb2dVertex
 10
3175.678311
 20
-15368.238485
 30
0.0
  0
VERTEX
  5
1DE
100
AcDbEntity
  8
0
  6
CONTINUOUS
 62
     7
100
AcDbVertex
100
AcDb2dVertex
 10
3175.941938
 20
-15368.186054
 30
0.0
  0
SEQEND
  5
1DF
100
AcDbEntity
  8
0
  6
CONTINUOUS
 62
     7
  0
LINE
  5
1E0
100
AcDbEntity
  8
0
  6
CONTINUOUS
 62
     7
100
AcDbLine
 10
3175.941938
 20
-15368.186054
 30
0.0
 11
3263.945257
 21
-15404.638233
 31
0.0
  0
POLYLINE
  5
1E1
100
AcDbEntity
  8
0
  6
CONTINUOUS
 62
     7
100
AcDb2dPolyline
 66
     1
 10
0.0
 20
0.0
 30
0.0
 70
   128
  0
VERTEX
  5
1E2
100
AcDbEntity
  8
0
  6
CONTINUOUS
 62
     7
100
AcDbVertex
100
AcDb2dVertex
 10
3263.945257
 20
-15404.638233
 30
0.0
  0
VERTEX
  5
1E3
100
AcDbEntity
  8
0
  6
CONTINUOUS
 62
     7
100
AcDbVertex
100
AcDb2dVertex
 10
3263.71269
 20
-15405.199717
 30
0.0
  0
VERTEX
  5
1E4
100
AcDbEntity
  8
0
  6
CONTINUOUS
 62
     7
100
AcDbVertex
100
AcDb2dVertex
 10
3263.426337
 20
-15405.891019
 30
0.0
  0
VERTEX
  5
1E5
100
AcDbEntity
  8
0
  6
CONTINUOUS
 62
     7
100
AcDbVertex
100
AcDb2dVertex
 10
3263.102362
 20
-15406.673164
 30
0.0
  0
VERTEX
  5
1E6
100
AcDbEntity
  8
0
  6
CONTINUOUS
 62
     7
100
AcDbVertex
100
AcDb2dVertex
 10
3262.759025
 20
-15407.502055
 30
0.0
  0
VERTEX
  5
1E7
100
AcDbEntity
  8
0
  6
CONTINUOUS
 62
     7
100
AcDbVertex
100
AcDb2dVertex
 10
3262.415688
 20
-15408.330931
 30
0.0
  0
VERTEX
  5
1E8
100
AcDbEntity
  8
0
  6
CONTINUOUS
 62
     7
100
AcDbVertex
100
AcDb2dVertex
 10
3262.091713
 20
-15409.113075
 30
0.0
  0
VERTEX
  5
1E9
100
AcDbEntity
  8
0
  6
CONTINUOUS
 62
     7
100
AcDbVertex
100
AcDb2dVertex
 10
3261.80536
 20
-15409.804393
 30
0.0
  0
VERTEX
  5
1EA
100
AcDbEntity
  8
0
  6
CONTINUOUS
 62
     7
100
AcDbVertex
100
AcDb2dVertex
 10
3261.572793
 20
-15410.365877
 30
0.0
  0
SEQEND
  5
1EB
100
AcDbEntity
  8
0
  6
CONTINUOUS
 62
     7
  0
LINE
  5
1EC
100
AcDbEntity
  8
0
  6
CONTINUOUS
 62
     7
100
AcDbLine
 10
3173.569444
 20
-15373.913698
 30
0.0
 11
3261.572793
 21
-15410.365877
 31
0.0
  0
POLYLINE
  5
1ED
100
AcDbEntity
  8
0
  6
CONTINUOUS
 62
     7
100
AcDb2dPolyline
 66
     1
 10
0.0
 20
0.0
 30
0.0
 70
   128
  0
VERTEX
  5
1EE
100
AcDbEntity
  8
0
  6
CONTINUOUS
 62
     7
100
AcDbVertex
100
AcDb2dVertex
 10
3173.085022
 20
-15373.188701
 30
0.0
  0
VERTEX
  5
1EF
100
AcDbEntity
  8
0
  6
CONTINUOUS
 62
     7
100
AcDbVertex
100
AcDb2dVertex
 10
3173.258432
 20
-15373.448206
 30
0.0
  0
VERTEX
  5
1F0
100
AcDbEntity
  8
0
  6
CONTINUOUS
 62
     7
100
AcDbVertex
100
AcDb2dVertex
 10
3173.420114
 20
-15373.690208
 30
0.0
  0
VERTEX
  5
1F1
100
AcDbEntity
  8
0
  6
CONTINUOUS
 62
     7
100
AcDbVertex
100
AcDb2dVertex
 10
3173.569444
 20
-15373.913698
 30
0.0
  0
SEQEND
  5
1F2
100
AcDbEntity
  8
0
  6
CONTINUOUS
 62
     7
  0
ARC
  5
1F3
100
AcDbEntity
  8
0
  6
CONTINUOUS
 62
     7
100
AcDbCircle
 10
3191.858603
 20
-15361.04016
 30
0.0
 40
22.361449
100
AcDbArc
 50
202.430638
 51
212.907244
  0
LINE
  5
1F4
100
AcDbEntity
  8
0
  6
CONTINUOUS
 62
     7
100
AcDbLine
 10
3173.085022
 20
-15373.188701
 30
0.0
 11
3167.36988
 21
-15373.188701
 31
0.0
  0
ARC
  5
1F5
100
AcDbEntity
  8
0
  6
CONTINUOUS
 62
     7
100
AcDbCircle
 10
3179.919387
 20
-15373.18875
 30
0.0
 40
12.549507
100
AcDbArc
 50
135.000248
 51
180.0
  0
POLYLINE
  5
1F6
100
AcDbEntity
  8
0
  6
CONTINUOUS
 62
     7
100
AcDb2dPolyline
 66
     1
 10
0.0
 20
0.0
 30
0.0
 70
   128
  0
VERTEX
  5
1F7
100
AcDbEntity
  8
0
  6
CONTINUOUS
 62
     7
100
AcDbVertex
100
AcDb2dVertex
 10
3175.086736
 20
-15368.35616
 30
0.0
  0
VERTEX
  5
1F8
100
AcDbEntity
  8
0
  6
CONTINUOUS
 62
     7
100
AcDbVertex
100
AcDb2dVertex
 10
3174.630114
 20
-15367.899538
 30
0.0
  0
VERTEX
  5
1F9
100
AcDbEntity
  8
0
  6
CONTINUOUS
 62
     7
100
AcDbVertex
100
AcDb2dVertex
 10
3174.110093
 20
-15367.379532
 30
0.0
  0
VERTEX
  5
1FA
100
AcDbEntity
  8
0
  6
CONTINUOUS
 62
     7
100
AcDbVertex
100
AcDb2dVertex
 10
3173.550395
 20
-15366.81982
 30
0.0
  0
VERTEX
  5
1FB
100
AcDbEntity
  8
0
  6
CONTINUOUS
 62
     7
100
AcDbVertex
100
AcDb2dVertex
 10
3172.97641
 20
-15366.24585
 30
0.0
  0
VERTEX
  5
1FC
100
AcDbEntity
  8
0
  6
CONTINUOUS
 62
     7
100
AcDbVertex
100
AcDb2dVertex
 10
3172.414332
 20
-15365.683771
 30
0.0
  0
VERTEX
  5
1FD
100
AcDbEntity
  8
0
  6
CONTINUOUS
 62
     7
100
AcDbVertex
100
AcDb2dVertex
 10
3171.889697
 20
-15365.159137
 30
0.0
  0
VERTEX
  5
1FE
100
AcDbEntity
  8
0
  6
CONTINUOUS
 62
     7
100
AcDbVertex
100
AcDb2dVertex
 10
3171.426408
 20
-15364.695847
 30
0.0
  0
VERTEX
  5
1FF
100
AcDbEntity
  8
0
  6
CONTINUOUS
 62
     7
100
AcDbVertex
100
AcDb2dVertex
 10
3171.045507
 20
-15364.314947
 30
0.0
  0
SEQEND
  5
200
100
AcDbEntity
  8
0
  6
CONTINUOUS
 62
     7
  0
ARC
  5
201
100
AcDbEntity
  8
0
  6
CONTINUOUS
 62
     7
100
AcDbCircle
 10
3784.286813
 20
-15640.462121
 30
0.0
 40
22.172409
100
AcDbArc
 50
22.38585
 51
32.952032
  0
ARC
  5
202
100
AcDbEntity
  8
0
  6
CONTINUOUS
 62
     7
100
AcDbCircle
 10
3796.443061
 20
-15612.129026
 30
0.0
 40
21.568772
100
AcDbArc
 50
281.899861
 51
292.762592
  0
POLYLINE
  5
203
100
AcDbEntity
  8
0
  6
CONTINUOUS
 62
     7
100
AcDb2dPolyline
 66
     1
 10
0.0
 20
0.0
 30
0.0
 70
   128
  0
VERTEX
  5
204
100
AcDbEntity
  8
0
  6
CONTINUOUS
 62
     7
100
AcDbVertex
100
AcDb2dVertex
 10
3800.89058
 20
-15633.234274
 30
0.0
  0
VERTEX
  5
205
100
AcDbEntity
  8
0
  6
CONTINUOUS
 62
     7
100
AcDbVertex
100
AcDb2dVertex
 10
3800.584479
 20
-15633.295158
 30
0.0
  0
VERTEX
  5
206
100
AcDbEntity
  8
0
  6
CONTINUOUS
 62
     7
100
AcDbVertex
100
AcDb2dVertex
 10
3800.299005
 20
-15633.351942
 30
0.0
  0
VERTEX
  5
207
100
AcDbEntity
  8
0
  6
CONTINUOUS
 62
     7
100
AcDbVertex
100
AcDb2dVertex
 10
3800.035378
 20
-15633.40438
 30
0.0
  0
SEQEND
  5
208
100
AcDbEntity
  8
0
  6
CONTINUOUS
 62
     7
  0
LINE
  5
209
100
AcDbEntity
  8
0
  6
CONTINUOUS
 62
     7
100
AcDbLine
 10
3800.035378
 20
-15633.40438
 30
0.0
 11
3712.032044
 21
-15596.952209
 31
0.0
  0
POLYLINE
  5
20A
100
AcDbEntity
  8
0
  6
CONTINUOUS
 62
     7
100
AcDb2dPolyline
 66
     1
 10
0.0
 20
0.0
 30
0.0
 70
   128
  0
VERTEX
  5
20B
100
AcDbEntity
  8
0
  6
CONTINUOUS
 62
     7
100
AcDbVertex
100
AcDb2dVertex
 10
3712.032044
 20
-15596.952209
 30
0.0
  0
VERTEX
  5
20C
100
AcDbEntity
  8
0
  6
CONTINUOUS
 62
     7
100
AcDbVertex
100
AcDb2dVertex
 10
3712.264612
 20
-15596.390718
 30
0.0
  0
VERTEX
  5
20D
100
AcDbEntity
  8
0
  6
CONTINUOUS
 62
     7
100
AcDbVertex
100
AcDb2dVertex
 10
3712.550964
 20
-15595.699411
 30
0.0
  0
VERTEX
  5
20E
100
AcDbEntity
  8
0
  6
CONTINUOUS
 62
     7
100
AcDbVertex
100
AcDb2dVertex
 10
3712.874939
 20
-15594.917267
 30
0.0
  0
VERTEX
  5
20F
100
AcDbEntity
  8
0
  6
CONTINUOUS
 62
     7
100
AcDbVertex
100
AcDb2dVertex
 10
3713.218276
 20
-15594.088383
 30
0.0
  0
VERTEX
  5
210
100
AcDbEntity
  8
0
  6
CONTINUOUS
 62
     7
100
AcDbVertex
100
AcDb2dVertex
 10
3713.561613
 20
-15593.2595
 30
0.0
  0
VERTEX
  5
211
100
AcDbEntity
  8
0
  6
CONTINUOUS
 62
     7
100
AcDbVertex
100
AcDb2dVertex
 10
3713.885588
 20
-15592.477355
 30
0.0
  0
VERTEX
  5
212
100
AcDbEntity
  8
0
  6
CONTINUOUS
 62
     7
100
AcDbVertex
100
AcDb2dVertex
 10
3714.171941
 20
-15591.786047
 30
0.0
  0
VERTEX
  5
213
100
AcDbEntity
  8
0
  6
CONTINUOUS
 62
     7
100
AcDbVertex
100
AcDb2dVertex
 10
3714.404508
 20
-15591.224558
 30
0.0
  0
SEQEND
  5
214
100
AcDbEntity
  8
0
  6
CONTINUOUS
 62
     7
  0
LINE
  5
215
100
AcDbEntity
  8
0
  6
CONTINUOUS
 62
     7
100
AcDbLine
 10
3802.407842
 20
-15627.67673
 30
0.0
 11
3714.404508
 21
-15591.224558
 31
0.0
  0
POLYLINE
  5
216
100
AcDbEntity
  8
0
  6
CONTINUOUS
 62
     7
100
AcDb2dPolyline
 66
     1
 10
0.0
 20
0.0
 30
0.0
 70
   128
  0
VERTEX
  5
217
100
AcDbEntity
  8
0
  6
CONTINUOUS
 62
     7
100
AcDbVertex
100
AcDb2dVertex
 10
3802.407842
 20
-15627.67673
 30
0.0
  0
VERTEX
  5
218
100
AcDbEntity
  8
0
  6
CONTINUOUS
 62
     7
100
AcDbVertex
100
AcDb2dVertex
 10
3802.557172
 20
-15627.900226
 30
0.0
  0
VERTEX
  5
219
100
AcDbEntity
  8
0
  6
CONTINUOUS
 62
     7
100
AcDbVertex
100
AcDb2dVertex
 10
3802.718884
 20
-15628.142229
 30
0.0
  0
VERTEX
  5
21A
100
AcDbEntity
  8
0
  6
CONTINUOUS
 62
     7
100
AcDbVertex
100
AcDb2dVertex
 10
3802.892264
 20
-15628.401734
 30
0.0
  0
SEQEND
  5
21B
100
AcDbEntity
  8
0
  6
CONTINUOUS
 62
     7
  0
LINE
  5
21C
100
AcDbEntity
  8
0
  6
CONTINUOUS
 62
     7
100
AcDbLine
 10
3802.892264
 20
-15628.401734
 30
0.0
 11
3808.607406
 21
-15628.401734
 31
0.0
  0
ARC
  5
21D
100
AcDbEntity
  8
0
  6
CONTINUOUS
 62
     7
100
AcDbCircle
 10
3796.057968
 20
-15628.401706
 30
0.0
 40
12.549438
100
AcDbArc
 50
315.000118
 51
360.0
  0
POLYLINE
  5
21E
100
AcDbEntity
  8
0
  6
CONTINUOUS
 62
     7
100
AcDb2dPolyline
 66
     1
 10
0.0
 20
0.0
 30
0.0
 70
   128
  0
VERTEX
  5
21F
100
AcDbEntity
  8
0
  6
CONTINUOUS
 62
     7
100
AcDbVertex
100
AcDb2dVertex
 10
3800.89058
 20
-15633.234274
 30
0.0
  0
VERTEX
  5
220
100
AcDbEntity
  8
0
  6
CONTINUOUS
 62
     7
100
AcDbVertex
100
AcDb2dVertex
 10
3801.347202
 20
-15633.690896
 30
0.0
  0
VERTEX
  5
221
100
AcDbEntity
  8
0
  6
CONTINUOUS
 62
     7
100
AcDbVertex
100
AcDb2dVertex
 10
3801.867194
 20
-15634.210902
 30
0.0
  0
VERTEX
  5
222
100
AcDbEntity
  8
0
  6
CONTINUOUS
 62
     7
100
AcDbVertex
100
AcDb2dVertex
 10
3802.426921
 20
-15634.770622
 30
0.0
  0
VERTEX
  5
223
100
AcDbEntity
  8
0
  6
CONTINUOUS
 62
     7
100
AcDbVertex
100
AcDb2dVertex
 10
3803.000876
 20
-15635.344577
 30
0.0
  0
VERTEX
  5
224
100
AcDbEntity
  8
0
  6
CONTINUOUS
 62
     7
100
AcDbVertex
100
AcDb2dVertex
 10
3803.562955
 20
-15635.906663
 30
0.0
  0
VERTEX
  5
225
100
AcDbEntity
  8
0
  6
CONTINUOUS
 62
     7
100
AcDbVertex
100
AcDb2dVertex
 10
3804.087589
 20
-15636.431298
 30
0.0
  0
VERTEX
  5
226
100
AcDbEntity
  8
0
  6
CONTINUOUS
 62
     7
100
AcDbVertex
100
AcDb2dVertex
 10
3804.550908
 20
-15636.894595
 30
0.0
  0
VERTEX
  5
227
100
AcDbEntity
  8
0
  6
CONTINUOUS
 62
     7
100
AcDbVertex
100
AcDb2dVertex
 10
3804.931779
 20
-15637.27548
 30
0.0
  0
SEQEND
  5
228
100
AcDbEntity
  8
0
  6
CONTINUOUS
 62
     7
  0
LINE
  5
229
100
AcDbEntity
  8
0
  6
CONTINUOUS
 62
     7
100
AcDbLine
 10
3615.595163
 20
-15185.891585
 30
0.0
 11
3615.595163
 21
-15180.176473
 31
0.0
  0
ARC
  5
22A
100
AcDbEntity
  8
0
  6
CONTINUOUS
 62
     7
100
AcDbCircle
 10
3615.595281
 20
-15192.725577
 30
0.0
 40
12.549104
100
AcDbArc
 50
44.999486
 51
90.000538
  0
POLYLINE
  5
22B
100
AcDbEntity
  8
0
  6
CONTINUOUS
 62
     7
100
AcDb2dPolyline
 66
     1
 10
0.0
 20
0.0
 30
0.0
 70
   128
  0
VERTEX
  5
22C
100
AcDbEntity
  8
0
  6
CONTINUOUS
 62
     7
100
AcDbVertex
100
AcDb2dVertex
 10
3620.427704
 20
-15187.893299
 30
0.0
  0
VERTEX
  5
22D
100
AcDbEntity
  8
0
  6
CONTINUOUS
 62
     7
100
AcDbVertex
100
AcDb2dVertex
 10
3620.884326
 20
-15187.436677
 30
0.0
  0
VERTEX
  5
22E
100
AcDbEntity
  8
0
  6
CONTINUOUS
 62
     7
100
AcDbVertex
100
AcDb2dVertex
 10
3621.404332
 20
-15186.916656
 30
0.0
  0
VERTEX
  5
22F
100
AcDbEntity
  8
0
  6
CONTINUOUS
 62
     7
100
AcDbVertex
100
AcDb2dVertex
 10
3621.964059
 20
-15186.356958
 30
0.0
  0
VERTEX
  5
230
100
AcDbEntity
  8
0
  6
CONTINUOUS
 62
     7
100
AcDbVertex
100
AcDb2dVertex
 10
3622.538014
 20
-15185.782973
 30
0.0
  0
VERTEX
  5
231
100
AcDbEntity
  8
0
  6
CONTINUOUS
 62
     7
100
AcDbVertex
100
AcDb2dVertex
 10
3623.100093
 20
-15185.220895
 30
0.0
  0
VERTEX
  5
232
100
AcDbEntity
  8
0
  6
CONTINUOUS
 62
     7
100
AcDbVertex
100
AcDb2dVertex
 10
3623.624728
 20
-15184.69626
 30
0.0
  0
VERTEX
  5
233
100
AcDbEntity
  8
0
  6
CONTINUOUS
 62
     7
100
AcDbVertex
100
AcDb2dVertex
 10
3624.088032
 20
-15184.232971
 30
0.0
  0
VERTEX
  5
234
100
AcDbEntity
  8
0
  6
CONTINUOUS
 62
     7
100
AcDbVertex
100
AcDb2dVertex
 10
3624.468917
 20
-15183.8521
 30
0.0
  0
SEQEND
  5
235
100
AcDbEntity
  8
0
  6
CONTINUOUS
 62
     7
  0
ARC
  5
236
100
AcDbEntity
  8
0
  6
CONTINUOUS
 62
     7
100
AcDbCircle
 10
3599.323032
 20
-15192.340575
 30
0.0
 40
21.568158
100
AcDbArc
 50
11.899543
 51
22.762661
  0
ARC
  5
237
100
AcDbEntity
  8
0
  6
CONTINUOUS
 62
     7
100
AcDbCircle
 10
3627.669143
 20
-15204.52296
 30
0.0
 40
22.201557
100
AcDbArc
 50
112.392806
 51
122.945076
  0
POLYLINE
  5
238
100
AcDbEntity
  8
0
  6
CONTINUOUS
 62
     7
100
AcDb2dPolyline
 66
     1
 10
0.0
 20
0.0
 30
0.0
 70
   128
  0
VERTEX
  5
239
100
AcDbEntity
  8
0
  6
CONTINUOUS
 62
     7
100
AcDbVertex
100
AcDb2dVertex
 10
3620.427704
 20
-15187.893299
 30
0.0
  0
VERTEX
  5
23A
100
AcDbEntity
  8
0
  6
CONTINUOUS
 62
     7
100
AcDbVertex
100
AcDb2dVertex
 10
3620.488588
 20
-15188.1994
 30
0.0
  0
VERTEX
  5
23B
100
AcDbEntity
  8
0
  6
CONTINUOUS
 62
     7
100
AcDbVertex
100
AcDb2dVertex
 10
3620.545379
 20
-15188.484874
 30
0.0
  0
VERTEX
  5
23C
100
AcDbEntity
  8
0
  6
CONTINUOUS
 62
     7
100
AcDbVertex
100
AcDb2dVertex
 10
3620.59781
 20
-15188.748501
 30
0.0
  0
SEQEND
  5
23D
100
AcDbEntity
  8
0
  6
CONTINUOUS
 62
     7
  0
LINE
  5
23E
100
AcDbEntity
  8
0
  6
CONTINUOUS
 62
     7
100
AcDbLine
 10
3620.59781
 20
-15188.748501
 30
0.0
 11
3584.145638
 21
-15276.751835
 31
0.0
  0
POLYLINE
  5
23F
100
AcDbEntity
  8
0
  6
CONTINUOUS
 62
     7
100
AcDb2dPolyline
 66
     1
 10
0.0
 20
0.0
 30
0.0
 70
   128
  0
VERTEX
  5
240
100
AcDbEntity
  8
0
  6
CONTINUOUS
 62
     7
100
AcDbVertex
100
AcDb2dVertex
 10
3584.145638
 20
-15276.751835
 30
0.0
  0
VERTEX
  5
241
100
AcDbEntity
  8
0
  6
CONTINUOUS
 62
     7
100
AcDbVertex
100
AcDb2dVertex
 10
3583.584155
 20
-15276.519253
 30
0.0
  0
VERTEX
  5
242
100
AcDbEntity
  8
0
  6
CONTINUOUS
 62
     7
100
AcDbVertex
100
AcDb2dVertex
 10
3582.892845
 20
-15276.232915
 30
0.0
  0
VERTEX
  5
243
100
AcDbEntity
  8
0
  6
CONTINUOUS
 62
     7
100
AcDbVertex
100
AcDb2dVertex
 10
3582.1107
 20
-15275.908925
 30
0.0
  0
VERTEX
  5
244
100
AcDbEntity
  8
0
  6
CONTINUOUS
 62
     7
100
AcDbVertex
100
AcDb2dVertex
 10
3581.281817
 20
-15275.565588
 30
0.0
  0
VERTEX
  5
245
100
AcDbEntity
  8
0
  6
CONTINUOUS
 62
     7
100
AcDbVertex
100
AcDb2dVertex
 10
3580.452934
 20
-15275.222251
 30
0.0
  0
VERTEX
  5
246
100
AcDbEntity
  8
0
  6
CONTINUOUS
 62
     7
100
AcDbVertex
100
AcDb2dVertex
 10
3579.670789
 20
-15274.898291
 30
0.0
  0
VERTEX
  5
247
100
AcDbEntity
  8
0
  6
CONTINUOUS
 62
     7
100
AcDbVertex
100
AcDb2dVertex
 10
3578.979479
 20
-15274.611923
 30
0.0
  0
VERTEX
  5
248
100
AcDbEntity
  8
0
  6
CONTINUOUS
 62
     7
100
AcDbVertex
100
AcDb2dVertex
 10
3578.417988
 20
-15274.379371
 30
0.0
  0
SEQEND
  5
249
100
AcDbEntity
  8
0
  6
CONTINUOUS
 62
     7
  0
LINE
  5
24A
100
AcDbEntity
  8
0
  6
CONTINUOUS
 62
     7
100
AcDbLine
 10
3614.870167
 20
-15186.376037
 30
0.0
 11
3578.417988
 21
-15274.379371
 31
0.0
  0
POLYLINE
  5
24B
100
AcDbEntity
  8
0
  6
CONTINUOUS
 62
     7
100
AcDb2dPolyline
 66
     1
 10
0.0
 20
0.0
 30
0.0
 70
   128
  0
VERTEX
  5
24C
100
AcDbEntity
  8
0
  6
CONTINUOUS
 62
     7
100
AcDbVertex
100
AcDb2dVertex
 10
3614.870167
 20
-15186.376037
 30
0.0
  0
VERTEX
  5
24D
100
AcDbEntity
  8
0
  6
CONTINUOUS
 62
     7
100
AcDbVertex
100
AcDb2dVertex
 10
3615.093656
 20
-15186.226677
 30
0.0
  0
VERTEX
  5
24E
100
AcDbEntity
  8
0
  6
CONTINUOUS
 62
     7
100
AcDbVertex
100
AcDb2dVertex
 10
3615.335659
 20
-15186.064995
 30
0.0
  0
VERTEX
  5
24F
100
AcDbEntity
  8
0
  6
CONTINUOUS
 62
     7
100
AcDbVertex
100
AcDb2dVertex
 10
3615.595163
 20
-15185.891585
 30
0.0
  0
SEQEND
  5
250
100
AcDbEntity
  8
0
  6
CONTINUOUS
 62
     7
  0
LINE
  5
251
100
AcDbEntity
  8
0
  6
CONTINUOUS
 62
     7
100
AcDbLine
 10
3355.379491
 20
-15812.841941
 30
0.0
 11
3391.831663
 21
-15724.838607
 31
0.0
  0
POLYLINE
  5
252
100
AcDbEntity
  8
0
  6
CONTINUOUS
 62
     7
100
AcDb2dPolyline
 66
     1
 10
0.0
 20
0.0
 30
0.0
 70
   128
  0
VERTEX
  5
253
100
AcDbEntity
  8
0
  6
CONTINUOUS
 62
     7
100
AcDbVertex
100
AcDb2dVertex
 10
3391.831663
 20
-15724.838607
 30
0.0
  0
VERTEX
  5
254
100
AcDbEntity
  8
0
  6
CONTINUOUS
 62
     7
100
AcDbVertex
100
AcDb2dVertex
 10
3392.393146
 20
-15725.071189
 30
0.0
  0
VERTEX
  5
255
100
AcDbEntity
  8
0
  6
CONTINUOUS
 62
     7
100
AcDbVertex
100
AcDb2dVertex
 10
3393.084456
 20
-15725.357527
 30
0.0
  0
VERTEX
  5
256
100
AcDbEntity
  8
0
  6
CONTINUOUS
 62
     7
100
AcDbVertex
100
AcDb2dVertex
 10
3393.866601
 20
-15725.681502
 30
0.0
  0
VERTEX
  5
257
100
AcDbEntity
  8
0
  6
CONTINUOUS
 62
     7
100
AcDbVertex
100
AcDb2dVertex
 10
3394.695484
 20
-15726.024839
 30
0.0
  0
VERTEX
  5
258
100
AcDbEntity
  8
0
  6
CONTINUOUS
 62
     7
100
AcDbVertex
100
AcDb2dVertex
 10
3395.524368
 20
-15726.368176
 30
0.0
  0
VERTEX
  5
259
100
AcDbEntity
  8
0
  6
CONTINUOUS
 62
     7
100
AcDbVertex
100
AcDb2dVertex
 10
3396.306512
 20
-15726.692151
 30
0.0
  0
VERTEX
  5
25A
100
AcDbEntity
  8
0
  6
CONTINUOUS
 62
     7
100
AcDbVertex
100
AcDb2dVertex
 10
3396.997823
 20
-15726.978504
 30
0.0
  0
VERTEX
  5
25B
100
AcDbEntity
  8
0
  6
CONTINUOUS
 62
     7
100
AcDbVertex
100
AcDb2dVertex
 10
3397.559313
 20
-15727.211071
 30
0.0
  0
SEQEND
  5
25C
100
AcDbEntity
  8
0
  6
CONTINUOUS
 62
     7
  0
LINE
  5
25D
100
AcDbEntity
  8
0
  6
CONTINUOUS
 62
     7
100
AcDbLine
 10
3361.107135
 20
-15815.214405
 30
0.0
 11
3397.559313
 21
-15727.211071
 31
0.0
  0
POLYLINE
  5
25E
100
AcDbEntity
  8
0
  6
CONTINUOUS
 62
     7
100
AcDb2dPolyline
 66
     1
 10
0.0
 20
0.0
 30
0.0
 70
   128
  0
VERTEX
  5
25F
100
AcDbEntity
  8
0
  6
CONTINUOUS
 62
     7
100
AcDbVertex
100
AcDb2dVertex
 10
3361.107135
 20
-15815.214405
 30
0.0
  0
VERTEX
  5
260
100
AcDbEntity
  8
0
  6
CONTINUOUS
 62
     7
100
AcDbVertex
100
AcDb2dVertex
 10
3360.883645
 20
-15815.363735
 30
0.0
  0
VERTEX
  5
261
100
AcDbEntity
  8
0
  6
CONTINUOUS
 62
     7
100
AcDbVertex
100
AcDb2dVertex
 10
3360.641643
 20
-15815.525447
 30
0.0
  0
VERTEX
  5
262
100
AcDbEntity
  8
0
  6
CONTINUOUS
 62
     7
100
AcDbVertex
100
AcDb2dVertex
 10
3360.382138
 20
-15815.698857
 30
0.0
  0
SEQEND
  5
263
100
AcDbEntity
  8
0
  6
CONTINUOUS
 62
     7
  0
ARC
  5
264
100
AcDbEntity
  8
0
  6
CONTINUOUS
 62
     7
100
AcDbCircle
 10
3348.437767
 20
-15797.314358
 30
0.0
 40
21.92391
100
AcDbArc
 50
292.325443
 51
303.011699
  0
ARC
  5
265
100
AcDbEntity
  8
0
  6
CONTINUOUS
 62
     7
100
AcDbCircle
 10
3376.544589
 20
-15809.284031
 30
0.0
 40
21.453793
100
AcDbArc
 50
191.870664
 51
202.791789
  0
POLYLINE
  5
266
100
AcDbEntity
  8
0
  6
CONTINUOUS
 62
     7
100
AcDb2dPolyline
 66
     1
 10
0.0
 20
0.0
 30
0.0
 70
   128
  0
VERTEX
  5
267
100
AcDbEntity
  8
0
  6
CONTINUOUS
 62
     7
100
AcDbVertex
100
AcDb2dVertex
 10
3355.549597
 20
-15813.697143
 30
0.0
  0
VERTEX
  5
268
100
AcDbEntity
  8
0
  6
CONTINUOUS
 62
     7
100
AcDbVertex
100
AcDb2dVertex
 10
3355.488713
 20
-15813.391042
 30
0.0
  0
VERTEX
  5
269
100
AcDbEntity
  8
0
  6
CONTINUOUS
 62
     7
100
AcDbVertex
100
AcDb2dVertex
 10
3355.431922
 20
-15813.105568
 30
0.0
  0
VERTEX
  5
26A
100
AcDbEntity
  8
0
  6
CONTINUOUS
 62
     7
100
AcDbVertex
100
AcDb2dVertex
 10
3355.379491
 20
-15812.841941
 30
0.0
  0
SEQEND
  5
26B
100
AcDbEntity
  8
0
  6
CONTINUOUS
 62
     7
  0
LINE
  5
26C
100
AcDbEntity
  8
0
  6
CONTINUOUS
 62
     7
100
AcDbLine
 10
3360.382138
 20
-15815.698857
 30
0.0
 11
3360.382138
 21
-15821.413969
 31
0.0
  0
ARC
  5
26D
100
AcDbEntity
  8
0
  6
CONTINUOUS
 62
     7
100
AcDbCircle
 10
3360.382158
 20
-15808.864531
 30
0.0
 40
12.549438
100
AcDbArc
 50
225.000118
 51
269.999907
  0
POLYLINE
  5
26E
100
AcDbEntity
  8
0
  6
CONTINUOUS
 62
     7
100
AcDb2dPolyline
 66
     1
 10
0.0
 20
0.0
 30
0.0
 70
   128
  0
VERTEX
  5
26F
100
AcDbEntity
  8
0
  6
CONTINUOUS
 62
     7
100
AcDbVertex
100
AcDb2dVertex
 10
3355.549597
 20
-15813.697143
 30
0.0
  0
VERTEX
  5
270
100
AcDbEntity
  8
0
  6
CONTINUOUS
 62
     7
100
AcDbVertex
100
AcDb2dVertex
 10
3355.092975
 20
-15814.153765
 30
0.0
  0
VERTEX
  5
271
100
AcDbEntity
  8
0
  6
CONTINUOUS
 62
     7
100
AcDbVertex
100
AcDb2dVertex
 10
3354.572969
 20
-15814.673757
 30
0.0
  0
VERTEX
  5
272
100
AcDbEntity
  8
0
  6
CONTINUOUS
 62
     7
100
AcDbVertex
100
AcDb2dVertex
 10
3354.013242
 20
-15815.233484
 30
0.0
  0
VERTEX
  5
273
100
AcDbEntity
  8
0
  6
CONTINUOUS
 62
     7
100
AcDbVertex
100
AcDb2dVertex
 10
3353.439287
 20
-15815.807439
 30
0.0
  0
VERTEX
  5
274
100
AcDbEntity
  8
0
  6
CONTINUOUS
 62
     7
100
AcDbVertex
100
AcDb2dVertex
 10
3352.877208
 20
-15816.369518
 30
0.0
  0
VERTEX
  5
275
100
AcDbEntity
  8
0
  6
CONTINUOUS
 62
     7
100
AcDbVertex
100
AcDb2dVertex
 10
3352.352574
 20
-15816.894152
 30
0.0
  0
VERTEX
  5
276
100
AcDbEntity
  8
0
  6
CONTINUOUS
 62
     7
100
AcDbVertex
100
AcDb2dVertex
 10
3351.889269
 20
-15817.357471
 30
0.0
  0
VERTEX
  5
277
100
AcDbEntity
  8
0
  6
CONTINUOUS
 62
     7
100
AcDbVertex
100
AcDb2dVertex
 10
3351.508384
 20
-15817.738342
 30
0.0
  0
SEQEND
  5
278
100
AcDbEntity
  8
0
  6
CONTINUOUS
 62
     7
  0
ARC
  5
279
100
AcDbEntity
  8
0
  6
CONTINUOUS
 62
     7
100
AcDbCircle
 10
3627.300228
 20
-15797.770777
 30
0.0
 40
21.410852
100
AcDbArc
 50
236.859881
 51
247.802977
  0
POLYLINE
  5
27A
100
AcDbEntity
  8
0
  6
CONTINUOUS
 62
     7
100
AcDb2dPolyline
 66
     1
 10
0.0
 20
0.0
 30
0.0
 70
   128
  0
VERTEX
  5
27B
100
AcDbEntity
  8
0
  6
CONTINUOUS
 62
     7
100
AcDbVertex
100
AcDb2dVertex
 10
3615.595163
 20
-15815.698857
 30
0.0
  0
VERTEX
  5
27C
100
AcDbEntity
  8
0
  6
CONTINUOUS
 62
     7
100
AcDbVertex
100
AcDb2dVertex
 10
3615.335659
 20
-15815.525447
 30
0.0
  0
VERTEX
  5
27D
100
AcDbEntity
  8
0
  6
CONTINUOUS
 62
     7
100
AcDbVertex
100
AcDb2dVertex
 10
3615.093656
 20
-15815.363735
 30
0.0
  0
VERTEX
  5
27E
100
AcDbEntity
  8
0
  6
CONTINUOUS
 62
     7
100
AcDbVertex
100
AcDb2dVertex
 10
3614.870167
 20
-15815.214405
 30
0.0
  0
SEQEND
  5
27F
100
AcDbEntity
  8
0
  6
CONTINUOUS
 62
     7
  0
LINE
  5
280
100
AcDbEntity
  8
0
  6
CONTINUOUS
 62
     7
100
AcDbLine
 10
3614.870167
 20
-15815.214405
 30
0.0
 11
3578.417988
 21
-15727.211071
 31
0.0
  0
POLYLINE
  5
281
100
AcDbEntity
  8
0
  6
CONTINUOUS
 62
     7
100
AcDb2dPolyline
 66
     1
 10
0.0
 20
0.0
 30
0.0
 70
   128
  0
VERTEX
  5
282
100
AcDbEntity
  8
0
  6
CONTINUOUS
 62
     7
100
AcDbVertex
100
AcDb2dVertex
 10
3578.417988
 20
-15727.211071
 30
0.0
  0
VERTEX
  5
283
100
AcDbEntity
  8
0
  6
CONTINUOUS
 62
     7
100
AcDbVertex
100
AcDb2dVertex
 10
3578.979479
 20
-15726.978504
 30
0.0
  0
VERTEX
  5
284
100
AcDbEntity
  8
0
  6
CONTINUOUS
 62
     7
100
AcDbVertex
100
AcDb2dVertex
 10
3579.670789
 20
-15726.692151
 30
0.0
  0
VERTEX
  5
285
100
AcDbEntity
  8
0
  6
CONTINUOUS
 62
     7
100
AcDbVertex
100
AcDb2dVertex
 10
3580.452934
 20
-15726.368176
 30
0.0
  0
VERTEX
  5
286
100
AcDbEntity
  8
0
  6
CONTINUOUS
 62
     7
100
AcDbVertex
100
AcDb2dVertex
 10
3581.281817
 20
-15726.024839
 30
0.0
  0
VERTEX
  5
287
100
AcDbEntity
  8
0
  6
CONTINUOUS
 62
     7
100
AcDbVertex
100
AcDb2dVertex
 10
3582.1107
 20
-15725.681502
 30
0.0
  0
VERTEX
  5
288
100
AcDbEntity
  8
0
  6
CONTINUOUS
 62
     7
100
AcDbVertex
100
AcDb2dVertex
 10
3582.892845
 20
-15725.357527
 30
0.0
  0
VERTEX
  5
289
100
AcDbEntity
  8
0
  6
CONTINUOUS
 62
     7
100
AcDbVertex
100
AcDb2dVertex
 10
3583.584155
 20
-15725.071189
 30
0.0
  0
VERTEX
  5
28A
100
AcDbEntity
  8
0
  6
CONTINUOUS
 62
     7
100
AcDbVertex
100
AcDb2dVertex
 10
3584.145638
 20
-15724.838607
 30
0.0
  0
SEQEND
  5
28B
100
AcDbEntity
  8
0
  6
CONTINUOUS
 62
     7
  0
LINE
  5
28C
100
AcDbEntity
  8
0
  6
CONTINUOUS
 62
     7
100
AcDbLine
 10
3620.59781
 20
-15812.841941
 30
0.0
 11
3584.145638
 21
-15724.838607
 31
0.0
  0
POLYLINE
  5
28D
100
AcDbEntity
  8
0
  6
CONTINUOUS
 62
     7
100
AcDb2dPolyline
 66
     1
 10
0.0
 20
0.0
 30
0.0
 70
   128
  0
VERTEX
  5
28E
100
AcDbEntity
  8
0
  6
CONTINUOUS
 62
     7
100
AcDbVertex
100
AcDb2dVertex
 10
3620.59781
 20
-15812.841941
 30
0.0
  0
VERTEX
  5
28F
100
AcDbEntity
  8
0
  6
CONTINUOUS
 62
     7
100
AcDbVertex
100
AcDb2dVertex
 10
3620.545379
 20
-15813.105568
 30
0.0
  0
VERTEX
  5
290
100
AcDbEntity
  8
0
  6
CONTINUOUS
 62
     7
100
AcDbVertex
100
AcDb2dVertex
 10
3620.488588
 20
-15813.391042
 30
0.0
  0
VERTEX
  5
291
100
AcDbEntity
  8
0
  6
CONTINUOUS
 62
     7
100
AcDbVertex
100
AcDb2dVertex
 10
3620.427704
 20
-15813.697143
 30
0.0
  0
SEQEND
  5
292
100
AcDbEntity
  8
0
  6
CONTINUOUS
 62
     7
  0
ARC
  5
293
100
AcDbEntity
  8
0
  6
CONTINUOUS
 62
     7
100
AcDbCircle
 10
3598.939591
 20
-15809.130146
 30
0.0
 40
21.968078
100
AcDbArc
 50
337.336421
 51
348.001127
  0
POLYLINE
  5
294
100
AcDbEntity
  8
0
  6
CONTINUOUS
 62
     7
100
AcDb2dPolyline
 66
     1
 10
0.0
 20
0.0
 30
0.0
 70
   128
  0
VERTEX
  5
295
100
AcDbEntity
  8
0
  6
CONTINUOUS
 62
     7
100
AcDbVertex
100
AcDb2dVertex
 10
3620.427704
 20
-15813.697143
 30
0.0
  0
VERTEX
  5
296
100
AcDbEntity
  8
0
  6
CONTINUOUS
 62
     7
100
AcDbVertex
100
AcDb2dVertex
 10
3620.884326
 20
-15814.153765
 30
0.0
  0
VERTEX
  5
297
100
AcDbEntity
  8
0
  6
CONTINUOUS
 62
     7
100
AcDbVertex
100
AcDb2dVertex
 10
3621.404332
 20
-15814.673757
 30
0.0
  0
VERTEX
  5
298
100
AcDbEntity
  8
0
  6
CONTINUOUS
 62
     7
100
AcDbVertex
100
AcDb2dVertex
 10
3621.964059
 20
-15815.233484
 30
0.0
  0
VERTEX
  5
299
100
AcDbEntity
  8
0
  6
CONTINUOUS
 62
     7
100
AcDbVertex
100
AcDb2dVertex
 10
3622.538014
 20
-15815.807439
 30
0.0
  0
VERTEX
  5
29A
100
AcDbEntity
  8
0
  6
CONTINUOUS
 62
     7
100
AcDbVertex
100
AcDb2dVertex
 10
3623.100093
 20
-15816.369518
 30
0.0
  0
VERTEX
  5
29B
100
AcDbEntity
  8
0
  6
CONTINUOUS
 62
     7
100
AcDbVertex
100
AcDb2dVertex
 10
3623.624728
 20
-15816.894152
 30
0.0
  0
VERTEX
  5
29C
100
AcDbEntity
  8
0
  6
CONTINUOUS
 62
     7
100
AcDbVertex
100
AcDb2dVertex
 10
3624.088032
 20
-15817.357471
 30
0.0
  0
VERTEX
  5
29D
100
AcDbEntity
  8
0
  6
CONTINUOUS
 62
     7
100
AcDbVertex
100
AcDb2dVertex
 10
3624.468917
 20
-15817.738342
 30
0.0
  0
SEQEND
  5
29E
100
AcDbEntity
  8
0
  6
CONTINUOUS
 62
     7
  0
ARC
  5
29F
100
AcDbEntity
  8
0
  6
CONTINUOUS
 62
     7
100
AcDbCircle
 10
3615.595143
 20
-15808.864531
 30
0.0
 40
12.549438
100
AcDbArc
 50
270.000093
 51
314.999882
  0
LINE
  5
2A0
100
AcDbEntity
  8
0
  6
CONTINUOUS
 62
     7
100
AcDbLine
 10
3615.595163
 20
-15815.698857
 30
0.0
 11
3615.595163
 21
-15821.413969
 31
0.0
  0
POLYLINE
  5
2A1
100
AcDbEntity
  8
0
  6
CONTINUOUS
 62
     7
100
AcDb2dPolyline
 66
     1
 10
0.0
 20
0.0
 30
0.0
 70
   128
  0
VERTEX
  5
2A2
100
AcDbEntity
  8
0
  6
CONTINUOUS
 62
     7
100
AcDbVertex
100
AcDb2dVertex
 10
3355.549597
 20
-15187.893299
 30
0.0
  0
VERTEX
  5
2A3
100
AcDbEntity
  8
0
  6
CONTINUOUS
 62
     7
100
AcDbVertex
100
AcDb2dVertex
 10
3355.092975
 20
-15187.436677
 30
0.0
  0
VERTEX
  5
2A4
100
AcDbEntity
  8
0
  6
CONTINUOUS
 62
     7
100
AcDbVertex
100
AcDb2dVertex
 10
3354.572969
 20
-15186.916656
 30
0.0
  0
VERTEX
  5
2A5
100
AcDbEntity
  8
0
  6
CONTINUOUS
 62
     7
100
AcDbVertex
100
AcDb2dVertex
 10
3354.013242
 20
-15186.356958
 30
0.0
  0
VERTEX
  5
2A6
100
AcDbEntity
  8
0
  6
CONTINUOUS
 62
     7
100
AcDbVertex
100
AcDb2dVertex
 10
3353.439287
 20
-15185.782973
 30
0.0
  0
VERTEX
  5
2A7
100
AcDbEntity
  8
0
  6
CONTINUOUS
 62
     7
100
AcDbVertex
100
AcDb2dVertex
 10
3352.877208
 20
-15185.220895
 30
0.0
  0
VERTEX
  5
2A8
100
AcDbEntity
  8
0
  6
CONTINUOUS
 62
     7
100
AcDbVertex
100
AcDb2dVertex
 10
3352.352574
 20
-15184.69626
 30
0.0
  0
VERTEX
  5
2A9
100
AcDbEntity
  8
0
  6
CONTINUOUS
 62
     7
100
AcDbVertex
100
AcDb2dVertex
 10
3351.889269
 20
-15184.232971
 30
0.0
  0
VERTEX
  5
2AA
100
AcDbEntity
  8
0
  6
CONTINUOUS
 62
     7
100
AcDbVertex
100
AcDb2dVertex
 10
3351.508384
 20
-15183.8521
 30
0.0
  0
SEQEND
  5
2AB
100
AcDbEntity
  8
0
  6
CONTINUOUS
 62
     7
  0
ARC
  5
2AC
100
AcDbEntity
  8
0
  6
CONTINUOUS
 62
     7
100
AcDbCircle
 10
3360.38202
 20
-15192.725577
 30
0.0
 40
12.549104
100
AcDbArc
 50
89.999462
 51
135.000514
  0
LINE
  5
2AD
100
AcDbEntity
  8
0
  6
CONTINUOUS
 62
     7
100
AcDbLine
 10
3360.382138
 20
-15185.891585
 30
0.0
 11
3360.382138
 21
-15180.176473
 31
0.0
  0
ARC
  5
2AE
100
AcDbEntity
  8
0
  6
CONTINUOUS
 62
     7
100
AcDbCircle
 10
3348.547794
 20
-15204.06592
 30
0.0
 40
21.687742
100
AcDbArc
 50
56.929557
 51
67.732561
  0
ARC
  5
2AF
100
AcDbEntity
  8
0
  6
CONTINUOUS
 62
     7
100
AcDbCircle
 10
3377.110784
 20
-15192.483035
 30
0.0
 40
22.044284
100
AcDbArc
 50
157.354995
 51
167.982801
  0
POLYLINE
  5
2B0
100
AcDbEntity
  8
0
  6
CONTINUOUS
 62
     7
100
AcDb2dPolyline
 66
     1
 10
0.0
 20
0.0
 30
0.0
 70
   128
  0
VERTEX
  5
2B1
100
AcDbEntity
  8
0
  6
CONTINUOUS
 62
     7
100
AcDbVertex
100
AcDb2dVertex
 10
3360.382138
 20
-15185.891585
 30
0.0
  0
VERTEX
  5
2B2
100
AcDbEntity
  8
0
  6
CONTINUOUS
 62
     7
100
AcDbVertex
100
AcDb2dVertex
 10
3360.641643
 20
-15186.064995
 30
0.0
  0
VERTEX
  5
2B3
100
AcDbEntity
  8
0
  6
CONTINUOUS
 62
     7
100
AcDbVertex
100
AcDb2dVertex
 10
3360.883645
 20
-15186.226677
 30
0.0
  0
VERTEX
  5
2B4
100
AcDbEntity
  8
0
  6
CONTINUOUS
 62
     7
100
AcDbVertex
100
AcDb2dVertex
 10
3361.107135
 20
-15186.376037
 30
0.0
  0
SEQEND
  5
2B5
100
AcDbEntity
  8
0
  6
CONTINUOUS
 62
     7
  0
LINE
  5
2B6
100
AcDbEntity
  8
0
  6
CONTINUOUS
 62
     7
100
AcDbLine
 10
3361.107135
 20
-15186.376037
 30
0.0
 11
3397.559313
 21
-15274.379371
 31
0.0
  0
POLYLINE
  5
2B7
100
AcDbEntity
  8
0
  6
CONTINUOUS
 62
     7
100
AcDb2dPolyline
 66
     1
 10
0.0
 20
0.0
 30
0.0
 70
   128
  0
VERTEX
  5
2B8
100
AcDbEntity
  8
0
  6
CONTINUOUS
 62
     7
100
AcDbVertex
100
AcDb2dVertex
 10
3397.559313
 20
-15274.379371
 30
0.0
  0
VERTEX
  5
2B9
100
AcDbEntity
  8
0
  6
CONTINUOUS
 62
     7
100
AcDbVertex
100
AcDb2dVertex
 10
3396.997823
 20
-15274.611923
 30
0.0
  0
VERTEX
  5
2BA
100
AcDbEntity
  8
0
  6
CONTINUOUS
 62
     7
100
AcDbVertex
100
AcDb2dVertex
 10
3396.306512
 20
-15274.898291
 30
0.0
  0
VERTEX
  5
2BB
100
AcDbEntity
  8
0
  6
CONTINUOUS
 62
     7
100
AcDbVertex
100
AcDb2dVertex
 10
3395.524368
 20
-15275.222251
 30
0.0
  0
VERTEX
  5
2BC
100
AcDbEntity
  8
0
  6
CONTINUOUS
 62
     7
100
AcDbVertex
100
AcDb2dVertex
 10
3394.695484
 20
-15275.565588
 30
0.0
  0
VERTEX
  5
2BD
100
AcDbEntity
  8
0
  6
CONTINUOUS
 62
     7
100
AcDbVertex
100
AcDb2dVertex
 10
3393.866601
 20
-15275.908925
 30
0.0
  0
VERTEX
  5
2BE
100
AcDbEntity
  8
0
  6
CONTINUOUS
 62
     7
100
AcDbVertex
100
AcDb2dVertex
 10
3393.084456
 20
-15276.232915
 30
0.0
  0
VERTEX
  5
2BF
100
AcDbEntity
  8
0
  6
CONTINUOUS
 62
     7
100
AcDbVertex
100
AcDb2dVertex
 10
3392.393146
 20
-15276.519253
 30
0.0
  0
VERTEX
  5
2C0
100
AcDbEntity
  8
0
  6
CONTINUOUS
 62
     7
100
AcDbVertex
100
AcDb2dVertex
 10
3391.831663
 20
-15276.751835
 30
0.0
  0
SEQEND
  5
2C1
100
AcDbEntity
  8
0
  6
CONTINUOUS
 62
     7
  0
LINE
  5
2C2
100
AcDbEntity
  8
0
  6
CONTINUOUS
 62
     7
100
AcDbLine
 10
3355.379491
 20
-15188.748501
 30
0.0
 11
3391.831663
 21
-15276.751835
 31
0.0
  0
POLYLINE
  5
2C3
100
AcDbEntity
  8
0
  6
CONTINUOUS
 62
     7
100
AcDb2dPolyline
 66
     1
 10
0.0
 20
0.0
 30
0.0
 70
   128
  0
VERTEX
  5
2C4
100
AcDbEntity
  8
0
  6
CONTINUOUS
 62
     7
100
AcDbVertex
100
AcDb2dVertex
 10
3355.379491
 20
-15188.748501
 30
0.0
  0
VERTEX
  5
2C5
100
AcDbEntity
  8
0
  6
CONTINUOUS
 62
     7
100
AcDbVertex
100
AcDb2dVertex
 10
3355.431922
 20
-15188.484874
 30
0.0
  0
VERTEX
  5
2C6
100
AcDbEntity
  8
0
  6
CONTINUOUS
 62
     7
100
AcDbVertex
100
AcDb2dVertex
 10
3355.488713
 20
-15188.1994
 30
0.0
  0
VERTEX
  5
2C7
100
AcDbEntity
  8
0
  6
CONTINUOUS
 62
     7
100
AcDbVertex
100
AcDb2dVertex
 10
3355.549597
 20
-15187.893299
 30
0.0
  0
SEQEND
  5
2C8
100
AcDbEntity
  8
0
  6
CONTINUOUS
 62
     7
  0
ARC
  5
2C9
100
AcDbEntity
  8
0
  6
CONTINUOUS
 62
     7
100
AcDbCircle
 10
3191.259357
 20
-15640.236078
 30
0.0
 40
21.687742
100
AcDbArc
 50
146.929557
 51
157.732561
  0
POLYLINE
  5
2CA
100
AcDbEntity
  8
0
  6
CONTINUOUS
 62
     7
100
AcDb2dPolyline
 66
     1
 10
0.0
 20
0.0
 30
0.0
 70
   128
  0
VERTEX
  5
2CB
100
AcDbEntity
  8
0
  6
CONTINUOUS
 62
     7
100
AcDbVertex
100
AcDb2dVertex
 10
3173.569444
 20
-15627.67673
 30
0.0
  0
VERTEX
  5
2CC
100
AcDbEntity
  8
0
  6
CONTINUOUS
 62
     7
100
AcDbVertex
100
AcDb2dVertex
 10
3173.420114
 20
-15627.900226
 30
0.0
  0
VERTEX
  5
2CD
100
AcDbEntity
  8
0
  6
CONTINUOUS
 62
     7
100
AcDbVertex
100
AcDb2dVertex
 10
3173.258432
 20
-15628.142229
 30
0.0
  0
VERTEX
  5
2CE
100
AcDbEntity
  8
0
  6
CONTINUOUS
 62
     7
100
AcDbVertex
100
AcDb2dVertex
 10
3173.085022
 20
-15628.401734
 30
0.0
  0
SEQEND
  5
2CF
100
AcDbEntity
  8
0
  6
CONTINUOUS
 62
     7
  0
LINE
  5
2D0
100
AcDbEntity
  8
0
  6
CONTINUOUS
 62
     7
100
AcDbLine
 10
3173.569444
 20
-15627.67673
 30
0.0
 11
3261.572793
 21
-15591.224558
 31
0.0
  0
POLYLINE
  5
2D1
100
AcDbEntity
  8
0
  6
CONTINUOUS
 62
     7
100
AcDb2dPolyline
 66
     1
 10
0.0
 20
0.0
 30
0.0
 70
   128
  0
VERTEX
  5
2D2
100
AcDbEntity
  8
0
  6
CONTINUOUS
 62
     7
100
AcDbVertex
100
AcDb2dVertex
 10
3261.572793
 20
-15591.224558
 30
0.0
  0
VERTEX
  5
2D3
100
AcDbEntity
  8
0
  6
CONTINUOUS
 62
     7
100
AcDbVertex
100
AcDb2dVertex
 10
3261.80536
 20
-15591.786047
 30
0.0
  0
VERTEX
  5
2D4
100
AcDbEntity
  8
0
  6
CONTINUOUS
 62
     7
100
AcDbVertex
100
AcDb2dVertex
 10
3262.091713
 20
-15592.477355
 30
0.0
  0
VERTEX
  5
2D5
100
AcDbEntity
  8
0
  6
CONTINUOUS
 62
     7
100
AcDbVertex
100
AcDb2dVertex
 10
3262.415688
 20
-15593.2595
 30
0.0
  0
VERTEX
  5
2D6
100
AcDbEntity
  8
0
  6
CONTINUOUS
 62
     7
100
AcDbVertex
100
AcDb2dVertex
 10
3262.759025
 20
-15594.088383
 30
0.0
  0
VERTEX
  5
2D7
100
AcDbEntity
  8
0
  6
CONTINUOUS
 62
     7
100
AcDbVertex
100
AcDb2dVertex
 10
3263.102362
 20
-15594.917267
 30
0.0
  0
VERTEX
  5
2D8
100
AcDbEntity
  8
0
  6
CONTINUOUS
 62
     7
100
AcDbVertex
100
AcDb2dVertex
 10
3263.426337
 20
-15595.699411
 30
0.0
  0
VERTEX
  5
2D9
100
AcDbEntity
  8
0
  6
CONTINUOUS
 62
     7
100
AcDbVertex
100
AcDb2dVertex
 10
3263.71269
 20
-15596.390718
 30
0.0
  0
VERTEX
  5
2DA
100
AcDbEntity
  8
0
  6
CONTINUOUS
 62
     7
100
AcDbVertex
100
AcDb2dVertex
 10
3263.945257
 20
-15596.952209
 30
0.0
  0
SEQEND
  5
2DB
100
AcDbEntity
  8
0
  6
CONTINUOUS
 62
     7
  0
LINE
  5
2DC
100
AcDbEntity
  8
0
  6
CONTINUOUS
 62
     7
100
AcDbLine
 10
3175.941938
 20
-15633.40438
 30
0.0
 11
3263.945257
 21
-15596.952209
 31
0.0
  0
POLYLINE
  5
2DD
100
AcDbEntity
  8
0
  6
CONTINUOUS
 62
     7
100
AcDb2dPolyline
 66
     1
 10
0.0
 20
0.0
 30
0.0
 70
   128
  0
VERTEX
  5
2DE
100
AcDbEntity
  8
0
  6
CONTINUOUS
 62
     7
100
AcDbVertex
100
AcDb2dVertex
 10
3175.941938
 20
-15633.40438
 30
0.0
  0
VERTEX
  5
2DF
100
AcDbEntity
  8
0
  6
CONTINUOUS
 62
     7
100
AcDbVertex
100
AcDb2dVertex
 10
3175.678311
 20
-15633.351942
 30
0.0
  0
VERTEX
  5
2E0
100
AcDbEntity
  8
0
  6
CONTINUOUS
 62
     7
100
AcDbVertex
100
AcDb2dVertex
 10
3175.392837
 20
-15633.295158
 30
0.0
  0
VERTEX
  5
2E1
100
AcDbEntity
  8
0
  6
CONTINUOUS
 62
     7
100
AcDbVertex
100
AcDb2dVertex
 10
3175.086736
 20
-15633.234274
 30
0.0
  0
SEQEND
  5
2E2
100
AcDbEntity
  8
0
  6
CONTINUOUS
 62
     7
  0
ARC
  5
2E3
100
AcDbEntity
  8
0
  6
CONTINUOUS
 62
     7
100
AcDbCircle
 10
3179.633518
 20
-15611.810736
 30
0.0
 40
21.900713
100
AcDbArc
 50
247.320058
 51
258.017738
  0
POLYLINE
  5
2E4
100
AcDbEntity
  8
0
  6
CONTINUOUS
 62
     7
100
AcDb2dPolyline
 66
     1
 10
0.0
 20
0.0
 30
0.0
 70
   128
  0
VERTEX
  5
2E5
100
AcDbEntity
  8
0
  6
CONTINUOUS
 62
     7
100
AcDbVertex
100
AcDb2dVertex
 10
3175.086736
 20
-15633.234274
 30
0.0
  0
VERTEX
  5
2E6
100
AcDbEntity
  8
0
  6
CONTINUOUS
 62
     7
100
AcDbVertex
100
AcDb2dVertex
 10
3174.630114
 20
-15633.690896
 30
0.0
  0
VERTEX
  5
2E7
100
AcDbEntity
  8
0
  6
CONTINUOUS
 62
     7
100
AcDbVertex
100
AcDb2dVertex
 10
3174.110093
 20
-15634.210902
 30
0.0
  0
VERTEX
  5
2E8
100
AcDbEntity
  8
0
  6
CONTINUOUS
 62
     7
100
AcDbVertex
100
AcDb2dVertex
 10
3173.550395
 20
-15634.770622
 30
0.0
  0
VERTEX
  5
2E9
100
AcDbEntity
  8
0
  6
CONTINUOUS
 62
     7
100
AcDbVertex
100
AcDb2dVertex
 10
3172.97641
 20
-15635.344577
 30
0.0
  0
VERTEX
  5
2EA
100
AcDbEntity
  8
0
  6
CONTINUOUS
 62
     7
100
AcDbVertex
100
AcDb2dVertex
 10
3172.414332
 20
-15635.906663
 30
0.0
  0
VERTEX
  5
2EB
100
AcDbEntity
  8
0
  6
CONTINUOUS
 62
     7
100
AcDbVertex
100
AcDb2dVertex
 10
3171.889697
 20
-15636.431298
 30
0.0
  0
VERTEX
  5
2EC
100
AcDbEntity
  8
0
  6
CONTINUOUS
 62
     7
100
AcDbVertex
100
AcDb2dVertex
 10
3171.426408
 20
-15636.894595
 30
0.0
  0
VERTEX
  5
2ED
100
AcDbEntity
  8
0
  6
CONTINUOUS
 62
     7
100
AcDbVertex
100
AcDb2dVertex
 10
3171.045507
 20
-15637.27548
 30
0.0
  0
SEQEND
  5
2EE
100
AcDbEntity
  8
0
  6
CONTINUOUS
 62
     7
  0
ARC
  5
2EF
100
AcDbEntity
  8
0
  6
CONTINUOUS
 62
     7
100
AcDbCircle
 10
3179.919318
 20
-15628.401706
 30
0.0
 40
12.549438
100
AcDbArc
 50
180.0
 51
224.999882
  0
LINE
  5
2F0
100
AcDbEntity
  8
0
  6
CONTINUOUS
 62
     7
100
AcDbLine
 10
3173.085022
 20
-15628.401734
 30
0.0
 11
3167.36988
 21
-15628.401734
 31
0.0
  0
ARC
  5
2F1
100
AcDbEntity
  8
0
  6
CONTINUOUS
 62
     7
100
AcDbCircle
 10
3784.966485
 20
-15361.48468
 30
0.0
 40
21.408355
100
AcDbArc
 50
326.858852
 51
337.803266
  0
POLYLINE
  5
2F2
100
AcDbEntity
  8
0
  6
CONTINUOUS
 62
     7
100
AcDb2dPolyline
 66
     1
 10
0.0
 20
0.0
 30
0.0
 70
   128
  0
VERTEX
  5
2F3
100
AcDbEntity
  8
0
  6
CONTINUOUS
 62
     7
100
AcDbVertex
100
AcDb2dVertex
 10
3802.892264
 20
-15373.188701
 30
0.0
  0
VERTEX
  5
2F4
100
AcDbEntity
  8
0
  6
CONTINUOUS
 62
     7
100
AcDbVertex
100
AcDb2dVertex
 10
3802.718884
 20
-15373.448206
 30
0.0
  0
VERTEX
  5
2F5
100
AcDbEntity
  8
0
  6
CONTINUOUS
 62
     7
100
AcDbVertex
100
AcDb2dVertex
 10
3802.557172
 20
-15373.690208
 30
0.0
  0
VERTEX
  5
2F6
100
AcDbEntity
  8
0
  6
CONTINUOUS
 62
     7
100
AcDbVertex
100
AcDb2dVertex
 10
3802.407842
 20
-15373.913698
 30
0.0
  0
SEQEND
  5
2F7
100
AcDbEntity
  8
0
  6
CONTINUOUS
 62
     7
  0
LINE
  5
2F8
100
AcDbEntity
  8
0
  6
CONTINUOUS
 62
     7
100
AcDbLine
 10
3802.407842
 20
-15373.913698
 30
0.0
 11
3714.404508
 21
-15410.365877
 31
0.0
  0
POLYLINE
  5
2F9
100
AcDbEntity
  8
0
  6
CONTINUOUS
 62
     7
100
AcDb2dPolyline
 66
     1
 10
0.0
 20
0.0
 30
0.0
 70
   128
  0
VERTEX
  5
2FA
100
AcDbEntity
  8
0
  6
CONTINUOUS
 62
     7
100
AcDbVertex
100
AcDb2dVertex
 10
3714.404508
 20
-15410.365877
 30
0.0
  0
VERTEX
  5
2FB
100
AcDbEntity
  8
0
  6
CONTINUOUS
 62
     7
100
AcDbVertex
100
AcDb2dVertex
 10
3714.171941
 20
-15409.804393
 30
0.0
  0
VERTEX
  5
2FC
100
AcDbEntity
  8
0
  6
CONTINUOUS
 62
     7
100
AcDbVertex
100
AcDb2dVertex
 10
3713.885588
 20
-15409.113075
 30
0.0
  0
VERTEX
  5
2FD
100
AcDbEntity
  8
0
  6
CONTINUOUS
 62
     7
100
AcDbVertex
100
AcDb2dVertex
 10
3713.561613
 20
-15408.330931
 30
0.0
  0
VERTEX
  5
2FE
100
AcDbEntity
  8
0
  6
CONTINUOUS
 62
     7
100
AcDbVertex
100
AcDb2dVertex
 10
3713.218276
 20
-15407.502055
 30
0.0
  0
VERTEX
  5
2FF
100
AcDbEntity
  8
0
  6
CONTINUOUS
 62
     7
100
AcDbVertex
100
AcDb2dVertex
 10
3712.874939
 20
-15406.673164
 30
0.0
  0
VERTEX
  5
300
100
AcDbEntity
  8
0
  6
CONTINUOUS
 62
     7
100
AcDbVertex
100
AcDb2dVertex
 10
3712.550964
 20
-15405.891019
 30
0.0
  0
VERTEX
  5
301
100
AcDbEntity
  8
0
  6
CONTINUOUS
 62
     7
100
AcDbVertex
100
AcDb2dVertex
 10
3712.264612
 20
-15405.199717
 30
0.0
  0
VERTEX
  5
302
100
AcDbEntity
  8
0
  6
CONTINUOUS
 62
     7
100
AcDbVertex
100
AcDb2dVertex
 10
3712.032044
 20
-15404.638233
 30
0.0
  0
SEQEND
  5
303
100
AcDbEntity
  8
0
  6
CONTINUOUS
 62
     7
  0
LINE
  5
304
100
AcDbEntity
  8
0
  6
CONTINUOUS
 62
     7
100
AcDbLine
 10
3800.035378
 20
-15368.186054
 30
0.0
 11
3712.032044
 21
-15404.638233
 31
0.0
  0
POLYLINE
  5
305
100
AcDbEntity
  8
0
  6
CONTINUOUS
 62
     7
100
AcDb2dPolyline
 66
     1
 10
0.0
 20
0.0
 30
0.0
 70
   128
  0
VERTEX
  5
306
100
AcDbEntity
  8
0
  6
CONTINUOUS
 62
     7
100
AcDbVertex
100
AcDb2dVertex
 10
3800.035378
 20
-15368.186054
 30
0.0
  0
VERTEX
  5
307
100
AcDbEntity
  8
0
  6
CONTINUOUS
 62
     7
100
AcDbVertex
100
AcDb2dVertex
 10
3800.299005
 20
-15368.238485
 30
0.0
  0
VERTEX
  5
308
100
AcDbEntity
  8
0
  6
CONTINUOUS
 62
     7
100
AcDbVertex
100
AcDb2dVertex
 10
3800.584479
 20
-15368.295276
 30
0.0
  0
VERTEX
  5
309
100
AcDbEntity
  8
0
  6
CONTINUOUS
 62
     7
100
AcDbVertex
100
AcDb2dVertex
 10
3800.89058
 20
-15368.35616
 30
0.0
  0
SEQEND
  5
30A
100
AcDbEntity
  8
0
  6
CONTINUOUS
 62
     7
  0
ARC
  5
30B
100
AcDbEntity
  8
0
  6
CONTINUOUS
 62
     7
100
AcDbCircle
 10
3796.343364
 20
-15389.780884
 30
0.0
 40
21.901963
100
AcDbArc
 50
67.320277
 51
78.01727
  0
POLYLINE
  5
30C
100
AcDbEntity
  8
0
  6
CONTINUOUS
 62
     7
100
AcDb2dPolyline
 66
     1
 10
0.0
 20
0.0
 30
0.0
 70
   128
  0
VERTEX
  5
30D
100
AcDbEntity
  8
0
  6
CONTINUOUS
 62
     7
100
AcDbVertex
100
AcDb2dVertex
 10
3800.89058
 20
-15368.35616
 30
0.0
  0
VERTEX
  5
30E
100
AcDbEntity
  8
0
  6
CONTINUOUS
 62
     7
100
AcDbVertex
100
AcDb2dVertex
 10
3801.347202
 20
-15367.899538
 30
0.0
  0
VERTEX
  5
30F
100
AcDbEntity
  8
0
  6
CONTINUOUS
 62
     7
100
AcDbVertex
100
AcDb2dVertex
 10
3801.867194
 20
-15367.379532
 30
0.0
  0
VERTEX
  5
310
100
AcDbEntity
  8
0
  6
CONTINUOUS
 62
     7
100
AcDbVertex
100
AcDb2dVertex
 10
3802.426921
 20
-15366.81982
 30
0.0
  0
VERTEX
  5
311
100
AcDbEntity
  8
0
  6
CONTINUOUS
 62
     7
100
AcDbVertex
100
AcDb2dVertex
 10
3803.000876
 20
-15366.24585
 30
0.0
  0
VERTEX
  5
312
100
AcDbEntity
  8
0
  6
CONTINUOUS
 62
     7
100
AcDbVertex
100
AcDb2dVertex
 10
3803.562955
 20
-15365.683771
 30
0.0
  0
VERTEX
  5
313
100
AcDbEntity
  8
0
  6
CONTINUOUS
 62
     7
100
AcDbVertex
100
AcDb2dVertex
 10
3804.087589
 20
-15365.159137
 30
0.0
  0
VERTEX
  5
314
100
AcDbEntity
  8
0
  6
CONTINUOUS
 62
     7
100
AcDbVertex
100
AcDb2dVertex
 10
3804.550908
 20
-15364.695847
 30
0.0
  0
VERTEX
  5
315
100
AcDbEntity
  8
0
  6
CONTINUOUS
 62
     7
100
AcDbVertex
100
AcDb2dVertex
 10
3804.931779
 20
-15364.314947
 30
0.0
  0
SEQEND
  5
316
100
AcDbEntity
  8
0
  6
CONTINUOUS
 62
     7
  0
ARC
  5
317
100
AcDbEntity
  8
0
  6
CONTINUOUS
 62
     7
100
AcDbCircle
 10
3796.057899
 20
-15373.18875
 30
0.0
 40
12.549507
100
AcDbArc
 50
0.0
 51
44.999752
  0
LINE
  5
318
100
AcDbEntity
  8
0
  6
CONTINUOUS
 62
     7
100
AcDbLine
 10
3802.892264
 20
-15373.188701
 30
0.0
 11
3808.607406
 21
-15373.188701
 31
0.0
  0
POLYLINE
  5
319
100
AcDbEntity
  8
0
  6
CONTINUOUS
 62
     7
100
AcDb2dPolyline
 66
     1
 10
0.0
 20
0.0
 30
0.0
 70
   128
  0
VERTEX
  5
31A
100
AcDbEntity
  8
0
  6
CONTINUOUS
 62
     7
100
AcDbVertex
100
AcDb2dVertex
 10
3560.286156
 20
-15186.376037
 30
0.0
  0
VERTEX
  5
31B
100
AcDbEntity
  8
0
  6
CONTINUOUS
 62
     7
100
AcDbVertex
100
AcDb2dVertex
 10
3560.887085
 20
-15185.9023
 30
0.0
  0
VERTEX
  5
31C
100
AcDbEntity
  8
0
  6
CONTINUOUS
 62
     7
100
AcDbVertex
100
AcDb2dVertex
 10
3561.608435
 20
-15185.333614
 30
0.0
  0
VERTEX
  5
31D
100
AcDbEntity
  8
0
  6
CONTINUOUS
 62
     7
100
AcDbVertex
100
AcDb2dVertex
 10
3562.424118
 20
-15184.690605
 30
0.0
  0
VERTEX
  5
31E
100
AcDbEntity
  8
0
  6
CONTINUOUS
 62
     7
100
AcDbVertex
100
AcDb2dVertex
 10
3563.30465
 20
-15183.99643
 30
0.0
  0
VERTEX
  5
31F
100
AcDbEntity
  8
0
  6
CONTINUOUS
 62
     7
100
AcDbVertex
100
AcDb2dVertex
 10
3564.218214
 20
-15183.27624
 30
0.0
  0
SEQEND
  5
320
100
AcDbEntity
  8
0
  6
CONTINUOUS
 62
     7
  0
LINE
  5
321
100
AcDbEntity
  8
0
  6
CONTINUOUS
 62
     7
100
AcDbLine
 10
3560.286156
 20
-15186.376037
 30
0.0
 11
3515.843345
 21
-15186.376037
 31
0.0
  0
POLYLINE
  5
322
100
AcDbEntity
  8
0
  6
CONTINUOUS
 62
     7
100
AcDb2dPolyline
 66
     1
 10
0.0
 20
0.0
 30
0.0
 70
   128
  0
VERTEX
  5
323
100
AcDbEntity
  8
0
  6
CONTINUOUS
 62
     7
100
AcDbVertex
100
AcDb2dVertex
 10
3512.977936
 20
-15183.27624
 30
0.0
  0
VERTEX
  5
324
100
AcDbEntity
  8
0
  6
CONTINUOUS
 62
     7
100
AcDbVertex
100
AcDb2dVertex
 10
3513.643675
 20
-15183.99643
 30
0.0
  0
VERTEX
  5
325
100
AcDbEntity
  8
0
  6
CONTINUOUS
 62
     7
100
AcDbVertex
100
AcDb2dVertex
 10
3514.285348
 20
-15184.690605
 30
0.0
  0
VERTEX
  5
326
100
AcDbEntity
  8
0
  6
CONTINUOUS
 62
     7
100
AcDbVertex
100
AcDb2dVertex
 10
3514.879761
 20
-15185.333614
 30
0.0
  0
VERTEX
  5
327
100
AcDbEntity
  8
0
  6
CONTINUOUS
 62
     7
100
AcDbVertex
100
AcDb2dVertex
 10
3515.405428
 20
-15185.9023
 30
0.0
  0
VERTEX
  5
328
100
AcDbEntity
  8
0
  6
CONTINUOUS
 62
     7
100
AcDbVertex
100
AcDb2dVertex
 10
3515.843345
 20
-15186.376037
 30
0.0
  0
SEQEND
  5
329
100
AcDbEntity
  8
0
  6
CONTINUOUS
 62
     7
  0
POLYLINE
  5
32A
100
AcDbEntity
  8
0
  6
CONTINUOUS
 62
     7
100
AcDb2dPolyline
 66
     1
 10
0.0
 20
0.0
 30
0.0
 70
   128
  0
VERTEX
  5
32B
100
AcDbEntity
  8
0
  6
CONTINUOUS
 62
     7
100
AcDbVertex
100
AcDb2dVertex
 10
3509.62461
 20
-15186.376037
 30
0.0
  0
VERTEX
  5
32C
100
AcDbEntity
  8
0
  6
CONTINUOUS
 62
     7
100
AcDbVertex
100
AcDb2dVertex
 10
3510.137095
 20
-15185.9023
 30
0.0
  0
VERTEX
  5
32D
100
AcDbEntity
  8
0
  6
CONTINUOUS
 62
     7
100
AcDbVertex
100
AcDb2dVertex
 10
3510.752271
 20
-15185.333614
 30
0.0
  0
VERTEX
  5
32E
100
AcDbEntity
  8
0
  6
CONTINUOUS
 62
     7
100
AcDbVertex
100
AcDb2dVertex
 10
3511.4479
 20
-15184.690605
 30
0.0
  0
VERTEX
  5
32F
100
AcDbEntity
  8
0
  6
CONTINUOUS
 62
     7
100
AcDbVertex
100
AcDb2dVertex
 10
3512.198837
 20
-15183.99643
 30
0.0
  0
VERTEX
  5
330
100
AcDbEntity
  8
0
  6
CONTINUOUS
 62
     7
100
AcDbVertex
100
AcDb2dVertex
 10
3512.977936
 20
-15183.27624
 30
0.0
  0
SEQEND
  5
331
100
AcDbEntity
  8
0
  6
CONTINUOUS
 62
     7
  0
LINE
  5
332
100
AcDbEntity
  8
0
  6
CONTINUOUS
 62
     7
100
AcDbLine
 10
3509.62461
 20
-15186.376037
 30
0.0
 11
3466.352691
 21
-15186.376037
 31
0.0
  0
POLYLINE
  5
333
100
AcDbEntity
  8
0
  6
CONTINUOUS
 62
     7
100
AcDb2dPolyline
 66
     1
 10
0.0
 20
0.0
 30
0.0
 70
   128
  0
VERTEX
  5
334
100
AcDbEntity
  8
0
  6
CONTINUOUS
 62
     7
100
AcDbVertex
100
AcDb2dVertex
 10
3462.999365
 20
-15183.27624
 30
0.0
  0
VERTEX
  5
335
100
AcDbEntity
  8
0
  6
CONTINUOUS
 62
     7
100
AcDbVertex
100
AcDb2dVertex
 10
3463.778464
 20
-15183.99643
 30
0.0
  0
VERTEX
  5
336
100
AcDbEntity
  8
0
  6
CONTINUOUS
 62
     7
100
AcDbVertex
100
AcDb2dVertex
 10
3464.529401
 20
-15184.690605
 30
0.0
  0
VERTEX
  5
337
100
AcDbEntity
  8
0
  6
CONTINUOUS
 62
     7
100
AcDbVertex
100
AcDb2dVertex
 10
3465.225031
 20
-15185.333614
 30
0.0
  0
VERTEX
  5
338
100
AcDbEntity
  8
0
  6
CONTINUOUS
 62
     7
100
AcDbVertex
100
AcDb2dVertex
 10
3465.840206
 20
-15185.9023
 30
0.0
  0
VERTEX
  5
339
100
AcDbEntity
  8
0
  6
CONTINUOUS
 62
     7
100
AcDbVertex
100
AcDb2dVertex
 10
3466.352691
 20
-15186.376037
 30
0.0
  0
SEQEND
  5
33A
100
AcDbEntity
  8
0
  6
CONTINUOUS
 62
     7
  0
POLYLINE
  5
33B
100
AcDbEntity
  8
0
  6
CONTINUOUS
 62
     7
100
AcDb2dPolyline
 66
     1
 10
0.0
 20
0.0
 30
0.0
 70
   128
  0
VERTEX
  5
33C
100
AcDbEntity
  8
0
  6
CONTINUOUS
 62
     7
100
AcDbVertex
100
AcDb2dVertex
 10
3460.133956
 20
-15186.376037
 30
0.0
  0
VERTEX
  5
33D
100
AcDbEntity
  8
0
  6
CONTINUOUS
 62
     7
100
AcDbVertex
100
AcDb2dVertex
 10
3460.571873
 20
-15185.9023
 30
0.0
  0
VERTEX
  5
33E
100
AcDbEntity
  8
0
  6
CONTINUOUS
 62
     7
100
AcDbVertex
100
AcDb2dVertex
 10
3461.09754
 20
-15185.333614
 30
0.0
  0
VERTEX
  5
33F
100
AcDbEntity
  8
0
  6
CONTINUOUS
 62
     7
100
AcDbVertex
100
AcDb2dVertex
 10
3461.691953
 20
-15184.690605
 30
0.0
  0
VERTEX
  5
340
100
AcDbEntity
  8
0
  6
CONTINUOUS
 62
     7
100
AcDbVertex
100
AcDb2dVertex
 10
3462.333626
 20
-15183.99643
 30
0.0
  0
VERTEX
  5
341
100
AcDbEntity
  8
0
  6
CONTINUOUS
 62
     7
100
AcDbVertex
100
AcDb2dVertex
 10
3462.999365
 20
-15183.27624
 30
0.0
  0
SEQEND
  5
342
100
AcDbEntity
  8
0
  6
CONTINUOUS
 62
     7
  0
LINE
  5
343
100
AcDbEntity
  8
0
  6
CONTINUOUS
 62
     7
100
AcDbLine
 10
3460.133956
 20
-15186.376037
 30
0.0
 11
3415.691145
 21
-15186.376037
 31
0.0
  0
POLYLINE
  5
344
100
AcDbEntity
  8
0
  6
CONTINUOUS
 62
     7
100
AcDb2dPolyline
 66
     1
 10
0.0
 20
0.0
 30
0.0
 70
   128
  0
VERTEX
  5
345
100
AcDbEntity
  8
0
  6
CONTINUOUS
 62
     7
100
AcDbVertex
100
AcDb2dVertex
 10
3411.759087
 20
-15183.27624
 30
0.0
  0
VERTEX
  5
346
100
AcDbEntity
  8
0
  6
CONTINUOUS
 62
     7
100
AcDbVertex
100
AcDb2dVertex
 10
3412.672651
 20
-15183.99643
 30
0.0
  0
VERTEX
  5
347
100
AcDbEntity
  8
0
  6
CONTINUOUS
 62
     7
100
AcDbVertex
100
AcDb2dVertex
 10
3413.553183
 20
-15184.690605
 30
0.0
  0
VERTEX
  5
348
100
AcDbEntity
  8
0
  6
CONTINUOUS
 62
     7
100
AcDbVertex
100
AcDb2dVertex
 10
3414.368866
 20
-15185.333614
 30
0.0
  0
VERTEX
  5
349
100
AcDbEntity
  8
0
  6
CONTINUOUS
 62
     7
100
AcDbVertex
100
AcDb2dVertex
 10
3415.090216
 20
-15185.9023
 30
0.0
  0
VERTEX
  5
34A
100
AcDbEntity
  8
0
  6
CONTINUOUS
 62
     7
100
AcDbVertex
100
AcDb2dVertex
 10
3415.691145
 20
-15186.376037
 30
0.0
  0
SEQEND
  5
34B
100
AcDbEntity
  8
0
  6
CONTINUOUS
 62
     7
  0
POLYLINE
  5
34C
100
AcDbEntity
  8
0
  6
CONTINUOUS
 62
     7
100
AcDb2dPolyline
 66
     1
 10
0.0
 20
0.0
 30
0.0
 70
   128
  0
VERTEX
  5
34D
100
AcDbEntity
  8
0
  6
CONTINUOUS
 62
     7
100
AcDbVertex
100
AcDb2dVertex
 10
3409.315418
 20
-15186.376037
 30
0.0
  0
VERTEX
  5
34E
100
AcDbEntity
  8
0
  6
CONTINUOUS
 62
     7
100
AcDbVertex
100
AcDb2dVertex
 10
3409.688884
 20
-15185.9023
 30
0.0
  0
VERTEX
  5
34F
100
AcDbEntity
  8
0
  6
CONTINUOUS
 62
     7
100
AcDbVertex
100
AcDb2dVertex
 10
3410.13718
 20
-15185.333614
 30
0.0
  0
VERTEX
  5
350
100
AcDbEntity
  8
0
  6
CONTINUOUS
 62
     7
100
AcDbVertex
100
AcDb2dVertex
 10
3410.644104
 20
-15184.690605
 30
0.0
  0
VERTEX
  5
351
100
AcDbEntity
  8
0
  6
CONTINUOUS
 62
     7
100
AcDbVertex
100
AcDb2dVertex
 10
3411.191338
 20
-15183.99643
 30
0.0
  0
VERTEX
  5
352
100
AcDbEntity
  8
0
  6
CONTINUOUS
 62
     7
100
AcDbVertex
100
AcDb2dVertex
 10
3411.759087
 20
-15183.27624
 30
0.0
  0
SEQEND
  5
353
100
AcDbEntity
  8
0
  6
CONTINUOUS
 62
     7
  0
LINE
  5
354
100
AcDbEntity
  8
0
  6
CONTINUOUS
 62
     7
100
AcDbLine
 10
3409.315418
 20
-15186.376037
 30
0.0
 11
3361.107135
 21
-15186.376037
 31
0.0
  0
LINE
  5
355
100
AcDbEntity
  8
0
  6
CONTINUOUS
 62
     7
100
AcDbLine
 10
3615.595163
 20
-15180.176473
 30
0.0
 11
3360.382138
 21
-15180.176473
 31
0.0
  0
LINE
  5
356
100
AcDbEntity
  8
0
  6
CONTINUOUS
 62
     7
100
AcDbLine
 10
3614.870167
 20
-15186.376037
 30
0.0
 11
3566.661883
 21
-15186.376037
 31
0.0
  0
POLYLINE
  5
357
100
AcDbEntity
  8
0
  6
CONTINUOUS
 62
     7
100
AcDb2dPolyline
 66
     1
 10
0.0
 20
0.0
 30
0.0
 70
   128
  0
VERTEX
  5
358
100
AcDbEntity
  8
0
  6
CONTINUOUS
 62
     7
100
AcDbVertex
100
AcDb2dVertex
 10
3564.218214
 20
-15183.27624
 30
0.0
  0
VERTEX
  5
359
100
AcDbEntity
  8
0
  6
CONTINUOUS
 62
     7
100
AcDbVertex
100
AcDb2dVertex
 10
3564.785963
 20
-15183.99643
 30
0.0
  0
VERTEX
  5
35A
100
AcDbEntity
  8
0
  6
CONTINUOUS
 62
     7
100
AcDbVertex
100
AcDb2dVertex
 10
3565.333197
 20
-15184.690605
 30
0.0
  0
VERTEX
  5
35B
100
AcDbEntity
  8
0
  6
CONTINUOUS
 62
     7
100
AcDbVertex
100
AcDb2dVertex
 10
3565.840121
 20
-15185.333614
 30
0.0
  0
VERTEX
  5
35C
100
AcDbEntity
  8
0
  6
CONTINUOUS
 62
     7
100
AcDbVertex
100
AcDb2dVertex
 10
3566.288417
 20
-15185.9023
 30
0.0
  0
VERTEX
  5
35D
100
AcDbEntity
  8
0
  6
CONTINUOUS
 62
     7
100
AcDbVertex
100
AcDb2dVertex
 10
3566.661883
 20
-15186.376037
 30
0.0
  0
SEQEND
  5
35E
100
AcDbEntity
  8
0
  6
CONTINUOUS
 62
     7
  0
POLYLINE
  5
35F
100
AcDbEntity
  8
0
  6
CONTINUOUS
 62
     7
100
AcDb2dPolyline
 66
     1
 10
0.0
 20
0.0
 30
0.0
 70
   128
  0
VERTEX
  5
360
100
AcDbEntity
  8
0
  6
CONTINUOUS
 62
     7
100
AcDbVertex
100
AcDb2dVertex
 10
3761.438659
 20
-15329.589336
 30
0.0
  0
VERTEX
  5
361
100
AcDbEntity
  8
0
  6
CONTINUOUS
 62
     7
100
AcDbVertex
100
AcDb2dVertex
 10
3762.198555
 20
-15329.67927
 30
0.0
  0
VERTEX
  5
362
100
AcDbEntity
  8
0
  6
CONTINUOUS
 62
     7
100
AcDbVertex
100
AcDb2dVertex
 10
3763.110727
 20
-15329.787242
 30
0.0
  0
VERTEX
  5
363
100
AcDbEntity
  8
0
  6
CONTINUOUS
 62
     7
100
AcDbVertex
100
AcDb2dVertex
 10
3764.142197
 20
-15329.909322
 30
0.0
  0
VERTEX
  5
364
100
AcDbEntity
  8
0
  6
CONTINUOUS
 62
     7
100
AcDbVertex
100
AcDb2dVertex
 10
3765.255669
 20
-15330.041106
 30
0.0
  0
VERTEX
  5
365
100
AcDbEntity
  8
0
  6
CONTINUOUS
 62
     7
100
AcDbVertex
100
AcDb2dVertex
 10
3766.410901
 20
-15330.177831
 30
0.0
  0
SEQEND
  5
366
100
AcDbEntity
  8
0
  6
CONTINUOUS
 62
     7
  0
LINE
  5
367
100
AcDbEntity
  8
0
  6
CONTINUOUS
 62
     7
100
AcDbLine
 10
3761.438659
 20
-15329.589336
 30
0.0
 11
3730.012834
 21
-15298.163511
 31
0.0
  0
POLYLINE
  5
368
100
AcDbEntity
  8
0
  6
CONTINUOUS
 62
     7
100
AcDb2dPolyline
 66
     1
 10
0.0
 20
0.0
 30
0.0
 70
   128
  0
VERTEX
  5
369
100
AcDbEntity
  8
0
  6
CONTINUOUS
 62
     7
100
AcDbVertex
100
AcDb2dVertex
 10
3730.178565
 20
-15293.94548
 30
0.0
  0
VERTEX
  5
36A
100
AcDbEntity
  8
0
  6
CONTINUOUS
 62
     7
100
AcDbVertex
100
AcDb2dVertex
 10
3730.140064
 20
-15294.925486
 30
0.0
  0
VERTEX
  5
36B
100
AcDbEntity
  8
0
  6
CONTINUOUS
 62
     7
100
AcDbVertex
100
AcDb2dVertex
 10
3730.102947
 20
-15295.870073
 30
0.0
  0
VERTEX
  5
36C
100
AcDbEntity
  8
0
  6
CONTINUOUS
 62
     7
100
AcDbVertex
100
AcDb2dVertex
 10
3730.068569
 20
-15296.745069
 30
0.0
  0
VERTEX
  5
36D
100
AcDbEntity
  8
0
  6
CONTINUOUS
 62
     7
100
AcDbVertex
100
AcDb2dVertex
 10
3730.038164
 20
-15297.518894
 30
0.0
  0
VERTEX
  5
36E
100
AcDbEntity
  8
0
  6
CONTINUOUS
 62
     7
100
AcDbVertex
100
AcDb2dVertex
 10
3730.012834
 20
-15298.163511
 30
0.0
  0
SEQEND
  5
36F
100
AcDbEntity
  8
0
  6
CONTINUOUS
 62
     7
  0
POLYLINE
  5
370
100
AcDbEntity
  8
0
  6
CONTINUOUS
 62
     7
100
AcDb2dPolyline
 66
     1
 10
0.0
 20
0.0
 30
0.0
 70
   128
  0
VERTEX
  5
371
100
AcDbEntity
  8
0
  6
CONTINUOUS
 62
     7
100
AcDbVertex
100
AcDb2dVertex
 10
3725.61553
 20
-15293.766206
 30
0.0
  0
VERTEX
  5
372
100
AcDbEntity
  8
0
  6
CONTINUOUS
 62
     7
100
AcDbVertex
100
AcDb2dVertex
 10
3726.312889
 20
-15293.79362
 30
0.0
  0
VERTEX
  5
373
100
AcDbEntity
  8
0
  6
CONTINUOUS
 62
     7
100
AcDbVertex
100
AcDb2dVertex
 10
3727.149995
 20
-15293.82651
 30
0.0
  0
VERTEX
  5
374
100
AcDbEntity
  8
0
  6
CONTINUOUS
 62
     7
100
AcDbVertex
100
AcDb2dVertex
 10
3728.096576
 20
-15293.863686
 30
0.0
  0
VERTEX
  5
375
100
AcDbEntity
  8
0
  6
CONTINUOUS
 62
     7
100
AcDbVertex
100
AcDb2dVertex
 10
3729.118402
 20
-15293.903839
 30
0.0
  0
VERTEX
  5
376
100
AcDbEntity
  8
0
  6
CONTINUOUS
 62
     7
100
AcDbVertex
100
AcDb2dVertex
 10
3730.178565
 20
-15293.94548
 30
0.0
  0
SEQEND
  5
377
100
AcDbEntity
  8
0
  6
CONTINUOUS
 62
     7
  0
LINE
  5
378
100
AcDbEntity
  8
0
  6
CONTINUOUS
 62
     7
100
AcDbLine
 10
3725.61553
 20
-15293.766206
 30
0.0
 11
3695.017658
 21
-15263.168335
 31
0.0
  0
POLYLINE
  5
379
100
AcDbEntity
  8
0
  6
CONTINUOUS
 62
     7
100
AcDb2dPolyline
 66
     1
 10
0.0
 20
0.0
 30
0.0
 70
   128
  0
VERTEX
  5
37A
100
AcDbEntity
  8
0
  6
CONTINUOUS
 62
     7
100
AcDbVertex
100
AcDb2dVertex
 10
3694.838384
 20
-15258.605299
 30
0.0
  0
VERTEX
  5
37B
100
AcDbEntity
  8
0
  6
CONTINUOUS
 62
     7
100
AcDbVertex
100
AcDb2dVertex
 10
3694.880025
 20
-15259.665462
 30
0.0
  0
VERTEX
  5
37C
100
AcDbEntity
  8
0
  6
CONTINUOUS
 62
     7
100
AcDbVertex
100
AcDb2dVertex
 10
3694.920178
 20
-15260.687289
 30
0.0
  0
VERTEX
  5
37D
100
AcDbEntity
  8
0
  6
CONTINUOUS
 62
     7
100
AcDbVertex
100
AcDb2dVertex
 10
3694.957369
 20
-15261.633869
 30
0.0
  0
VERTEX
  5
37E
100
AcDbEntity
  8
0
  6
CONTINUOUS
 62
     7
100
AcDbVertex
100
AcDb2dVertex
 10
3694.990259
 20
-15262.470975
 30
0.0
  0
VERTEX
  5
37F
100
AcDbEntity
  8
0
  6
CONTINUOUS
 62
     7
100
AcDbVertex
100
AcDb2dVertex
 10
3695.017658
 20
-15263.168335
 30
0.0
  0
SEQEND
  5
380
100
AcDbEntity
  8
0
  6
CONTINUOUS
 62
     7
  0
POLYLINE
  5
381
100
AcDbEntity
  8
0
  6
CONTINUOUS
 62
     7
100
AcDb2dPolyline
 66
     1
 10
0.0
 20
0.0
 30
0.0
 70
   128
  0
VERTEX
  5
382
100
AcDbEntity
  8
0
  6
CONTINUOUS
 62
     7
100
AcDbVertex
100
AcDb2dVertex
 10
3690.620353
 20
-15258.77103
 30
0.0
  0
VERTEX
  5
383
100
AcDbEntity
  8
0
  6
CONTINUOUS
 62
     7
100
AcDbVertex
100
AcDb2dVertex
 10
3691.264985
 20
-15258.7457
 30
0.0
  0
VERTEX
  5
384
100
AcDbEntity
  8
0
  6
CONTINUOUS
 62
     7
100
AcDbVertex
100
AcDb2dVertex
 10
3692.038795
 20
-15258.71531
 30
0.0
  0
VERTEX
  5
385
100
AcDbEntity
  8
0
  6
CONTINUOUS
 62
     7
100
AcDbVertex
100
AcDb2dVertex
 10
3692.913806
 20
-15258.680932
 30
0.0
  0
VERTEX
  5
386
100
AcDbEntity
  8
0
  6
CONTINUOUS
 62
     7
100
AcDbVertex
100
AcDb2dVertex
 10
3693.858378
 20
-15258.643815
 30
0.0
  0
VERTEX
  5
387
100
AcDbEntity
  8
0
  6
CONTINUOUS
 62
     7
100
AcDbVertex
100
AcDb2dVertex
 10
3694.838384
 20
-15258.605299
 30
0.0
  0
SEQEND
  5
388
100
AcDbEntity
  8
0
  6
CONTINUOUS
 62
     7
  0
LINE
  5
389
100
AcDbEntity
  8
0
  6
CONTINUOUS
 62
     7
100
AcDbLine
 10
3690.620353
 20
-15258.77103
 30
0.0
 11
3659.194543
 21
-15227.34522
 31
0.0
  0
POLYLINE
  5
38A
100
AcDbEntity
  8
0
  6
CONTINUOUS
 62
     7
100
AcDb2dPolyline
 66
     1
 10
0.0
 20
0.0
 30
0.0
 70
   128
  0
VERTEX
  5
38B
100
AcDbEntity
  8
0
  6
CONTINUOUS
 62
     7
100
AcDbVertex
100
AcDb2dVertex
 10
3658.606034
 20
-15222.372948
 30
0.0
  0
VERTEX
  5
38C
100
AcDbEntity
  8
0
  6
CONTINUOUS
 62
     7
100
AcDbVertex
100
AcDb2dVertex
 10
3658.742758
 20
-15223.52818
 30
0.0
  0
VERTEX
  5
38D
100
AcDbEntity
  8
0
  6
CONTINUOUS
 62
     7
100
AcDbVertex
100
AcDb2dVertex
 10
3658.874557
 20
-15224.641682
 30
0.0
  0
VERTEX
  5
38E
100
AcDbEntity
  8
0
  6
CONTINUOUS
 62
     7
100
AcDbVertex
100
AcDb2dVertex
 10
3658.996637
 20
-15225.673152
 30
0.0
  0
VERTEX
  5
38F
100
AcDbEntity
  8
0
  6
CONTINUOUS
 62
     7
100
AcDbVertex
100
AcDb2dVertex
 10
3659.104594
 20
-15226.585324
 30
0.0
  0
VERTEX
  5
390
100
AcDbEntity
  8
0
  6
CONTINUOUS
 62
     7
100
AcDbVertex
100
AcDb2dVertex
 10
3659.194543
 20
-15227.34522
 30
0.0
  0
SEQEND
  5
391
100
AcDbEntity
  8
0
  6
CONTINUOUS
 62
     7
  0
POLYLINE
  5
392
100
AcDbEntity
  8
0
  6
CONTINUOUS
 62
     7
100
AcDb2dPolyline
 66
     1
 10
0.0
 20
0.0
 30
0.0
 70
   128
  0
VERTEX
  5
393
100
AcDbEntity
  8
0
  6
CONTINUOUS
 62
     7
100
AcDbVertex
100
AcDb2dVertex
 10
3654.686216
 20
-15222.836893
 30
0.0
  0
VERTEX
  5
394
100
AcDbEntity
  8
0
  6
CONTINUOUS
 62
     7
100
AcDbVertex
100
AcDb2dVertex
 10
3655.285277
 20
-15222.765993
 30
0.0
  0
VERTEX
  5
395
100
AcDbEntity
  8
0
  6
CONTINUOUS
 62
     7
100
AcDbVertex
100
AcDb2dVertex
 10
3656.004381
 20
-15222.680895
 30
0.0
  0
VERTEX
  5
396
100
AcDbEntity
  8
0
  6
CONTINUOUS
 62
     7
100
AcDbVertex
100
AcDb2dVertex
 10
3656.817525
 20
-15222.584636
 30
0.0
  0
VERTEX
  5
397
100
AcDbEntity
  8
0
  6
CONTINUOUS
 62
     7
100
AcDbVertex
100
AcDb2dVertex
 10
3657.69532
 20
-15222.480757
 30
0.0
  0
VERTEX
  5
398
100
AcDbEntity
  8
0
  6
CONTINUOUS
 62
     7
100
AcDbVertex
100
AcDb2dVertex
 10
3658.606034
 20
-15222.372948
 30
0.0
  0
SEQEND
  5
399
100
AcDbEntity
  8
0
  6
CONTINUOUS
 62
     7
  0
LINE
  5
39A
100
AcDbEntity
  8
0
  6
CONTINUOUS
 62
     7
100
AcDbLine
 10
3654.686216
 20
-15222.836893
 30
0.0
 11
3620.59781
 21
-15188.748501
 31
0.0
  0
LINE
  5
39B
100
AcDbEntity
  8
0
  6
CONTINUOUS
 62
     7
100
AcDbLine
 10
3804.931779
 20
-15364.314947
 30
0.0
 11
3624.468917
 21
-15183.8521
 31
0.0
  0
LINE
  5
39C
100
AcDbEntity
  8
0
  6
CONTINUOUS
 62
     7
100
AcDbLine
 10
3800.035378
 20
-15368.186054
 30
0.0
 11
3765.946957
 21
-15334.097648
 31
0.0
  0
POLYLINE
  5
39D
100
AcDbEntity
  8
0
  6
CONTINUOUS
 62
     7
100
AcDb2dPolyline
 66
     1
 10
0.0
 20
0.0
 30
0.0
 70
   128
  0
VERTEX
  5
39E
100
AcDbEntity
  8
0
  6
CONTINUOUS
 62
     7
100
AcDbVertex
100
AcDb2dVertex
 10
3766.410901
 20
-15330.177831
 30
0.0
  0
VERTEX
  5
39F
100
AcDbEntity
  8
0
  6
CONTINUOUS
 62
     7
100
AcDbVertex
100
AcDb2dVertex
 10
3766.303122
 20
-15331.088545
 30
0.0
  0
VERTEX
  5
3A0
100
AcDbEntity
  8
0
  6
CONTINUOUS
 62
     7
100
AcDbVertex
100
AcDb2dVertex
 10
3766.199213
 20
-15331.966354
 30
0.0
  0
VERTEX
  5
3A1
100
AcDbEntity
  8
0
  6
CONTINUOUS
 62
     7
100
AcDbVertex
100
AcDb2dVertex
 10
3766.102984
 20
-15332.779484
 30
0.0
  0
VERTEX
  5
3A2
100
AcDbEntity
  8
0
  6
CONTINUOUS
 62
     7
100
AcDbVertex
100
AcDb2dVertex
 10
3766.017886
 20
-15333.498587
 30
0.0
  0
VERTEX
  5
3A3
100
AcDbEntity
  8
0
  6
CONTINUOUS
 62
     7
100
AcDbVertex
100
AcDb2dVertex
 10
3765.946957
 20
-15334.097648
 30
0.0
  0
SEQEND
  5
3A4
100
AcDbEntity
  8
0
  6
CONTINUOUS
 62
     7
  0
POLYLINE
  5
3A5
100
AcDbEntity
  8
0
  6
CONTINUOUS
 62
     7
100
AcDb2dPolyline
 66
     1
 10
0.0
 20
0.0
 30
0.0
 70
   128
  0
VERTEX
  5
3A6
100
AcDbEntity
  8
0
  6
CONTINUOUS
 62
     7
100
AcDbVertex
100
AcDb2dVertex
 10
3316.782758
 20
-15227.34522
 30
0.0
  0
VERTEX
  5
3A7
100
AcDbEntity
  8
0
  6
CONTINUOUS
 62
     7
100
AcDbVertex
100
AcDb2dVertex
 10
3316.872707
 20
-15226.585324
 30
0.0
  0
VERTEX
  5
3A8
100
AcDbEntity
  8
0
  6
CONTINUOUS
 62
     7
100
AcDbVertex
100
AcDb2dVertex
 10
3316.980664
 20
-15225.673152
 30
0.0
  0
VERTEX
  5
3A9
100
AcDbEntity
  8
0
  6
CONTINUOUS
 62
     7
100
AcDbVertex
100
AcDb2dVertex
 10
3317.102744
 20
-15224.641682
 30
0.0
  0
VERTEX
  5
3AA
100
AcDbEntity
  8
0
  6
CONTINUOUS
 62
     7
100
AcDbVertex
100
AcDb2dVertex
 10
3317.234543
 20
-15223.52818
 30
0.0
  0
VERTEX
  5
3AB
100
AcDbEntity
  8
0
  6
CONTINUOUS
 62
     7
100
AcDbVertex
100
AcDb2dVertex
 10
3317.371268
 20
-15222.372948
 30
0.0
  0
SEQEND
  5
3AC
100
AcDbEntity
  8
0
  6
CONTINUOUS
 62
     7
  0
LINE
  5
3AD
100
AcDbEntity
  8
0
  6
CONTINUOUS
 62
     7
100
AcDbLine
 10
3316.782758
 20
-15227.34522
 30
0.0
 11
3285.356948
 21
-15258.77103
 31
0.0
  0
POLYLINE
  5
3AE
100
AcDbEntity
  8
0
  6
CONTINUOUS
 62
     7
100
AcDb2dPolyline
 66
     1
 10
0.0
 20
0.0
 30
0.0
 70
   128
  0
VERTEX
  5
3AF
100
AcDbEntity
  8
0
  6
CONTINUOUS
 62
     7
100
AcDbVertex
100
AcDb2dVertex
 10
3281.138917
 20
-15258.605299
 30
0.0
  0
VERTEX
  5
3B0
100
AcDbEntity
  8
0
  6
CONTINUOUS
 62
     7
100
AcDbVertex
100
AcDb2dVertex
 10
3282.118923
 20
-15258.643815
 30
0.0
  0
VERTEX
  5
3B1
100
AcDbEntity
  8
0
  6
CONTINUOUS
 62
     7
100
AcDbVertex
100
AcDb2dVertex
 10
3283.063495
 20
-15258.680932
 30
0.0
  0
VERTEX
  5
3B2
100
AcDbEntity
  8
0
  6
CONTINUOUS
 62
     7
100
AcDbVertex
100
AcDb2dVertex
 10
3283.938506
 20
-15258.71531
 30
0.0
  0
VERTEX
  5
3B3
100
AcDbEntity
  8
0
  6
CONTINUOUS
 62
     7
100
AcDbVertex
100
AcDb2dVertex
 10
3284.712317
 20
-15258.7457
 30
0.0
  0
VERTEX
  5
3B4
100
AcDbEntity
  8
0
  6
CONTINUOUS
 62
     7
100
AcDbVertex
100
AcDb2dVertex
 10
3285.356948
 20
-15258.77103
 30
0.0
  0
SEQEND
  5
3B5
100
AcDbEntity
  8
0
  6
CONTINUOUS
 62
     7
  0
POLYLINE
  5
3B6
100
AcDbEntity
  8
0
  6
CONTINUOUS
 62
     7
100
AcDb2dPolyline
 66
     1
 10
0.0
 20
0.0
 30
0.0
 70
   128
  0
VERTEX
  5
3B7
100
AcDbEntity
  8
0
  6
CONTINUOUS
 62
     7
100
AcDbVertex
100
AcDb2dVertex
 10
3280.959643
 20
-15263.168335
 30
0.0
  0
VERTEX
  5
3B8
100
AcDbEntity
  8
0
  6
CONTINUOUS
 62
     7
100
AcDbVertex
100
AcDb2dVertex
 10
3280.987042
 20
-15262.470975
 30
0.0
  0
VERTEX
  5
3B9
100
AcDbEntity
  8
0
  6
CONTINUOUS
 62
     7
100
AcDbVertex
100
AcDb2dVertex
 10
3281.019932
 20
-15261.633869
 30
0.0
  0
VERTEX
  5
3BA
100
AcDbEntity
  8
0
  6
CONTINUOUS
 62
     7
100
AcDbVertex
100
AcDb2dVertex
 10
3281.057123
 20
-15260.687289
 30
0.0
  0
VERTEX
  5
3BB
100
AcDbEntity
  8
0
  6
CONTINUOUS
 62
     7
100
AcDbVertex
100
AcDb2dVertex
 10
3281.097276
 20
-15259.665462
 30
0.0
  0
VERTEX
  5
3BC
100
AcDbEntity
  8
0
  6
CONTINUOUS
 62
     7
100
AcDbVertex
100
AcDb2dVertex
 10
3281.138917
 20
-15258.605299
 30
0.0
  0
SEQEND
  5
3BD
100
AcDbEntity
  8
0
  6
CONTINUOUS
 62
     7
  0
LINE
  5
3BE
100
AcDbEntity
  8
0
  6
CONTINUOUS
 62
     7
100
AcDbLine
 10
3280.959643
 20
-15263.168335
 30
0.0
 11
3250.361772
 21
-15293.766206
 31
0.0
  0
POLYLINE
  5
3BF
100
AcDbEntity
  8
0
  6
CONTINUOUS
 62
     7
100
AcDb2dPolyline
 66
     1
 10
0.0
 20
0.0
 30
0.0
 70
   128
  0
VERTEX
  5
3C0
100
AcDbEntity
  8
0
  6
CONTINUOUS
 62
     7
100
AcDbVertex
100
AcDb2dVertex
 10
3245.798736
 20
-15293.94548
 30
0.0
  0
VERTEX
  5
3C1
100
AcDbEntity
  8
0
  6
CONTINUOUS
 62
     7
100
AcDbVertex
100
AcDb2dVertex
 10
3246.858899
 20
-15293.903839
 30
0.0
  0
VERTEX
  5
3C2
100
AcDbEntity
  8
0
  6
CONTINUOUS
 62
     7
100
AcDbVertex
100
AcDb2dVertex
 10
3247.880726
 20
-15293.863686
 30
0.0
  0
VERTEX
  5
3C3
100
AcDbEntity
  8
0
  6
CONTINUOUS
 62
     7
100
AcDbVertex
100
AcDb2dVertex
 10
3248.827306
 20
-15293.82651
 30
0.0
  0
VERTEX
  5
3C4
100
AcDbEntity
  8
0
  6
CONTINUOUS
 62
     7
100
AcDbVertex
100
AcDb2dVertex
 10
3249.664412
 20
-15293.79362
 30
0.0
  0
VERTEX
  5
3C5
100
AcDbEntity
  8
0
  6
CONTINUOUS
 62
     7
100
AcDbVertex
100
AcDb2dVertex
 10
3250.361772
 20
-15293.766206
 30
0.0
  0
SEQEND
  5
3C6
100
AcDbEntity
  8
0
  6
CONTINUOUS
 62
     7
  0
POLYLINE
  5
3C7
100
AcDbEntity
  8
0
  6
CONTINUOUS
 62
     7
100
AcDb2dPolyline
 66
     1
 10
0.0
 20
0.0
 30
0.0
 70
   128
  0
VERTEX
  5
3C8
100
AcDbEntity
  8
0
  6
CONTINUOUS
 62
     7
100
AcDbVertex
100
AcDb2dVertex
 10
3245.964467
 20
-15298.163511
 30
0.0
  0
VERTEX
  5
3C9
100
AcDbEntity
  8
0
  6
CONTINUOUS
 62
     7
100
AcDbVertex
100
AcDb2dVertex
 10
3245.939137
 20
-15297.518894
 30
0.0
  0
VERTEX
  5
3CA
100
AcDbEntity
  8
0
  6
CONTINUOUS
 62
     7
100
AcDbVertex
100
AcDb2dVertex
 10
3245.908732
 20
-15296.745069
 30
0.0
  0
VERTEX
  5
3CB
100
AcDbEntity
  8
0
  6
CONTINUOUS
 62
     7
100
AcDbVertex
100
AcDb2dVertex
 10
3245.874354
 20
-15295.870073
 30
0.0
  0
VERTEX
  5
3CC
100
AcDbEntity
  8
0
  6
CONTINUOUS
 62
     7
100
AcDbVertex
100
AcDb2dVertex
 10
3245.837237
 20
-15294.925486
 30
0.0
  0
VERTEX
  5
3CD
100
AcDbEntity
  8
0
  6
CONTINUOUS
 62
     7
100
AcDbVertex
100
AcDb2dVertex
 10
3245.798736
 20
-15293.94548
 30
0.0
  0
SEQEND
  5
3CE
100
AcDbEntity
  8
0
  6
CONTINUOUS
 62
     7
  0
LINE
  5
3CF
100
AcDbEntity
  8
0
  6
CONTINUOUS
 62
     7
100
AcDbLine
 10
3245.964467
 20
-15298.163511
 30
0.0
 11
3214.538657
 21
-15329.589336
 31
0.0
  0
POLYLINE
  5
3D0
100
AcDbEntity
  8
0
  6
CONTINUOUS
 62
     7
100
AcDb2dPolyline
 66
     1
 10
0.0
 20
0.0
 30
0.0
 70
   128
  0
VERTEX
  5
3D1
100
AcDbEntity
  8
0
  6
CONTINUOUS
 62
     7
100
AcDbVertex
100
AcDb2dVertex
 10
3209.566385
 20
-15330.177831
 30
0.0
  0
VERTEX
  5
3D2
100
AcDbEntity
  8
0
  6
CONTINUOUS
 62
     7
100
AcDbVertex
100
AcDb2dVertex
 10
3210.721617
 20
-15330.041106
 30
0.0
  0
VERTEX
  5
3D3
100
AcDbEntity
  8
0
  6
CONTINUOUS
 62
     7
100
AcDbVertex
100
AcDb2dVertex
 10
3211.835089
 20
-15329.909322
 30
0.0
  0
VERTEX
  5
3D4
100
AcDbEntity
  8
0
  6
CONTINUOUS
 62
     7
100
AcDbVertex
100
AcDb2dVertex
 10
3212.866559
 20
-15329.787242
 30
0.0
  0
VERTEX
  5
3D5
100
AcDbEntity
  8
0
  6
CONTINUOUS
 62
     7
100
AcDbVertex
100
AcDb2dVertex
 10
3213.778732
 20
-15329.67927
 30
0.0
  0
VERTEX
  5
3D6
100
AcDbEntity
  8
0
  6
CONTINUOUS
 62
     7
100
AcDbVertex
100
AcDb2dVertex
 10
3214.538657
 20
-15329.589336
 30
0.0
  0
SEQEND
  5
3D7
100
AcDbEntity
  8
0
  6
CONTINUOUS
 62
     7
  0
POLYLINE
  5
3D8
100
AcDbEntity
  8
0
  6
CONTINUOUS
 62
     7
100
AcDb2dPolyline
 66
     1
 10
0.0
 20
0.0
 30
0.0
 70
   128
  0
VERTEX
  5
3D9
100
AcDbEntity
  8
0
  6
CONTINUOUS
 62
     7
100
AcDbVertex
100
AcDb2dVertex
 10
3210.03033
 20
-15334.097648
 30
0.0
  0
VERTEX
  5
3DA
100
AcDbEntity
  8
0
  6
CONTINUOUS
 62
     7
100
AcDbVertex
100
AcDb2dVertex
 10
3209.95943
 20
-15333.498587
 30
0.0
  0
VERTEX
  5
3DB
100
AcDbEntity
  8
0
  6
CONTINUOUS
 62
     7
100
AcDbVertex
100
AcDb2dVertex
 10
3209.874302
 20
-15332.779484
 30
0.0
  0
VERTEX
  5
3DC
100
AcDbEntity
  8
0
  6
CONTINUOUS
 62
     7
100
AcDbVertex
100
AcDb2dVertex
 10
3209.778073
 20
-15331.966354
 30
0.0
  0
VERTEX
  5
3DD
100
AcDbEntity
  8
0
  6
CONTINUOUS
 62
     7
100
AcDbVertex
100
AcDb2dVertex
 10
3209.674194
 20
-15331.088545
 30
0.0
  0
VERTEX
  5
3DE
100
AcDbEntity
  8
0
  6
CONTINUOUS
 62
     7
100
AcDbVertex
100
AcDb2dVertex
 10
3209.566385
 20
-15330.177831
 30
0.0
  0
SEQEND
  5
3DF
100
AcDbEntity
  8
0
  6
CONTINUOUS
 62
     7
  0
LINE
  5
3E0
100
AcDbEntity
  8
0
  6
CONTINUOUS
 62
     7
100
AcDbLine
 10
3210.03033
 20
-15334.097648
 30
0.0
 11
3175.941938
 21
-15368.186054
 31
0.0
  0
LINE
  5
3E1
100
AcDbEntity
  8
0
  6
CONTINUOUS
 62
     7
100
AcDbLine
 10
3351.508384
 20
-15183.8521
 30
0.0
 11
3171.045507
 21
-15364.314947
 31
0.0
  0
LINE
  5
3E2
100
AcDbEntity
  8
0
  6
CONTINUOUS
 62
     7
100
AcDbLine
 10
3355.379491
 20
-15188.748501
 30
0.0
 11
3321.291085
 21
-15222.836893
 31
0.0
  0
POLYLINE
  5
3E3
100
AcDbEntity
  8
0
  6
CONTINUOUS
 62
     7
100
AcDb2dPolyline
 66
     1
 10
0.0
 20
0.0
 30
0.0
 70
   128
  0
VERTEX
  5
3E4
100
AcDbEntity
  8
0
  6
CONTINUOUS
 62
     7
100
AcDbVertex
100
AcDb2dVertex
 10
3317.371268
 20
-15222.372948
 30
0.0
  0
VERTEX
  5
3E5
100
AcDbEntity
  8
0
  6
CONTINUOUS
 62
     7
100
AcDbVertex
100
AcDb2dVertex
 10
3318.281982
 20
-15222.480757
 30
0.0
  0
VERTEX
  5
3E6
100
AcDbEntity
  8
0
  6
CONTINUOUS
 62
     7
100
AcDbVertex
100
AcDb2dVertex
 10
3319.159776
 20
-15222.584636
 30
0.0
  0
VERTEX
  5
3E7
100
AcDbEntity
  8
0
  6
CONTINUOUS
 62
     7
100
AcDbVertex
100
AcDb2dVertex
 10
3319.972921
 20
-15222.680895
 30
0.0
  0
VERTEX
  5
3E8
100
AcDbEntity
  8
0
  6
CONTINUOUS
 62
     7
100
AcDbVertex
100
AcDb2dVertex
 10
3320.692024
 20
-15222.765993
 30
0.0
  0
VERTEX
  5
3E9
100
AcDbEntity
  8
0
  6
CONTINUOUS
 62
     7
100
AcDbVertex
100
AcDb2dVertex
 10
3321.291085
 20
-15222.836893
 30
0.0
  0
SEQEND
  5
3EA
100
AcDbEntity
  8
0
  6
CONTINUOUS
 62
     7
  0
LINE
  5
3EB
100
AcDbEntity
  8
0
  6
CONTINUOUS
 62
     7
100
AcDbLine
 10
3566.661883
 20
-15186.376037
 30
0.0
 11
3549.394191
 21
-15258.301133
 31
0.0
  0
POLYLINE
  5
3EC
100
AcDbEntity
  8
0
  6
CONTINUOUS
 62
     7
100
AcDb2dPolyline
 66
     1
 10
0.0
 20
0.0
 30
0.0
 70
   128
  0
VERTEX
  5
3ED
100
AcDbEntity
  8
0
  6
CONTINUOUS
 62
     7
100
AcDbVertex
100
AcDb2dVertex
 10
3549.394191
 20
-15258.301133
 30
0.0
  0
VERTEX
  5
3EE
100
AcDbEntity
  8
0
  6
CONTINUOUS
 62
     7
100
AcDbVertex
100
AcDb2dVertex
 10
3548.803233
 20
-15258.159244
 30
0.0
  0
VERTEX
  5
3EF
100
AcDbEntity
  8
0
  6
CONTINUOUS
 62
     7
100
AcDbVertex
100
AcDb2dVertex
 10
3548.075643
 20
-15257.984584
 30
0.0
  0
VERTEX
  5
3F0
100
AcDbEntity
  8
0
  6
CONTINUOUS
 62
     7
100
AcDbVertex
100
AcDb2dVertex
 10
3547.252445
 20
-15257.786946
 30
0.0
  0
VERTEX
  5
3F1
100
AcDbEntity
  8
0
  6
CONTINUOUS
 62
     7
100
AcDbVertex
100
AcDb2dVertex
 10
3546.380057
 20
-15257.577491
 30
0.0
  0
VERTEX
  5
3F2
100
AcDbEntity
  8
0
  6
CONTINUOUS
 62
     7
100
AcDbVertex
100
AcDb2dVertex
 10
3545.507673
 20
-15257.368065
 30
0.0
  0
VERTEX
  5
3F3
100
AcDbEntity
  8
0
  6
CONTINUOUS
 62
     7
100
AcDbVertex
100
AcDb2dVertex
 10
3544.684475
 20
-15257.170427
 30
0.0
  0
VERTEX
  5
3F4
100
AcDbEntity
  8
0
  6
CONTINUOUS
 62
     7
100
AcDbVertex
100
AcDb2dVertex
 10
3543.956885
 20
-15256.995737
 30
0.0
  0
VERTEX
  5
3F5
100
AcDbEntity
  8
0
  6
CONTINUOUS
 62
     7
100
AcDbVertex
100
AcDb2dVertex
 10
3543.365923
 20
-15256.853878
 30
0.0
  0
SEQEND
  5
3F6
100
AcDbEntity
  8
0
  6
CONTINUOUS
 62
     7
  0
LINE
  5
3F7
100
AcDbEntity
  8
0
  6
CONTINUOUS
 62
     7
100
AcDbLine
 10
3560.286156
 20
-15186.376037
 30
0.0
 11
3543.365923
 21
-15256.853878
 31
0.0
  0
LINE
  5
3F8
100
AcDbEntity
  8
0
  6
CONTINUOUS
 62
     7
100
AcDbLine
 10
3659.194543
 20
-15227.34522
 30
0.0
 11
3621.32358
 21
-15289.144981
 31
0.0
  0
POLYLINE
  5
3F9
100
AcDbEntity
  8
0
  6
CONTINUOUS
 62
     7
100
AcDb2dPolyline
 66
     1
 10
0.0
 20
0.0
 30
0.0
 70
   128
  0
VERTEX
  5
3FA
100
AcDbEntity
  8
0
  6
CONTINUOUS
 62
     7
100
AcDbVertex
100
AcDb2dVertex
 10
3621.32358
 20
-15289.144981
 30
0.0
  0
VERTEX
  5
3FB
100
AcDbEntity
  8
0
  6
CONTINUOUS
 62
     7
100
AcDbVertex
100
AcDb2dVertex
 10
3620.80539
 20
-15288.82745
 30
0.0
  0
VERTEX
  5
3FC
100
AcDbEntity
  8
0
  6
CONTINUOUS
 62
     7
100
AcDbVertex
100
AcDb2dVertex
 10
3620.167396
 20
-15288.436459
 30
0.0
  0
VERTEX
  5
3FD
100
AcDbEntity
  8
0
  6
CONTINUOUS
 62
     7
100
AcDbVertex
100
AcDb2dVertex
 10
3619.445554
 20
-15287.994124
 30
0.0
  0
VERTEX
  5
3FE
100
AcDbEntity
  8
0
  6
CONTINUOUS
 62
     7
100
AcDbVertex
100
AcDb2dVertex
 10
3618.680584
 20
-15287.525358
 30
0.0
  0
VERTEX
  5
3FF
100
AcDbEntity
  8
0
  6
CONTINUOUS
 62
     7
100
AcDbVertex
100
AcDb2dVertex
 10
3617.915613
 20
-15287.056592
 30
0.0
  0
VERTEX
  5
400
100
AcDbEntity
  8
0
  6
CONTINUOUS
 62
     7
100
AcDbVertex
100
AcDb2dVertex
 10
3617.193787
 20
-15286.614257
 30
0.0
  0
VERTEX
  5
401
100
AcDbEntity
  8
0
  6
CONTINUOUS
 62
     7
100
AcDbVertex
100
AcDb2dVertex
 10
3616.555778
 20
-15286.223267
 30
0.0
  0
VERTEX
  5
402
100
AcDbEntity
  8
0
  6
CONTINUOUS
 62
     7
100
AcDbVertex
100
AcDb2dVertex
 10
3616.037587
 20
-15285.905736
 30
0.0
  0
SEQEND
  5
403
100
AcDbEntity
  8
0
  6
CONTINUOUS
 62
     7
  0
LINE
  5
404
100
AcDbEntity
  8
0
  6
CONTINUOUS
 62
     7
100
AcDbLine
 10
3654.686216
 20
-15222.836893
 30
0.0
 11
3616.037587
 21
-15285.905736
 31
0.0
  0
LINE
  5
405
100
AcDbEntity
  8
0
  6
CONTINUOUS
 62
     7
100
AcDbLine
 10
3515.843345
 20
-15186.376037
 30
0.0
 11
3510.703758
 21
-15251.680694
 31
0.0
  0
POLYLINE
  5
406
100
AcDbEntity
  8
0
  6
CONTINUOUS
 62
     7
100
AcDb2dPolyline
 66
     1
 10
0.0
 20
0.0
 30
0.0
 70
   128
  0
VERTEX
  5
407
100
AcDbEntity
  8
0
  6
CONTINUOUS
 62
     7
100
AcDbVertex
100
AcDb2dVertex
 10
3510.703758
 20
-15251.680694
 30
0.0
  0
VERTEX
  5
408
100
AcDbEntity
  8
0
  6
CONTINUOUS
 62
     7
100
AcDbVertex
100
AcDb2dVertex
 10
3510.097878
 20
-15251.633011
 30
0.0
  0
VERTEX
  5
409
100
AcDbEntity
  8
0
  6
CONTINUOUS
 62
     7
100
AcDbVertex
100
AcDb2dVertex
 10
3509.351918
 20
-15251.574285
 30
0.0
  0
VERTEX
  5
40A
100
AcDbEntity
  8
0
  6
CONTINUOUS
 62
     7
100
AcDbVertex
100
AcDb2dVertex
 10
3508.50794
 20
-15251.507879
 30
0.0
  0
VERTEX
  5
40B
100
AcDbEntity
  8
0
  6
CONTINUOUS
 62
     7
100
AcDbVertex
100
AcDb2dVertex
 10
3507.61353
 20
-15251.437486
 30
0.0
  0
VERTEX
  5
40C
100
AcDbEntity
  8
0
  6
CONTINUOUS
 62
     7
100
AcDbVertex
100
AcDb2dVertex
 10
3506.71912
 20
-15251.367092
 30
0.0
  0
VERTEX
  5
40D
100
AcDbEntity
  8
0
  6
CONTINUOUS
 62
     7
100
AcDbVertex
100
AcDb2dVertex
 10
3505.875142
 20
-15251.300657
 30
0.0
  0
VERTEX
  5
40E
100
AcDbEntity
  8
0
  6
CONTINUOUS
 62
     7
100
AcDbVertex
100
AcDb2dVertex
 10
3505.129182
 20
-15251.241961
 30
0.0
  0
VERTEX
  5
40F
100
AcDbEntity
  8
0
  6
CONTINUOUS
 62
     7
100
AcDbVertex
100
AcDb2dVertex
 10
3504.523302
 20
-15251.194277
 30
0.0
  0
SEQEND
  5
410
100
AcDbEntity
  8
0
  6
CONTINUOUS
 62
     7
  0
LINE
  5
411
100
AcDbEntity
  8
0
  6
CONTINUOUS
 62
     7
100
AcDbLine
 10
3509.62461
 20
-15186.376037
 30
0.0
 11
3504.523302
 21
-15251.194277
 31
0.0
  0
LINE
  5
412
100
AcDbEntity
  8
0
  6
CONTINUOUS
 62
     7
100
AcDbLine
 10
3321.291085
 20
-15222.836893
 30
0.0
 11
3359.939714
 21
-15285.905736
 31
0.0
  0
POLYLINE
  5
413
100
AcDbEntity
  8
0
  6
CONTINUOUS
 62
     7
100
AcDb2dPolyline
 66
     1
 10
0.0
 20
0.0
 30
0.0
 70
   128
  0
VERTEX
  5
414
100
AcDbEntity
  8
0
  6
CONTINUOUS
 62
     7
100
AcDbVertex
100
AcDb2dVertex
 10
3359.939714
 20
-15285.905736
 30
0.0
  0
VERTEX
  5
415
100
AcDbEntity
  8
0
  6
CONTINUOUS
 62
     7
100
AcDbVertex
100
AcDb2dVertex
 10
3359.421523
 20
-15286.223267
 30
0.0
  0
VERTEX
  5
416
100
AcDbEntity
  8
0
  6
CONTINUOUS
 62
     7
100
AcDbVertex
100
AcDb2dVertex
 10
3358.783515
 20
-15286.614257
 30
0.0
  0
VERTEX
  5
417
100
AcDbEntity
  8
0
  6
CONTINUOUS
 62
     7
100
AcDbVertex
100
AcDb2dVertex
 10
3358.061673
 20
-15287.056592
 30
0.0
  0
VERTEX
  5
418
100
AcDbEntity
  8
0
  6
CONTINUOUS
 62
     7
100
AcDbVertex
100
AcDb2dVertex
 10
3357.296717
 20
-15287.525358
 30
0.0
  0
VERTEX
  5
419
100
AcDbEntity
  8
0
  6
CONTINUOUS
 62
     7
100
AcDbVertex
100
AcDb2dVertex
 10
3356.531747
 20
-15287.994124
 30
0.0
  0
VERTEX
  5
41A
100
AcDbEntity
  8
0
  6
CONTINUOUS
 62
     7
100
AcDbVertex
100
AcDb2dVertex
 10
3355.809905
 20
-15288.436459
 30
0.0
  0
VERTEX
  5
41B
100
AcDbEntity
  8
0
  6
CONTINUOUS
 62
     7
100
AcDbVertex
100
AcDb2dVertex
 10
3355.171912
 20
-15288.82745
 30
0.0
  0
VERTEX
  5
41C
100
AcDbEntity
  8
0
  6
CONTINUOUS
 62
     7
100
AcDbVertex
100
AcDb2dVertex
 10
3354.653706
 20
-15289.144981
 30
0.0
  0
SEQEND
  5
41D
100
AcDbEntity
  8
0
  6
CONTINUOUS
 62
     7
  0
LINE
  5
41E
100
AcDbEntity
  8
0
  6
CONTINUOUS
 62
     7
100
AcDbLine
 10
3316.782758
 20
-15227.34522
 30
0.0
 11
3354.653706
 21
-15289.144981
 31
0.0
  0
LINE
  5
41F
100
AcDbEntity
  8
0
  6
CONTINUOUS
 62
     7
100
AcDbLine
 10
3466.352691
 20
-15186.376037
 30
0.0
 11
3471.453998
 21
-15251.194277
 31
0.0
  0
POLYLINE
  5
420
100
AcDbEntity
  8
0
  6
CONTINUOUS
 62
     7
100
AcDb2dPolyline
 66
     1
 10
0.0
 20
0.0
 30
0.0
 70
   128
  0
VERTEX
  5
421
100
AcDbEntity
  8
0
  6
CONTINUOUS
 62
     7
100
AcDbVertex
100
AcDb2dVertex
 10
3471.453998
 20
-15251.194277
 30
0.0
  0
VERTEX
  5
422
100
AcDbEntity
  8
0
  6
CONTINUOUS
 62
     7
100
AcDbVertex
100
AcDb2dVertex
 10
3470.848119
 20
-15251.241961
 30
0.0
  0
VERTEX
  5
423
100
AcDbEntity
  8
0
  6
CONTINUOUS
 62
     7
100
AcDbVertex
100
AcDb2dVertex
 10
3470.102159
 20
-15251.300657
 30
0.0
  0
VERTEX
  5
424
100
AcDbEntity
  8
0
  6
CONTINUOUS
 62
     7
100
AcDbVertex
100
AcDb2dVertex
 10
3469.258181
 20
-15251.367092
 30
0.0
  0
VERTEX
  5
425
100
AcDbEntity
  8
0
  6
CONTINUOUS
 62
     7
100
AcDbVertex
100
AcDb2dVertex
 10
3468.363771
 20
-15251.437486
 30
0.0
  0
VERTEX
  5
426
100
AcDbEntity
  8
0
  6
CONTINUOUS
 62
     7
100
AcDbVertex
100
AcDb2dVertex
 10
3467.469361
 20
-15251.507879
 30
0.0
  0
VERTEX
  5
427
100
AcDbEntity
  8
0
  6
CONTINUOUS
 62
     7
100
AcDbVertex
100
AcDb2dVertex
 10
3466.625383
 20
-15251.574285
 30
0.0
  0
VERTEX
  5
428
100
AcDbEntity
  8
0
  6
CONTINUOUS
 62
     7
100
AcDbVertex
100
AcDb2dVertex
 10
3465.879423
 20
-15251.633011
 30
0.0
  0
VERTEX
  5
429
100
AcDbEntity
  8
0
  6
CONTINUOUS
 62
     7
100
AcDbVertex
100
AcDb2dVertex
 10
3465.273543
 20
-15251.680694
 30
0.0
  0
SEQEND
  5
42A
100
AcDbEntity
  8
0
  6
CONTINUOUS
 62
     7
  0
LINE
  5
42B
100
AcDbEntity
  8
0
  6
CONTINUOUS
 62
     7
100
AcDbLine
 10
3460.133956
 20
-15186.376037
 30
0.0
 11
3465.273543
 21
-15251.680694
 31
0.0
  0
LINE
  5
42C
100
AcDbEntity
  8
0
  6
CONTINUOUS
 62
     7
100
AcDbLine
 10
3415.691145
 20
-15186.376037
 30
0.0
 11
3432.611378
 21
-15256.853878
 31
0.0
  0
POLYLINE
  5
42D
100
AcDbEntity
  8
0
  6
CONTINUOUS
 62
     7
100
AcDb2dPolyline
 66
     1
 10
0.0
 20
0.0
 30
0.0
 70
   128
  0
VERTEX
  5
42E
100
AcDbEntity
  8
0
  6
CONTINUOUS
 62
     7
100
AcDbVertex
100
AcDb2dVertex
 10
3432.611378
 20
-15256.853878
 30
0.0
  0
VERTEX
  5
42F
100
AcDbEntity
  8
0
  6
CONTINUOUS
 62
     7
100
AcDbVertex
100
AcDb2dVertex
 10
3432.020416
 20
-15256.995737
 30
0.0
  0
VERTEX
  5
430
100
AcDbEntity
  8
0
  6
CONTINUOUS
 62
     7
100
AcDbVertex
100
AcDb2dVertex
 10
3431.292826
 20
-15257.170427
 30
0.0
  0
VERTEX
  5
431
100
AcDbEntity
  8
0
  6
CONTINUOUS
 62
     7
100
AcDbVertex
100
AcDb2dVertex
 10
3430.469628
 20
-15257.368065
 30
0.0
  0
VERTEX
  5
432
100
AcDbEntity
  8
0
  6
CONTINUOUS
 62
     7
100
AcDbVertex
100
AcDb2dVertex
 10
3429.597244
 20
-15257.577491
 30
0.0
  0
VERTEX
  5
433
100
AcDbEntity
  8
0
  6
CONTINUOUS
 62
     7
100
AcDbVertex
100
AcDb2dVertex
 10
3428.724856
 20
-15257.786946
 30
0.0
  0
VERTEX
  5
434
100
AcDbEntity
  8
0
  6
CONTINUOUS
 62
     7
100
AcDbVertex
100
AcDb2dVertex
 10
3427.901658
 20
-15257.984584
 30
0.0
  0
VERTEX
  5
435
100
AcDbEntity
  8
0
  6
CONTINUOUS
 62
     7
100
AcDbVertex
100
AcDb2dVertex
 10
3427.174068
 20
-15258.159244
 30
0.0
  0
VERTEX
  5
436
100
AcDbEntity
  8
0
  6
CONTINUOUS
 62
     7
100
AcDbVertex
100
AcDb2dVertex
 10
3426.583106
 20
-15258.301133
 30
0.0
  0
SEQEND
  5
437
100
AcDbEntity
  8
0
  6
CONTINUOUS
 62
     7
  0
LINE
  5
438
100
AcDbEntity
  8
0
  6
CONTINUOUS
 62
     7
100
AcDbLine
 10
3409.315418
 20
-15186.376037
 30
0.0
 11
3426.583106
 21
-15258.301133
 31
0.0
  0
LINE
  5
439
100
AcDbEntity
  8
0
  6
CONTINUOUS
 62
     7
100
AcDbLine
 10
3695.017658
 20
-15263.168335
 30
0.0
 11
3652.791403
 21
-15312.608941
 31
0.0
  0
POLYLINE
  5
43A
100
AcDbEntity
  8
0
  6
CONTINUOUS
 62
     7
100
AcDb2dPolyline
 66
     1
 10
0.0
 20
0.0
 30
0.0
 70
   128
  0
VERTEX
  5
43B
100
AcDbEntity
  8
0
  6
CONTINUOUS
 62
     7
100
AcDbVertex
100
AcDb2dVertex
 10
3652.791403
 20
-15312.608941
 30
0.0
  0
VERTEX
  5
43C
100
AcDbEntity
  8
0
  6
CONTINUOUS
 62
     7
100
AcDbVertex
100
AcDb2dVertex
 10
3652.329259
 20
-15312.21423
 30
0.0
  0
VERTEX
  5
43D
100
AcDbEntity
  8
0
  6
CONTINUOUS
 62
     7
100
AcDbVertex
100
AcDb2dVertex
 10
3651.760275
 20
-15311.728259
 30
0.0
  0
VERTEX
  5
43E
100
AcDbEntity
  8
0
  6
CONTINUOUS
 62
     7
100
AcDbVertex
100
AcDb2dVertex
 10
3651.116522
 20
-15311.178444
 30
0.0
  0
VERTEX
  5
43F
100
AcDbEntity
  8
0
  6
CONTINUOUS
 62
     7
100
AcDbVertex
100
AcDb2dVertex
 10
3650.434312
 20
-15310.595798
 30
0.0
  0
VERTEX
  5
440
100
AcDbEntity
  8
0
  6
CONTINUOUS
 62
     7
100
AcDbVertex
100
AcDb2dVertex
 10
3649.752088
 20
-15310.013122
 30
0.0
  0
VERTEX
  5
441
100
AcDbEntity
  8
0
  6
CONTINUOUS
 62
     7
100
AcDbVertex
100
AcDb2dVertex
 10
3649.108334
 20
-15309.463306
 30
0.0
  0
VERTEX
  5
442
100
AcDbEntity
  8
0
  6
CONTINUOUS
 62
     7
100
AcDbVertex
100
AcDb2dVertex
 10
3648.53935
 20
-15308.977336
 30
0.0
  0
VERTEX
  5
443
100
AcDbEntity
  8
0
  6
CONTINUOUS
 62
     7
100
AcDbVertex
100
AcDb2dVertex
 10
3648.077222
 20
-15308.582654
 30
0.0
  0
SEQEND
  5
444
100
AcDbEntity
  8
0
  6
CONTINUOUS
 62
     7
  0
LINE
  5
445
100
AcDbEntity
  8
0
  6
CONTINUOUS
 62
     7
100
AcDbLine
 10
3690.620353
 20
-15258.77103
 30
0.0
 11
3648.077222
 21
-15308.582654
 31
0.0
  0
LINE
  5
446
100
AcDbEntity
  8
0
  6
CONTINUOUS
 62
     7
100
AcDbLine
 10
3285.356948
 20
-15258.77103
 30
0.0
 11
3327.900079
 21
-15308.582654
 31
0.0
  0
POLYLINE
  5
447
100
AcDbEntity
  8
0
  6
CONTINUOUS
 62
     7
100
AcDb2dPolyline
 66
     1
 10
0.0
 20
0.0
 30
0.0
 70
   128
  0
VERTEX
  5
448
100
AcDbEntity
  8
0
  6
CONTINUOUS
 62
     7
100
AcDbVertex
100
AcDb2dVertex
 10
3327.900079
 20
-15308.582654
 30
0.0
  0
VERTEX
  5
449
100
AcDbEntity
  8
0
  6
CONTINUOUS
 62
     7
100
AcDbVertex
100
AcDb2dVertex
 10
3327.437951
 20
-15308.977336
 30
0.0
  0
VERTEX
  5
44A
100
AcDbEntity
  8
0
  6
CONTINUOUS
 62
     7
100
AcDbVertex
100
AcDb2dVertex
 10
3326.868967
 20
-15309.463306
 30
0.0
  0
VERTEX
  5
44B
100
AcDbEntity
  8
0
  6
CONTINUOUS
 62
     7
100
AcDbVertex
100
AcDb2dVertex
 10
3326.225213
 20
-15310.013122
 30
0.0
  0
VERTEX
  5
44C
100
AcDbEntity
  8
0
  6
CONTINUOUS
 62
     7
100
AcDbVertex
100
AcDb2dVertex
 10
3325.542989
 20
-15310.595798
 30
0.0
  0
VERTEX
  5
44D
100
AcDbEntity
  8
0
  6
CONTINUOUS
 62
     7
100
AcDbVertex
100
AcDb2dVertex
 10
3324.860779
 20
-15311.178444
 30
0.0
  0
VERTEX
  5
44E
100
AcDbEntity
  8
0
  6
CONTINUOUS
 62
     7
100
AcDbVertex
100
AcDb2dVertex
 10
3324.217026
 20
-15311.728259
 30
0.0
  0
VERTEX
  5
44F
100
AcDbEntity
  8
0
  6
CONTINUOUS
 62
     7
100
AcDbVertex
100
AcDb2dVertex
 10
3323.648042
 20
-15312.21423
 30
0.0
  0
VERTEX
  5
450
100
AcDbEntity
  8
0
  6
CONTINUOUS
 62
     7
100
AcDbVertex
100
AcDb2dVertex
 10
3323.185898
 20
-15312.608941
 30
0.0
  0
SEQEND
  5
451
100
AcDbEntity
  8
0
  6
CONTINUOUS
 62
     7
  0
LINE
  5
452
100
AcDbEntity
  8
0
  6
CONTINUOUS
 62
     7
100
AcDbLine
 10
3280.959643
 20
-15263.168335
 30
0.0
 11
3323.185898
 21
-15312.608941
 31
0.0
  0
POLYLINE
  5
453
100
AcDbEntity
  8
0
  6
CONTINUOUS
 62
     7
100
AcDb2dPolyline
 66
     1
 10
0.0
 20
0.0
 30
0.0
 70
   128
  0
VERTEX
  5
454
100
AcDbEntity
  8
0
  6
CONTINUOUS
 62
     7
100
AcDbVertex
100
AcDb2dVertex
 10
3802.407842
 20
-15573.092724
 30
0.0
  0
VERTEX
  5
455
100
AcDbEntity
  8
0
  6
CONTINUOUS
 62
     7
100
AcDbVertex
100
AcDb2dVertex
 10
3802.881579
 20
-15573.693656
 30
0.0
  0
VERTEX
  5
456
100
AcDbEntity
  8
0
  6
CONTINUOUS
 62
     7
100
AcDbVertex
100
AcDb2dVertex
 10
3803.450235
 20
-15574.415001
 30
0.0
  0
VERTEX
  5
457
100
AcDbEntity
  8
0
  6
CONTINUOUS
 62
     7
100
AcDbVertex
100
AcDb2dVertex
 10
3804.093274
 20
-15575.230685
 30
0.0
  0
VERTEX
  5
458
100
AcDbEntity
  8
0
  6
CONTINUOUS
 62
     7
100
AcDbVertex
100
AcDb2dVertex
 10
3804.78742
 20
-15576.11122
 30
0.0
  0
VERTEX
  5
459
100
AcDbEntity
  8
0
  6
CONTINUOUS
 62
     7
100
AcDbVertex
100
AcDb2dVertex
 10
3805.507639
 20
-15577.024779
 30
0.0
  0
SEQEND
  5
45A
100
AcDbEntity
  8
0
  6
CONTINUOUS
 62
     7
  0
LINE
  5
45B
100
AcDbEntity
  8
0
  6
CONTINUOUS
 62
     7
100
AcDbLine
 10
3802.407842
 20
-15573.092724
 30
0.0
 11
3802.407842
 21
-15528.649912
 31
0.0
  0
POLYLINE
  5
45C
100
AcDbEntity
  8
0
  6
CONTINUOUS
 62
     7
100
AcDb2dPolyline
 66
     1
 10
0.0
 20
0.0
 30
0.0
 70
   128
  0
VERTEX
  5
45D
100
AcDbEntity
  8
0
  6
CONTINUOUS
 62
     7
100
AcDbVertex
100
AcDb2dVertex
 10
3805.507639
 20
-15525.784501
 30
0.0
  0
VERTEX
  5
45E
100
AcDbEntity
  8
0
  6
CONTINUOUS
 62
     7
100
AcDbVertex
100
AcDb2dVertex
 10
3804.78742
 20
-15526.45024
 30
0.0
  0
VERTEX
  5
45F
100
AcDbEntity
  8
0
  6
CONTINUOUS
 62
     7
100
AcDbVertex
100
AcDb2dVertex
 10
3804.093274
 20
-15527.091913
 30
0.0
  0
VERTEX
  5
460
100
AcDbEntity
  8
0
  6
CONTINUOUS
 62
     7
100
AcDbVertex
100
AcDb2dVertex
 10
3803.450235
 20
-15527.686328
 30
0.0
  0
VERTEX
  5
461
100
AcDbEntity
  8
0
  6
CONTINUOUS
 62
     7
100
AcDbVertex
100
AcDb2dVertex
 10
3802.881579
 20
-15528.211993
 30
0.0
  0
VERTEX
  5
462
100
AcDbEntity
  8
0
  6
CONTINUOUS
 62
     7
100
AcDbVertex
100
AcDb2dVertex
 10
3802.407842
 20
-15528.649912
 30
0.0
  0
SEQEND
  5
463
100
AcDbEntity
  8
0
  6
CONTINUOUS
 62
     7
  0
POLYLINE
  5
464
100
AcDbEntity
  8
0
  6
CONTINUOUS
 62
     7
100
AcDb2dPolyline
 66
     1
 10
0.0
 20
0.0
 30
0.0
 70
   128
  0
VERTEX
  5
465
100
AcDbEntity
  8
0
  6
CONTINUOUS
 62
     7
100
AcDbVertex
100
AcDb2dVertex
 10
3802.407842
 20
-15522.431179
 30
0.0
  0
VERTEX
  5
466
100
AcDbEntity
  8
0
  6
CONTINUOUS
 62
     7
100
AcDbVertex
100
AcDb2dVertex
 10
3802.881579
 20
-15522.943662
 30
0.0
  0
VERTEX
  5
467
100
AcDbEntity
  8
0
  6
CONTINUOUS
 62
     7
100
AcDbVertex
100
AcDb2dVertex
 10
3803.450235
 20
-15523.558837
 30
0.0
  0
VERTEX
  5
468
100
AcDbEntity
  8
0
  6
CONTINUOUS
 62
     7
100
AcDbVertex
100
AcDb2dVertex
 10
3804.093274
 20
-15524.254467
 30
0.0
  0
VERTEX
  5
469
100
AcDbEntity
  8
0
  6
CONTINUOUS
 62
     7
100
AcDbVertex
100
AcDb2dVertex
 10
3804.78742
 20
-15525.005404
 30
0.0
  0
VERTEX
  5
46A
100
AcDbEntity
  8
0
  6
CONTINUOUS
 62
     7
100
AcDbVertex
100
AcDb2dVertex
 10
3805.507639
 20
-15525.784501
 30
0.0
  0
SEQEND
  5
46B
100
AcDbEntity
  8
0
  6
CONTINUOUS
 62
     7
  0
LINE
  5
46C
100
AcDbEntity
  8
0
  6
CONTINUOUS
 62
     7
100
AcDbLine
 10
3802.407842
 20
-15522.431179
 30
0.0
 11
3802.407842
 21
-15479.15926
 31
0.0
  0
POLYLINE
  5
46D
100
AcDbEntity
  8
0
  6
CONTINUOUS
 62
     7
100
AcDb2dPolyline
 66
     1
 10
0.0
 20
0.0
 30
0.0
 70
   128
  0
VERTEX
  5
46E
100
AcDbEntity
  8
0
  6
CONTINUOUS
 62
     7
100
AcDbVertex
100
AcDb2dVertex
 10
3805.507639
 20
-15475.805933
 30
0.0
  0
VERTEX
  5
46F
100
AcDbEntity
  8
0
  6
CONTINUOUS
 62
     7
100
AcDbVertex
100
AcDb2dVertex
 10
3804.78742
 20
-15476.585035
 30
0.0
  0
VERTEX
  5
470
100
AcDbEntity
  8
0
  6
CONTINUOUS
 62
     7
100
AcDbVertex
100
AcDb2dVertex
 10
3804.093274
 20
-15477.335971
 30
0.0
  0
VERTEX
  5
471
100
AcDbEntity
  8
0
  6
CONTINUOUS
 62
     7
100
AcDbVertex
100
AcDb2dVertex
 10
3803.450235
 20
-15478.031597
 30
0.0
  0
VERTEX
  5
472
100
AcDbEntity
  8
0
  6
CONTINUOUS
 62
     7
100
AcDbVertex
100
AcDb2dVertex
 10
3802.881579
 20
-15478.646769
 30
0.0
  0
VERTEX
  5
473
100
AcDbEntity
  8
0
  6
CONTINUOUS
 62
     7
100
AcDbVertex
100
AcDb2dVertex
 10
3802.407842
 20
-15479.15926
 30
0.0
  0
SEQEND
  5
474
100
AcDbEntity
  8
0
  6
CONTINUOUS
 62
     7
  0
POLYLINE
  5
475
100
AcDbEntity
  8
0
  6
CONTINUOUS
 62
     7
100
AcDb2dPolyline
 66
     1
 10
0.0
 20
0.0
 30
0.0
 70
   128
  0
VERTEX
  5
476
100
AcDbEntity
  8
0
  6
CONTINUOUS
 62
     7
100
AcDbVertex
100
AcDb2dVertex
 10
3802.407842
 20
-15472.940519
 30
0.0
  0
VERTEX
  5
477
100
AcDbEntity
  8
0
  6
CONTINUOUS
 62
     7
100
AcDbVertex
100
AcDb2dVertex
 10
3802.881579
 20
-15473.378442
 30
0.0
  0
VERTEX
  5
478
100
AcDbEntity
  8
0
  6
CONTINUOUS
 62
     7
100
AcDbVertex
100
AcDb2dVertex
 10
3803.450235
 20
-15473.904103
 30
0.0
  0
VERTEX
  5
479
100
AcDbEntity
  8
0
  6
CONTINUOUS
 62
     7
100
AcDbVertex
100
AcDb2dVertex
 10
3804.093274
 20
-15474.498521
 30
0.0
  0
VERTEX
  5
47A
100
AcDbEntity
  8
0
  6
CONTINUOUS
 62
     7
100
AcDbVertex
100
AcDb2dVertex
 10
3804.78742
 20
-15475.140191
 30
0.0
  0
VERTEX
  5
47B
100
AcDbEntity
  8
0
  6
CONTINUOUS
 62
     7
100
AcDbVertex
100
AcDb2dVertex
 10
3805.507639
 20
-15475.805933
 30
0.0
  0
SEQEND
  5
47C
100
AcDbEntity
  8
0
  6
CONTINUOUS
 62
     7
  0
LINE
  5
47D
100
AcDbEntity
  8
0
  6
CONTINUOUS
 62
     7
100
AcDbLine
 10
3802.407842
 20
-15472.940519
 30
0.0
 11
3802.407842
 21
-15428.497708
 31
0.0
  0
POLYLINE
  5
47E
100
AcDbEntity
  8
0
  6
CONTINUOUS
 62
     7
100
AcDb2dPolyline
 66
     1
 10
0.0
 20
0.0
 30
0.0
 70
   128
  0
VERTEX
  5
47F
100
AcDbEntity
  8
0
  6
CONTINUOUS
 62
     7
100
AcDbVertex
100
AcDb2dVertex
 10
3805.507639
 20
-15424.565657
 30
0.0
  0
VERTEX
  5
480
100
AcDbEntity
  8
0
  6
CONTINUOUS
 62
     7
100
AcDbVertex
100
AcDb2dVertex
 10
3804.78742
 20
-15425.479214
 30
0.0
  0
VERTEX
  5
481
100
AcDbEntity
  8
0
  6
CONTINUOUS
 62
     7
100
AcDbVertex
100
AcDb2dVertex
 10
3804.093274
 20
-15426.359746
 30
0.0
  0
VERTEX
  5
482
100
AcDbEntity
  8
0
  6
CONTINUOUS
 62
     7
100
AcDbVertex
100
AcDb2dVertex
 10
3803.450235
 20
-15427.175436
 30
0.0
  0
VERTEX
  5
483
100
AcDbEntity
  8
0
  6
CONTINUOUS
 62
     7
100
AcDbVertex
100
AcDb2dVertex
 10
3802.881579
 20
-15427.896786
 30
0.0
  0
VERTEX
  5
484
100
AcDbEntity
  8
0
  6
CONTINUOUS
 62
     7
100
AcDbVertex
100
AcDb2dVertex
 10
3802.407842
 20
-15428.497708
 30
0.0
  0
SEQEND
  5
485
100
AcDbEntity
  8
0
  6
CONTINUOUS
 62
     7
  0
POLYLINE
  5
486
100
AcDbEntity
  8
0
  6
CONTINUOUS
 62
     7
100
AcDb2dPolyline
 66
     1
 10
0.0
 20
0.0
 30
0.0
 70
   128
  0
VERTEX
  5
487
100
AcDbEntity
  8
0
  6
CONTINUOUS
 62
     7
100
AcDbVertex
100
AcDb2dVertex
 10
3802.407842
 20
-15422.121981
 30
0.0
  0
VERTEX
  5
488
100
AcDbEntity
  8
0
  6
CONTINUOUS
 62
     7
100
AcDbVertex
100
AcDb2dVertex
 10
3802.881579
 20
-15422.495455
 30
0.0
  0
VERTEX
  5
489
100
AcDbEntity
  8
0
  6
CONTINUOUS
 62
     7
100
AcDbVertex
100
AcDb2dVertex
 10
3803.450235
 20
-15422.943743
 30
0.0
  0
VERTEX
  5
48A
100
AcDbEntity
  8
0
  6
CONTINUOUS
 62
     7
100
AcDbVertex
100
AcDb2dVertex
 10
3804.093274
 20
-15423.450667
 30
0.0
  0
VERTEX
  5
48B
100
AcDbEntity
  8
0
  6
CONTINUOUS
 62
     7
100
AcDbVertex
100
AcDb2dVertex
 10
3804.78742
 20
-15423.997908
 30
0.0
  0
VERTEX
  5
48C
100
AcDbEntity
  8
0
  6
CONTINUOUS
 62
     7
100
AcDbVertex
100
AcDb2dVertex
 10
3805.507639
 20
-15424.565657
 30
0.0
  0
SEQEND
  5
48D
100
AcDbEntity
  8
0
  6
CONTINUOUS
 62
     7
  0
LINE
  5
48E
100
AcDbEntity
  8
0
  6
CONTINUOUS
 62
     7
100
AcDbLine
 10
3802.407842
 20
-15422.121981
 30
0.0
 11
3802.407842
 21
-15373.913698
 31
0.0
  0
LINE
  5
48F
100
AcDbEntity
  8
0
  6
CONTINUOUS
 62
     7
100
AcDbLine
 10
3808.607406
 20
-15628.401734
 30
0.0
 11
3808.607406
 21
-15373.188701
 31
0.0
  0
LINE
  5
490
100
AcDbEntity
  8
0
  6
CONTINUOUS
 62
     7
100
AcDbLine
 10
3802.407842
 20
-15627.67673
 30
0.0
 11
3802.407842
 21
-15579.46845
 31
0.0
  0
POLYLINE
  5
491
100
AcDbEntity
  8
0
  6
CONTINUOUS
 62
     7
100
AcDb2dPolyline
 66
     1
 10
0.0
 20
0.0
 30
0.0
 70
   128
  0
VERTEX
  5
492
100
AcDbEntity
  8
0
  6
CONTINUOUS
 62
     7
100
AcDbVertex
100
AcDb2dVertex
 10
3805.507639
 20
-15577.024779
 30
0.0
  0
VERTEX
  5
493
100
AcDbEntity
  8
0
  6
CONTINUOUS
 62
     7
100
AcDbVertex
100
AcDb2dVertex
 10
3804.78742
 20
-15577.592533
 30
0.0
  0
VERTEX
  5
494
100
AcDbEntity
  8
0
  6
CONTINUOUS
 62
     7
100
AcDbVertex
100
AcDb2dVertex
 10
3804.093274
 20
-15578.139764
 30
0.0
  0
VERTEX
  5
495
100
AcDbEntity
  8
0
  6
CONTINUOUS
 62
     7
100
AcDbVertex
100
AcDb2dVertex
 10
3803.450235
 20
-15578.64669
 30
0.0
  0
VERTEX
  5
496
100
AcDbEntity
  8
0
  6
CONTINUOUS
 62
     7
100
AcDbVertex
100
AcDb2dVertex
 10
3802.881579
 20
-15579.094987
 30
0.0
  0
VERTEX
  5
497
100
AcDbEntity
  8
0
  6
CONTINUOUS
 62
     7
100
AcDbVertex
100
AcDb2dVertex
 10
3802.407842
 20
-15579.46845
 30
0.0
  0
SEQEND
  5
498
100
AcDbEntity
  8
0
  6
CONTINUOUS
 62
     7
  0
POLYLINE
  5
499
100
AcDbEntity
  8
0
  6
CONTINUOUS
 62
     7
100
AcDb2dPolyline
 66
     1
 10
0.0
 20
0.0
 30
0.0
 70
   128
  0
VERTEX
  5
49A
100
AcDbEntity
  8
0
  6
CONTINUOUS
 62
     7
100
AcDbVertex
100
AcDb2dVertex
 10
3173.569444
 20
-15472.940519
 30
0.0
  0
VERTEX
  5
49B
100
AcDbEntity
  8
0
  6
CONTINUOUS
 62
     7
100
AcDbVertex
100
AcDb2dVertex
 10
3173.095708
 20
-15473.378442
 30
0.0
  0
VERTEX
  5
49C
100
AcDbEntity
  8
0
  6
CONTINUOUS
 62
     7
100
AcDbVertex
100
AcDb2dVertex
 10
3172.527051
 20
-15473.904103
 30
0.0
  0
VERTEX
  5
49D
100
AcDbEntity
  8
0
  6
CONTINUOUS
 62
     7
100
AcDbVertex
100
AcDb2dVertex
 10
3171.884012
 20
-15474.498521
 30
0.0
  0
VERTEX
  5
49E
100
AcDbEntity
  8
0
  6
CONTINUOUS
 62
     7
100
AcDbVertex
100
AcDb2dVertex
 10
3171.189867
 20
-15475.140191
 30
0.0
  0
VERTEX
  5
49F
100
AcDbEntity
  8
0
  6
CONTINUOUS
 62
     7
100
AcDbVertex
100
AcDb2dVertex
 10
3170.469677
 20
-15475.805933
 30
0.0
  0
SEQEND
  5
4A0
100
AcDbEntity
  8
0
  6
CONTINUOUS
 62
     7
  0
POLYLINE
  5
4A1
100
AcDbEntity
  8
0
  6
CONTINUOUS
 62
     7
100
AcDb2dPolyline
 66
     1
 10
0.0
 20
0.0
 30
0.0
 70
   128
  0
VERTEX
  5
4A2
100
AcDbEntity
  8
0
  6
CONTINUOUS
 62
     7
100
AcDbVertex
100
AcDb2dVertex
 10
3170.469677
 20
-15475.805933
 30
0.0
  0
VERTEX
  5
4A3
100
AcDbEntity
  8
0
  6
CONTINUOUS
 62
     7
100
AcDbVertex
100
AcDb2dVertex
 10
3171.189867
 20
-15476.585035
 30
0.0
  0
VERTEX
  5
4A4
100
AcDbEntity
  8
0
  6
CONTINUOUS
 62
     7
100
AcDbVertex
100
AcDb2dVertex
 10
3171.884012
 20
-15477.335971
 30
0.0
  0
VERTEX
  5
4A5
100
AcDbEntity
  8
0
  6
CONTINUOUS
 62
     7
100
AcDbVertex
100
AcDb2dVertex
 10
3172.527051
 20
-15478.031597
 30
0.0
  0
VERTEX
  5
4A6
100
AcDbEntity
  8
0
  6
CONTINUOUS
 62
     7
100
AcDbVertex
100
AcDb2dVertex
 10
3173.095708
 20
-15478.646769
 30
0.0
  0
VERTEX
  5
4A7
100
AcDbEntity
  8
0
  6
CONTINUOUS
 62
     7
100
AcDbVertex
100
AcDb2dVertex
 10
3173.569444
 20
-15479.15926
 30
0.0
  0
SEQEND
  5
4A8
100
AcDbEntity
  8
0
  6
CONTINUOUS
 62
     7
  0
LINE
  5
4A9
100
AcDbEntity
  8
0
  6
CONTINUOUS
 62
     7
100
AcDbLine
 10
3173.569444
 20
-15522.431179
 30
0.0
 11
3173.569444
 21
-15479.15926
 31
0.0
  0
POLYLINE
  5
4AA
100
AcDbEntity
  8
0
  6
CONTINUOUS
 62
     7
100
AcDb2dPolyline
 66
     1
 10
0.0
 20
0.0
 30
0.0
 70
   128
  0
VERTEX
  5
4AB
100
AcDbEntity
  8
0
  6
CONTINUOUS
 62
     7
100
AcDbVertex
100
AcDb2dVertex
 10
3173.569444
 20
-15522.431179
 30
0.0
  0
VERTEX
  5
4AC
100
AcDbEntity
  8
0
  6
CONTINUOUS
 62
     7
100
AcDbVertex
100
AcDb2dVertex
 10
3173.095708
 20
-15522.943662
 30
0.0
  0
VERTEX
  5
4AD
100
AcDbEntity
  8
0
  6
CONTINUOUS
 62
     7
100
AcDbVertex
100
AcDb2dVertex
 10
3172.527051
 20
-15523.558837
 30
0.0
  0
VERTEX
  5
4AE
100
AcDbEntity
  8
0
  6
CONTINUOUS
 62
     7
100
AcDbVertex
100
AcDb2dVertex
 10
3171.884012
 20
-15524.254467
 30
0.0
  0
VERTEX
  5
4AF
100
AcDbEntity
  8
0
  6
CONTINUOUS
 62
     7
100
AcDbVertex
100
AcDb2dVertex
 10
3171.189867
 20
-15525.005404
 30
0.0
  0
VERTEX
  5
4B0
100
AcDbEntity
  8
0
  6
CONTINUOUS
 62
     7
100
AcDbVertex
100
AcDb2dVertex
 10
3170.469677
 20
-15525.784501
 30
0.0
  0
SEQEND
  5
4B1
100
AcDbEntity
  8
0
  6
CONTINUOUS
 62
     7
  0
POLYLINE
  5
4B2
100
AcDbEntity
  8
0
  6
CONTINUOUS
 62
     7
100
AcDb2dPolyline
 66
     1
 10
0.0
 20
0.0
 30
0.0
 70
   128
  0
VERTEX
  5
4B3
100
AcDbEntity
  8
0
  6
CONTINUOUS
 62
     7
100
AcDbVertex
100
AcDb2dVertex
 10
3170.469677
 20
-15525.784501
 30
0.0
  0
VERTEX
  5
4B4
100
AcDbEntity
  8
0
  6
CONTINUOUS
 62
     7
100
AcDbVertex
100
AcDb2dVertex
 10
3171.189867
 20
-15526.45024
 30
0.0
  0
VERTEX
  5
4B5
100
AcDbEntity
  8
0
  6
CONTINUOUS
 62
     7
100
AcDbVertex
100
AcDb2dVertex
 10
3171.884012
 20
-15527.091913
 30
0.0
  0
VERTEX
  5
4B6
100
AcDbEntity
  8
0
  6
CONTINUOUS
 62
     7
100
AcDbVertex
100
AcDb2dVertex
 10
3172.527051
 20
-15527.686328
 30
0.0
  0
VERTEX
  5
4B7
100
AcDbEntity
  8
0
  6
CONTINUOUS
 62
     7
100
AcDbVertex
100
AcDb2dVertex
 10
3173.095708
 20
-15528.211993
 30
0.0
  0
VERTEX
  5
4B8
100
AcDbEntity
  8
0
  6
CONTINUOUS
 62
     7
100
AcDbVertex
100
AcDb2dVertex
 10
3173.569444
 20
-15528.649912
 30
0.0
  0
SEQEND
  5
4B9
100
AcDbEntity
  8
0
  6
CONTINUOUS
 62
     7
  0
LINE
  5
4BA
100
AcDbEntity
  8
0
  6
CONTINUOUS
 62
     7
100
AcDbLine
 10
3173.569444
 20
-15573.092724
 30
0.0
 11
3173.569444
 21
-15528.649912
 31
0.0
  0
POLYLINE
  5
4BB
100
AcDbEntity
  8
0
  6
CONTINUOUS
 62
     7
100
AcDb2dPolyline
 66
     1
 10
0.0
 20
0.0
 30
0.0
 70
   128
  0
VERTEX
  5
4BC
100
AcDbEntity
  8
0
  6
CONTINUOUS
 62
     7
100
AcDbVertex
100
AcDb2dVertex
 10
3173.569444
 20
-15573.092724
 30
0.0
  0
VERTEX
  5
4BD
100
AcDbEntity
  8
0
  6
CONTINUOUS
 62
     7
100
AcDbVertex
100
AcDb2dVertex
 10
3173.095708
 20
-15573.693656
 30
0.0
  0
VERTEX
  5
4BE
100
AcDbEntity
  8
0
  6
CONTINUOUS
 62
     7
100
AcDbVertex
100
AcDb2dVertex
 10
3172.527051
 20
-15574.415001
 30
0.0
  0
VERTEX
  5
4BF
100
AcDbEntity
  8
0
  6
CONTINUOUS
 62
     7
100
AcDbVertex
100
AcDb2dVertex
 10
3171.884012
 20
-15575.230685
 30
0.0
  0
VERTEX
  5
4C0
100
AcDbEntity
  8
0
  6
CONTINUOUS
 62
     7
100
AcDbVertex
100
AcDb2dVertex
 10
3171.189867
 20
-15576.11122
 30
0.0
  0
VERTEX
  5
4C1
100
AcDbEntity
  8
0
  6
CONTINUOUS
 62
     7
100
AcDbVertex
100
AcDb2dVertex
 10
3170.469677
 20
-15577.024779
 30
0.0
  0
SEQEND
  5
4C2
100
AcDbEntity
  8
0
  6
CONTINUOUS
 62
     7
  0
POLYLINE
  5
4C3
100
AcDbEntity
  8
0
  6
CONTINUOUS
 62
     7
100
AcDb2dPolyline
 66
     1
 10
0.0
 20
0.0
 30
0.0
 70
   128
  0
VERTEX
  5
4C4
100
AcDbEntity
  8
0
  6
CONTINUOUS
 62
     7
100
AcDbVertex
100
AcDb2dVertex
 10
3170.469677
 20
-15577.024779
 30
0.0
  0
VERTEX
  5
4C5
100
AcDbEntity
  8
0
  6
CONTINUOUS
 62
     7
100
AcDbVertex
100
AcDb2dVertex
 10
3171.189867
 20
-15577.592533
 30
0.0
  0
VERTEX
  5
4C6
100
AcDbEntity
  8
0
  6
CONTINUOUS
 62
     7
100
AcDbVertex
100
AcDb2dVertex
 10
3171.884012
 20
-15578.139764
 30
0.0
  0
VERTEX
  5
4C7
100
AcDbEntity
  8
0
  6
CONTINUOUS
 62
     7
100
AcDbVertex
100
AcDb2dVertex
 10
3172.527051
 20
-15578.64669
 30
0.0
  0
VERTEX
  5
4C8
100
AcDbEntity
  8
0
  6
CONTINUOUS
 62
     7
100
AcDbVertex
100
AcDb2dVertex
 10
3173.095708
 20
-15579.094987
 30
0.0
  0
VERTEX
  5
4C9
100
AcDbEntity
  8
0
  6
CONTINUOUS
 62
     7
100
AcDbVertex
100
AcDb2dVertex
 10
3173.569444
 20
-15579.46845
 30
0.0
  0
SEQEND
  5
4CA
100
AcDbEntity
  8
0
  6
CONTINUOUS
 62
     7
  0
LINE
  5
4CB
100
AcDbEntity
  8
0
  6
CONTINUOUS
 62
     7
100
AcDbLine
 10
3173.569444
 20
-15627.67673
 30
0.0
 11
3173.569444
 21
-15579.46845
 31
0.0
  0
LINE
  5
4CC
100
AcDbEntity
  8
0
  6
CONTINUOUS
 62
     7
100
AcDbLine
 10
3167.36988
 20
-15628.401734
 30
0.0
 11
3167.36988
 21
-15373.188701
 31
0.0
  0
LINE
  5
4CD
100
AcDbEntity
  8
0
  6
CONTINUOUS
 62
     7
100
AcDbLine
 10
3173.569444
 20
-15422.121981
 30
0.0
 11
3173.569444
 21
-15373.913698
 31
0.0
  0
POLYLINE
  5
4CE
100
AcDbEntity
  8
0
  6
CONTINUOUS
 62
     7
100
AcDb2dPolyline
 66
     1
 10
0.0
 20
0.0
 30
0.0
 70
   128
  0
VERTEX
  5
4CF
100
AcDbEntity
  8
0
  6
CONTINUOUS
 62
     7
100
AcDbVertex
100
AcDb2dVertex
 10
3173.569444
 20
-15422.121981
 30
0.0
  0
VERTEX
  5
4D0
100
AcDbEntity
  8
0
  6
CONTINUOUS
 62
     7
100
AcDbVertex
100
AcDb2dVertex
 10
3173.095708
 20
-15422.495455
 30
0.0
  0
VERTEX
  5
4D1
100
AcDbEntity
  8
0
  6
CONTINUOUS
 62
     7
100
AcDbVertex
100
AcDb2dVertex
 10
3172.527051
 20
-15422.943743
 30
0.0
  0
VERTEX
  5
4D2
100
AcDbEntity
  8
0
  6
CONTINUOUS
 62
     7
100
AcDbVertex
100
AcDb2dVertex
 10
3171.884012
 20
-15423.450667
 30
0.0
  0
VERTEX
  5
4D3
100
AcDbEntity
  8
0
  6
CONTINUOUS
 62
     7
100
AcDbVertex
100
AcDb2dVertex
 10
3171.189867
 20
-15423.997908
 30
0.0
  0
VERTEX
  5
4D4
100
AcDbEntity
  8
0
  6
CONTINUOUS
 62
     7
100
AcDbVertex
100
AcDb2dVertex
 10
3170.469677
 20
-15424.565657
 30
0.0
  0
SEQEND
  5
4D5
100
AcDbEntity
  8
0
  6
CONTINUOUS
 62
     7
  0
POLYLINE
  5
4D6
100
AcDbEntity
  8
0
  6
CONTINUOUS
 62
     7
100
AcDb2dPolyline
 66
     1
 10
0.0
 20
0.0
 30
0.0
 70
   128
  0
VERTEX
  5
4D7
100
AcDbEntity
  8
0
  6
CONTINUOUS
 62
     7
100
AcDbVertex
100
AcDb2dVertex
 10
3170.469677
 20
-15424.565657
 30
0.0
  0
VERTEX
  5
4D8
100
AcDbEntity
  8
0
  6
CONTINUOUS
 62
     7
100
AcDbVertex
100
AcDb2dVertex
 10
3171.189867
 20
-15425.479214
 30
0.0
  0
VERTEX
  5
4D9
100
AcDbEntity
  8
0
  6
CONTINUOUS
 62
     7
100
AcDbVertex
100
AcDb2dVertex
 10
3171.884012
 20
-15426.359746
 30
0.0
  0
VERTEX
  5
4DA
100
AcDbEntity
  8
0
  6
CONTINUOUS
 62
     7
100
AcDbVertex
100
AcDb2dVertex
 10
3172.527051
 20
-15427.175436
 30
0.0
  0
VERTEX
  5
4DB
100
AcDbEntity
  8
0
  6
CONTINUOUS
 62
     7
100
AcDbVertex
100
AcDb2dVertex
 10
3173.095708
 20
-15427.896786
 30
0.0
  0
VERTEX
  5
4DC
100
AcDbEntity
  8
0
  6
CONTINUOUS
 62
     7
100
AcDbVertex
100
AcDb2dVertex
 10
3173.569444
 20
-15428.497708
 30
0.0
  0
SEQEND
  5
4DD
100
AcDbEntity
  8
0
  6
CONTINUOUS
 62
     7
  0
LINE
  5
4DE
100
AcDbEntity
  8
0
  6
CONTINUOUS
 62
     7
100
AcDbLine
 10
3173.569444
 20
-15472.940519
 30
0.0
 11
3173.569444
 21
-15428.497708
 31
0.0
  0
LINE
  5
4DF
100
AcDbEntity
  8
0
  6
CONTINUOUS
 62
     7
100
AcDbLine
 10
3730.012834
 20
-15298.163511
 30
0.0
 11
3680.201225
 21
-15340.706657
 31
0.0
  0
POLYLINE
  5
4E0
100
AcDbEntity
  8
0
  6
CONTINUOUS
 62
     7
100
AcDb2dPolyline
 66
     1
 10
0.0
 20
0.0
 30
0.0
 70
   128
  0
VERTEX
  5
4E1
100
AcDbEntity
  8
0
  6
CONTINUOUS
 62
     7
100
AcDbVertex
100
AcDb2dVertex
 10
3680.201225
 20
-15340.706657
 30
0.0
  0
VERTEX
  5
4E2
100
AcDbEntity
  8
0
  6
CONTINUOUS
 62
     7
100
AcDbVertex
100
AcDb2dVertex
 10
3679.806528
 20
-15340.244514
 30
0.0
  0
VERTEX
  5
4E3
100
AcDbEntity
  8
0
  6
CONTINUOUS
 62
     7
100
AcDbVertex
100
AcDb2dVertex
 10
3679.320558
 20
-15339.67553
 30
0.0
  0
VERTEX
  5
4E4
100
AcDbEntity
  8
0
  6
CONTINUOUS
 62
     7
100
AcDbVertex
100
AcDb2dVertex
 10
3678.770743
 20
-15339.031776
 30
0.0
  0
VERTEX
  5
4E5
100
AcDbEntity
  8
0
  6
CONTINUOUS
 62
     7
100
AcDbVertex
100
AcDb2dVertex
 10
3678.188081
 20
-15338.349552
 30
0.0
  0
VERTEX
  5
4E6
100
AcDbEntity
  8
0
  6
CONTINUOUS
 62
     7
100
AcDbVertex
100
AcDb2dVertex
 10
3677.605405
 20
-15337.667342
 30
0.0
  0
VERTEX
  5
4E7
100
AcDbEntity
  8
0
  6
CONTINUOUS
 62
     7
100
AcDbVertex
100
AcDb2dVertex
 10
3677.05559
 20
-15337.023589
 30
0.0
  0
VERTEX
  5
4E8
100
AcDbEntity
  8
0
  6
CONTINUOUS
 62
     7
100
AcDbVertex
100
AcDb2dVertex
 10
3676.569635
 20
-15336.454605
 30
0.0
  0
VERTEX
  5
4E9
100
AcDbEntity
  8
0
  6
CONTINUOUS
 62
     7
100
AcDbVertex
100
AcDb2dVertex
 10
3676.174938
 20
-15335.992461
 30
0.0
  0
SEQEND
  5
4EA
100
AcDbEntity
  8
0
  6
CONTINUOUS
 62
     7
  0
LINE
  5
4EB
100
AcDbEntity
  8
0
  6
CONTINUOUS
 62
     7
100
AcDbLine
 10
3725.61553
 20
-15293.766206
 30
0.0
 11
3676.174938
 21
-15335.992461
 31
0.0
  0
LINE
  5
4EC
100
AcDbEntity
  8
0
  6
CONTINUOUS
 62
     7
100
AcDbLine
 10
3250.361772
 20
-15293.766206
 30
0.0
 11
3299.802363
 21
-15335.992461
 31
0.0
  0
POLYLINE
  5
4ED
100
AcDbEntity
  8
0
  6
CONTINUOUS
 62
     7
100
AcDb2dPolyline
 66
     1
 10
0.0
 20
0.0
 30
0.0
 70
   128
  0
VERTEX
  5
4EE
100
AcDbEntity
  8
0
  6
CONTINUOUS
 62
     7
100
AcDbVertex
100
AcDb2dVertex
 10
3299.802363
 20
-15335.992461
 30
0.0
  0
VERTEX
  5
4EF
100
AcDbEntity
  8
0
  6
CONTINUOUS
 62
     7
100
AcDbVertex
100
AcDb2dVertex
 10
3299.407667
 20
-15336.454605
 30
0.0
  0
VERTEX
  5
4F0
100
AcDbEntity
  8
0
  6
CONTINUOUS
 62
     7
100
AcDbVertex
100
AcDb2dVertex
 10
3298.921711
 20
-15337.023589
 30
0.0
  0
VERTEX
  5
4F1
100
AcDbEntity
  8
0
  6
CONTINUOUS
 62
     7
100
AcDbVertex
100
AcDb2dVertex
 10
3298.371896
 20
-15337.667342
 30
0.0
  0
VERTEX
  5
4F2
100
AcDbEntity
  8
0
  6
CONTINUOUS
 62
     7
100
AcDbVertex
100
AcDb2dVertex
 10
3297.78922
 20
-15338.349552
 30
0.0
  0
VERTEX
  5
4F3
100
AcDbEntity
  8
0
  6
CONTINUOUS
 62
     7
100
AcDbVertex
100
AcDb2dVertex
 10
3297.206559
 20
-15339.031776
 30
0.0
  0
VERTEX
  5
4F4
100
AcDbEntity
  8
0
  6
CONTINUOUS
 62
     7
100
AcDbVertex
100
AcDb2dVertex
 10
3296.656743
 20
-15339.67553
 30
0.0
  0
VERTEX
  5
4F5
100
AcDbEntity
  8
0
  6
CONTINUOUS
 62
     7
100
AcDbVertex
100
AcDb2dVertex
 10
3296.170773
 20
-15340.244514
 30
0.0
  0
VERTEX
  5
4F6
100
AcDbEntity
  8
0
  6
CONTINUOUS
 62
     7
100
AcDbVertex
100
AcDb2dVertex
 10
3295.776076
 20
-15340.706657
 30
0.0
  0
SEQEND
  5
4F7
100
AcDbEntity
  8
0
  6
CONTINUOUS
 62
     7
  0
LINE
  5
4F8
100
AcDbEntity
  8
0
  6
CONTINUOUS
 62
     7
100
AcDbLine
 10
3245.964467
 20
-15298.163511
 30
0.0
 11
3295.776076
 21
-15340.706657
 31
0.0
  0
LINE
  5
4F9
100
AcDbEntity
  8
0
  6
CONTINUOUS
 62
     7
100
AcDbLine
 10
3214.538657
 20
-15329.589336
 30
0.0
 11
3276.338418
 21
-15367.460284
 31
0.0
  0
POLYLINE
  5
4FA
100
AcDbEntity
  8
0
  6
CONTINUOUS
 62
     7
100
AcDb2dPolyline
 66
     1
 10
0.0
 20
0.0
 30
0.0
 70
   128
  0
VERTEX
  5
4FB
100
AcDbEntity
  8
0
  6
CONTINUOUS
 62
     7
100
AcDbVertex
100
AcDb2dVertex
 10
3276.338418
 20
-15367.460284
 30
0.0
  0
VERTEX
  5
4FC
100
AcDbEntity
  8
0
  6
CONTINUOUS
 62
     7
100
AcDbVertex
100
AcDb2dVertex
 10
3276.020872
 20
-15367.978475
 30
0.0
  0
VERTEX
  5
4FD
100
AcDbEntity
  8
0
  6
CONTINUOUS
 62
     7
100
AcDbVertex
100
AcDb2dVertex
 10
3275.629911
 20
-15368.616483
 30
0.0
  0
VERTEX
  5
4FE
100
AcDbEntity
  8
0
  6
CONTINUOUS
 62
     7
100
AcDbVertex
100
AcDb2dVertex
 10
3275.187561
 20
-15369.33831
 30
0.0
  0
VERTEX
  5
4FF
100
AcDbEntity
  8
0
  6
CONTINUOUS
 62
     7
100
AcDbVertex
100
AcDb2dVertex
 10
3274.718795
 20
-15370.103281
 30
0.0
  0
VERTEX
  5
500
100
AcDbEntity
  8
0
  6
CONTINUOUS
 62
     7
100
AcDbVertex
100
AcDb2dVertex
 10
3274.250014
 20
-15370.868251
 30
0.0
  0
VERTEX
  5
501
100
AcDbEntity
  8
0
  6
CONTINUOUS
 62
     7
100
AcDbVertex
100
AcDb2dVertex
 10
3273.807679
 20
-15371.590078
 30
0.0
  0
VERTEX
  5
502
100
AcDbEntity
  8
0
  6
CONTINUOUS
 62
     7
100
AcDbVertex
100
AcDb2dVertex
 10
3273.416704
 20
-15372.228086
 30
0.0
  0
VERTEX
  5
503
100
AcDbEntity
  8
0
  6
CONTINUOUS
 62
     7
100
AcDbVertex
100
AcDb2dVertex
 10
3273.099158
 20
-15372.746277
 30
0.0
  0
SEQEND
  5
504
100
AcDbEntity
  8
0
  6
CONTINUOUS
 62
     7
  0
LINE
  5
505
100
AcDbEntity
  8
0
  6
CONTINUOUS
 62
     7
100
AcDbLine
 10
3210.03033
 20
-15334.097648
 30
0.0
 11
3273.099158
 21
-15372.746277
 31
0.0
  0
LINE
  5
506
100
AcDbEntity
  8
0
  6
CONTINUOUS
 62
     7
100
AcDbLine
 10
3765.946957
 20
-15334.097648
 30
0.0
 11
3702.878144
 21
-15372.746277
 31
0.0
  0
POLYLINE
  5
507
100
AcDbEntity
  8
0
  6
CONTINUOUS
 62
     7
100
AcDb2dPolyline
 66
     1
 10
0.0
 20
0.0
 30
0.0
 70
   128
  0
VERTEX
  5
508
100
AcDbEntity
  8
0
  6
CONTINUOUS
 62
     7
100
AcDbVertex
100
AcDb2dVertex
 10
3702.878144
 20
-15372.746277
 30
0.0
  0
VERTEX
  5
509
100
AcDbEntity
  8
0
  6
CONTINUOUS
 62
     7
100
AcDbVertex
100
AcDb2dVertex
 10
3702.560598
 20
-15372.228086
 30
0.0
  0
VERTEX
  5
50A
100
AcDbEntity
  8
0
  6
CONTINUOUS
 62
     7
100
AcDbVertex
100
AcDb2dVertex
 10
3702.169622
 20
-15371.590078
 30
0.0
  0
VERTEX
  5
50B
100
AcDbEntity
  8
0
  6
CONTINUOUS
 62
     7
100
AcDbVertex
100
AcDb2dVertex
 10
3701.727287
 20
-15370.868251
 30
0.0
  0
VERTEX
  5
50C
100
AcDbEntity
  8
0
  6
CONTINUOUS
 62
     7
100
AcDbVertex
100
AcDb2dVertex
 10
3701.258506
 20
-15370.103281
 30
0.0
  0
VERTEX
  5
50D
100
AcDbEntity
  8
0
  6
CONTINUOUS
 62
     7
100
AcDbVertex
100
AcDb2dVertex
 10
3700.78974
 20
-15369.33831
 30
0.0
  0
VERTEX
  5
50E
100
AcDbEntity
  8
0
  6
CONTINUOUS
 62
     7
100
AcDbVertex
100
AcDb2dVertex
 10
3700.34739
 20
-15368.616483
 30
0.0
  0
VERTEX
  5
50F
100
AcDbEntity
  8
0
  6
CONTINUOUS
 62
     7
100
AcDbVertex
100
AcDb2dVertex
 10
3699.956429
 20
-15367.978475
 30
0.0
  0
VERTEX
  5
510
100
AcDbEntity
  8
0
  6
CONTINUOUS
 62
     7
100
AcDbVertex
100
AcDb2dVertex
 10
3699.638883
 20
-15367.460284
 30
0.0
  0
SEQEND
  5
511
100
AcDbEntity
  8
0
  6
CONTINUOUS
 62
     7
  0
LINE
  5
512
100
AcDbEntity
  8
0
  6
CONTINUOUS
 62
     7
100
AcDbLine
 10
3761.438659
 20
-15329.589336
 30
0.0
 11
3699.638883
 21
-15367.460284
 31
0.0
  0
ARC
  5
513
100
AcDbEntity
  8
0
  6
CONTINUOUS
 62
     7
100
AcDbCircle
 10
3429.597239
 20
-15257.577493
 30
0.0
 40
3.099782
100
AcDbArc
 50
193.500184
 51
13.499719
  0
ARC
  5
514
100
AcDbEntity
  8
0
  6
CONTINUOUS
 62
     7
100
AcDbCircle
 10
3546.380055
 20
-15257.577514
 30
0.0
 40
3.099781
100
AcDbArc
 50
166.499873
 51
346.500208
  0
ARC
  5
515
100
AcDbEntity
  8
0
  6
CONTINUOUS
 62
     7
100
AcDbCircle
 10
3618.680582
 20
-15287.52536
 30
0.0
 40
3.099775
100
AcDbArc
 50
148.500073
 51
328.50017
  0
ARC
  5
516
100
AcDbEntity
  8
0
  6
CONTINUOUS
 62
     7
100
AcDbCircle
 10
3468.36377
 20
-15251.437476
 30
0.0
 40
3.099783
100
AcDbArc
 50
184.500225
 51
4.499854
  0
ARC
  5
517
100
AcDbEntity
  8
0
  6
CONTINUOUS
 62
     7
100
AcDbCircle
 10
3507.61353
 20
-15251.437483
 30
0.0
 40
3.099783
100
AcDbArc
 50
175.500011
 51
355.499911
  0
ARC
  5
518
100
AcDbEntity
  8
0
  6
CONTINUOUS
 62
     7
100
AcDbCircle
 10
3357.296712
 20
-15287.525362
 30
0.0
 40
3.099782
100
AcDbArc
 50
211.499723
 51
31.49989
  0
LINE
  5
519
100
AcDbEntity
  8
0
  6
CONTINUOUS
 62
     7
100
AcDbLine
 10
3173.569444
 20
-15422.121981
 30
0.0
 11
3245.494555
 21
-15439.389673
 31
0.0
  0
POLYLINE
  5
51A
100
AcDbEntity
  8
0
  6
CONTINUOUS
 62
     7
100
AcDb2dPolyline
 66
     1
 10
0.0
 20
0.0
 30
0.0
 70
   128
  0
VERTEX
  5
51B
100
AcDbEntity
  8
0
  6
CONTINUOUS
 62
     7
100
AcDbVertex
100
AcDb2dVertex
 10
3245.494555
 20
-15439.389673
 30
0.0
  0
VERTEX
  5
51C
100
AcDbEntity
  8
0
  6
CONTINUOUS
 62
     7
100
AcDbVertex
100
AcDb2dVertex
 10
3245.352681
 20
-15439.980631
 30
0.0
  0
VERTEX
  5
51D
100
AcDbEntity
  8
0
  6
CONTINUOUS
 62
     7
100
AcDbVertex
100
AcDb2dVertex
 10
3245.178006
 20
-15440.708225
 30
0.0
  0
VERTEX
  5
51E
100
AcDbEntity
  8
0
  6
CONTINUOUS
 62
     7
100
AcDbVertex
100
AcDb2dVertex
 10
3244.980368
 20
-15441.531423
 30
0.0
  0
VERTEX
  5
51F
100
AcDbEntity
  8
0
  6
CONTINUOUS
 62
     7
100
AcDbVertex
100
AcDb2dVertex
 10
3244.770928
 20
-15442.403807
 30
0.0
  0
VERTEX
  5
520
100
AcDbEntity
  8
0
  6
CONTINUOUS
 62
     7
100
AcDbVertex
100
AcDb2dVertex
 10
3244.561487
 20
-15443.276199
 30
0.0
  0
VERTEX
  5
521
100
AcDbEntity
  8
0
  6
CONTINUOUS
 62
     7
100
AcDbVertex
100
AcDb2dVertex
 10
3244.363864
 20
-15444.099389
 30
0.0
  0
VERTEX
  5
522
100
AcDbEntity
  8
0
  6
CONTINUOUS
 62
     7
100
AcDbVertex
100
AcDb2dVertex
 10
3244.189174
 20
-15444.826983
 30
0.0
  0
VERTEX
  5
523
100
AcDbEntity
  8
0
  6
CONTINUOUS
 62
     7
100
AcDbVertex
100
AcDb2dVertex
 10
3244.0473
 20
-15445.417948
 30
0.0
  0
SEQEND
  5
524
100
AcDbEntity
  8
0
  6
CONTINUOUS
 62
     7
  0
LINE
  5
525
100
AcDbEntity
  8
0
  6
CONTINUOUS
 62
     7
100
AcDbLine
 10
3173.569444
 20
-15428.497708
 30
0.0
 11
3244.0473
 21
-15445.417948
 31
0.0
  0
LINE
  5
526
100
AcDbEntity
  8
0
  6
CONTINUOUS
 62
     7
100
AcDbLine
 10
3802.407842
 20
-15428.497708
 30
0.0
 11
3731.930001
 21
-15445.417948
 31
0.0
  0
POLYLINE
  5
527
100
AcDbEntity
  8
0
  6
CONTINUOUS
 62
     7
100
AcDb2dPolyline
 66
     1
 10
0.0
 20
0.0
 30
0.0
 70
   128
  0
VERTEX
  5
528
100
AcDbEntity
  8
0
  6
CONTINUOUS
 62
     7
100
AcDbVertex
100
AcDb2dVertex
 10
3731.930001
 20
-15445.417948
 30
0.0
  0
VERTEX
  5
529
100
AcDbEntity
  8
0
  6
CONTINUOUS
 62
     7
100
AcDbVertex
100
AcDb2dVertex
 10
3731.788127
 20
-15444.826983
 30
0.0
  0
VERTEX
  5
52A
100
AcDbEntity
  8
0
  6
CONTINUOUS
 62
     7
100
AcDbVertex
100
AcDb2dVertex
 10
3731.613437
 20
-15444.099389
 30
0.0
  0
VERTEX
  5
52B
100
AcDbEntity
  8
0
  6
CONTINUOUS
 62
     7
100
AcDbVertex
100
AcDb2dVertex
 10
3731.415814
 20
-15443.276199
 30
0.0
  0
VERTEX
  5
52C
100
AcDbEntity
  8
0
  6
CONTINUOUS
 62
     7
100
AcDbVertex
100
AcDb2dVertex
 10
3731.206374
 20
-15442.403807
 30
0.0
  0
VERTEX
  5
52D
100
AcDbEntity
  8
0
  6
CONTINUOUS
 62
     7
100
AcDbVertex
100
AcDb2dVertex
 10
3730.996934
 20
-15441.531423
 30
0.0
  0
VERTEX
  5
52E
100
AcDbEntity
  8
0
  6
CONTINUOUS
 62
     7
100
AcDbVertex
100
AcDb2dVertex
 10
3730.799295
 20
-15440.708225
 30
0.0
  0
VERTEX
  5
52F
100
AcDbEntity
  8
0
  6
CONTINUOUS
 62
     7
100
AcDbVertex
100
AcDb2dVertex
 10
3730.62462
 20
-15439.980631
 30
0.0
  0
VERTEX
  5
530
100
AcDbEntity
  8
0
  6
CONTINUOUS
 62
     7
100
AcDbVertex
100
AcDb2dVertex
 10
3730.482746
 20
-15439.389673
 30
0.0
  0
SEQEND
  5
531
100
AcDbEntity
  8
0
  6
CONTINUOUS
 62
     7
  0
LINE
  5
532
100
AcDbEntity
  8
0
  6
CONTINUOUS
 62
     7
100
AcDbLine
 10
3802.407842
 20
-15422.121981
 30
0.0
 11
3730.482746
 21
-15439.389673
 31
0.0
  0
ARC
  5
533
100
AcDbEntity
  8
0
  6
CONTINUOUS
 62
     7
100
AcDbCircle
 10
3678.188082
 20
-15338.349559
 30
0.0
 40
3.099783
100
AcDbArc
 50
130.49989
 51
310.499867
  0
LINE
  5
534
100
AcDbEntity
  8
0
  6
CONTINUOUS
 62
     7
100
AcDbLine
 10
3173.569444
 20
-15472.940519
 30
0.0
 11
3238.874116
 21
-15478.080114
 31
0.0
  0
POLYLINE
  5
535
100
AcDbEntity
  8
0
  6
CONTINUOUS
 62
     7
100
AcDb2dPolyline
 66
     1
 10
0.0
 20
0.0
 30
0.0
 70
   128
  0
VERTEX
  5
536
100
AcDbEntity
  8
0
  6
CONTINUOUS
 62
     7
100
AcDbVertex
100
AcDb2dVertex
 10
3238.874116
 20
-15478.080114
 30
0.0
  0
VERTEX
  5
537
100
AcDbEntity
  8
0
  6
CONTINUOUS
 62
     7
100
AcDbVertex
100
AcDb2dVertex
 10
3238.826433
 20
-15478.685992
 30
0.0
  0
VERTEX
  5
538
100
AcDbEntity
  8
0
  6
CONTINUOUS
 62
     7
100
AcDbVertex
100
AcDb2dVertex
 10
3238.767737
 20
-15479.43195
 30
0.0
  0
VERTEX
  5
539
100
AcDbEntity
  8
0
  6
CONTINUOUS
 62
     7
100
AcDbVertex
100
AcDb2dVertex
 10
3238.701302
 20
-15480.275931
 30
0.0
  0
VERTEX
  5
53A
100
AcDbEntity
  8
0
  6
CONTINUOUS
 62
     7
100
AcDbVertex
100
AcDb2dVertex
 10
3238.630923
 20
-15481.170342
 30
0.0
  0
VERTEX
  5
53B
100
AcDbEntity
  8
0
  6
CONTINUOUS
 62
     7
100
AcDbVertex
100
AcDb2dVertex
 10
3238.560529
 20
-15482.064752
 30
0.0
  0
VERTEX
  5
53C
100
AcDbEntity
  8
0
  6
CONTINUOUS
 62
     7
100
AcDbVertex
100
AcDb2dVertex
 10
3238.494109
 20
-15482.908726
 30
0.0
  0
VERTEX
  5
53D
100
AcDbEntity
  8
0
  6
CONTINUOUS
 62
     7
100
AcDbVertex
100
AcDb2dVertex
 10
3238.435398
 20
-15483.654684
 30
0.0
  0
VERTEX
  5
53E
100
AcDbEntity
  8
0
  6
CONTINUOUS
 62
     7
100
AcDbVertex
100
AcDb2dVertex
 10
3238.387714
 20
-15484.260562
 30
0.0
  0
SEQEND
  5
53F
100
AcDbEntity
  8
0
  6
CONTINUOUS
 62
     7
  0
LINE
  5
540
100
AcDbEntity
  8
0
  6
CONTINUOUS
 62
     7
100
AcDbLine
 10
3173.569444
 20
-15479.15926
 30
0.0
 11
3238.387714
 21
-15484.260562
 31
0.0
  0
ARC
  5
541
100
AcDbEntity
  8
0
  6
CONTINUOUS
 62
     7
100
AcDbCircle
 10
3297.789224
 20
-15338.349563
 30
0.0
 40
3.099783
100
AcDbArc
 50
229.500023
 51
49.50022
  0
ARC
  5
542
100
AcDbEntity
  8
0
  6
CONTINUOUS
 62
     7
100
AcDbCircle
 10
3650.434311
 20
-15310.595799
 30
0.0
 40
3.099778
100
AcDbArc
 50
139.499997
 51
319.500067
  0
ARC
  5
543
100
AcDbEntity
  8
0
  6
CONTINUOUS
 62
     7
100
AcDbCircle
 10
3325.54299
 20
-15310.595799
 30
0.0
 40
3.099778
100
AcDbArc
 50
220.499943
 51
40.499993
  0
LINE
  5
544
100
AcDbEntity
  8
0
  6
CONTINUOUS
 62
     7
100
AcDbLine
 10
3802.407842
 20
-15479.15926
 30
0.0
 11
3737.589602
 21
-15484.260562
 31
0.0
  0
POLYLINE
  5
545
100
AcDbEntity
  8
0
  6
CONTINUOUS
 62
     7
100
AcDb2dPolyline
 66
     1
 10
0.0
 20
0.0
 30
0.0
 70
   128
  0
VERTEX
  5
546
100
AcDbEntity
  8
0
  6
CONTINUOUS
 62
     7
100
AcDbVertex
100
AcDb2dVertex
 10
3737.589602
 20
-15484.260562
 30
0.0
  0
VERTEX
  5
547
100
AcDbEntity
  8
0
  6
CONTINUOUS
 62
     7
100
AcDbVertex
100
AcDb2dVertex
 10
3737.541918
 20
-15483.654684
 30
0.0
  0
VERTEX
  5
548
100
AcDbEntity
  8
0
  6
CONTINUOUS
 62
     7
100
AcDbVertex
100
AcDb2dVertex
 10
3737.483192
 20
-15482.908726
 30
0.0
  0
VERTEX
  5
549
100
AcDbEntity
  8
0
  6
CONTINUOUS
 62
     7
100
AcDbVertex
100
AcDb2dVertex
 10
3737.416787
 20
-15482.064752
 30
0.0
  0
VERTEX
  5
54A
100
AcDbEntity
  8
0
  6
CONTINUOUS
 62
     7
100
AcDbVertex
100
AcDb2dVertex
 10
3737.346393
 20
-15481.170342
 30
0.0
  0
VERTEX
  5
54B
100
AcDbEntity
  8
0
  6
CONTINUOUS
 62
     7
100
AcDbVertex
100
AcDb2dVertex
 10
3737.276
 20
-15480.275931
 30
0.0
  0
VERTEX
  5
54C
100
AcDbEntity
  8
0
  6
CONTINUOUS
 62
     7
100
AcDbVertex
100
AcDb2dVertex
 10
3737.209565
 20
-15479.43195
 30
0.0
  0
VERTEX
  5
54D
100
AcDbEntity
  8
0
  6
CONTINUOUS
 62
     7
100
AcDbVertex
100
AcDb2dVertex
 10
3737.150868
 20
-15478.685992
 30
0.0
  0
VERTEX
  5
54E
100
AcDbEntity
  8
0
  6
CONTINUOUS
 62
     7
100
AcDbVertex
100
AcDb2dVertex
 10
3737.103185
 20
-15478.080114
 30
0.0
  0
SEQEND
  5
54F
100
AcDbEntity
  8
0
  6
CONTINUOUS
 62
     7
  0
LINE
  5
550
100
AcDbEntity
  8
0
  6
CONTINUOUS
 62
     7
100
AcDbLine
 10
3802.407842
 20
-15472.940519
 30
0.0
 11
3737.103185
 21
-15478.080114
 31
0.0
  0
ARC
  5
551
100
AcDbEntity
  8
0
  6
CONTINUOUS
 62
     7
100
AcDbCircle
 10
3274.718797
 20
-15370.103286
 30
0.0
 40
3.099779
100
AcDbArc
 50
238.499796
 51
58.500212
  0
POLYLINE
  5
552
100
AcDbEntity
  8
0
  6
CONTINUOUS
 62
     7
100
AcDb2dPolyline
 66
     1
 10
0.0
 20
0.0
 30
0.0
 70
   128
  0
VERTEX
  5
553
100
AcDbEntity
  8
0
  6
CONTINUOUS
 62
     7
100
AcDbVertex
100
AcDb2dVertex
 10
3214.538657
 20
-15672.001107
 30
0.0
  0
VERTEX
  5
554
100
AcDbEntity
  8
0
  6
CONTINUOUS
 62
     7
100
AcDbVertex
100
AcDb2dVertex
 10
3213.778732
 20
-15671.911165
 30
0.0
  0
VERTEX
  5
555
100
AcDbEntity
  8
0
  6
CONTINUOUS
 62
     7
100
AcDbVertex
100
AcDb2dVertex
 10
3212.866559
 20
-15671.8032
 30
0.0
  0
VERTEX
  5
556
100
AcDbEntity
  8
0
  6
CONTINUOUS
 62
     7
100
AcDbVertex
100
AcDb2dVertex
 10
3211.835089
 20
-15671.68112
 30
0.0
  0
VERTEX
  5
557
100
AcDbEntity
  8
0
  6
CONTINUOUS
 62
     7
100
AcDbVertex
100
AcDb2dVertex
 10
3210.721617
 20
-15671.549329
 30
0.0
  0
VERTEX
  5
558
100
AcDbEntity
  8
0
  6
CONTINUOUS
 62
     7
100
AcDbVertex
100
AcDb2dVertex
 10
3209.566385
 20
-15671.412597
 30
0.0
  0
SEQEND
  5
559
100
AcDbEntity
  8
0
  6
CONTINUOUS
 62
     7
  0
LINE
  5
55A
100
AcDbEntity
  8
0
  6
CONTINUOUS
 62
     7
100
AcDbLine
 10
3214.538657
 20
-15672.001107
 30
0.0
 11
3245.964467
 21
-15703.426916
 31
0.0
  0
POLYLINE
  5
55B
100
AcDbEntity
  8
0
  6
CONTINUOUS
 62
     7
100
AcDb2dPolyline
 66
     1
 10
0.0
 20
0.0
 30
0.0
 70
   128
  0
VERTEX
  5
55C
100
AcDbEntity
  8
0
  6
CONTINUOUS
 62
     7
100
AcDbVertex
100
AcDb2dVertex
 10
3245.798736
 20
-15707.644948
 30
0.0
  0
VERTEX
  5
55D
100
AcDbEntity
  8
0
  6
CONTINUOUS
 62
     7
100
AcDbVertex
100
AcDb2dVertex
 10
3245.837237
 20
-15706.664941
 30
0.0
  0
VERTEX
  5
55E
100
AcDbEntity
  8
0
  6
CONTINUOUS
 62
     7
100
AcDbVertex
100
AcDb2dVertex
 10
3245.874354
 20
-15705.72037
 30
0.0
  0
VERTEX
  5
55F
100
AcDbEntity
  8
0
  6
CONTINUOUS
 62
     7
100
AcDbVertex
100
AcDb2dVertex
 10
3245.908732
 20
-15704.845358
 30
0.0
  0
VERTEX
  5
560
100
AcDbEntity
  8
0
  6
CONTINUOUS
 62
     7
100
AcDbVertex
100
AcDb2dVertex
 10
3245.939137
 20
-15704.071548
 30
0.0
  0
VERTEX
  5
561
100
AcDbEntity
  8
0
  6
CONTINUOUS
 62
     7
100
AcDbVertex
100
AcDb2dVertex
 10
3245.964467
 20
-15703.426916
 30
0.0
  0
SEQEND
  5
562
100
AcDbEntity
  8
0
  6
CONTINUOUS
 62
     7
  0
POLYLINE
  5
563
100
AcDbEntity
  8
0
  6
CONTINUOUS
 62
     7
100
AcDb2dPolyline
 66
     1
 10
0.0
 20
0.0
 30
0.0
 70
   128
  0
VERTEX
  5
564
100
AcDbEntity
  8
0
  6
CONTINUOUS
 62
     7
100
AcDbVertex
100
AcDb2dVertex
 10
3250.361772
 20
-15707.824221
 30
0.0
  0
VERTEX
  5
565
100
AcDbEntity
  8
0
  6
CONTINUOUS
 62
     7
100
AcDbVertex
100
AcDb2dVertex
 10
3249.664412
 20
-15707.796822
 30
0.0
  0
VERTEX
  5
566
100
AcDbEntity
  8
0
  6
CONTINUOUS
 62
     7
100
AcDbVertex
100
AcDb2dVertex
 10
3248.827306
 20
-15707.763932
 30
0.0
  0
VERTEX
  5
567
100
AcDbEntity
  8
0
  6
CONTINUOUS
 62
     7
100
AcDbVertex
100
AcDb2dVertex
 10
3247.880726
 20
-15707.726741
 30
0.0
  0
VERTEX
  5
568
100
AcDbEntity
  8
0
  6
CONTINUOUS
 62
     7
100
AcDbVertex
100
AcDb2dVertex
 10
3246.858899
 20
-15707.686603
 30
0.0
  0
VERTEX
  5
569
100
AcDbEntity
  8
0
  6
CONTINUOUS
 62
     7
100
AcDbVertex
100
AcDb2dVertex
 10
3245.798736
 20
-15707.644948
 30
0.0
  0
SEQEND
  5
56A
100
AcDbEntity
  8
0
  6
CONTINUOUS
 62
     7
  0
LINE
  5
56B
100
AcDbEntity
  8
0
  6
CONTINUOUS
 62
     7
100
AcDbLine
 10
3250.361772
 20
-15707.824221
 30
0.0
 11
3280.959643
 21
-15738.422093
 31
0.0
  0
POLYLINE
  5
56C
100
AcDbEntity
  8
0
  6
CONTINUOUS
 62
     7
100
AcDb2dPolyline
 66
     1
 10
0.0
 20
0.0
 30
0.0
 70
   128
  0
VERTEX
  5
56D
100
AcDbEntity
  8
0
  6
CONTINUOUS
 62
     7
100
AcDbVertex
100
AcDb2dVertex
 10
3281.138917
 20
-15742.985128
 30
0.0
  0
VERTEX
  5
56E
100
AcDbEntity
  8
0
  6
CONTINUOUS
 62
     7
100
AcDbVertex
100
AcDb2dVertex
 10
3281.097276
 20
-15741.92498
 30
0.0
  0
VERTEX
  5
56F
100
AcDbEntity
  8
0
  6
CONTINUOUS
 62
     7
100
AcDbVertex
100
AcDb2dVertex
 10
3281.057123
 20
-15740.903139
 30
0.0
  0
VERTEX
  5
570
100
AcDbEntity
  8
0
  6
CONTINUOUS
 62
     7
100
AcDbVertex
100
AcDb2dVertex
 10
3281.019932
 20
-15739.956558
 30
0.0
  0
VERTEX
  5
571
100
AcDbEntity
  8
0
  6
CONTINUOUS
 62
     7
100
AcDbVertex
100
AcDb2dVertex
 10
3280.987042
 20
-15739.119452
 30
0.0
  0
VERTEX
  5
572
100
AcDbEntity
  8
0
  6
CONTINUOUS
 62
     7
100
AcDbVertex
100
AcDb2dVertex
 10
3280.959643
 20
-15738.422093
 30
0.0
  0
SEQEND
  5
573
100
AcDbEntity
  8
0
  6
CONTINUOUS
 62
     7
  0
POLYLINE
  5
574
100
AcDbEntity
  8
0
  6
CONTINUOUS
 62
     7
100
AcDb2dPolyline
 66
     1
 10
0.0
 20
0.0
 30
0.0
 70
   128
  0
VERTEX
  5
575
100
AcDbEntity
  8
0
  6
CONTINUOUS
 62
     7
100
AcDbVertex
100
AcDb2dVertex
 10
3285.356948
 20
-15742.819397
 30
0.0
  0
VERTEX
  5
576
100
AcDbEntity
  8
0
  6
CONTINUOUS
 62
     7
100
AcDbVertex
100
AcDb2dVertex
 10
3284.712317
 20
-15742.844727
 30
0.0
  0
VERTEX
  5
577
100
AcDbEntity
  8
0
  6
CONTINUOUS
 62
     7
100
AcDbVertex
100
AcDb2dVertex
 10
3283.938506
 20
-15742.875132
 30
0.0
  0
VERTEX
  5
578
100
AcDbEntity
  8
0
  6
CONTINUOUS
 62
     7
100
AcDbVertex
100
AcDb2dVertex
 10
3283.063495
 20
-15742.90951
 30
0.0
  0
VERTEX
  5
579
100
AcDbEntity
  8
0
  6
CONTINUOUS
 62
     7
100
AcDbVertex
100
AcDb2dVertex
 10
3282.118923
 20
-15742.946627
 30
0.0
  0
VERTEX
  5
57A
100
AcDbEntity
  8
0
  6
CONTINUOUS
 62
     7
100
AcDbVertex
100
AcDb2dVertex
 10
3281.138917
 20
-15742.985128
 30
0.0
  0
SEQEND
  5
57B
100
AcDbEntity
  8
0
  6
CONTINUOUS
 62
     7
  0
LINE
  5
57C
100
AcDbEntity
  8
0
  6
CONTINUOUS
 62
     7
100
AcDbLine
 10
3285.356948
 20
-15742.819397
 30
0.0
 11
3316.782758
 21
-15774.245222
 31
0.0
  0
POLYLINE
  5
57D
100
AcDbEntity
  8
0
  6
CONTINUOUS
 62
     7
100
AcDb2dPolyline
 66
     1
 10
0.0
 20
0.0
 30
0.0
 70
   128
  0
VERTEX
  5
57E
100
AcDbEntity
  8
0
  6
CONTINUOUS
 62
     7
100
AcDbVertex
100
AcDb2dVertex
 10
3317.371268
 20
-15779.217479
 30
0.0
  0
VERTEX
  5
57F
100
AcDbEntity
  8
0
  6
CONTINUOUS
 62
     7
100
AcDbVertex
100
AcDb2dVertex
 10
3317.234543
 20
-15778.062247
 30
0.0
  0
VERTEX
  5
580
100
AcDbEntity
  8
0
  6
CONTINUOUS
 62
     7
100
AcDbVertex
100
AcDb2dVertex
 10
3317.102744
 20
-15776.94876
 30
0.0
  0
VERTEX
  5
581
100
AcDbEntity
  8
0
  6
CONTINUOUS
 62
     7
100
AcDbVertex
100
AcDb2dVertex
 10
3316.980664
 20
-15775.91729
 30
0.0
  0
VERTEX
  5
582
100
AcDbEntity
  8
0
  6
CONTINUOUS
 62
     7
100
AcDbVertex
100
AcDb2dVertex
 10
3316.872707
 20
-15775.005118
 30
0.0
  0
VERTEX
  5
583
100
AcDbEntity
  8
0
  6
CONTINUOUS
 62
     7
100
AcDbVertex
100
AcDb2dVertex
 10
3316.782758
 20
-15774.245222
 30
0.0
  0
SEQEND
  5
584
100
AcDbEntity
  8
0
  6
CONTINUOUS
 62
     7
  0
POLYLINE
  5
585
100
AcDbEntity
  8
0
  6
CONTINUOUS
 62
     7
100
AcDb2dPolyline
 66
     1
 10
0.0
 20
0.0
 30
0.0
 70
   128
  0
VERTEX
  5
586
100
AcDbEntity
  8
0
  6
CONTINUOUS
 62
     7
100
AcDbVertex
100
AcDb2dVertex
 10
3321.291085
 20
-15778.753535
 30
0.0
  0
VERTEX
  5
587
100
AcDbEntity
  8
0
  6
CONTINUOUS
 62
     7
100
AcDbVertex
100
AcDb2dVertex
 10
3320.692024
 20
-15778.824434
 30
0.0
  0
VERTEX
  5
588
100
AcDbEntity
  8
0
  6
CONTINUOUS
 62
     7
100
AcDbVertex
100
AcDb2dVertex
 10
3319.972921
 20
-15778.909547
 30
0.0
  0
VERTEX
  5
589
100
AcDbEntity
  8
0
  6
CONTINUOUS
 62
     7
100
AcDbVertex
100
AcDb2dVertex
 10
3319.159776
 20
-15779.005791
 30
0.0
  0
VERTEX
  5
58A
100
AcDbEntity
  8
0
  6
CONTINUOUS
 62
     7
100
AcDbVertex
100
AcDb2dVertex
 10
3318.281982
 20
-15779.109685
 30
0.0
  0
VERTEX
  5
58B
100
AcDbEntity
  8
0
  6
CONTINUOUS
 62
     7
100
AcDbVertex
100
AcDb2dVertex
 10
3317.371268
 20
-15779.217479
 30
0.0
  0
SEQEND
  5
58C
100
AcDbEntity
  8
0
  6
CONTINUOUS
 62
     7
  0
LINE
  5
58D
100
AcDbEntity
  8
0
  6
CONTINUOUS
 62
     7
100
AcDbLine
 10
3321.291085
 20
-15778.753535
 30
0.0
 11
3355.379491
 21
-15812.841941
 31
0.0
  0
LINE
  5
58E
100
AcDbEntity
  8
0
  6
CONTINUOUS
 62
     7
100
AcDbLine
 10
3171.045507
 20
-15637.27548
 30
0.0
 11
3351.508384
 21
-15817.738342
 31
0.0
  0
LINE
  5
58F
100
AcDbEntity
  8
0
  6
CONTINUOUS
 62
     7
100
AcDbLine
 10
3175.941938
 20
-15633.40438
 30
0.0
 11
3210.03033
 21
-15667.492786
 31
0.0
  0
POLYLINE
  5
590
100
AcDbEntity
  8
0
  6
CONTINUOUS
 62
     7
100
AcDb2dPolyline
 66
     1
 10
0.0
 20
0.0
 30
0.0
 70
   128
  0
VERTEX
  5
591
100
AcDbEntity
  8
0
  6
CONTINUOUS
 62
     7
100
AcDbVertex
100
AcDb2dVertex
 10
3209.566385
 20
-15671.412597
 30
0.0
  0
VERTEX
  5
592
100
AcDbEntity
  8
0
  6
CONTINUOUS
 62
     7
100
AcDbVertex
100
AcDb2dVertex
 10
3209.674194
 20
-15670.501883
 30
0.0
  0
VERTEX
  5
593
100
AcDbEntity
  8
0
  6
CONTINUOUS
 62
     7
100
AcDbVertex
100
AcDb2dVertex
 10
3209.778073
 20
-15669.624088
 30
0.0
  0
VERTEX
  5
594
100
AcDbEntity
  8
0
  6
CONTINUOUS
 62
     7
100
AcDbVertex
100
AcDb2dVertex
 10
3209.874302
 20
-15668.810944
 30
0.0
  0
VERTEX
  5
595
100
AcDbEntity
  8
0
  6
CONTINUOUS
 62
     7
100
AcDbVertex
100
AcDb2dVertex
 10
3209.95943
 20
-15668.091848
 30
0.0
  0
VERTEX
  5
596
100
AcDbEntity
  8
0
  6
CONTINUOUS
 62
     7
100
AcDbVertex
100
AcDb2dVertex
 10
3210.03033
 20
-15667.492786
 30
0.0
  0
SEQEND
  5
597
100
AcDbEntity
  8
0
  6
CONTINUOUS
 62
     7
  0
ARC
  5
598
100
AcDbEntity
  8
0
  6
CONTINUOUS
 62
     7
100
AcDbCircle
 10
3701.258507
 20
-15370.103285
 30
0.0
 40
3.099779
100
AcDbArc
 50
121.499854
 51
301.500138
  0
POLYLINE
  5
599
100
AcDbEntity
  8
0
  6
CONTINUOUS
 62
     7
100
AcDb2dPolyline
 66
     1
 10
0.0
 20
0.0
 30
0.0
 70
   128
  0
VERTEX
  5
59A
100
AcDbEntity
  8
0
  6
CONTINUOUS
 62
     7
100
AcDbVertex
100
AcDb2dVertex
 10
3659.194543
 20
-15774.245222
 30
0.0
  0
VERTEX
  5
59B
100
AcDbEntity
  8
0
  6
CONTINUOUS
 62
     7
100
AcDbVertex
100
AcDb2dVertex
 10
3659.104594
 20
-15775.005118
 30
0.0
  0
VERTEX
  5
59C
100
AcDbEntity
  8
0
  6
CONTINUOUS
 62
     7
100
AcDbVertex
100
AcDb2dVertex
 10
3658.996637
 20
-15775.91729
 30
0.0
  0
VERTEX
  5
59D
100
AcDbEntity
  8
0
  6
CONTINUOUS
 62
     7
100
AcDbVertex
100
AcDb2dVertex
 10
3658.874557
 20
-15776.94876
 30
0.0
  0
VERTEX
  5
59E
100
AcDbEntity
  8
0
  6
CONTINUOUS
 62
     7
100
AcDbVertex
100
AcDb2dVertex
 10
3658.742758
 20
-15778.062247
 30
0.0
  0
VERTEX
  5
59F
100
AcDbEntity
  8
0
  6
CONTINUOUS
 62
     7
100
AcDbVertex
100
AcDb2dVertex
 10
3658.606034
 20
-15779.217479
 30
0.0
  0
SEQEND
  5
5A0
100
AcDbEntity
  8
0
  6
CONTINUOUS
 62
     7
  0
LINE
  5
5A1
100
AcDbEntity
  8
0
  6
CONTINUOUS
 62
     7
100
AcDbLine
 10
3659.194543
 20
-15774.245222
 30
0.0
 11
3690.620353
 21
-15742.819397
 31
0.0
  0
POLYLINE
  5
5A2
100
AcDbEntity
  8
0
  6
CONTINUOUS
 62
     7
100
AcDb2dPolyline
 66
     1
 10
0.0
 20
0.0
 30
0.0
 70
   128
  0
VERTEX
  5
5A3
100
AcDbEntity
  8
0
  6
CONTINUOUS
 62
     7
100
AcDbVertex
100
AcDb2dVertex
 10
3694.838384
 20
-15742.985128
 30
0.0
  0
VERTEX
  5
5A4
100
AcDbEntity
  8
0
  6
CONTINUOUS
 62
     7
100
AcDbVertex
100
AcDb2dVertex
 10
3693.858378
 20
-15742.946627
 30
0.0
  0
VERTEX
  5
5A5
100
AcDbEntity
  8
0
  6
CONTINUOUS
 62
     7
100
AcDbVertex
100
AcDb2dVertex
 10
3692.913806
 20
-15742.90951
 30
0.0
  0
VERTEX
  5
5A6
100
AcDbEntity
  8
0
  6
CONTINUOUS
 62
     7
100
AcDbVertex
100
AcDb2dVertex
 10
3692.038795
 20
-15742.875132
 30
0.0
  0
VERTEX
  5
5A7
100
AcDbEntity
  8
0
  6
CONTINUOUS
 62
     7
100
AcDbVertex
100
AcDb2dVertex
 10
3691.264985
 20
-15742.844727
 30
0.0
  0
VERTEX
  5
5A8
100
AcDbEntity
  8
0
  6
CONTINUOUS
 62
     7
100
AcDbVertex
100
AcDb2dVertex
 10
3690.620353
 20
-15742.819397
 30
0.0
  0
SEQEND
  5
5A9
100
AcDbEntity
  8
0
  6
CONTINUOUS
 62
     7
  0
POLYLINE
  5
5AA
100
AcDbEntity
  8
0
  6
CONTINUOUS
 62
     7
100
AcDb2dPolyline
 66
     1
 10
0.0
 20
0.0
 30
0.0
 70
   128
  0
VERTEX
  5
5AB
100
AcDbEntity
  8
0
  6
CONTINUOUS
 62
     7
100
AcDbVertex
100
AcDb2dVertex
 10
3695.017658
 20
-15738.422093
 30
0.0
  0
VERTEX
  5
5AC
100
AcDbEntity
  8
0
  6
CONTINUOUS
 62
     7
100
AcDbVertex
100
AcDb2dVertex
 10
3694.990259
 20
-15739.119452
 30
0.0
  0
VERTEX
  5
5AD
100
AcDbEntity
  8
0
  6
CONTINUOUS
 62
     7
100
AcDbVertex
100
AcDb2dVertex
 10
3694.957369
 20
-15739.956558
 30
0.0
  0
VERTEX
  5
5AE
100
AcDbEntity
  8
0
  6
CONTINUOUS
 62
     7
100
AcDbVertex
100
AcDb2dVertex
 10
3694.920178
 20
-15740.903139
 30
0.0
  0
VERTEX
  5
5AF
100
AcDbEntity
  8
0
  6
CONTINUOUS
 62
     7
100
AcDbVertex
100
AcDb2dVertex
 10
3694.880025
 20
-15741.92498
 30
0.0
  0
VERTEX
  5
5B0
100
AcDbEntity
  8
0
  6
CONTINUOUS
 62
     7
100
AcDbVertex
100
AcDb2dVertex
 10
3694.838384
 20
-15742.985128
 30
0.0
  0
SEQEND
  5
5B1
100
AcDbEntity
  8
0
  6
CONTINUOUS
 62
     7
  0
LINE
  5
5B2
100
AcDbEntity
  8
0
  6
CONTINUOUS
 62
     7
100
AcDbLine
 10
3695.017658
 20
-15738.422093
 30
0.0
 11
3725.61553
 21
-15707.824221
 31
0.0
  0
POLYLINE
  5
5B3
100
AcDbEntity
  8
0
  6
CONTINUOUS
 62
     7
100
AcDb2dPolyline
 66
     1
 10
0.0
 20
0.0
 30
0.0
 70
   128
  0
VERTEX
  5
5B4
100
AcDbEntity
  8
0
  6
CONTINUOUS
 62
     7
100
AcDbVertex
100
AcDb2dVertex
 10
3730.178565
 20
-15707.644948
 30
0.0
  0
VERTEX
  5
5B5
100
AcDbEntity
  8
0
  6
CONTINUOUS
 62
     7
100
AcDbVertex
100
AcDb2dVertex
 10
3729.118402
 20
-15707.686603
 30
0.0
  0
VERTEX
  5
5B6
100
AcDbEntity
  8
0
  6
CONTINUOUS
 62
     7
100
AcDbVertex
100
AcDb2dVertex
 10
3728.096576
 20
-15707.726741
 30
0.0
  0
VERTEX
  5
5B7
100
AcDbEntity
  8
0
  6
CONTINUOUS
 62
     7
100
AcDbVertex
100
AcDb2dVertex
 10
3727.149995
 20
-15707.763932
 30
0.0
  0
VERTEX
  5
5B8
100
AcDbEntity
  8
0
  6
CONTINUOUS
 62
     7
100
AcDbVertex
100
AcDb2dVertex
 10
3726.312889
 20
-15707.796822
 30
0.0
  0
VERTEX
  5
5B9
100
AcDbEntity
  8
0
  6
CONTINUOUS
 62
     7
100
AcDbVertex
100
AcDb2dVertex
 10
3725.61553
 20
-15707.824221
 30
0.0
  0
SEQEND
  5
5BA
100
AcDbEntity
  8
0
  6
CONTINUOUS
 62
     7
  0
POLYLINE
  5
5BB
100
AcDbEntity
  8
0
  6
CONTINUOUS
 62
     7
100
AcDb2dPolyline
 66
     1
 10
0.0
 20
0.0
 30
0.0
 70
   128
  0
VERTEX
  5
5BC
100
AcDbEntity
  8
0
  6
CONTINUOUS
 62
     7
100
AcDbVertex
100
AcDb2dVertex
 10
3730.012834
 20
-15703.426916
 30
0.0
  0
VERTEX
  5
5BD
100
AcDbEntity
  8
0
  6
CONTINUOUS
 62
     7
100
AcDbVertex
100
AcDb2dVertex
 10
3730.038164
 20
-15704.071548
 30
0.0
  0
VERTEX
  5
5BE
100
AcDbEntity
  8
0
  6
CONTINUOUS
 62
     7
100
AcDbVertex
100
AcDb2dVertex
 10
3730.068569
 20
-15704.845358
 30
0.0
  0
VERTEX
  5
5BF
100
AcDbEntity
  8
0
  6
CONTINUOUS
 62
     7
100
AcDbVertex
100
AcDb2dVertex
 10
3730.102947
 20
-15705.72037
 30
0.0
  0
VERTEX
  5
5C0
100
AcDbEntity
  8
0
  6
CONTINUOUS
 62
     7
100
AcDbVertex
100
AcDb2dVertex
 10
3730.140064
 20
-15706.664941
 30
0.0
  0
VERTEX
  5
5C1
100
AcDbEntity
  8
0
  6
CONTINUOUS
 62
     7
100
AcDbVertex
100
AcDb2dVertex
 10
3730.178565
 20
-15707.644948
 30
0.0
  0
SEQEND
  5
5C2
100
AcDbEntity
  8
0
  6
CONTINUOUS
 62
     7
  0
LINE
  5
5C3
100
AcDbEntity
  8
0
  6
CONTINUOUS
 62
     7
100
AcDbLine
 10
3730.012834
 20
-15703.426916
 30
0.0
 11
3761.438659
 21
-15672.001107
 31
0.0
  0
POLYLINE
  5
5C4
100
AcDbEntity
  8
0
  6
CONTINUOUS
 62
     7
100
AcDb2dPolyline
 66
     1
 10
0.0
 20
0.0
 30
0.0
 70
   128
  0
VERTEX
  5
5C5
100
AcDbEntity
  8
0
  6
CONTINUOUS
 62
     7
100
AcDbVertex
100
AcDb2dVertex
 10
3766.410901
 20
-15671.412597
 30
0.0
  0
VERTEX
  5
5C6
100
AcDbEntity
  8
0
  6
CONTINUOUS
 62
     7
100
AcDbVertex
100
AcDb2dVertex
 10
3765.255669
 20
-15671.549329
 30
0.0
  0
VERTEX
  5
5C7
100
AcDbEntity
  8
0
  6
CONTINUOUS
 62
     7
100
AcDbVertex
100
AcDb2dVertex
 10
3764.142197
 20
-15671.68112
 30
0.0
  0
VERTEX
  5
5C8
100
AcDbEntity
  8
0
  6
CONTINUOUS
 62
     7
100
AcDbVertex
100
AcDb2dVertex
 10
3763.110727
 20
-15671.8032
 30
0.0
  0
VERTEX
  5
5C9
100
AcDbEntity
  8
0
  6
CONTINUOUS
 62
     7
100
AcDbVertex
100
AcDb2dVertex
 10
3762.198555
 20
-15671.911165
 30
0.0
  0
VERTEX
  5
5CA
100
AcDbEntity
  8
0
  6
CONTINUOUS
 62
     7
100
AcDbVertex
100
AcDb2dVertex
 10
3761.438659
 20
-15672.001107
 30
0.0
  0
SEQEND
  5
5CB
100
AcDbEntity
  8
0
  6
CONTINUOUS
 62
     7
  0
POLYLINE
  5
5CC
100
AcDbEntity
  8
0
  6
CONTINUOUS
 62
     7
100
AcDb2dPolyline
 66
     1
 10
0.0
 20
0.0
 30
0.0
 70
   128
  0
VERTEX
  5
5CD
100
AcDbEntity
  8
0
  6
CONTINUOUS
 62
     7
100
AcDbVertex
100
AcDb2dVertex
 10
3765.946957
 20
-15667.492786
 30
0.0
  0
VERTEX
  5
5CE
100
AcDbEntity
  8
0
  6
CONTINUOUS
 62
     7
100
AcDbVertex
100
AcDb2dVertex
 10
3766.017886
 20
-15668.091848
 30
0.0
  0
VERTEX
  5
5CF
100
AcDbEntity
  8
0
  6
CONTINUOUS
 62
     7
100
AcDbVertex
100
AcDb2dVertex
 10
3766.102984
 20
-15668.810944
 30
0.0
  0
VERTEX
  5
5D0
100
AcDbEntity
  8
0
  6
CONTINUOUS
 62
     7
100
AcDbVertex
100
AcDb2dVertex
 10
3766.199213
 20
-15669.624088
 30
0.0
  0
VERTEX
  5
5D1
100
AcDbEntity
  8
0
  6
CONTINUOUS
 62
     7
100
AcDbVertex
100
AcDb2dVertex
 10
3766.303122
 20
-15670.501883
 30
0.0
  0
VERTEX
  5
5D2
100
AcDbEntity
  8
0
  6
CONTINUOUS
 62
     7
100
AcDbVertex
100
AcDb2dVertex
 10
3766.410901
 20
-15671.412597
 30
0.0
  0
SEQEND
  5
5D3
100
AcDbEntity
  8
0
  6
CONTINUOUS
 62
     7
  0
LINE
  5
5D4
100
AcDbEntity
  8
0
  6
CONTINUOUS
 62
     7
100
AcDbLine
 10
3765.946957
 20
-15667.492786
 30
0.0
 11
3800.035378
 21
-15633.40438
 31
0.0
  0
LINE
  5
5D5
100
AcDbEntity
  8
0
  6
CONTINUOUS
 62
     7
100
AcDbLine
 10
3624.468917
 20
-15817.738342
 30
0.0
 11
3804.931779
 21
-15637.27548
 31
0.0
  0
LINE
  5
5D6
100
AcDbEntity
  8
0
  6
CONTINUOUS
 62
     7
100
AcDbLine
 10
3620.59781
 20
-15812.841941
 30
0.0
 11
3654.686216
 21
-15778.753535
 31
0.0
  0
POLYLINE
  5
5D7
100
AcDbEntity
  8
0
  6
CONTINUOUS
 62
     7
100
AcDb2dPolyline
 66
     1
 10
0.0
 20
0.0
 30
0.0
 70
   128
  0
VERTEX
  5
5D8
100
AcDbEntity
  8
0
  6
CONTINUOUS
 62
     7
100
AcDbVertex
100
AcDb2dVertex
 10
3658.606034
 20
-15779.217479
 30
0.0
  0
VERTEX
  5
5D9
100
AcDbEntity
  8
0
  6
CONTINUOUS
 62
     7
100
AcDbVertex
100
AcDb2dVertex
 10
3657.69532
 20
-15779.109685
 30
0.0
  0
VERTEX
  5
5DA
100
AcDbEntity
  8
0
  6
CONTINUOUS
 62
     7
100
AcDbVertex
100
AcDb2dVertex
 10
3656.817525
 20
-15779.005791
 30
0.0
  0
VERTEX
  5
5DB
100
AcDbEntity
  8
0
  6
CONTINUOUS
 62
     7
100
AcDbVertex
100
AcDb2dVertex
 10
3656.004381
 20
-15778.909547
 30
0.0
  0
VERTEX
  5
5DC
100
AcDbEntity
  8
0
  6
CONTINUOUS
 62
     7
100
AcDbVertex
100
AcDb2dVertex
 10
3655.285277
 20
-15778.824434
 30
0.0
  0
VERTEX
  5
5DD
100
AcDbEntity
  8
0
  6
CONTINUOUS
 62
     7
100
AcDbVertex
100
AcDb2dVertex
 10
3654.686216
 20
-15778.753535
 30
0.0
  0
SEQEND
  5
5DE
100
AcDbEntity
  8
0
  6
CONTINUOUS
 62
     7
  0
LINE
  5
5DF
100
AcDbEntity
  8
0
  6
CONTINUOUS
 62
     7
100
AcDbLine
 10
3173.569444
 20
-15522.431179
 30
0.0
 11
3238.387714
 21
-15517.329869
 31
0.0
  0
POLYLINE
  5
5E0
100
AcDbEntity
  8
0
  6
CONTINUOUS
 62
     7
100
AcDb2dPolyline
 66
     1
 10
0.0
 20
0.0
 30
0.0
 70
   128
  0
VERTEX
  5
5E1
100
AcDbEntity
  8
0
  6
CONTINUOUS
 62
     7
100
AcDbVertex
100
AcDb2dVertex
 10
3238.387714
 20
-15517.329869
 30
0.0
  0
VERTEX
  5
5E2
100
AcDbEntity
  8
0
  6
CONTINUOUS
 62
     7
100
AcDbVertex
100
AcDb2dVertex
 10
3238.435398
 20
-15517.935751
 30
0.0
  0
VERTEX
  5
5E3
100
AcDbEntity
  8
0
  6
CONTINUOUS
 62
     7
100
AcDbVertex
100
AcDb2dVertex
 10
3238.494109
 20
-15518.681709
 30
0.0
  0
VERTEX
  5
5E4
100
AcDbEntity
  8
0
  6
CONTINUOUS
 62
     7
100
AcDbVertex
100
AcDb2dVertex
 10
3238.560529
 20
-15519.525686
 30
0.0
  0
VERTEX
  5
5E5
100
AcDbEntity
  8
0
  6
CONTINUOUS
 62
     7
100
AcDbVertex
100
AcDb2dVertex
 10
3238.630923
 20
-15520.420097
 30
0.0
  0
VERTEX
  5
5E6
100
AcDbEntity
  8
0
  6
CONTINUOUS
 62
     7
100
AcDbVertex
100
AcDb2dVertex
 10
3238.701302
 20
-15521.314507
 30
0.0
  0
VERTEX
  5
5E7
100
AcDbEntity
  8
0
  6
CONTINUOUS
 62
     7
100
AcDbVertex
100
AcDb2dVertex
 10
3238.767737
 20
-15522.158485
 30
0.0
  0
VERTEX
  5
5E8
100
AcDbEntity
  8
0
  6
CONTINUOUS
 62
     7
100
AcDbVertex
100
AcDb2dVertex
 10
3238.826433
 20
-15522.904443
 30
0.0
  0
VERTEX
  5
5E9
100
AcDbEntity
  8
0
  6
CONTINUOUS
 62
     7
100
AcDbVertex
100
AcDb2dVertex
 10
3238.874116
 20
-15523.510324
 30
0.0
  0
SEQEND
  5
5EA
100
AcDbEntity
  8
0
  6
CONTINUOUS
 62
     7
  0
LINE
  5
5EB
100
AcDbEntity
  8
0
  6
CONTINUOUS
 62
     7
100
AcDbLine
 10
3173.569444
 20
-15528.649912
 30
0.0
 11
3238.874116
 21
-15523.510324
 31
0.0
  0
LINE
  5
5EC
100
AcDbEntity
  8
0
  6
CONTINUOUS
 62
     7
100
AcDbLine
 10
3802.407842
 20
-15528.649912
 30
0.0
 11
3737.103185
 21
-15523.510324
 31
0.0
  0
POLYLINE
  5
5ED
100
AcDbEntity
  8
0
  6
CONTINUOUS
 62
     7
100
AcDb2dPolyline
 66
     1
 10
0.0
 20
0.0
 30
0.0
 70
   128
  0
VERTEX
  5
5EE
100
AcDbEntity
  8
0
  6
CONTINUOUS
 62
     7
100
AcDbVertex
100
AcDb2dVertex
 10
3737.103185
 20
-15523.510324
 30
0.0
  0
VERTEX
  5
5EF
100
AcDbEntity
  8
0
  6
CONTINUOUS
 62
     7
100
AcDbVertex
100
AcDb2dVertex
 10
3737.150868
 20
-15522.904443
 30
0.0
  0
VERTEX
  5
5F0
100
AcDbEntity
  8
0
  6
CONTINUOUS
 62
     7
100
AcDbVertex
100
AcDb2dVertex
 10
3737.209565
 20
-15522.158485
 30
0.0
  0
VERTEX
  5
5F1
100
AcDbEntity
  8
0
  6
CONTINUOUS
 62
     7
100
AcDbVertex
100
AcDb2dVertex
 10
3737.276
 20
-15521.314507
 30
0.0
  0
VERTEX
  5
5F2
100
AcDbEntity
  8
0
  6
CONTINUOUS
 62
     7
100
AcDbVertex
100
AcDb2dVertex
 10
3737.346393
 20
-15520.420097
 30
0.0
  0
VERTEX
  5
5F3
100
AcDbEntity
  8
0
  6
CONTINUOUS
 62
     7
100
AcDbVertex
100
AcDb2dVertex
 10
3737.416787
 20
-15519.525686
 30
0.0
  0
VERTEX
  5
5F4
100
AcDbEntity
  8
0
  6
CONTINUOUS
 62
     7
100
AcDbVertex
100
AcDb2dVertex
 10
3737.483192
 20
-15518.681709
 30
0.0
  0
VERTEX
  5
5F5
100
AcDbEntity
  8
0
  6
CONTINUOUS
 62
     7
100
AcDbVertex
100
AcDb2dVertex
 10
3737.541918
 20
-15517.935751
 30
0.0
  0
VERTEX
  5
5F6
100
AcDbEntity
  8
0
  6
CONTINUOUS
 62
     7
100
AcDbVertex
100
AcDb2dVertex
 10
3737.589602
 20
-15517.329869
 30
0.0
  0
SEQEND
  5
5F7
100
AcDbEntity
  8
0
  6
CONTINUOUS
 62
     7
  0
LINE
  5
5F8
100
AcDbEntity
  8
0
  6
CONTINUOUS
 62
     7
100
AcDbLine
 10
3802.407842
 20
-15522.431179
 30
0.0
 11
3737.589602
 21
-15517.329869
 31
0.0
  0
LINE
  5
5F9
100
AcDbEntity
  8
0
  6
CONTINUOUS
 62
     7
100
AcDbLine
 10
3173.569444
 20
-15573.092724
 30
0.0
 11
3244.0473
 21
-15556.17249
 31
0.0
  0
POLYLINE
  5
5FA
100
AcDbEntity
  8
0
  6
CONTINUOUS
 62
     7
100
AcDb2dPolyline
 66
     1
 10
0.0
 20
0.0
 30
0.0
 70
   128
  0
VERTEX
  5
5FB
100
AcDbEntity
  8
0
  6
CONTINUOUS
 62
     7
100
AcDbVertex
100
AcDb2dVertex
 10
3244.0473
 20
-15556.17249
 30
0.0
  0
VERTEX
  5
5FC
100
AcDbEntity
  8
0
  6
CONTINUOUS
 62
     7
100
AcDbVertex
100
AcDb2dVertex
 10
3244.189174
 20
-15556.763451
 30
0.0
  0
VERTEX
  5
5FD
100
AcDbEntity
  8
0
  6
CONTINUOUS
 62
     7
100
AcDbVertex
100
AcDb2dVertex
 10
3244.363864
 20
-15557.491042
 30
0.0
  0
VERTEX
  5
5FE
100
AcDbEntity
  8
0
  6
CONTINUOUS
 62
     7
100
AcDbVertex
100
AcDb2dVertex
 10
3244.561487
 20
-15558.314239
 30
0.0
  0
VERTEX
  5
5FF
100
AcDbEntity
  8
0
  6
CONTINUOUS
 62
     7
100
AcDbVertex
100
AcDb2dVertex
 10
3244.770928
 20
-15559.186626
 30
0.0
  0
VERTEX
  5
600
100
AcDbEntity
  8
0
  6
CONTINUOUS
 62
     7
100
AcDbVertex
100
AcDb2dVertex
 10
3244.980368
 20
-15560.059012
 30
0.0
  0
VERTEX
  5
601
100
AcDbEntity
  8
0
  6
CONTINUOUS
 62
     7
100
AcDbVertex
100
AcDb2dVertex
 10
3245.178006
 20
-15560.882209
 30
0.0
  0
VERTEX
  5
602
100
AcDbEntity
  8
0
  6
CONTINUOUS
 62
     7
100
AcDbVertex
100
AcDb2dVertex
 10
3245.352681
 20
-15561.609801
 30
0.0
  0
VERTEX
  5
603
100
AcDbEntity
  8
0
  6
CONTINUOUS
 62
     7
100
AcDbVertex
100
AcDb2dVertex
 10
3245.494555
 20
-15562.200761
 30
0.0
  0
SEQEND
  5
604
100
AcDbEntity
  8
0
  6
CONTINUOUS
 62
     7
  0
LINE
  5
605
100
AcDbEntity
  8
0
  6
CONTINUOUS
 62
     7
100
AcDbLine
 10
3173.569444
 20
-15579.46845
 30
0.0
 11
3245.494555
 21
-15562.200761
 31
0.0
  0
LINE
  5
606
100
AcDbEntity
  8
0
  6
CONTINUOUS
 62
     7
100
AcDbLine
 10
3802.407842
 20
-15579.46845
 30
0.0
 11
3730.482746
 21
-15562.200761
 31
0.0
  0
POLYLINE
  5
607
100
AcDbEntity
  8
0
  6
CONTINUOUS
 62
     7
100
AcDb2dPolyline
 66
     1
 10
0.0
 20
0.0
 30
0.0
 70
   128
  0
VERTEX
  5
608
100
AcDbEntity
  8
0
  6
CONTINUOUS
 62
     7
100
AcDbVertex
100
AcDb2dVertex
 10
3730.482746
 20
-15562.200761
 30
0.0
  0
VERTEX
  5
609
100
AcDbEntity
  8
0
  6
CONTINUOUS
 62
     7
100
AcDbVertex
100
AcDb2dVertex
 10
3730.62462
 20
-15561.609801
 30
0.0
  0
VERTEX
  5
60A
100
AcDbEntity
  8
0
  6
CONTINUOUS
 62
     7
100
AcDbVertex
100
AcDb2dVertex
 10
3730.799295
 20
-15560.882209
 30
0.0
  0
VERTEX
  5
60B
100
AcDbEntity
  8
0
  6
CONTINUOUS
 62
     7
100
AcDbVertex
100
AcDb2dVertex
 10
3730.996934
 20
-15560.059012
 30
0.0
  0
VERTEX
  5
60C
100
AcDbEntity
  8
0
  6
CONTINUOUS
 62
     7
100
AcDbVertex
100
AcDb2dVertex
 10
3731.206374
 20
-15559.186626
 30
0.0
  0
VERTEX
  5
60D
100
AcDbEntity
  8
0
  6
CONTINUOUS
 62
     7
100
AcDbVertex
100
AcDb2dVertex
 10
3731.415814
 20
-15558.314239
 30
0.0
  0
VERTEX
  5
60E
100
AcDbEntity
  8
0
  6
CONTINUOUS
 62
     7
100
AcDbVertex
100
AcDb2dVertex
 10
3731.613437
 20
-15557.491042
 30
0.0
  0
VERTEX
  5
60F
100
AcDbEntity
  8
0
  6
CONTINUOUS
 62
     7
100
AcDbVertex
100
AcDb2dVertex
 10
3731.788127
 20
-15556.763451
 30
0.0
  0
VERTEX
  5
610
100
AcDbEntity
  8
0
  6
CONTINUOUS
 62
     7
100
AcDbVertex
100
AcDb2dVertex
 10
3731.930001
 20
-15556.17249
 30
0.0
  0
SEQEND
  5
611
100
AcDbEntity
  8
0
  6
CONTINUOUS
 62
     7
  0
LINE
  5
612
100
AcDbEntity
  8
0
  6
CONTINUOUS
 62
     7
100
AcDbLine
 10
3802.407842
 20
-15573.092724
 30
0.0
 11
3731.930001
 21
-15556.17249
 31
0.0
  0
ARC
  5
613
100
AcDbEntity
  8
0
  6
CONTINUOUS
 62
     7
100
AcDbCircle
 10
3244.770933
 20
-15442.403812
 30
0.0
 40
3.099784
100
AcDbArc
 50
256.499961
 51
76.500152
  0
ARC
  5
614
100
AcDbEntity
  8
0
  6
CONTINUOUS
 62
     7
100
AcDbCircle
 10
3731.206375
 20
-15442.40381
 30
0.0
 40
3.099784
100
AcDbArc
 50
103.499968
 51
283.499919
  0
ARC
  5
615
100
AcDbEntity
  8
0
  6
CONTINUOUS
 62
     7
100
AcDbCircle
 10
3238.630924
 20
-15481.170339
 30
0.0
 40
3.099779
100
AcDbArc
 50
265.499923
 51
85.500262
  0
ARC
  5
616
100
AcDbEntity
  8
0
  6
CONTINUOUS
 62
     7
100
AcDbCircle
 10
3737.346386
 20
-15481.170338
 30
0.0
 40
3.09978
100
AcDbArc
 50
94.499909
 51
274.50018
  0
ARC
  5
617
100
AcDbEntity
  8
0
  6
CONTINUOUS
 62
     7
100
AcDbCircle
 10
3238.630913
 20
-15520.420097
 30
0.0
 40
3.099783
100
AcDbArc
 50
274.499943
 51
94.499861
  0
LINE
  5
618
100
AcDbEntity
  8
0
  6
CONTINUOUS
 62
     7
100
AcDbLine
 10
3210.03033
 20
-15667.492786
 30
0.0
 11
3273.099158
 21
-15628.844158
 31
0.0
  0
POLYLINE
  5
619
100
AcDbEntity
  8
0
  6
CONTINUOUS
 62
     7
100
AcDb2dPolyline
 66
     1
 10
0.0
 20
0.0
 30
0.0
 70
   128
  0
VERTEX
  5
61A
100
AcDbEntity
  8
0
  6
CONTINUOUS
 62
     7
100
AcDbVertex
100
AcDb2dVertex
 10
3273.099158
 20
-15628.844158
 30
0.0
  0
VERTEX
  5
61B
100
AcDbEntity
  8
0
  6
CONTINUOUS
 62
     7
100
AcDbVertex
100
AcDb2dVertex
 10
3273.416704
 20
-15629.362348
 30
0.0
  0
VERTEX
  5
61C
100
AcDbEntity
  8
0
  6
CONTINUOUS
 62
     7
100
AcDbVertex
100
AcDb2dVertex
 10
3273.807679
 20
-15630.00035
 30
0.0
  0
VERTEX
  5
61D
100
AcDbEntity
  8
0
  6
CONTINUOUS
 62
     7
100
AcDbVertex
100
AcDb2dVertex
 10
3274.250014
 20
-15630.722191
 30
0.0
  0
VERTEX
  5
61E
100
AcDbEntity
  8
0
  6
CONTINUOUS
 62
     7
100
AcDbVertex
100
AcDb2dVertex
 10
3274.718795
 20
-15631.487154
 30
0.0
  0
VERTEX
  5
61F
100
AcDbEntity
  8
0
  6
CONTINUOUS
 62
     7
100
AcDbVertex
100
AcDb2dVertex
 10
3275.187561
 20
-15632.252125
 30
0.0
  0
VERTEX
  5
620
100
AcDbEntity
  8
0
  6
CONTINUOUS
 62
     7
100
AcDbVertex
100
AcDb2dVertex
 10
3275.629911
 20
-15632.973959
 30
0.0
  0
VERTEX
  5
621
100
AcDbEntity
  8
0
  6
CONTINUOUS
 62
     7
100
AcDbVertex
100
AcDb2dVertex
 10
3276.020872
 20
-15633.61196
 30
0.0
  0
VERTEX
  5
622
100
AcDbEntity
  8
0
  6
CONTINUOUS
 62
     7
100
AcDbVertex
100
AcDb2dVertex
 10
3276.338418
 20
-15634.130158
 30
0.0
  0
SEQEND
  5
623
100
AcDbEntity
  8
0
  6
CONTINUOUS
 62
     7
  0
LINE
  5
624
100
AcDbEntity
  8
0
  6
CONTINUOUS
 62
     7
100
AcDbLine
 10
3214.538657
 20
-15672.001107
 30
0.0
 11
3276.338418
 21
-15634.130158
 31
0.0
  0
LINE
  5
625
100
AcDbEntity
  8
0
  6
CONTINUOUS
 62
     7
100
AcDbLine
 10
3761.438659
 20
-15672.001107
 30
0.0
 11
3699.638883
 21
-15634.130158
 31
0.0
  0
POLYLINE
  5
626
100
AcDbEntity
  8
0
  6
CONTINUOUS
 62
     7
100
AcDb2dPolyline
 66
     1
 10
0.0
 20
0.0
 30
0.0
 70
   128
  0
VERTEX
  5
627
100
AcDbEntity
  8
0
  6
CONTINUOUS
 62
     7
100
AcDbVertex
100
AcDb2dVertex
 10
3699.638883
 20
-15634.130158
 30
0.0
  0
VERTEX
  5
628
100
AcDbEntity
  8
0
  6
CONTINUOUS
 62
     7
100
AcDbVertex
100
AcDb2dVertex
 10
3699.956429
 20
-15633.61196
 30
0.0
  0
VERTEX
  5
629
100
AcDbEntity
  8
0
  6
CONTINUOUS
 62
     7
100
AcDbVertex
100
AcDb2dVertex
 10
3700.34739
 20
-15632.973959
 30
0.0
  0
VERTEX
  5
62A
100
AcDbEntity
  8
0
  6
CONTINUOUS
 62
     7
100
AcDbVertex
100
AcDb2dVertex
 10
3700.78974
 20
-15632.252125
 30
0.0
  0
VERTEX
  5
62B
100
AcDbEntity
  8
0
  6
CONTINUOUS
 62
     7
100
AcDbVertex
100
AcDb2dVertex
 10
3701.258506
 20
-15631.487154
 30
0.0
  0
VERTEX
  5
62C
100
AcDbEntity
  8
0
  6
CONTINUOUS
 62
     7
100
AcDbVertex
100
AcDb2dVertex
 10
3701.727287
 20
-15630.722191
 30
0.0
  0
VERTEX
  5
62D
100
AcDbEntity
  8
0
  6
CONTINUOUS
 62
     7
100
AcDbVertex
100
AcDb2dVertex
 10
3702.169622
 20
-15630.00035
 30
0.0
  0
VERTEX
  5
62E
100
AcDbEntity
  8
0
  6
CONTINUOUS
 62
     7
100
AcDbVertex
100
AcDb2dVertex
 10
3702.560598
 20
-15629.362348
 30
0.0
  0
VERTEX
  5
62F
100
AcDbEntity
  8
0
  6
CONTINUOUS
 62
     7
100
AcDbVertex
100
AcDb2dVertex
 10
3702.878144
 20
-15628.844158
 30
0.0
  0
SEQEND
  5
630
100
AcDbEntity
  8
0
  6
CONTINUOUS
 62
     7
  0
LINE
  5
631
100
AcDbEntity
  8
0
  6
CONTINUOUS
 62
     7
100
AcDbLine
 10
3765.946957
 20
-15667.492786
 30
0.0
 11
3702.878144
 21
-15628.844158
 31
0.0
  0
ARC
  5
632
100
AcDbEntity
  8
0
  6
CONTINUOUS
 62
     7
100
AcDbCircle
 10
3737.346381
 20
-15520.420096
 30
0.0
 40
3.099783
100
AcDbArc
 50
85.499733
 51
265.500189
  0
ARC
  5
633
100
AcDbEntity
  8
0
  6
CONTINUOUS
 62
     7
100
AcDbCircle
 10
3731.206366
 20
-15559.186624
 30
0.0
 40
3.099782
100
AcDbArc
 50
76.499906
 51
256.500188
  0
POLYLINE
  5
634
100
AcDbEntity
  8
0
  6
CONTINUOUS
 62
     7
100
AcDb2dPolyline
 66
     1
 10
0.0
 20
0.0
 30
0.0
 70
   128
  0
VERTEX
  5
635
100
AcDbEntity
  8
0
  6
CONTINUOUS
 62
     7
100
AcDbVertex
100
AcDb2dVertex
 10
3415.691145
 20
-15815.214405
 30
0.0
  0
VERTEX
  5
636
100
AcDbEntity
  8
0
  6
CONTINUOUS
 62
     7
100
AcDbVertex
100
AcDb2dVertex
 10
3415.090216
 20
-15815.688142
 30
0.0
  0
VERTEX
  5
637
100
AcDbEntity
  8
0
  6
CONTINUOUS
 62
     7
100
AcDbVertex
100
AcDb2dVertex
 10
3414.368866
 20
-15816.256798
 30
0.0
  0
VERTEX
  5
638
100
AcDbEntity
  8
0
  6
CONTINUOUS
 62
     7
100
AcDbVertex
100
AcDb2dVertex
 10
3413.553183
 20
-15816.899837
 30
0.0
  0
VERTEX
  5
639
100
AcDbEntity
  8
0
  6
CONTINUOUS
 62
     7
100
AcDbVertex
100
AcDb2dVertex
 10
3412.672651
 20
-15817.594012
 30
0.0
  0
VERTEX
  5
63A
100
AcDbEntity
  8
0
  6
CONTINUOUS
 62
     7
100
AcDbVertex
100
AcDb2dVertex
 10
3411.759087
 20
-15818.314202
 30
0.0
  0
SEQEND
  5
63B
100
AcDbEntity
  8
0
  6
CONTINUOUS
 62
     7
  0
LINE
  5
63C
100
AcDbEntity
  8
0
  6
CONTINUOUS
 62
     7
100
AcDbLine
 10
3415.691145
 20
-15815.214405
 30
0.0
 11
3460.133956
 21
-15815.214405
 31
0.0
  0
POLYLINE
  5
63D
100
AcDbEntity
  8
0
  6
CONTINUOUS
 62
     7
100
AcDb2dPolyline
 66
     1
 10
0.0
 20
0.0
 30
0.0
 70
   128
  0
VERTEX
  5
63E
100
AcDbEntity
  8
0
  6
CONTINUOUS
 62
     7
100
AcDbVertex
100
AcDb2dVertex
 10
3462.999365
 20
-15818.314202
 30
0.0
  0
VERTEX
  5
63F
100
AcDbEntity
  8
0
  6
CONTINUOUS
 62
     7
100
AcDbVertex
100
AcDb2dVertex
 10
3462.333626
 20
-15817.594012
 30
0.0
  0
VERTEX
  5
640
100
AcDbEntity
  8
0
  6
CONTINUOUS
 62
     7
100
AcDbVertex
100
AcDb2dVertex
 10
3461.691953
 20
-15816.899837
 30
0.0
  0
VERTEX
  5
641
100
AcDbEntity
  8
0
  6
CONTINUOUS
 62
     7
100
AcDbVertex
100
AcDb2dVertex
 10
3461.09754
 20
-15816.256798
 30
0.0
  0
VERTEX
  5
642
100
AcDbEntity
  8
0
  6
CONTINUOUS
 62
     7
100
AcDbVertex
100
AcDb2dVertex
 10
3460.571873
 20
-15815.688142
 30
0.0
  0
VERTEX
  5
643
100
AcDbEntity
  8
0
  6
CONTINUOUS
 62
     7
100
AcDbVertex
100
AcDb2dVertex
 10
3460.133956
 20
-15815.214405
 30
0.0
  0
SEQEND
  5
644
100
AcDbEntity
  8
0
  6
CONTINUOUS
 62
     7
  0
POLYLINE
  5
645
100
AcDbEntity
  8
0
  6
CONTINUOUS
 62
     7
100
AcDb2dPolyline
 66
     1
 10
0.0
 20
0.0
 30
0.0
 70
   128
  0
VERTEX
  5
646
100
AcDbEntity
  8
0
  6
CONTINUOUS
 62
     7
100
AcDbVertex
100
AcDb2dVertex
 10
3466.352691
 20
-15815.214405
 30
0.0
  0
VERTEX
  5
647
100
AcDbEntity
  8
0
  6
CONTINUOUS
 62
     7
100
AcDbVertex
100
AcDb2dVertex
 10
3465.840206
 20
-15815.688142
 30
0.0
  0
VERTEX
  5
648
100
AcDbEntity
  8
0
  6
CONTINUOUS
 62
     7
100
AcDbVertex
100
AcDb2dVertex
 10
3465.225031
 20
-15816.256798
 30
0.0
  0
VERTEX
  5
649
100
AcDbEntity
  8
0
  6
CONTINUOUS
 62
     7
100
AcDbVertex
100
AcDb2dVertex
 10
3464.529401
 20
-15816.899837
 30
0.0
  0
VERTEX
  5
64A
100
AcDbEntity
  8
0
  6
CONTINUOUS
 62
     7
100
AcDbVertex
100
AcDb2dVertex
 10
3463.778464
 20
-15817.594012
 30
0.0
  0
VERTEX
  5
64B
100
AcDbEntity
  8
0
  6
CONTINUOUS
 62
     7
100
AcDbVertex
100
AcDb2dVertex
 10
3462.999365
 20
-15818.314202
 30
0.0
  0
SEQEND
  5
64C
100
AcDbEntity
  8
0
  6
CONTINUOUS
 62
     7
  0
LINE
  5
64D
100
AcDbEntity
  8
0
  6
CONTINUOUS
 62
     7
100
AcDbLine
 10
3466.352691
 20
-15815.214405
 30
0.0
 11
3509.62461
 21
-15815.214405
 31
0.0
  0
POLYLINE
  5
64E
100
AcDbEntity
  8
0
  6
CONTINUOUS
 62
     7
100
AcDb2dPolyline
 66
     1
 10
0.0
 20
0.0
 30
0.0
 70
   128
  0
VERTEX
  5
64F
100
AcDbEntity
  8
0
  6
CONTINUOUS
 62
     7
100
AcDbVertex
100
AcDb2dVertex
 10
3512.977936
 20
-15818.314202
 30
0.0
  0
VERTEX
  5
650
100
AcDbEntity
  8
0
  6
CONTINUOUS
 62
     7
100
AcDbVertex
100
AcDb2dVertex
 10
3512.198837
 20
-15817.594012
 30
0.0
  0
VERTEX
  5
651
100
AcDbEntity
  8
0
  6
CONTINUOUS
 62
     7
100
AcDbVertex
100
AcDb2dVertex
 10
3511.4479
 20
-15816.899837
 30
0.0
  0
VERTEX
  5
652
100
AcDbEntity
  8
0
  6
CONTINUOUS
 62
     7
100
AcDbVertex
100
AcDb2dVertex
 10
3510.752271
 20
-15816.256798
 30
0.0
  0
VERTEX
  5
653
100
AcDbEntity
  8
0
  6
CONTINUOUS
 62
     7
100
AcDbVertex
100
AcDb2dVertex
 10
3510.137095
 20
-15815.688142
 30
0.0
  0
VERTEX
  5
654
100
AcDbEntity
  8
0
  6
CONTINUOUS
 62
     7
100
AcDbVertex
100
AcDb2dVertex
 10
3509.62461
 20
-15815.214405
 30
0.0
  0
SEQEND
  5
655
100
AcDbEntity
  8
0
  6
CONTINUOUS
 62
     7
  0
POLYLINE
  5
656
100
AcDbEntity
  8
0
  6
CONTINUOUS
 62
     7
100
AcDb2dPolyline
 66
     1
 10
0.0
 20
0.0
 30
0.0
 70
   128
  0
VERTEX
  5
657
100
AcDbEntity
  8
0
  6
CONTINUOUS
 62
     7
100
AcDbVertex
100
AcDb2dVertex
 10
3515.843345
 20
-15815.214405
 30
0.0
  0
VERTEX
  5
658
100
AcDbEntity
  8
0
  6
CONTINUOUS
 62
     7
100
AcDbVertex
100
AcDb2dVertex
 10
3515.405428
 20
-15815.688142
 30
0.0
  0
VERTEX
  5
659
100
AcDbEntity
  8
0
  6
CONTINUOUS
 62
     7
100
AcDbVertex
100
AcDb2dVertex
 10
3514.879761
 20
-15816.256798
 30
0.0
  0
VERTEX
  5
65A
100
AcDbEntity
  8
0
  6
CONTINUOUS
 62
     7
100
AcDbVertex
100
AcDb2dVertex
 10
3514.285348
 20
-15816.899837
 30
0.0
  0
VERTEX
  5
65B
100
AcDbEntity
  8
0
  6
CONTINUOUS
 62
     7
100
AcDbVertex
100
AcDb2dVertex
 10
3513.643675
 20
-15817.594012
 30
0.0
  0
VERTEX
  5
65C
100
AcDbEntity
  8
0
  6
CONTINUOUS
 62
     7
100
AcDbVertex
100
AcDb2dVertex
 10
3512.977936
 20
-15818.314202
 30
0.0
  0
SEQEND
  5
65D
100
AcDbEntity
  8
0
  6
CONTINUOUS
 62
     7
  0
LINE
  5
65E
100
AcDbEntity
  8
0
  6
CONTINUOUS
 62
     7
100
AcDbLine
 10
3515.843345
 20
-15815.214405
 30
0.0
 11
3560.286156
 21
-15815.214405
 31
0.0
  0
POLYLINE
  5
65F
100
AcDbEntity
  8
0
  6
CONTINUOUS
 62
     7
100
AcDb2dPolyline
 66
     1
 10
0.0
 20
0.0
 30
0.0
 70
   128
  0
VERTEX
  5
660
100
AcDbEntity
  8
0
  6
CONTINUOUS
 62
     7
100
AcDbVertex
100
AcDb2dVertex
 10
3564.218214
 20
-15818.314202
 30
0.0
  0
VERTEX
  5
661
100
AcDbEntity
  8
0
  6
CONTINUOUS
 62
     7
100
AcDbVertex
100
AcDb2dVertex
 10
3563.30465
 20
-15817.594012
 30
0.0
  0
VERTEX
  5
662
100
AcDbEntity
  8
0
  6
CONTINUOUS
 62
     7
100
AcDbVertex
100
AcDb2dVertex
 10
3562.424118
 20
-15816.899837
 30
0.0
  0
VERTEX
  5
663
100
AcDbEntity
  8
0
  6
CONTINUOUS
 62
     7
100
AcDbVertex
100
AcDb2dVertex
 10
3561.608435
 20
-15816.256798
 30
0.0
  0
VERTEX
  5
664
100
AcDbEntity
  8
0
  6
CONTINUOUS
 62
     7
100
AcDbVertex
100
AcDb2dVertex
 10
3560.887085
 20
-15815.688142
 30
0.0
  0
VERTEX
  5
665
100
AcDbEntity
  8
0
  6
CONTINUOUS
 62
     7
100
AcDbVertex
100
AcDb2dVertex
 10
3560.286156
 20
-15815.214405
 30
0.0
  0
SEQEND
  5
666
100
AcDbEntity
  8
0
  6
CONTINUOUS
 62
     7
  0
POLYLINE
  5
667
100
AcDbEntity
  8
0
  6
CONTINUOUS
 62
     7
100
AcDb2dPolyline
 66
     1
 10
0.0
 20
0.0
 30
0.0
 70
   128
  0
VERTEX
  5
668
100
AcDbEntity
  8
0
  6
CONTINUOUS
 62
     7
100
AcDbVertex
100
AcDb2dVertex
 10
3566.661883
 20
-15815.214405
 30
0.0
  0
VERTEX
  5
669
100
AcDbEntity
  8
0
  6
CONTINUOUS
 62
     7
100
AcDbVertex
100
AcDb2dVertex
 10
3566.288417
 20
-15815.688142
 30
0.0
  0
VERTEX
  5
66A
100
AcDbEntity
  8
0
  6
CONTINUOUS
 62
     7
100
AcDbVertex
100
AcDb2dVertex
 10
3565.840121
 20
-15816.256798
 30
0.0
  0
VERTEX
  5
66B
100
AcDbEntity
  8
0
  6
CONTINUOUS
 62
     7
100
AcDbVertex
100
AcDb2dVertex
 10
3565.333197
 20
-15816.899837
 30
0.0
  0
VERTEX
  5
66C
100
AcDbEntity
  8
0
  6
CONTINUOUS
 62
     7
100
AcDbVertex
100
AcDb2dVertex
 10
3564.785963
 20
-15817.594012
 30
0.0
  0
VERTEX
  5
66D
100
AcDbEntity
  8
0
  6
CONTINUOUS
 62
     7
100
AcDbVertex
100
AcDb2dVertex
 10
3564.218214
 20
-15818.314202
 30
0.0
  0
SEQEND
  5
66E
100
AcDbEntity
  8
0
  6
CONTINUOUS
 62
     7
  0
LINE
  5
66F
100
AcDbEntity
  8
0
  6
CONTINUOUS
 62
     7
100
AcDbLine
 10
3566.661883
 20
-15815.214405
 30
0.0
 11
3614.870167
 21
-15815.214405
 31
0.0
  0
LINE
  5
670
100
AcDbEntity
  8
0
  6
CONTINUOUS
 62
     7
100
AcDbLine
 10
3360.382138
 20
-15821.413969
 30
0.0
 11
3615.595163
 21
-15821.413969
 31
0.0
  0
LINE
  5
671
100
AcDbEntity
  8
0
  6
CONTINUOUS
 62
     7
100
AcDbLine
 10
3361.107135
 20
-15815.214405
 30
0.0
 11
3409.315418
 21
-15815.214405
 31
0.0
  0
POLYLINE
  5
672
100
AcDbEntity
  8
0
  6
CONTINUOUS
 62
     7
100
AcDb2dPolyline
 66
     1
 10
0.0
 20
0.0
 30
0.0
 70
   128
  0
VERTEX
  5
673
100
AcDbEntity
  8
0
  6
CONTINUOUS
 62
     7
100
AcDbVertex
100
AcDb2dVertex
 10
3411.759087
 20
-15818.314202
 30
0.0
  0
VERTEX
  5
674
100
AcDbEntity
  8
0
  6
CONTINUOUS
 62
     7
100
AcDbVertex
100
AcDb2dVertex
 10
3411.191338
 20
-15817.594012
 30
0.0
  0
VERTEX
  5
675
100
AcDbEntity
  8
0
  6
CONTINUOUS
 62
     7
100
AcDbVertex
100
AcDb2dVertex
 10
3410.644104
 20
-15816.899837
 30
0.0
  0
VERTEX
  5
676
100
AcDbEntity
  8
0
  6
CONTINUOUS
 62
     7
100
AcDbVertex
100
AcDb2dVertex
 10
3410.13718
 20
-15816.256798
 30
0.0
  0
VERTEX
  5
677
100
AcDbEntity
  8
0
  6
CONTINUOUS
 62
     7
100
AcDbVertex
100
AcDb2dVertex
 10
3409.688884
 20
-15815.688142
 30
0.0
  0
VERTEX
  5
678
100
AcDbEntity
  8
0
  6
CONTINUOUS
 62
     7
100
AcDbVertex
100
AcDb2dVertex
 10
3409.315418
 20
-15815.214405
 30
0.0
  0
SEQEND
  5
679
100
AcDbEntity
  8
0
  6
CONTINUOUS
 62
     7
  0
LINE
  5
67A
100
AcDbEntity
  8
0
  6
CONTINUOUS
 62
     7
100
AcDbLine
 10
3245.964467
 20
-15703.426916
 30
0.0
 11
3295.776076
 21
-15660.883785
 31
0.0
  0
POLYLINE
  5
67B
100
AcDbEntity
  8
0
  6
CONTINUOUS
 62
     7
100
AcDb2dPolyline
 66
     1
 10
0.0
 20
0.0
 30
0.0
 70
   128
  0
VERTEX
  5
67C
100
AcDbEntity
  8
0
  6
CONTINUOUS
 62
     7
100
AcDbVertex
100
AcDb2dVertex
 10
3295.776076
 20
-15660.883785
 30
0.0
  0
VERTEX
  5
67D
100
AcDbEntity
  8
0
  6
CONTINUOUS
 62
     7
100
AcDbVertex
100
AcDb2dVertex
 10
3296.170773
 20
-15661.345921
 30
0.0
  0
VERTEX
  5
67E
100
AcDbEntity
  8
0
  6
CONTINUOUS
 62
     7
100
AcDbVertex
100
AcDb2dVertex
 10
3296.656743
 20
-15661.914912
 30
0.0
  0
VERTEX
  5
67F
100
AcDbEntity
  8
0
  6
CONTINUOUS
 62
     7
100
AcDbVertex
100
AcDb2dVertex
 10
3297.206559
 20
-15662.558658
 30
0.0
  0
VERTEX
  5
680
100
AcDbEntity
  8
0
  6
CONTINUOUS
 62
     7
100
AcDbVertex
100
AcDb2dVertex
 10
3297.78922
 20
-15663.240875
 30
0.0
  0
VERTEX
  5
681
100
AcDbEntity
  8
0
  6
CONTINUOUS
 62
     7
100
AcDbVertex
100
AcDb2dVertex
 10
3298.371896
 20
-15663.923092
 30
0.0
  0
VERTEX
  5
682
100
AcDbEntity
  8
0
  6
CONTINUOUS
 62
     7
100
AcDbVertex
100
AcDb2dVertex
 10
3298.921711
 20
-15664.566846
 30
0.0
  0
VERTEX
  5
683
100
AcDbEntity
  8
0
  6
CONTINUOUS
 62
     7
100
AcDbVertex
100
AcDb2dVertex
 10
3299.407667
 20
-15665.13583
 30
0.0
  0
VERTEX
  5
684
100
AcDbEntity
  8
0
  6
CONTINUOUS
 62
     7
100
AcDbVertex
100
AcDb2dVertex
 10
3299.802363
 20
-15665.597973
 30
0.0
  0
SEQEND
  5
685
100
AcDbEntity
  8
0
  6
CONTINUOUS
 62
     7
  0
LINE
  5
686
100
AcDbEntity
  8
0
  6
CONTINUOUS
 62
     7
100
AcDbLine
 10
3250.361772
 20
-15707.824221
 30
0.0
 11
3299.802363
 21
-15665.597973
 31
0.0
  0
LINE
  5
687
100
AcDbEntity
  8
0
  6
CONTINUOUS
 62
     7
100
AcDbLine
 10
3725.61553
 20
-15707.824221
 30
0.0
 11
3676.174938
 21
-15665.597973
 31
0.0
  0
POLYLINE
  5
688
100
AcDbEntity
  8
0
  6
CONTINUOUS
 62
     7
100
AcDb2dPolyline
 66
     1
 10
0.0
 20
0.0
 30
0.0
 70
   128
  0
VERTEX
  5
689
100
AcDbEntity
  8
0
  6
CONTINUOUS
 62
     7
100
AcDbVertex
100
AcDb2dVertex
 10
3676.174938
 20
-15665.597973
 30
0.0
  0
VERTEX
  5
68A
100
AcDbEntity
  8
0
  6
CONTINUOUS
 62
     7
100
AcDbVertex
100
AcDb2dVertex
 10
3676.569635
 20
-15665.13583
 30
0.0
  0
VERTEX
  5
68B
100
AcDbEntity
  8
0
  6
CONTINUOUS
 62
     7
100
AcDbVertex
100
AcDb2dVertex
 10
3677.05559
 20
-15664.566846
 30
0.0
  0
VERTEX
  5
68C
100
AcDbEntity
  8
0
  6
CONTINUOUS
 62
     7
100
AcDbVertex
100
AcDb2dVertex
 10
3677.605405
 20
-15663.923092
 30
0.0
  0
VERTEX
  5
68D
100
AcDbEntity
  8
0
  6
CONTINUOUS
 62
     7
100
AcDbVertex
100
AcDb2dVertex
 10
3678.188081
 20
-15663.240875
 30
0.0
  0
VERTEX
  5
68E
100
AcDbEntity
  8
0
  6
CONTINUOUS
 62
     7
100
AcDbVertex
100
AcDb2dVertex
 10
3678.770743
 20
-15662.558658
 30
0.0
  0
VERTEX
  5
68F
100
AcDbEntity
  8
0
  6
CONTINUOUS
 62
     7
100
AcDbVertex
100
AcDb2dVertex
 10
3679.320558
 20
-15661.914912
 30
0.0
  0
VERTEX
  5
690
100
AcDbEntity
  8
0
  6
CONTINUOUS
 62
     7
100
AcDbVertex
100
AcDb2dVertex
 10
3679.806528
 20
-15661.345921
 30
0.0
  0
VERTEX
  5
691
100
AcDbEntity
  8
0
  6
CONTINUOUS
 62
     7
100
AcDbVertex
100
AcDb2dVertex
 10
3680.201225
 20
-15660.883785
 30
0.0
  0
SEQEND
  5
692
100
AcDbEntity
  8
0
  6
CONTINUOUS
 62
     7
  0
LINE
  5
693
100
AcDbEntity
  8
0
  6
CONTINUOUS
 62
     7
100
AcDbLine
 10
3730.012834
 20
-15703.426916
 30
0.0
 11
3680.201225
 21
-15660.883785
 31
0.0
  0
ARC
  5
694
100
AcDbEntity
  8
0
  6
CONTINUOUS
 62
     7
100
AcDbCircle
 10
3244.77093
 20
-15559.186625
 30
0.0
 40
3.099782
100
AcDbArc
 50
283.499911
 51
103.499996
  0
LINE
  5
695
100
AcDbEntity
  8
0
  6
CONTINUOUS
 62
     7
100
AcDbLine
 10
3654.686216
 20
-15778.753535
 30
0.0
 11
3616.037587
 21
-15715.684707
 31
0.0
  0
POLYLINE
  5
696
100
AcDbEntity
  8
0
  6
CONTINUOUS
 62
     7
100
AcDb2dPolyline
 66
     1
 10
0.0
 20
0.0
 30
0.0
 70
   128
  0
VERTEX
  5
697
100
AcDbEntity
  8
0
  6
CONTINUOUS
 62
     7
100
AcDbVertex
100
AcDb2dVertex
 10
3616.037587
 20
-15715.684707
 30
0.0
  0
VERTEX
  5
698
100
AcDbEntity
  8
0
  6
CONTINUOUS
 62
     7
100
AcDbVertex
100
AcDb2dVertex
 10
3616.555778
 20
-15715.367161
 30
0.0
  0
VERTEX
  5
699
100
AcDbEntity
  8
0
  6
CONTINUOUS
 62
     7
100
AcDbVertex
100
AcDb2dVertex
 10
3617.193787
 20
-15714.976185
 30
0.0
  0
VERTEX
  5
69A
100
AcDbEntity
  8
0
  6
CONTINUOUS
 62
     7
100
AcDbVertex
100
AcDb2dVertex
 10
3617.915613
 20
-15714.53385
 30
0.0
  0
VERTEX
  5
69B
100
AcDbEntity
  8
0
  6
CONTINUOUS
 62
     7
100
AcDbVertex
100
AcDb2dVertex
 10
3618.680584
 20
-15714.065084
 30
0.0
  0
VERTEX
  5
69C
100
AcDbEntity
  8
0
  6
CONTINUOUS
 62
     7
100
AcDbVertex
100
AcDb2dVertex
 10
3619.445554
 20
-15713.596303
 30
0.0
  0
VERTEX
  5
69D
100
AcDbEntity
  8
0
  6
CONTINUOUS
 62
     7
100
AcDbVertex
100
AcDb2dVertex
 10
3620.167396
 20
-15713.153968
 30
0.0
  0
VERTEX
  5
69E
100
AcDbEntity
  8
0
  6
CONTINUOUS
 62
     7
100
AcDbVertex
100
AcDb2dVertex
 10
3620.80539
 20
-15712.762992
 30
0.0
  0
VERTEX
  5
69F
100
AcDbEntity
  8
0
  6
CONTINUOUS
 62
     7
100
AcDbVertex
100
AcDb2dVertex
 10
3621.32358
 20
-15712.445446
 30
0.0
  0
SEQEND
  5
6A0
100
AcDbEntity
  8
0
  6
CONTINUOUS
 62
     7
  0
LINE
  5
6A1
100
AcDbEntity
  8
0
  6
CONTINUOUS
 62
     7
100
AcDbLine
 10
3659.194543
 20
-15774.245222
 30
0.0
 11
3621.32358
 21
-15712.445446
 31
0.0
  0
LINE
  5
6A2
100
AcDbEntity
  8
0
  6
CONTINUOUS
 62
     7
100
AcDbLine
 10
3280.959643
 20
-15738.422093
 30
0.0
 11
3323.185898
 21
-15688.981501
 31
0.0
  0
POLYLINE
  5
6A3
100
AcDbEntity
  8
0
  6
CONTINUOUS
 62
     7
100
AcDb2dPolyline
 66
     1
 10
0.0
 20
0.0
 30
0.0
 70
   128
  0
VERTEX
  5
6A4
100
AcDbEntity
  8
0
  6
CONTINUOUS
 62
     7
100
AcDbVertex
100
AcDb2dVertex
 10
3323.185898
 20
-15688.981501
 30
0.0
  0
VERTEX
  5
6A5
100
AcDbEntity
  8
0
  6
CONTINUOUS
 62
     7
100
AcDbVertex
100
AcDb2dVertex
 10
3323.648042
 20
-15689.376198
 30
0.0
  0
VERTEX
  5
6A6
100
AcDbEntity
  8
0
  6
CONTINUOUS
 62
     7
100
AcDbVertex
100
AcDb2dVertex
 10
3324.217026
 20
-15689.862168
 30
0.0
  0
VERTEX
  5
6A7
100
AcDbEntity
  8
0
  6
CONTINUOUS
 62
     7
100
AcDbVertex
100
AcDb2dVertex
 10
3324.860779
 20
-15690.411983
 30
0.0
  0
VERTEX
  5
6A8
100
AcDbEntity
  8
0
  6
CONTINUOUS
 62
     7
100
AcDbVertex
100
AcDb2dVertex
 10
3325.542989
 20
-15690.994645
 30
0.0
  0
VERTEX
  5
6A9
100
AcDbEntity
  8
0
  6
CONTINUOUS
 62
     7
100
AcDbVertex
100
AcDb2dVertex
 10
3326.225213
 20
-15691.577321
 30
0.0
  0
VERTEX
  5
6AA
100
AcDbEntity
  8
0
  6
CONTINUOUS
 62
     7
100
AcDbVertex
100
AcDb2dVertex
 10
3326.868967
 20
-15692.127136
 30
0.0
  0
VERTEX
  5
6AB
100
AcDbEntity
  8
0
  6
CONTINUOUS
 62
     7
100
AcDbVertex
100
AcDb2dVertex
 10
3327.437951
 20
-15692.613091
 30
0.0
  0
VERTEX
  5
6AC
100
AcDbEntity
  8
0
  6
CONTINUOUS
 62
     7
100
AcDbVertex
100
AcDb2dVertex
 10
3327.900079
 20
-15693.007803
 30
0.0
  0
SEQEND
  5
6AD
100
AcDbEntity
  8
0
  6
CONTINUOUS
 62
     7
  0
LINE
  5
6AE
100
AcDbEntity
  8
0
  6
CONTINUOUS
 62
     7
100
AcDbLine
 10
3285.356948
 20
-15742.819397
 30
0.0
 11
3327.900079
 21
-15693.007803
 31
0.0
  0
LINE
  5
6AF
100
AcDbEntity
  8
0
  6
CONTINUOUS
 62
     7
100
AcDbLine
 10
3690.620353
 20
-15742.819397
 30
0.0
 11
3648.077222
 21
-15693.007803
 31
0.0
  0
POLYLINE
  5
6B0
100
AcDbEntity
  8
0
  6
CONTINUOUS
 62
     7
100
AcDb2dPolyline
 66
     1
 10
0.0
 20
0.0
 30
0.0
 70
   128
  0
VERTEX
  5
6B1
100
AcDbEntity
  8
0
  6
CONTINUOUS
 62
     7
100
AcDbVertex
100
AcDb2dVertex
 10
3648.077222
 20
-15693.007803
 30
0.0
  0
VERTEX
  5
6B2
100
AcDbEntity
  8
0
  6
CONTINUOUS
 62
     7
100
AcDbVertex
100
AcDb2dVertex
 10
3648.53935
 20
-15692.613091
 30
0.0
  0
VERTEX
  5
6B3
100
AcDbEntity
  8
0
  6
CONTINUOUS
 62
     7
100
AcDbVertex
100
AcDb2dVertex
 10
3649.108334
 20
-15692.127136
 30
0.0
  0
VERTEX
  5
6B4
100
AcDbEntity
  8
0
  6
CONTINUOUS
 62
     7
100
AcDbVertex
100
AcDb2dVertex
 10
3649.752088
 20
-15691.577321
 30
0.0
  0
VERTEX
  5
6B5
100
AcDbEntity
  8
0
  6
CONTINUOUS
 62
     7
100
AcDbVertex
100
AcDb2dVertex
 10
3650.434312
 20
-15690.994645
 30
0.0
  0
VERTEX
  5
6B6
100
AcDbEntity
  8
0
  6
CONTINUOUS
 62
     7
100
AcDbVertex
100
AcDb2dVertex
 10
3651.116522
 20
-15690.411983
 30
0.0
  0
VERTEX
  5
6B7
100
AcDbEntity
  8
0
  6
CONTINUOUS
 62
     7
100
AcDbVertex
100
AcDb2dVertex
 10
3651.760275
 20
-15689.862168
 30
0.0
  0
VERTEX
  5
6B8
100
AcDbEntity
  8
0
  6
CONTINUOUS
 62
     7
100
AcDbVertex
100
AcDb2dVertex
 10
3652.329259
 20
-15689.376198
 30
0.0
  0
VERTEX
  5
6B9
100
AcDbEntity
  8
0
  6
CONTINUOUS
 62
     7
100
AcDbVertex
100
AcDb2dVertex
 10
3652.791403
 20
-15688.981501
 30
0.0
  0
SEQEND
  5
6BA
100
AcDbEntity
  8
0
  6
CONTINUOUS
 62
     7
  0
LINE
  5
6BB
100
AcDbEntity
  8
0
  6
CONTINUOUS
 62
     7
100
AcDbLine
 10
3695.017658
 20
-15738.422093
 30
0.0
 11
3652.791403
 21
-15688.981501
 31
0.0
  0
LINE
  5
6BC
100
AcDbEntity
  8
0
  6
CONTINUOUS
 62
     7
100
AcDbLine
 10
3316.782758
 20
-15774.245222
 30
0.0
 11
3354.653706
 21
-15712.445446
 31
0.0
  0
POLYLINE
  5
6BD
100
AcDbEntity
  8
0
  6
CONTINUOUS
 62
     7
100
AcDb2dPolyline
 66
     1
 10
0.0
 20
0.0
 30
0.0
 70
   128
  0
VERTEX
  5
6BE
100
AcDbEntity
  8
0
  6
CONTINUOUS
 62
     7
100
AcDbVertex
100
AcDb2dVertex
 10
3354.653706
 20
-15712.445446
 30
0.0
  0
VERTEX
  5
6BF
100
AcDbEntity
  8
0
  6
CONTINUOUS
 62
     7
100
AcDbVertex
100
AcDb2dVertex
 10
3355.171912
 20
-15712.762992
 30
0.0
  0
VERTEX
  5
6C0
100
AcDbEntity
  8
0
  6
CONTINUOUS
 62
     7
100
AcDbVertex
100
AcDb2dVertex
 10
3355.809905
 20
-15713.153968
 30
0.0
  0
VERTEX
  5
6C1
100
AcDbEntity
  8
0
  6
CONTINUOUS
 62
     7
100
AcDbVertex
100
AcDb2dVertex
 10
3356.531747
 20
-15713.596303
 30
0.0
  0
VERTEX
  5
6C2
100
AcDbEntity
  8
0
  6
CONTINUOUS
 62
     7
100
AcDbVertex
100
AcDb2dVertex
 10
3357.296717
 20
-15714.065084
 30
0.0
  0
VERTEX
  5
6C3
100
AcDbEntity
  8
0
  6
CONTINUOUS
 62
     7
100
AcDbVertex
100
AcDb2dVertex
 10
3358.061673
 20
-15714.53385
 30
0.0
  0
VERTEX
  5
6C4
100
AcDbEntity
  8
0
  6
CONTINUOUS
 62
     7
100
AcDbVertex
100
AcDb2dVertex
 10
3358.783515
 20
-15714.976185
 30
0.0
  0
VERTEX
  5
6C5
100
AcDbEntity
  8
0
  6
CONTINUOUS
 62
     7
100
AcDbVertex
100
AcDb2dVertex
 10
3359.421523
 20
-15715.367161
 30
0.0
  0
VERTEX
  5
6C6
100
AcDbEntity
  8
0
  6
CONTINUOUS
 62
     7
100
AcDbVertex
100
AcDb2dVertex
 10
3359.939714
 20
-15715.684707
 30
0.0
  0
SEQEND
  5
6C7
100
AcDbEntity
  8
0
  6
CONTINUOUS
 62
     7
  0
LINE
  5
6C8
100
AcDbEntity
  8
0
  6
CONTINUOUS
 62
     7
100
AcDbLine
 10
3321.291085
 20
-15778.753535
 30
0.0
 11
3359.939714
 21
-15715.684707
 31
0.0
  0
LINE
  5
6C9
100
AcDbEntity
  8
0
  6
CONTINUOUS
 62
     7
100
AcDbLine
 10
3460.133956
 20
-15815.214405
 30
0.0
 11
3465.273543
 21
-15749.909748
 31
0.0
  0
POLYLINE
  5
6CA
100
AcDbEntity
  8
0
  6
CONTINUOUS
 62
     7
100
AcDb2dPolyline
 66
     1
 10
0.0
 20
0.0
 30
0.0
 70
   128
  0
VERTEX
  5
6CB
100
AcDbEntity
  8
0
  6
CONTINUOUS
 62
     7
100
AcDbVertex
100
AcDb2dVertex
 10
3465.273543
 20
-15749.909748
 30
0.0
  0
VERTEX
  5
6CC
100
AcDbEntity
  8
0
  6
CONTINUOUS
 62
     7
100
AcDbVertex
100
AcDb2dVertex
 10
3465.879423
 20
-15749.957431
 30
0.0
  0
VERTEX
  5
6CD
100
AcDbEntity
  8
0
  6
CONTINUOUS
 62
     7
100
AcDbVertex
100
AcDb2dVertex
 10
3466.625383
 20
-15750.016142
 30
0.0
  0
VERTEX
  5
6CE
100
AcDbEntity
  8
0
  6
CONTINUOUS
 62
     7
100
AcDbVertex
100
AcDb2dVertex
 10
3467.469361
 20
-15750.082563
 30
0.0
  0
VERTEX
  5
6CF
100
AcDbEntity
  8
0
  6
CONTINUOUS
 62
     7
100
AcDbVertex
100
AcDb2dVertex
 10
3468.363771
 20
-15750.152956
 30
0.0
  0
VERTEX
  5
6D0
100
AcDbEntity
  8
0
  6
CONTINUOUS
 62
     7
100
AcDbVertex
100
AcDb2dVertex
 10
3469.258181
 20
-15750.22335
 30
0.0
  0
VERTEX
  5
6D1
100
AcDbEntity
  8
0
  6
CONTINUOUS
 62
     7
100
AcDbVertex
100
AcDb2dVertex
 10
3470.102159
 20
-15750.28977
 30
0.0
  0
VERTEX
  5
6D2
100
AcDbEntity
  8
0
  6
CONTINUOUS
 62
     7
100
AcDbVertex
100
AcDb2dVertex
 10
3470.848119
 20
-15750.348481
 30
0.0
  0
VERTEX
  5
6D3
100
AcDbEntity
  8
0
  6
CONTINUOUS
 62
     7
100
AcDbVertex
100
AcDb2dVertex
 10
3471.453998
 20
-15750.396165
 30
0.0
  0
SEQEND
  5
6D4
100
AcDbEntity
  8
0
  6
CONTINUOUS
 62
     7
  0
LINE
  5
6D5
100
AcDbEntity
  8
0
  6
CONTINUOUS
 62
     7
100
AcDbLine
 10
3466.352691
 20
-15815.214405
 30
0.0
 11
3471.453998
 21
-15750.396165
 31
0.0
  0
LINE
  5
6D6
100
AcDbEntity
  8
0
  6
CONTINUOUS
 62
     7
100
AcDbLine
 10
3409.315418
 20
-15815.214405
 30
0.0
 11
3426.583106
 21
-15743.289309
 31
0.0
  0
POLYLINE
  5
6D7
100
AcDbEntity
  8
0
  6
CONTINUOUS
 62
     7
100
AcDb2dPolyline
 66
     1
 10
0.0
 20
0.0
 30
0.0
 70
   128
  0
VERTEX
  5
6D8
100
AcDbEntity
  8
0
  6
CONTINUOUS
 62
     7
100
AcDbVertex
100
AcDb2dVertex
 10
3426.583106
 20
-15743.289309
 30
0.0
  0
VERTEX
  5
6D9
100
AcDbEntity
  8
0
  6
CONTINUOUS
 62
     7
100
AcDbVertex
100
AcDb2dVertex
 10
3427.174068
 20
-15743.431183
 30
0.0
  0
VERTEX
  5
6DA
100
AcDbEntity
  8
0
  6
CONTINUOUS
 62
     7
100
AcDbVertex
100
AcDb2dVertex
 10
3427.901658
 20
-15743.605858
 30
0.0
  0
VERTEX
  5
6DB
100
AcDbEntity
  8
0
  6
CONTINUOUS
 62
     7
100
AcDbVertex
100
AcDb2dVertex
 10
3428.724856
 20
-15743.803497
 30
0.0
  0
VERTEX
  5
6DC
100
AcDbEntity
  8
0
  6
CONTINUOUS
 62
     7
100
AcDbVertex
100
AcDb2dVertex
 10
3429.597244
 20
-15744.012937
 30
0.0
  0
VERTEX
  5
6DD
100
AcDbEntity
  8
0
  6
CONTINUOUS
 62
     7
100
AcDbVertex
100
AcDb2dVertex
 10
3430.469628
 20
-15744.222377
 30
0.0
  0
VERTEX
  5
6DE
100
AcDbEntity
  8
0
  6
CONTINUOUS
 62
     7
100
AcDbVertex
100
AcDb2dVertex
 10
3431.292826
 20
-15744.420015
 30
0.0
  0
VERTEX
  5
6DF
100
AcDbEntity
  8
0
  6
CONTINUOUS
 62
     7
100
AcDbVertex
100
AcDb2dVertex
 10
3432.020416
 20
-15744.59469
 30
0.0
  0
VERTEX
  5
6E0
100
AcDbEntity
  8
0
  6
CONTINUOUS
 62
     7
100
AcDbVertex
100
AcDb2dVertex
 10
3432.611378
 20
-15744.736564
 30
0.0
  0
SEQEND
  5
6E1
100
AcDbEntity
  8
0
  6
CONTINUOUS
 62
     7
  0
LINE
  5
6E2
100
AcDbEntity
  8
0
  6
CONTINUOUS
 62
     7
100
AcDbLine
 10
3415.691145
 20
-15815.214405
 30
0.0
 11
3432.611378
 21
-15744.736564
 31
0.0
  0
LINE
  5
6E3
100
AcDbEntity
  8
0
  6
CONTINUOUS
 62
     7
100
AcDbLine
 10
3560.286156
 20
-15815.214405
 30
0.0
 11
3543.365923
 21
-15744.736564
 31
0.0
  0
POLYLINE
  5
6E4
100
AcDbEntity
  8
0
  6
CONTINUOUS
 62
     7
100
AcDb2dPolyline
 66
     1
 10
0.0
 20
0.0
 30
0.0
 70
   128
  0
VERTEX
  5
6E5
100
AcDbEntity
  8
0
  6
CONTINUOUS
 62
     7
100
AcDbVertex
100
AcDb2dVertex
 10
3543.365923
 20
-15744.736564
 30
0.0
  0
VERTEX
  5
6E6
100
AcDbEntity
  8
0
  6
CONTINUOUS
 62
     7
100
AcDbVertex
100
AcDb2dVertex
 10
3543.956885
 20
-15744.59469
 30
0.0
  0
VERTEX
  5
6E7
100
AcDbEntity
  8
0
  6
CONTINUOUS
 62
     7
100
AcDbVertex
100
AcDb2dVertex
 10
3544.684475
 20
-15744.420015
 30
0.0
  0
VERTEX
  5
6E8
100
AcDbEntity
  8
0
  6
CONTINUOUS
 62
     7
100
AcDbVertex
100
AcDb2dVertex
 10
3545.507673
 20
-15744.222377
 30
0.0
  0
VERTEX
  5
6E9
100
AcDbEntity
  8
0
  6
CONTINUOUS
 62
     7
100
AcDbVertex
100
AcDb2dVertex
 10
3546.380057
 20
-15744.012937
 30
0.0
  0
VERTEX
  5
6EA
100
AcDbEntity
  8
0
  6
CONTINUOUS
 62
     7
100
AcDbVertex
100
AcDb2dVertex
 10
3547.252445
 20
-15743.803497
 30
0.0
  0
VERTEX
  5
6EB
100
AcDbEntity
  8
0
  6
CONTINUOUS
 62
     7
100
AcDbVertex
100
AcDb2dVertex
 10
3548.075643
 20
-15743.605858
 30
0.0
  0
VERTEX
  5
6EC
100
AcDbEntity
  8
0
  6
CONTINUOUS
 62
     7
100
AcDbVertex
100
AcDb2dVertex
 10
3548.803233
 20
-15743.431183
 30
0.0
  0
VERTEX
  5
6ED
100
AcDbEntity
  8
0
  6
CONTINUOUS
 62
     7
100
AcDbVertex
100
AcDb2dVertex
 10
3549.394191
 20
-15743.289309
 30
0.0
  0
SEQEND
  5
6EE
100
AcDbEntity
  8
0
  6
CONTINUOUS
 62
     7
  0
LINE
  5
6EF
100
AcDbEntity
  8
0
  6
CONTINUOUS
 62
     7
100
AcDbLine
 10
3566.661883
 20
-15815.214405
 30
0.0
 11
3549.394191
 21
-15743.289309
 31
0.0
  0
LINE
  5
6F0
100
AcDbEntity
  8
0
  6
CONTINUOUS
 62
     7
100
AcDbLine
 10
3509.62461
 20
-15815.214405
 30
0.0
 11
3504.523302
 21
-15750.396165
 31
0.0
  0
POLYLINE
  5
6F1
100
AcDbEntity
  8
0
  6
CONTINUOUS
 62
     7
100
AcDb2dPolyline
 66
     1
 10
0.0
 20
0.0
 30
0.0
 70
   128
  0
VERTEX
  5
6F2
100
AcDbEntity
  8
0
  6
CONTINUOUS
 62
     7
100
AcDbVertex
100
AcDb2dVertex
 10
3504.523302
 20
-15750.396165
 30
0.0
  0
VERTEX
  5
6F3
100
AcDbEntity
  8
0
  6
CONTINUOUS
 62
     7
100
AcDbVertex
100
AcDb2dVertex
 10
3505.129182
 20
-15750.348481
 30
0.0
  0
VERTEX
  5
6F4
100
AcDbEntity
  8
0
  6
CONTINUOUS
 62
     7
100
AcDbVertex
100
AcDb2dVertex
 10
3505.875142
 20
-15750.28977
 30
0.0
  0
VERTEX
  5
6F5
100
AcDbEntity
  8
0
  6
CONTINUOUS
 62
     7
100
AcDbVertex
100
AcDb2dVertex
 10
3506.71912
 20
-15750.22335
 30
0.0
  0
VERTEX
  5
6F6
100
AcDbEntity
  8
0
  6
CONTINUOUS
 62
     7
100
AcDbVertex
100
AcDb2dVertex
 10
3507.61353
 20
-15750.152956
 30
0.0
  0
VERTEX
  5
6F7
100
AcDbEntity
  8
0
  6
CONTINUOUS
 62
     7
100
AcDbVertex
100
AcDb2dVertex
 10
3508.50794
 20
-15750.082563
 30
0.0
  0
VERTEX
  5
6F8
100
AcDbEntity
  8
0
  6
CONTINUOUS
 62
     7
100
AcDbVertex
100
AcDb2dVertex
 10
3509.351918
 20
-15750.016142
 30
0.0
  0
VERTEX
  5
6F9
100
AcDbEntity
  8
0
  6
CONTINUOUS
 62
     7
100
AcDbVertex
100
AcDb2dVertex
 10
3510.097878
 20
-15749.957431
 30
0.0
  0
VERTEX
  5
6FA
100
AcDbEntity
  8
0
  6
CONTINUOUS
 62
     7
100
AcDbVertex
100
AcDb2dVertex
 10
3510.703758
 20
-15749.909748
 30
0.0
  0
SEQEND
  5
6FB
100
AcDbEntity
  8
0
  6
CONTINUOUS
 62
     7
  0
LINE
  5
6FC
100
AcDbEntity
  8
0
  6
CONTINUOUS
 62
     7
100
AcDbLine
 10
3515.843345
 20
-15815.214405
 30
0.0
 11
3510.703758
 21
-15749.909748
 31
0.0
  0
ARC
  5
6FD
100
AcDbEntity
  8
0
  6
CONTINUOUS
 62
     7
100
AcDbCircle
 10
3274.718789
 20
-15631.487157
 30
0.0
 40
3.099782
100
AcDbArc
 50
301.499924
 51
121.499996
  0
ARC
  5
6FE
100
AcDbEntity
  8
0
  6
CONTINUOUS
 62
     7
100
AcDbCircle
 10
3701.258508
 20
-15631.487154
 30
0.0
 40
3.099782
100
AcDbArc
 50
58.499917
 51
238.500163
  0
ARC
  5
6FF
100
AcDbEntity
  8
0
  6
CONTINUOUS
 62
     7
100
AcDbCircle
 10
3297.789224
 20
-15663.240876
 30
0.0
 40
3.09978
100
AcDbArc
 50
310.499828
 51
130.500019
  0
ARC
  5
700
100
AcDbEntity
  8
0
  6
CONTINUOUS
 62
     7
100
AcDbCircle
 10
3325.542991
 20
-15690.994649
 30
0.0
 40
3.099782
100
AcDbArc
 50
319.499863
 51
139.499992
  0
ARC
  5
701
100
AcDbEntity
  8
0
  6
CONTINUOUS
 62
     7
100
AcDbCircle
 10
3650.434311
 20
-15690.994651
 30
0.0
 40
3.099782
100
AcDbArc
 50
40.50005
 51
220.500095
  0
ARC
  5
702
100
AcDbEntity
  8
0
  6
CONTINUOUS
 62
     7
100
AcDbCircle
 10
3678.188074
 20
-15663.240872
 30
0.0
 40
3.09978
100
AcDbArc
 50
49.49989
 51
229.500263
  0
ARC
  5
703
100
AcDbEntity
  8
0
  6
CONTINUOUS
 62
     7
100
AcDbCircle
 10
3357.296711
 20
-15714.065075
 30
0.0
 40
3.099786
100
AcDbArc
 50
328.500039
 51
148.500113
  0
ARC
  5
704
100
AcDbEntity
  8
0
  6
CONTINUOUS
 62
     7
100
AcDbCircle
 10
3618.68058
 20
-15714.06507
 30
0.0
 40
3.099779
100
AcDbArc
 50
31.499854
 51
211.500138
  0
ARC
  5
705
100
AcDbEntity
  8
0
  6
CONTINUOUS
 62
     7
100
AcDbCircle
 10
3507.61353
 20
-15750.152952
 30
0.0
 40
3.099783
100
AcDbArc
 50
4.499964
 51
184.500113
  0
ARC
  5
706
100
AcDbEntity
  8
0
  6
CONTINUOUS
 62
     7
100
AcDbCircle
 10
3468.36377
 20
-15750.152959
 30
0.0
 40
3.099783
100
AcDbArc
 50
355.500003
 51
175.499918
  0
ARC
  5
707
100
AcDbEntity
  8
0
  6
CONTINUOUS
 62
     7
100
AcDbCircle
 10
3546.380057
 20
-15744.012934
 30
0.0
 40
3.099781
100
AcDbArc
 50
13.499916
 51
193.500003
  0
ARC
  5
708
100
AcDbEntity
  8
0
  6
CONTINUOUS
 62
     7
100
AcDbCircle
 10
3429.597244
 20
-15744.01293
 30
0.0
 40
3.099782
100
AcDbArc
 50
346.499913
 51
166.500184
  0
ARC
  5
709
100
AcDbEntity
  8
0
  6
CONTINUOUS
 62
     7
100
AcDbCircle
 10
3394.695484
 20
-15275.565593
 30
0.0
 40
3.099781
100
AcDbArc
 50
202.500137
 51
22.499752
  0
ARC
  5
70A
100
AcDbEntity
  8
0
  6
CONTINUOUS
 62
     7
100
AcDbCircle
 10
3581.281818
 20
-15275.565592
 30
0.0
 40
3.099781
100
AcDbArc
 50
157.500277
 51
337.499834
  0
ARC
  5
70B
100
AcDbEntity
  8
0
  6
CONTINUOUS
 62
     7
100
AcDbCircle
 10
3262.759031
 20
-15407.502058
 30
0.0
 40
3.099777
100
AcDbArc
 50
247.499899
 51
67.50016
  0
ARC
  5
70C
100
AcDbEntity
  8
0
  6
CONTINUOUS
 62
     7
100
AcDbCircle
 10
3713.218273
 20
-15407.502056
 30
0.0
 40
3.099777
100
AcDbArc
 50
112.4999
 51
292.500041
  0
ARC
  5
70D
100
AcDbEntity
  8
0
  6
CONTINUOUS
 62
     7
100
AcDbCircle
 10
3262.759029
 20
-15594.088382
 30
0.0
 40
3.099781
100
AcDbArc
 50
292.499864
 51
112.500025
  0
ARC
  5
70E
100
AcDbEntity
  8
0
  6
CONTINUOUS
 62
     7
100
AcDbCircle
 10
3713.218272
 20
-15594.088382
 30
0.0
 40
3.099781
100
AcDbArc
 50
67.499974
 51
247.500137
  0
ARC
  5
70F
100
AcDbEntity
  8
0
  6
CONTINUOUS
 62
     7
100
AcDbCircle
 10
3581.281812
 20
-15726.024837
 30
0.0
 40
3.099781
100
AcDbArc
 50
22.499901
 51
202.499987
  0
ARC
  5
710
100
AcDbEntity
  8
0
  6
CONTINUOUS
 62
     7
100
AcDbCircle
 10
3394.695489
 20
-15726.024837
 30
0.0
 40
3.099781
100
AcDbArc
 50
337.500005
 51
157.500107
  0
LINE
  5
711
100
AcDbEntity
  8
0
  6
CONTINUOUS
 62
     7
100
AcDbLine
 10
3620.982431
 20
-15179.719821
 30
0.0
 11
3354.99487
 21
-15179.719821
 31
0.0
  0
LINE
  5
712
100
AcDbEntity
  8
0
  6
CONTINUOUS
 62
     7
100
AcDbLine
 10
3809.064028
 20
-15367.801434
 30
0.0
 11
3620.982431
 21
-15179.719821
 31
0.0
  0
LINE
  5
713
100
AcDbEntity
  8
0
  6
CONTINUOUS
 62
     7
100
AcDbLine
 10
3809.064028
 20
-15633.788994
 30
0.0
 11
3809.064028
 21
-15367.801434
 31
0.0
  0
LINE
  5
714
100
AcDbEntity
  8
0
  6
CONTINUOUS
 62
     7
100
AcDbLine
 10
3620.982431
 20
-15821.870591
 30
0.0
 11
3809.064028
 21
-15633.788994
 31
0.0
  0
LINE
  5
715
100
AcDbEntity
  8
0
  6
CONTINUOUS
 62
     7
100
AcDbLine
 10
3354.99487
 20
-15821.870591
 30
0.0
 11
3620.982431
 21
-15821.870591
 31
0.0
  0
LINE
  5
716
100
AcDbEntity
  8
0
  6
CONTINUOUS
 62
     7
100
AcDbLine
 10
3166.913258
 20
-15633.788994
 30
0.0
 11
3354.99487
 21
-15821.870591
 31
0.0
  0
LINE
  5
717
100
AcDbEntity
  8
0
  6
CONTINUOUS
 62
     7
100
AcDbLine
 10
3166.913258
 20
-15367.801434
 30
0.0
 11
3166.913258
 21
-15633.788994
 31
0.0
  0
LINE
  5
718
100
AcDbEntity
  8
0
  6
CONTINUOUS
 62
     7
100
AcDbLine
 10
3354.99487
 20
-15179.719821
 30
0.0
 11
3166.913258
 21
-15367.801434
 31
0.0
  0
CIRCLE
  5
719
100
AcDbEntity
  8
0
  6
CONTINUOUS
 62
     7
100
AcDbCircle
 10
3783.695997
 20
-15610.385117
 30
0.0
 40
3.551527
  0
CIRCLE
  5
71A
100
AcDbEntity
  8
0
  6
CONTINUOUS
 62
     7
100
AcDbCircle
 10
3783.696011
 20
-15610.385113
 30
0.0
 40
5.39071
  0
CIRCLE
  5
71B
100
AcDbEntity
  8
0
  6
CONTINUOUS
 62
     7
100
AcDbCircle
 10
3378.398755
 20
-15796.502565
 30
0.0
 40
3.551526
  0
CIRCLE
  5
71C
100
AcDbEntity
  8
0
  6
CONTINUOUS
 62
     7
100
AcDbCircle
 10
3378.398749
 20
-15796.502561
 30
0.0
 40
5.39071
  0
CIRCLE
  5
71D
100
AcDbEntity
  8
0
  6
CONTINUOUS
 62
     7
100
AcDbCircle
 10
3378.398759
 20
-15205.087868
 30
0.0
 40
3.551526
  0
CIRCLE
  5
71E
100
AcDbEntity
  8
0
  6
CONTINUOUS
 62
     7
100
AcDbCircle
 10
3378.398735
 20
-15205.087867
 30
0.0
 40
5.390694
  0
CIRCLE
  5
71F
100
AcDbEntity
  8
0
  6
CONTINUOUS
 62
     7
100
AcDbCircle
 10
3783.696008
 20
-15391.205311
 30
0.0
 40
3.551514
  0
CIRCLE
  5
720
100
AcDbEntity
  8
0
  6
CONTINUOUS
 62
     7
100
AcDbCircle
 10
3783.695998
 20
-15391.205314
 30
0.0
 40
5.390709
  0
CIRCLE
  5
721
100
AcDbEntity
  8
0
  6
CONTINUOUS
 62
     7
100
AcDbCircle
 10
3597.578549
 20
-15796.502564
 30
0.0
 40
3.551527
  0
CIRCLE
  5
722
100
AcDbEntity
  8
0
  6
CONTINUOUS
 62
     7
100
AcDbCircle
 10
3597.578558
 20
-15796.502568
 30
0.0
 40
5.390702
  0
CIRCLE
  5
723
100
AcDbEntity
  8
0
  6
CONTINUOUS
 62
     7
100
AcDbCircle
 10
3192.281288
 20
-15391.20532
 30
0.0
 40
3.551527
  0
CIRCLE
  5
724
100
AcDbEntity
  8
0
  6
CONTINUOUS
 62
     7
100
AcDbCircle
 10
3192.281294
 20
-15391.205323
 30
0.0
 40
5.390701
  0
CIRCLE
  5
725
100
AcDbEntity
  8
0
  6
CONTINUOUS
 62
     7
100
AcDbCircle
 10
3192.281296
 20
-15610.385122
 30
0.0
 40
3.551525
  0
CIRCLE
  5
726
100
AcDbEntity
  8
0
  6
CONTINUOUS
 62
     7
100
AcDbCircle
 10
3192.281288
 20
-15610.385115
 30
0.0
 40
5.390709
  0
CIRCLE
  5
727
100
AcDbEntity
  8
0
  6
CONTINUOUS
 62
     7
100
AcDbCircle
 10
3597.578541
 20
-15205.087874
 30
0.0
 40
3.551525
  0
CIRCLE
  5
728
100
AcDbEntity
  8
0
  6
CONTINUOUS
 62
     7
100
AcDbCircle
 10
3597.578551
 20
-15205.087865
 30
0.0
 40
5.390708
  0
DIMENSION
  5
732
100
AcDbEntity
  8
0
  6
CONTINUOUS
 62
     5
100
AcDbDimension
  2
*D4
 10
3809.064028
 20
-15019.632931
 30
0.0
 11
3487.988643
 21
-15007.132931
 31
0.0
 70
    32
  3
DIMSTYLE001
100
AcDbAlignedDimension
 13
3166.913258
 23
-15160.905223
 33
0.0
 14
3809.064028
 24
-15160.905223
 34
0.0
100
AcDbRotatedDimension
1001
ACAD
1000
DSTYLE
1002
{
1070
    43
1040
1000.0
1070
    73
1070
     0
1070
    74
1070
     0
1070
    77
1070
     1
1070
   277
1070
     2
1070
   172
1070
     1
1070
   174
1070
     1
1070
   179
1070
     0
1070
   287
1070
     3
1070
   289
1070
     3
1070
     5
1000
_ORIGIN
1002
}
  0
DIMENSION
  5
73C
100
AcDbEntity
  8
0
  6
CONTINUOUS
 62
     5
100
AcDbDimension
  2
*D5
 10
3965.554351
 20
-15821.870591
 30
0.0
 11
3953.054351
 21
-15500.795206
 31
0.0
 70
    32
  3
DIMSTYLE001
100
AcDbAlignedDimension
 13
3830.484821
 23
-15179.719821
 33
0.0
 14
3830.484821
 24
-15821.870591
 34
0.0
 50
270.0
100
AcDbRotatedDimension
1001
ACAD
1000
DSTYLE
1002
{
1070
    43
1040
1000.0
1070
    73
1070
     0
1070
    74
1070
     0
1070
    77
1070
     1
1070
   277
1070
     2
1070
   172
1070
     1
1070
   174
1070
     1
1070
   179
1070
     0
1070
   287
1070
     3
1070
   289
1070
     3
1070
     5
1000
_ORIGIN
1002
}
  0
DIMENSION
  5
746
100
AcDbEntity
  8
0
  6
CONTINUOUS
 62
     5
100
AcDbDimension
  2
*D6
 10
2975.748345
 20
-15610.385117
 30
0.0
 11
2963.248345
 21
-15500.795218
 31
0.0
 70
    32
  3
DIMSTYLE001
100
AcDbAlignedDimension
 13
3095.037106
 23
-15391.205318
 33
0.0
 14
3095.037106
 24
-15610.385117
 34
0.0
 50
270.0
100
AcDbRotatedDimension
1001
ACAD
1000
DSTYLE
1002
{
1070
    43
1040
1000.0
1070
    73
1070
     0
1070
    74
1070
     0
1070
    77
1070
     1
1070
   277
1070
     2
1070
   172
1070
     1
1070
   174
1070
     1
1070
   179
1070
     0
1070
   287
1070
     3
1070
   289
1070
     3
1070
     5
1000
_ORIGIN
1002
}
  0
LINE
  5
747
100
AcDbEntity
  8
0
  6
STYLE_07
 62
     1
100
AcDbLine
 10
3971.932624
 20
-15500.79522
 30
0.0
 11
3004.044677
 21
-15500.79522
 31
0.0
  0
LINE
  5
748
100
AcDbEntity
  8
0
  6
STYLE_07
 62
     1
100
AcDbLine
 10
3487.988638
 20
-15096.935095
 30
0.0
 11
3487.988638
 21
-16415.963572
 31
0.0
  0
LINE
  5
749
100
AcDbEntity
  8
0
  6
CONTINUOUS
 62
     5
100
AcDbLine
 10
3309.65549
 20
-16209.184933
 30
0.0
 11
3666.330023
 21
-16209.184933
 31
0.0
  0
LINE
  5
74A
100
AcDbEntity
  8
0
  6
CONTINUOUS
 62
     5
100
AcDbLine
 10
3309.65549
 20
-16209.912183
 30
0.0
 11
3666.330023
 21
-16209.912183
 31
0.0
  0
LINE
  5
74B
100
AcDbEntity
  8
0
  6
CONTINUOUS
 62
     5
100
AcDbLine
 10
3270.23207
 20
-16361.393126
 30
0.0
 11
3703.732119
 21
-16361.393126
 31
0.0
  0
DIMENSION
  5
755
100
AcDbEntity
  8
0
  6
CONTINUOUS
 62
     5
100
AcDbDimension
  2
*D7
 10
3809.064028
 20
-16501.759329
 30
0.0
 11
3487.988643
 21
-16489.259329
 31
0.0
 70
    32
  3
DIMSTYLE001
100
AcDbAlignedDimension
 13
3166.913258
 23
-16399.848314
 33
0.0
 14
3809.064028
 24
-16399.848314
 34
0.0
100
AcDbRotatedDimension
1001
ACAD
1000
DSTYLE
1002
{
1070
    43
1040
1000.0
1070
    73
1070
     0
1070
    74
1070
     0
1070
    77
1070
     1
1070
   277
1070
     2
1070
   172
1070
     1
1070
   174
1070
     1
1070
   179
1070
     0
1070
   287
1070
     3
1070
   289
1070
     3
1070
     5
1000
_ORIGIN
1002
}
  0
DIMENSION
  5
75F
100
AcDbEntity
  8
0
  6
CONTINUOUS
 62
     5
100
AcDbDimension
  2
*D8
 10
3050.802554
 20
-16361.393126
 30
0.0
 11
3038.302554
 21
-16285.28903
 31
0.0
 70
    32
  3
DIMSTYLE001
100
AcDbAlignedDimension
 13
3102.146092
 23
-16209.184933
 33
0.0
 14
3102.146092
 24
-16361.393126
 34
0.0
 50
270.0
100
AcDbRotatedDimension
1001
ACAD
1000
DSTYLE
1002
{
1070
    43
1040
1000.0
1070
    73
1070
     0
1070
    74
1070
     0
1070
    77
1070
     1
1070
   277
1070
     2
1070
   172
1070
     1
1070
   174
1070
     1
1070
   179
1070
     0
1070
   287
1070
     3
1070
   289
1070
     3
1070
     5
1000
_ORIGIN
1002
}
  0
CIRCLE
  5
760
100
AcDbEntity
  8
0
  6
CONTINUOUS
 62
     7
100
AcDbCircle
 10
3487.988651
 20
-15500.79522
 30
0.0
 40
178.333161
  0
CIRCLE
  5
761
100
AcDbEntity
  8
0
  6
CONTINUOUS
 62
     7
100
AcDbCircle
 10
3487.988651
 20
-15500.79522
 30
0.0
 40
182.304195
  0
CIRCLE
  5
762
100
AcDbEntity
  8
0
  6
CONTINUOUS
 62
     7
100
AcDbCircle
 10
3487.988651
 20
-15500.79522
 30
0.0
 40
217.75658
  0
DIMENSION
  5
76C
100
AcDbEntity
  8
0
  6
CONTINUOUS
 62
     5
100
AcDbDimension
  2
*D9
 10
3667.988638
 20
-16109.969902
 30
0.0
 11
3487.988638
 21
-16097.469902
 31
0.0
 70
    32
  3
DIMSTYLE001
100
AcDbAlignedDimension
 13
3307.988638
 23
-16164.339395
 33
0.0
 14
3667.988638
 24
-16164.339395
 34
0.0
100
AcDbRotatedDimension
1001
ACAD
1000
DSTYLE
1002
{
1070
    43
1040
1000.0
1070
    73
1070
     0
1070
    74
1070
     0
1070
    77
1070
     1
1070
   277
1070
     2
1070
   172
1070
     1
1070
   174
1070
     1
1070
   179
1070
     0
1070
   287
1070
     3
1070
   289
1070
     3
1070
     5
1000
_ORIGIN
1002
}
  0
ENDSEC
  0
SECTION
  2
OBJECTS
  0
DICTIONARY
  5
19
100
AcDbDictionary
  3
ACAD_GROUP
350
1A
  3
ACAD_MLINESTYLE
350
1B
  0
DICTIONARY
  5
1A
102
{ACAD_REACTORS
330
19
102
}
100
AcDbDictionary
  0
DICTIONARY
  5
1B
102
{ACAD_REACTORS
330
19
102
}
100
AcDbDictionary
  3
STANDARD
350
1C
  0
MLINESTYLE
  5
1C
102
{ACAD_REACTORS
330
1B
102
}
100
AcDbMlineStyle
  2
STANDARD
 70
     0
  3

 62
     0
 51
90.0
 52
90.0
 71
     2
 49
0.5
 62
   256
  6
ByLayer
 49
-0.5
 62
   256
  6
ByLayer
  0
ENDSEC
  0
EOF
