  0
SECTION
  2
HEADER
  9
$ACADVER
  1
AC1015
  9
$ACADMAINTVER
 70
    20
  9
$DWGCODEPAGE
  3
ANSI_932
  9
$INSBASE
 10
0.0
 20
0.0
 30
0.0
  9
$EXTMIN
 10
14002.202784
 20
-16859.356591
 30
0.0
  9
$EXTMAX
 10
16895.452784
 20
-14850.056591
 30
0.0
  9
$LIMMIN
 10
-14251.172216
 20
-36854.706591
  9
$LIMMAX
 10
45148.827784
 20
5145.293409
  9
$ORTHOMODE
 70
     0
  9
$REGENMODE
 70
     1
  9
$FILLMODE
 70
     1
  9
$QTEXTMODE
 70
     0
  9
$MIRRTEXT
 70
     1
  9
$LTSCALE
 40
100.0
  9
$ATTMODE
 70
     1
  9
$TEXTSIZE
 40
0.0
  9
$TRACEWID
 40
0.05
  9
$TEXTSTYLE
  7
STANDARD
  9
$CLAYER
  8
0
  9
$CELTYPE
  6
CONTINUOUS
  9
$CECOLOR
 62
   256
  9
$CELTSCALE
 40
1.0
  9
$DISPSILH
 70
     0
  9
$DIMSCALE
 40
1.0
  9
$DIMASZ
 40
0.18
  9
$DIMEXO
 40
0.0625
  9
$DIMDLI
 40
0.38
  9
$DIMRND
 40
0.0
  9
$DIMDLE
 40
0.0
  9
$DIMEXE
 40
0.18
  9
$DIMTP
 40
0.0
  9
$DIMTM
 40
0.0
  9
$DIMTXT
 40
0.18
  9
$DIMCEN
 40
0.09
  9
$DIMTSZ
 40
0.0
  9
$DIMTOL
 70
     0
  9
$DIMLIM
 70
     0
  9
$DIMTIH
 70
     1
  9
$DIMTOH
 70
     1
  9
$DIMSE1
 70
     0
  9
$DIMSE2
 70
     0
  9
$DIMTAD
 70
     0
  9
$DIMZIN
 70
     0
  9
$DIMBLK
  1

  9
$DIMASO
 70
     1
  9
$DIMSHO
 70
     1
  9
$DIMPOST
  1

  9
$DIMAPOST
  1

  9
$DIMALT
 70
     0
  9
$DIMALTD
 70
     2
  9
$DIMALTF
 40
25.4
  9
$DIMLFAC
 40
1.0
  9
$DIMTOFL
 70
     0
  9
$DIMTVP
 40
0.0
  9
$DIMTIX
 70
     0
  9
$DIMSOXD
 70
     0
  9
$DIMSAH
 70
     0
  9
$DIMBLK1
  1

  9
$DIMBLK2
  1

  9
$DIMSTYLE
  2
STANDARD
  9
$DIMCLRD
 70
     0
  9
$DIMCLRE
 70
     0
  9
$DIMCLRT
 70
     0
  9
$DIMTFAC
 40
1.0
  9
$DIMGAP
 40
0.09
  9
$DIMJUST
 70
     0
  9
$DIMSD1
 70
     0
  9
$DIMSD2
 70
     0
  9
$DIMTOLJ
 70
     1
  9
$DIMTZIN
 70
     0
  9
$DIMALTZ
 70
     0
  9
$DIMALTTZ
 70
     0
  9
$DIMUPT
 70
     0
  9
$DIMDEC
 70
     4
  9
$DIMTDEC
 70
     4
  9
$DIMALTU
 70
     2
  9
$DIMALTTD
 70
     2
  9
$DIMTXSTY
  7
STANDARD
  9
$DIMAUNIT
 70
     0
  9
$DIMADEC
 70
     0
  9
$DIMALTRND
 40
0.0
  9
$DIMAZIN
 70
     0
  9
$DIMDSEP
 70
    46
  9
$DIMATFIT
 70
     3
  9
$DIMFRAC
 70
     0
  9
$DIMLDRBLK
  1

  9
$DIMLUNIT
 70
     2
  9
$DIMLWD
 70
    -2
  9
$DIMLWE
 70
    -2
  9
$DIMTMOVE
 70
     0
  9
$LUNITS
 70
     2
  9
$LUPREC
 70
     4
  9
$SKETCHINC
 40
0.1
  9
$FILLETRAD
 40
0.0
  9
$AUNITS
 70
     0
  9
$AUPREC
 70
     0
  9
$MENU
  1
acad
  9
$ELEVATION
 40
0.0
  9
$PELEVATION
 40
0.0
  9
$THICKNESS
 40
0.0
  9
$LIMCHECK
 70
     0
  9
$CHAMFERA
 40
0.0
  9
$CHAMFERB
 40
0.0
  9
$CHAMFERC
 40
0.0
  9
$CHAMFERD
 40
0.0
  9
$SKPOLY
 70
     0
  9
$TDCREATE
 40
10854735.99187180
  9
$TDUCREATE
 40
6.0000000000
  9
$TDUPDATE
 40
2456939.472259560
  9
$TDUUPDATE
 40
2456939.097259560
  9
$TDINDWG
 40
0.0017808796
  9
$TDUSRTIMER
 40
0.0017803472
  9
$USRTIMER
 70
     1
  9
$ANGBASE
 50
0.0
  9
$ANGDIR
 70
     0
  9
$PDMODE
 70
     0
  9
$PDSIZE
 40
0.0
  9
$PLINEWID
 40
0.0
  9
$SPLFRAME
 70
     0
  9
$SPLINETYPE
 70
     6
  9
$SPLINESEGS
 70
     8
  9
$HANDSEED
  5
581
  9
$SURFTAB1
 70
     6
  9
$SURFTAB2
 70
     6
  9
$SURFTYPE
 70
     6
  9
$SURFU
 70
     6
  9
$SURFV
 70
     6
  9
$UCSBASE
  2

  9
$UCSNAME
  2

  9
$UCSORG
 10
0.0
 20
0.0
 30
0.0
  9
$UCSXDIR
 10
1.0
 20
0.0
 30
0.0
  9
$UCSYDIR
 10
0.0
 20
1.0
 30
0.0
  9
$UCSORTHOREF
  2

  9
$UCSORTHOVIEW
 70
     0
  9
$UCSORGTOP
 10
0.0
 20
0.0
 30
0.0
  9
$UCSORGBOTTOM
 10
0.0
 20
0.0
 30
0.0
  9
$UCSORGLEFT
 10
0.0
 20
0.0
 30
0.0
  9
$UCSORGRIGHT
 10
0.0
 20
0.0
 30
0.0
  9
$UCSORGFRONT
 10
0.0
 20
0.0
 30
0.0
  9
$UCSORGBACK
 10
0.0
 20
0.0
 30
0.0
  9
$PUCSBASE
  2

  9
$PUCSNAME
  2

  9
$PUCSORG
 10
0.0
 20
0.0
 30
0.0
  9
$PUCSXDIR
 10
1.0
 20
0.0
 30
0.0
  9
$PUCSYDIR
 10
0.0
 20
1.0
 30
0.0
  9
$PUCSORTHOREF
  2

  9
$PUCSORTHOVIEW
 70
     0
  9
$PUCSORGTOP
 10
0.0
 20
0.0
 30
0.0
  9
$PUCSORGBOTTOM
 10
0.0
 20
0.0
 30
0.0
  9
$PUCSORGLEFT
 10
0.0
 20
0.0
 30
0.0
  9
$PUCSORGRIGHT
 10
0.0
 20
0.0
 30
0.0
  9
$PUCSORGFRONT
 10
0.0
 20
0.0
 30
0.0
  9
$PUCSORGBACK
 10
0.0
 20
0.0
 30
0.0
  9
$USERI1
 70
     0
  9
$USERI2
 70
     0
  9
$USERI3
 70
     0
  9
$USERI4
 70
     0
  9
$USERI5
 70
     0
  9
$USERR1
 40
0.0
  9
$USERR2
 40
0.0
  9
$USERR3
 40
0.0
  9
$USERR4
 40
0.0
  9
$USERR5
 40
0.0
  9
$WORLDVIEW
 70
     1
  9
$SHADEDGE
 70
     3
  9
$SHADEDIF
 70
    70
  9
$TILEMODE
 70
     1
  9
$MAXACTVP
 70
    16
  9
$PINSBASE
 10
0.0
 20
0.0
 30
0.0
  9
$PLIMCHECK
 70
     0
  9
$PEXTMIN
 10
1.000000000000000E+20
 20
1.000000000000000E+20
 30
1.000000000000000E+20
  9
$PEXTMAX
 10
-1.000000000000000E+20
 20
-1.000000000000000E+20
 30
-1.000000000000000E+20
  9
$PLIMMIN
 10
0.0
 20
0.0
  9
$PLIMMAX
 10
12.0
 20
9.0
  9
$UNITMODE
 70
     0
  9
$VISRETAIN
 70
     0
  9
$PLINEGEN
 70
     1
  9
$PSLTSCALE
 70
     0
  9
$TREEDEPTH
 70
  3020
  9
$CMLSTYLE
  2
STANDARD
  9
$CMLJUST
 70
     0
  9
$CMLSCALE
 40
1.0
  9
$PROXYGRAPHICS
 70
     0
  9
$MEASUREMENT
 70
     0
  9
$CELWEIGHT
370
    -1
  9
$ENDCAPS
280
     0
  9
$JOINSTYLE
280
     0
  9
$LWDISPLAY
290
     0
  9
$INSUNITS
 70
     0
  9
$HYPERLINKBASE
  1

  9
$STYLESHEET
  1

  9
$XEDIT
290
     1
  9
$CEPSNTYPE
380
     0
  9
$PSTYLEMODE
290
     1
  9
$FINGERPRINTGUID
  2
{1413011F-278E-4792-B1B9-3D6F12C649AB}
  9
$VERSIONGUID
  2
{9F41AF36-E975-47A6-A6E8-9C6F94321AC8}
  9
$EXTNAMES
290
     1
  9
$PSVPSCALE
 40
0.0
  9
$OLESTARTUP
290
     0
  0
ENDSEC
  0
SECTION
  2
CLASSES
  0
CLASS
  1
IMAGE
  2
AcDbRasterImage
  3
ISM
 90
    34943
280
     0
281
     1
  0
CLASS
  1
DICTIONARYVAR
  2
AcDbDictionaryVar
  3
ObjectDBX Classes
 90
        0
280
     0
281
     0
  0
CLASS
  1
RASTERVARIABLES
  2
AcDbRasterVariables
  3
ISM
 90
    32768
280
     0
281
     0
  0
CLASS
  1
IMAGEDEF
  2
AcDbRasterImageDef
  3
ISM
 90
    32768
280
     0
281
     0
  0
CLASS
  1
IMAGEDEF_REACTOR
  2
AcDbRasterImageDefReactor
  3
ISM
 90
    32769
280
     0
281
     0
  0
CLASS
  1
IDBUFFER
  2
AcDbIdBuffer
  3
ObjectDBX Classes
 90
    32768
280
     0
281
     0
  0
CLASS
  1
SPATIAL_FILTER
  2
AcDbSpatialFilter
  3
ObjectDBX Classes
 90
    32768
280
     0
281
     0
  0
CLASS
  1
SORTENTSTABLE
  2
AcDbSortentsTable
  3
ObjectDBX Classes
 90
        0
280
     0
281
     0
  0
CLASS
  1
LAYER_INDEX
  2
AcDbLayerIndex
  3
ObjectDBX Classes
 90
    32768
280
     0
281
     0
  0
CLASS
  1
SPATIAL_INDEX
  2
AcDbSpatialIndex
  3
ObjectDBX Classes
 90
    32768
280
     0
281
     0
  0
CLASS
  1
OBJECT_PTR
  2
CAseDLPNTableRecord
  3
ASE-LPNTableRecord
 90
    32769
280
     0
281
     0
  0
CLASS
  1
LAYOUT
  2
AcDbLayout
  3
ObjectDBX Classes
 90
        0
280
     0
281
     0
  0
CLASS
  1
PLOTSETTINGS
  2
AcDbPlotSettings
  3
ObjectDBX Classes
 90
    32768
280
     0
281
     0
  0
CLASS
  1
ACDBDICTIONARYWDFLT
  2
AcDbDictionaryWithDefault
  3
ObjectDBX Classes
 90
        0
280
     0
281
     0
  0
CLASS
  1
ACDBPLACEHOLDER
  2
AcDbPlaceHolder
  3
ObjectDBX Classes
 90
        0
280
     0
281
     0
  0
CLASS
  1
VBA_PROJECT
  2
AcDbVbaProject
  3
acad
 90
    32768
280
     0
281
     0
  0
CLASS
  1
WIPEOUT
  2
AcDbWipeout
  3
"WipeOut|Product Desc: Object Enabler for WipeOut entity                        |Company: Autodesk, Inc.                        |WEB Address: www.autodesk.com"
 90
    34943
280
     0
281
     1
  0
CLASS
  1
WIPEOUTVARIABLES
  2
AcDbWipeoutVariables
  3
"WipeOut|Product Desc:     WipeOut Dbx Application|Company:          Autodesk, Inc.|WEB Address:      www.autodesk.com"
 90
    32768
280
     0
281
     0
  0
CLASS
  1
RTEXT
  2
RText
  3
RText|AutoCAD Express Tool|expresstools@autodesk.com
 90
    32768
280
     0
281
     1
  0
CLASS
  1
ARCALIGNEDTEXT
  2
AcDbArcAlignedText
  3
ATEXT|AutoCAD Express Tool|expresstools@autodesk.com
 90
    32768
280
     0
281
     1
  0
CLASS
  1
MATERIAL
  2
AcDbMaterial
  3
ObjectDBX Classes
 90
     1153
280
     0
281
     0
  0
CLASS
  1
VISUALSTYLE
  2
AcDbVisualStyle
  3
ObjectDBX Classes
 90
     4095
280
     0
281
     0
  0
CLASS
  1
TABLESTYLE
  2
AcDbTableStyle
  3
ObjectDBX Classes
 90
     4095
280
     0
281
     0
  0
CLASS
  1
SCALE
  2
AcDbScale
  3
ObjectDBX Classes
 90
     1153
280
     0
281
     0
  0
CLASS
  1
MLEADERSTYLE
  2
AcDbMLeaderStyle
  3
ACDB_MLEADERSTYLE_CLASS
 90
     4095
280
     0
281
     0
  0
CLASS
  1
CELLSTYLEMAP
  2
AcDbCellStyleMap
  3
ObjectDBX Classes
 90
     1152
280
     0
281
     0
  0
ENDSEC
  0
SECTION
  2
TABLES
  0
TABLE
  2
VPORT
  5
7
330
0
100
AcDbSymbolTable
 70
     1
  0
VPORT
  5
15
330
7
100
AcDbSymbolTableRecord
100
AcDbViewportTableRecord
  2
*ACTIVE
 70
     0
 10
0.0
 20
0.0
 11
1.0
 21
1.0
 12
16170.65796786579
 22
-15770.77590068092
 13
0.0
 23
0.0
 14
1000.0
 24
1000.0
 15
1000.0
 25
1000.0
 16
0.0
 26
0.0
 36
1.0
 17
0.0
 27
0.0
 37
0.0
 40
2955.321899009763
 41
1.85645933014354
 42
50.0
 43
0.0
 44
0.0
 50
0.0
 51
0.0
 71
     0
 72
   100
 73
     1
 74
     1
 75
     0
 76
     0
 77
     0
 78
     0
281
     0
 65
     1
110
0.0
120
0.0
130
0.0
111
1.0
121
0.0
131
0.0
112
0.0
122
1.0
132
0.0
 79
     0
146
0.0
  0
ENDTAB
  0
TABLE
  2
LTYPE
  5
4
330
0
100
AcDbSymbolTable
 70
     6
  0
LTYPE
  5
11
330
4
100
AcDbSymbolTableRecord
100
AcDbLinetypeTableRecord
  2
BYBLOCK
 70
     0
  3

 72
    65
 73
     0
 40
0.0
  0
LTYPE
  5
12
330
4
100
AcDbSymbolTableRecord
100
AcDbLinetypeTableRecord
  2
BYLAYER
 70
     0
  3

 72
    65
 73
     0
 40
0.0
  0
LTYPE
  5
13
330
4
100
AcDbSymbolTableRecord
100
AcDbLinetypeTableRecord
  2
CONTINUOUS
 70
     0
  3
Solid line
 72
    65
 73
     0
 40
0.0
  0
LTYPE
  5
12B
330
4
100
AcDbSymbolTableRecord
100
AcDbLinetypeTableRecord
  2
HIDDEN
 70
     0
  3
__ __ __ __ __ __ __ __ __ __ __ __ __ __ __ __
 72
    65
 73
     5
 40
8.0
 49
1.0
 74
     0
 49
-2.0
 74
     0
 49
2.0
 74
     0
 49
-2.0
 74
     0
 49
1.0
 74
     0
  0
LTYPE
  5
12C
330
4
100
AcDbSymbolTableRecord
100
AcDbLinetypeTableRecord
  2
DOT
 70
     0
  3
. . . . . . . . . . . . . . . . . . . . . . . .
 72
    65
 73
     3
 40
1.6
 49
0.4
 74
     0
 49
-0.8
 74
     0
 49
0.4
 74
     0
  0
LTYPE
  5
12D
330
4
100
AcDbSymbolTableRecord
100
AcDbLinetypeTableRecord
  2
CENTER
 70
     0
  3
____ _ ____ _ ____ _ ____ _ ____ _ ____ _ ____ 
 72
    65
 73
     5
 40
12.0
 49
5.0
 74
     0
 49
-0.8
 74
     0
 49
0.4
 74
     0
 49
-0.8
 74
     0
 49
5.0
 74
     0
  0
LTYPE
  5
12E
330
4
100
AcDbSymbolTableRecord
100
AcDbLinetypeTableRecord
  2
DIVIDE
 70
     0
  3
____ . . ____ . . ____ . . ____ . . ____ . . __
 72
    65
 73
     7
 40
13.2
 49
5.0
 74
     0
 49
-0.8
 74
     0
 49
0.4
 74
     0
 49
-0.8
 74
     0
 49
0.4
 74
     0
 49
-0.8
 74
     0
 49
5.0
 74
     0
  0
LTYPE
  5
12F
330
4
100
AcDbSymbolTableRecord
100
AcDbLinetypeTableRecord
  2
STYLE_07
 70
     0
  3
Solid Line
 72
    65
 73
     6
 40
7.48
 49
2.5
 74
     0
 49
-0.8299999999999998
 74
     0
 49
2.5
 74
     0
 49
-0.8299999999999998
 74
     0
 49
0.27
 74
     0
 49
-0.55
 74
     0
  0
ENDTAB
  0
TABLE
  2
LAYER
  5
2
330
0
100
AcDbSymbolTable
 70
     6
  0
LAYER
  5
14
102
{ACAD_XDICTIONARY
360
4F0
102
}
330
2
100
AcDbSymbolTableRecord
100
AcDbLayerTableRecord
  2
0
 70
     0
 62
     7
  6
CONTINUOUS
370
    -3
390
3FA
  0
LAYER
  5
27
102
{ACAD_XDICTIONARY
360
4F2
102
}
330
2
100
AcDbSymbolTableRecord
100
AcDbLayerTableRecord
  2
001
 70
     0
 62
     7
  6
CONTINUOUS
370
    -3
390
3FA
  0
LAYER
  5
28
102
{ACAD_XDICTIONARY
360
4F4
102
}
330
2
100
AcDbSymbolTableRecord
100
AcDbLayerTableRecord
  2
002
 70
     0
 62
     7
  6
CONTINUOUS
370
    -3
390
3FA
  0
LAYER
  5
29
102
{ACAD_XDICTIONARY
360
4F6
102
}
330
2
100
AcDbSymbolTableRecord
100
AcDbLayerTableRecord
  2
003
 70
     0
 62
     7
  6
CONTINUOUS
370
    -3
390
3FA
  0
LAYER
  5
2A
102
{ACAD_XDICTIONARY
360
4F8
102
}
330
2
100
AcDbSymbolTableRecord
100
AcDbLayerTableRecord
  2
004
 70
     0
 62
     7
  6
CONTINUOUS
370
    -3
390
3FA
  0
LAYER
  5
48D
330
2
100
AcDbSymbolTableRecord
100
AcDbLayerTableRecord
  2
Defpoints
 70
     0
 62
     7
  6
CONTINUOUS
290
     0
370
    -3
390
3FA
  0
ENDTAB
  0
TABLE
  2
STYLE
  5
3
330
0
100
AcDbSymbolTable
 70
     3
  0
STYLE
  5
17
330
3
100
AcDbSymbolTableRecord
100
AcDbTextStyleTableRecord
  2
STANDARD
 70
     0
 40
0.0
 41
1.0
 50
0.0
 71
     0
 42
0.0
  3
txt
  4

  0
STYLE
  5
127
330
3
100
AcDbSymbolTableRecord
100
AcDbTextStyleTableRecord
  2
DRACAD
 70
     0
 40
0.0
 41
1.0
 50
0.0
 71
     0
 42
0.0
  3
txt
  4
extfont
  0
STYLE
  5
128
330
3
100
AcDbSymbolTableRecord
100
AcDbTextStyleTableRecord
  2
TATEDRACAD
 70
     4
 40
0.0
 41
1.0
 50
0.0
 71
     0
 42
0.0
  3
txt
  4
extfont
  0
ENDTAB
  0
TABLE
  2
VIEW
  5
5
330
0
100
AcDbSymbolTable
 70
     0
  0
ENDTAB
  0
TABLE
  2
UCS
  5
6
330
0
100
AcDbSymbolTable
 70
     0
  0
ENDTAB
  0
TABLE
  2
APPID
  5
8
330
0
100
AcDbSymbolTable
 70
     4
  0
APPID
  5
16
330
8
100
AcDbSymbolTableRecord
100
AcDbRegAppTableRecord
  2
ACAD
 70
     0
  0
APPID
  5
44C
330
8
100
AcDbSymbolTableRecord
100
AcDbRegAppTableRecord
  2
ACAD_MLEADERVER
 70
     0
  0
APPID
  5
452
330
8
100
AcDbSymbolTableRecord
100
AcDbRegAppTableRecord
  2
ACAD_EXEMPT_FROM_CAD_STANDARDS
 70
     0
  0
APPID
  5
4FC
330
8
100
AcDbSymbolTableRecord
100
AcDbRegAppTableRecord
  2
DCO15
 70
     0
  0
ENDTAB
  0
TABLE
  2
DIMSTYLE
  5
9
330
0
100
AcDbSymbolTable
 70
     4
100
AcDbDimStyleTable
 71
     2
340
14F
340
18
  0
DIMSTYLE
105
18
330
9
100
AcDbSymbolTableRecord
100
AcDbDimStyleTableRecord
  2
STANDARD
 70
     0
340
17
  0
DIMSTYLE
105
14F
102
{ACAD_REACTORS
330
23E
330
248
330
252
330
275
330
281
330
28D
330
297
330
2B9
330
2CD
330
3DC
330
3E7
330
4B7
330
4C5
102
}
330
9
100
AcDbSymbolTableRecord
100
AcDbDimStyleTableRecord
  2
DIMSTYLE001
 70
     0
 41
10.0
 42
0.0
 43
1000.0
 44
0.0
 73
     0
 74
     0
 77
     1
140
25.0
147
0.0
172
     1
174
     1
271
     0
340
127
341
14A
342
14A
  0
DIMSTYLE
105
150
102
{ACAD_REACTORS
330
1A5
330
1AD
330
1B5
330
2D7
102
}
330
9
100
AcDbSymbolTableRecord
100
AcDbDimStyleTableRecord
  2
DIMSTYLE002
 70
     0
 42
0.0
 43
1000.0
 44
0.0
 73
     0
 74
     0
 77
     1
172
     1
174
     1
340
127
341
14A
342
14A
  0
DIMSTYLE
105
154
330
9
100
AcDbSymbolTableRecord
100
AcDbDimStyleTableRecord
  2
DIMSTYLE003
 70
     0
 41
250.0
 42
0.0
 43
1000.0
 44
0.0
 73
     0
 74
     0
 75
     1
 76
     1
 77
     1
147
0.0
172
     1
174
     1
340
127
341
151
342
151
  0
ENDTAB
  0
TABLE
  2
BLOCK_RECORD
  5
1
330
0
100
AcDbSymbolTable
 70
    31
  0
BLOCK_RECORD
  5
A
102
{ACAD_XDICTIONARY
360
4A6
102
}
330
1
100
AcDbSymbolTableRecord
100
AcDbBlockTableRecord
  2
*MODEL_SPACE
340
44F
  0
BLOCK_RECORD
  5
B
330
1
100
AcDbSymbolTableRecord
100
AcDbBlockTableRecord
  2
*PAPER_SPACE
340
450
  0
BLOCK_RECORD
  5
14A
330
1
100
AcDbSymbolTableRecord
100
AcDbBlockTableRecord
  2
_ORIGIN
340
0
102
{BLKREFS
331
1A1
331
1A2
331
1A9
331
1AA
331
1B1
331
1B2
331
23A
331
23B
331
244
331
245
331
271
331
272
331
289
331
28A
331
29B
331
29C
331
2A3
331
2A4
331
2AB
331
2AC
331
2B5
331
2B6
331
2BF
331
2C0
331
2C9
331
2CA
331
2D3
331
2D4
331
2DD
331
2DE
331
4A9
331
4AE
331
4B3
331
4D6
331
4D7
331
4E1
331
4E2
331
4EB
331
4EC
331
523
331
524
331
52C
331
52D
331
535
331
536
331
53E
331
53F
102
}
  0
BLOCK_RECORD
  5
151
330
1
100
AcDbSymbolTableRecord
100
AcDbBlockTableRecord
  2
_NONE
340
0
  0
BLOCK_RECORD
  5
155
330
1
100
AcDbSymbolTableRecord
100
AcDbBlockTableRecord
  2
1
340
0
102
{BLKREFS
331
198
102
}
  0
BLOCK_RECORD
  5
156
330
1
100
AcDbSymbolTableRecord
100
AcDbBlockTableRecord
  2
2
340
0
102
{BLKREFS
331
19B
102
}
  0
BLOCK_RECORD
  5
157
330
1
100
AcDbSymbolTableRecord
100
AcDbBlockTableRecord
  2
3
340
0
102
{BLKREFS
331
232
102
}
  0
BLOCK_RECORD
  5
158
330
1
100
AcDbSymbolTableRecord
100
AcDbBlockTableRecord
  2
4
340
0
  0
BLOCK_RECORD
  5
19E
330
1
100
AcDbSymbolTableRecord
100
AcDbBlockTableRecord
  2
*D6
340
0
  0
BLOCK_RECORD
  5
1A6
330
1
100
AcDbSymbolTableRecord
100
AcDbBlockTableRecord
  2
*D7
340
0
  0
BLOCK_RECORD
  5
1AE
330
1
100
AcDbSymbolTableRecord
100
AcDbBlockTableRecord
  2
*D8
340
0
  0
BLOCK_RECORD
  5
235
330
1
100
AcDbSymbolTableRecord
100
AcDbBlockTableRecord
  2
*D9
340
0
  0
BLOCK_RECORD
  5
23F
330
1
100
AcDbSymbolTableRecord
100
AcDbBlockTableRecord
  2
*D10
340
0
  0
BLOCK_RECORD
  5
249
330
1
100
AcDbSymbolTableRecord
100
AcDbBlockTableRecord
  2
*D11
340
0
  0
BLOCK_RECORD
  5
26C
330
1
100
AcDbSymbolTableRecord
100
AcDbBlockTableRecord
  2
*D12
340
0
  0
BLOCK_RECORD
  5
278
330
1
100
AcDbSymbolTableRecord
100
AcDbBlockTableRecord
  2
*D13
340
0
  0
BLOCK_RECORD
  5
284
330
1
100
AcDbSymbolTableRecord
100
AcDbBlockTableRecord
  2
*D14
340
0
  0
BLOCK_RECORD
  5
28E
330
1
100
AcDbSymbolTableRecord
100
AcDbBlockTableRecord
  2
*D15
340
0
  0
BLOCK_RECORD
  5
298
330
1
100
AcDbSymbolTableRecord
100
AcDbBlockTableRecord
  2
*D16
340
0
  0
BLOCK_RECORD
  5
2A0
330
1
100
AcDbSymbolTableRecord
100
AcDbBlockTableRecord
  2
*D17
340
0
  0
BLOCK_RECORD
  5
2A8
330
1
100
AcDbSymbolTableRecord
100
AcDbBlockTableRecord
  2
*D18
340
0
  0
BLOCK_RECORD
  5
2B0
330
1
100
AcDbSymbolTableRecord
100
AcDbBlockTableRecord
  2
*D19
340
0
  0
BLOCK_RECORD
  5
2BA
330
1
100
AcDbSymbolTableRecord
100
AcDbBlockTableRecord
  2
*D20
340
0
  0
BLOCK_RECORD
  5
2C4
330
1
100
AcDbSymbolTableRecord
100
AcDbBlockTableRecord
  2
*D21
340
0
  0
BLOCK_RECORD
  5
2CE
330
1
100
AcDbSymbolTableRecord
100
AcDbBlockTableRecord
  2
*D22
340
0
  0
BLOCK_RECORD
  5
2D8
330
1
100
AcDbSymbolTableRecord
100
AcDbBlockTableRecord
  2
*D23
340
0
  0
BLOCK_RECORD
  5
3D3
330
1
100
AcDbSymbolTableRecord
100
AcDbBlockTableRecord
  2
*D24
340
0
  0
BLOCK_RECORD
  5
3DE
330
1
100
AcDbSymbolTableRecord
100
AcDbBlockTableRecord
  2
*D25
340
0
  0
BLOCK_RECORD
  5
48E
330
1
100
AcDbSymbolTableRecord
100
AcDbBlockTableRecord
  2
*D26
340
0
  0
BLOCK_RECORD
  5
496
330
1
100
AcDbSymbolTableRecord
100
AcDbBlockTableRecord
  2
*D27
340
0
  0
BLOCK_RECORD
  5
49E
330
1
100
AcDbSymbolTableRecord
100
AcDbBlockTableRecord
  2
*D28
340
0
  0
BLOCK_RECORD
  5
4B8
330
1
100
AcDbSymbolTableRecord
100
AcDbBlockTableRecord
  2
*D29
340
0
  0
BLOCK_RECORD
  5
4C6
330
1
100
AcDbSymbolTableRecord
100
AcDbBlockTableRecord
  2
*D30
340
0
  0
ENDTAB
  0
ENDSEC
  0
SECTION
  2
BLOCKS
  0
BLOCK
  5
D
330
A
100
AcDbEntity
  8
0
100
AcDbBlockBegin
  2
*MODEL_SPACE
 70
     0
 10
0.0
 20
0.0
 30
0.0
  3
*MODEL_SPACE
  1

  0
ENDBLK
  5
E
330
A
100
AcDbEntity
  8
0
100
AcDbBlockEnd
  0
BLOCK
  5
F
330
B
100
AcDbEntity
 67
     1
  8
0
100
AcDbBlockBegin
  2
*PAPER_SPACE
 70
     0
 10
0.0
 20
0.0
 30
0.0
  3
*PAPER_SPACE
  1

  0
ENDBLK
  5
10
330
B
100
AcDbEntity
 67
     1
  8
0
100
AcDbBlockEnd
  0
BLOCK
  5
14B
330
14A
100
AcDbEntity
  8
0
100
AcDbBlockBegin
  2
_ORIGIN
 70
     0
 10
0.0
 20
0.0
 30
0.0
  3
_ORIGIN
  1

  0
CIRCLE
  5
14C
330
14A
100
AcDbEntity
  8
0
  6
ByBlock
 62
     0
100
AcDbCircle
 10
0.0
 20
0.0
 30
0.0
 40
0.5
  0
LINE
  5
14D
330
14A
100
AcDbEntity
  8
0
  6
ByBlock
 62
     0
100
AcDbLine
 10
0.0
 20
0.0
 30
0.0
 11
-1.0
 21
0.0
 31
0.0
  0
ENDBLK
  5
14E
330
14A
100
AcDbEntity
  8
0
100
AcDbBlockEnd
  0
BLOCK
  5
152
330
151
100
AcDbEntity
  8
0
100
AcDbBlockBegin
  2
_NONE
 70
     0
 10
0.0
 20
0.0
 30
0.0
  3
_NONE
  1

  0
ENDBLK
  5
153
330
151
100
AcDbEntity
  8
0
100
AcDbBlockEnd
  0
BLOCK
  5
159
330
155
100
AcDbEntity
  8
0
100
AcDbBlockBegin
  2
1
 70
     0
 10
0.0
 20
0.0
 30
0.0
  3
1
  1

  0
ARC
  5
15A
330
155
100
AcDbEntity
  8
004
  6
Continuous
 62
     7
100
AcDbCircle
 10
133.068018
 20
-9.500510999999999
 30
0.0
 40
134.969188
100
AcDbArc
 50
45.663628
 51
224.512358
  0
LINE
  5
15B
330
155
100
AcDbEntity
  8
004
  6
Continuous
 62
     7
100
AcDbLine
 10
-120.089883
 20
249.590778
 30
0.0
 11
386.225919
 21
249.590778
 31
0.0
  0
LINE
  5
15C
330
155
100
AcDbEntity
  8
004
  6
Continuous
 62
     7
100
AcDbLine
 10
-120.089883
 20
-268.591801
 30
0.0
 11
-120.089883
 21
249.590778
 31
0.0
  0
ARC
  5
15D
330
155
100
AcDbEntity
  8
004
  6
Continuous
 62
     7
100
AcDbCircle
 10
133.068018
 20
-9.500510999999999
 30
0.0
 40
134.969188
100
AcDbArc
 50
224.512358
 51
225.663628
  0
LINE
  5
15E
330
155
100
AcDbEntity
  8
004
  6
Continuous
 62
     7
100
AcDbLine
 10
-120.089883
 20
239.590778
 30
0.0
 11
376.454927
 21
239.590778
 31
0.0
  0
LINE
  5
15F
330
155
100
AcDbEntity
  8
004
  6
Continuous
 62
     7
100
AcDbLine
 10
-120.089883
 20
229.590778
 30
0.0
 11
366.683934
 21
229.590778
 31
0.0
  0
LINE
  5
160
330
155
100
AcDbEntity
  8
004
  6
Continuous
 62
     7
100
AcDbLine
 10
-120.089883
 20
219.590778
 30
0.0
 11
356.912942
 21
219.590778
 31
0.0
  0
LINE
  5
161
330
155
100
AcDbEntity
  8
004
  6
Continuous
 62
     7
100
AcDbLine
 10
-120.089883
 20
209.590778
 30
0.0
 11
347.14195
 21
209.590778
 31
0.0
  0
LINE
  5
162
330
155
100
AcDbEntity
  8
004
  6
Continuous
 62
     7
100
AcDbLine
 10
-120.089883
 20
199.590778
 30
0.0
 11
337.370957
 21
199.590778
 31
0.0
  0
LINE
  5
163
330
155
100
AcDbEntity
  8
004
  6
Continuous
 62
     7
100
AcDbLine
 10
-120.089883
 20
189.590778
 30
0.0
 11
327.599965
 21
189.590778
 31
0.0
  0
LINE
  5
164
330
155
100
AcDbEntity
  8
004
  6
Continuous
 62
     7
100
AcDbLine
 10
-120.089883
 20
179.590778
 30
0.0
 11
317.828973
 21
179.590778
 31
0.0
  0
LINE
  5
165
330
155
100
AcDbEntity
  8
004
  6
Continuous
 62
     7
100
AcDbLine
 10
-120.089883
 20
169.590778
 30
0.0
 11
308.05798
 21
169.590778
 31
0.0
  0
LINE
  5
166
330
155
100
AcDbEntity
  8
004
  6
Continuous
 62
     7
100
AcDbLine
 10
-120.089883
 20
159.590778
 30
0.0
 11
298.286988
 21
159.590778
 31
0.0
  0
LINE
  5
167
330
155
100
AcDbEntity
  8
004
  6
Continuous
 62
     7
100
AcDbLine
 10
-120.089883
 20
149.590778
 30
0.0
 11
288.515995
 21
149.590778
 31
0.0
  0
LINE
  5
168
330
155
100
AcDbEntity
  8
004
  6
Continuous
 62
     7
100
AcDbLine
 10
-120.089883
 20
139.590778
 30
0.0
 11
278.745003
 21
139.590778
 31
0.0
  0
LINE
  5
169
330
155
100
AcDbEntity
  8
004
  6
Continuous
 62
     7
100
AcDbLine
 10
-120.089883
 20
129.590778
 30
0.0
 11
268.974011
 21
129.590778
 31
0.0
  0
LINE
  5
16A
330
155
100
AcDbEntity
  8
004
  6
Continuous
 62
     7
100
AcDbLine
 10
386.225919
 20
249.590778
 30
0.0
 11
227.393864
 21
87.03609699999999
 31
0.0
  0
LINE
  5
16B
330
155
100
AcDbEntity
  8
004
  6
Continuous
 62
     7
100
AcDbLine
 10
-120.089883
 20
-110.409222
 30
0.0
 11
34.470194
 21
-110.409222
 31
0.0
  0
LINE
  5
16C
330
155
100
AcDbEntity
  8
004
  6
Continuous
 62
     7
100
AcDbLine
 10
-120.089883
 20
-120.409222
 30
0.0
 11
24.699202
 21
-120.409222
 31
0.0
  0
LINE
  5
16D
330
155
100
AcDbEntity
  8
004
  6
Continuous
 62
     7
100
AcDbLine
 10
-120.089883
 20
-130.409222
 30
0.0
 11
14.928209
 21
-130.409222
 31
0.0
  0
LINE
  5
16E
330
155
100
AcDbEntity
  8
004
  6
Continuous
 62
     7
100
AcDbLine
 10
-120.089883
 20
-140.409222
 30
0.0
 11
5.157217
 21
-140.409222
 31
0.0
  0
LINE
  5
16F
330
155
100
AcDbEntity
  8
004
  6
Continuous
 62
     7
100
AcDbLine
 10
-120.089883
 20
-150.409222
 30
0.0
 11
-4.613776
 21
-150.409222
 31
0.0
  0
LINE
  5
170
330
155
100
AcDbEntity
  8
004
  6
Continuous
 62
     7
100
AcDbLine
 10
-120.089883
 20
-160.409222
 30
0.0
 11
-14.384768
 21
-160.409222
 31
0.0
  0
LINE
  5
171
330
155
100
AcDbEntity
  8
004
  6
Continuous
 62
     7
100
AcDbLine
 10
-120.089883
 20
-170.409222
 30
0.0
 11
-24.15576
 21
-170.409222
 31
0.0
  0
LINE
  5
172
330
155
100
AcDbEntity
  8
004
  6
Continuous
 62
     7
100
AcDbLine
 10
-120.089883
 20
-180.409222
 30
0.0
 11
-33.926753
 21
-180.409222
 31
0.0
  0
LINE
  5
173
330
155
100
AcDbEntity
  8
004
  6
Continuous
 62
     7
100
AcDbLine
 10
-120.089883
 20
-190.409222
 30
0.0
 11
-43.697745
 21
-190.409222
 31
0.0
  0
LINE
  5
174
330
155
100
AcDbEntity
  8
004
  6
Continuous
 62
     7
100
AcDbLine
 10
-120.089883
 20
-200.409222
 30
0.0
 11
-53.46873699999999
 21
-200.409222
 31
0.0
  0
LINE
  5
175
330
155
100
AcDbEntity
  8
004
  6
Continuous
 62
     7
100
AcDbLine
 10
-120.089883
 20
-210.409222
 30
0.0
 11
-63.23973
 21
-210.409222
 31
0.0
  0
LINE
  5
176
330
155
100
AcDbEntity
  8
004
  6
Continuous
 62
     7
100
AcDbLine
 10
-120.089883
 20
-220.409222
 30
0.0
 11
-73.010722
 21
-220.409222
 31
0.0
  0
LINE
  5
177
330
155
100
AcDbEntity
  8
004
  6
Continuous
 62
     7
100
AcDbLine
 10
-120.089883
 20
-230.409222
 30
0.0
 11
-82.78171400000003
 21
-230.409222
 31
0.0
  0
LINE
  5
178
330
155
100
AcDbEntity
  8
004
  6
Continuous
 62
     7
100
AcDbLine
 10
-120.089883
 20
-240.409222
 30
0.0
 11
-92.552707
 21
-240.409222
 31
0.0
  0
LINE
  5
179
330
155
100
AcDbEntity
  8
004
  6
Continuous
 62
     7
100
AcDbLine
 10
-120.089883
 20
-250.409222
 30
0.0
 11
-102.323699
 21
-250.409222
 31
0.0
  0
LINE
  5
17A
330
155
100
AcDbEntity
  8
004
  6
Continuous
 62
     7
100
AcDbLine
 10
-120.089883
 20
-260.409222
 30
0.0
 11
-112.094692
 21
-260.409222
 31
0.0
  0
LINE
  5
17B
330
155
100
AcDbEntity
  8
004
  6
Continuous
 62
     7
100
AcDbLine
 10
38.761214
 20
-106.017631
 30
0.0
 11
-120.089883
 21
-268.591801
 31
0.0
  0
LINE
  5
17C
330
155
100
AcDbEntity
  8
004
  6
Continuous
 62
     7
100
AcDbLine
 10
-120.089883
 20
-100.409222
 30
0.0
 11
33.306863
 21
-100.409222
 31
0.0
  0
LINE
  5
17D
330
155
100
AcDbEntity
  8
004
  6
Continuous
 62
     7
100
AcDbLine
 10
-120.089883
 20
-90.409222
 30
0.0
 11
25.038104
 21
-90.409222
 31
0.0
  0
LINE
  5
17E
330
155
100
AcDbEntity
  8
004
  6
Continuous
 62
     7
100
AcDbLine
 10
-120.089883
 20
-80.409222
 30
0.0
 11
18.226229
 21
-80.409222
 31
0.0
  0
LINE
  5
17F
330
155
100
AcDbEntity
  8
004
  6
Continuous
 62
     7
100
AcDbLine
 10
-120.089883
 20
-70.409222
 30
0.0
 11
12.623795
 21
-70.409222
 31
0.0
  0
LINE
  5
180
330
155
100
AcDbEntity
  8
004
  6
Continuous
 62
     7
100
AcDbLine
 10
-120.089883
 20
-60.409222
 30
0.0
 11
8.068077999999998
 21
-60.409222
 31
0.0
  0
LINE
  5
181
330
155
100
AcDbEntity
  8
004
  6
Continuous
 62
     7
100
AcDbLine
 10
-120.089883
 20
-50.409222
 30
0.0
 11
4.447805
 21
-50.409222
 31
0.0
  0
LINE
  5
182
330
155
100
AcDbEntity
  8
004
  6
Continuous
 62
     7
100
AcDbLine
 10
-120.089883
 20
-40.40922199999999
 30
0.0
 11
1.685624
 21
-40.40922199999999
 31
0.0
  0
LINE
  5
183
330
155
100
AcDbEntity
  8
004
  6
Continuous
 62
     7
100
AcDbLine
 10
-120.089883
 20
-30.409222
 30
0.0
 11
-0.271802
 21
-30.409222
 31
0.0
  0
LINE
  5
184
330
155
100
AcDbEntity
  8
004
  6
Continuous
 62
     7
100
AcDbLine
 10
-120.089883
 20
-20.409222
 30
0.0
 11
-1.459606999999999
 21
-20.409222
 31
0.0
  0
LINE
  5
185
330
155
100
AcDbEntity
  8
004
  6
Continuous
 62
     7
100
AcDbLine
 10
-120.089883
 20
-10.409222
 30
0.0
 11
-1.898111
 21
-10.409222
 31
0.0
  0
LINE
  5
186
330
155
100
AcDbEntity
  8
004
  6
Continuous
 62
     7
100
AcDbLine
 10
-120.089883
 20
-0.409222
 30
0.0
 11
-1.594635
 21
-0.409222
 31
0.0
  0
LINE
  5
187
330
155
100
AcDbEntity
  8
004
  6
Continuous
 62
     7
100
AcDbLine
 10
-120.089883
 20
9.590778
 30
0.0
 11
-0.544124
 21
9.590778
 31
0.0
  0
LINE
  5
188
330
155
100
AcDbEntity
  8
004
  6
Continuous
 62
     7
100
AcDbLine
 10
-120.089883
 20
19.590778
 30
0.0
 11
1.271286
 21
19.590778
 31
0.0
  0
LINE
  5
189
330
155
100
AcDbEntity
  8
004
  6
Continuous
 62
     7
100
AcDbLine
 10
-120.089883
 20
29.59077800000001
 30
0.0
 11
3.883836
 21
29.59077800000001
 31
0.0
  0
LINE
  5
18A
330
155
100
AcDbEntity
  8
004
  6
Continuous
 62
     7
100
AcDbLine
 10
-120.089883
 20
39.590778
 30
0.0
 11
7.343211
 21
39.590778
 31
0.0
  0
LINE
  5
18B
330
155
100
AcDbEntity
  8
004
  6
Continuous
 62
     7
100
AcDbLine
 10
-120.089883
 20
49.590778
 30
0.0
 11
11.721814
 21
49.590778
 31
0.0
  0
LINE
  5
18C
330
155
100
AcDbEntity
  8
004
  6
Continuous
 62
     7
100
AcDbLine
 10
-120.089883
 20
59.590778
 30
0.0
 11
17.12374
 21
59.590778
 31
0.0
  0
LINE
  5
18D
330
155
100
AcDbEntity
  8
004
  6
Continuous
 62
     7
100
AcDbLine
 10
-120.089883
 20
69.590778
 30
0.0
 11
23.70052
 21
69.590778
 31
0.0
  0
LINE
  5
18E
330
155
100
AcDbEntity
  8
004
  6
Continuous
 62
     7
100
AcDbLine
 10
-120.089883
 20
79.590778
 30
0.0
 11
31.680524
 21
79.590778
 31
0.0
  0
LINE
  5
18F
330
155
100
AcDbEntity
  8
004
  6
Continuous
 62
     7
100
AcDbLine
 10
-120.089883
 20
89.59077800000001
 30
0.0
 11
41.42960799999999
 21
89.59077800000001
 31
0.0
  0
LINE
  5
190
330
155
100
AcDbEntity
  8
004
  6
Continuous
 62
     7
100
AcDbLine
 10
-120.089883
 20
99.59077800000001
 30
0.0
 11
53.59618399999999
 21
99.59077800000001
 31
0.0
  0
LINE
  5
191
330
155
100
AcDbEntity
  8
004
  6
Continuous
 62
     7
100
AcDbLine
 10
-120.089883
 20
109.590778
 30
0.0
 11
69.55466099999999
 21
109.590778
 31
0.0
  0
LINE
  5
192
330
155
100
AcDbEntity
  8
004
  6
Continuous
 62
     7
100
AcDbLine
 10
-120.089883
 20
119.590778
 30
0.0
 11
93.67105399999999
 21
119.590778
 31
0.0
  0
LINE
  5
193
330
155
100
AcDbEntity
  8
004
  6
Continuous
 62
     7
100
AcDbLine
 10
172.464982
 20
119.590778
 30
0.0
 11
259.203018
 21
119.590778
 31
0.0
  0
LINE
  5
194
330
155
100
AcDbEntity
  8
004
  6
Continuous
 62
     7
100
AcDbLine
 10
196.581375
 20
109.590778
 30
0.0
 11
249.432026
 21
109.590778
 31
0.0
  0
LINE
  5
195
330
155
100
AcDbEntity
  8
004
  6
Continuous
 62
     7
100
AcDbLine
 10
212.539852
 20
99.59077800000001
 30
0.0
 11
239.661034
 21
99.59077800000001
 31
0.0
  0
ENDBLK
  5
196
330
155
100
AcDbEntity
  8
0
100
AcDbBlockEnd
  0
BLOCK
  5
197
330
156
100
AcDbEntity
  8
0
100
AcDbBlockBegin
  2
2
 70
     0
 10
0.0
 20
0.0
 30
0.0
  3
2
  1

  0
INSERT
  5
198
330
156
100
AcDbEntity
  8
004
  6
Continuous
 62
     7
100
AcDbBlockReference
  2
1
 10
-26.613604
 20
1.900102
 30
0.0
 41
0.2
 42
0.2
  0
ENDBLK
  5
199
330
156
100
AcDbEntity
  8
0
100
AcDbBlockEnd
  0
BLOCK
  5
19A
330
157
100
AcDbEntity
  8
0
100
AcDbBlockBegin
  2
3
 70
     0
 10
0.0
 20
0.0
 30
0.0
  3
3
  1

  0
INSERT
  5
19B
330
157
100
AcDbEntity
  8
003
  6
Continuous
 62
     7
100
AcDbBlockReference
  2
2
 10
187.309635
 20
61.739262
 30
0.0
  0
ENDBLK
  5
19C
330
157
100
AcDbEntity
  8
0
100
AcDbBlockEnd
  0
BLOCK
  5
19D
330
158
100
AcDbEntity
  8
0
100
AcDbBlockBegin
  2
4
 70
     0
 10
0.0
 20
0.0
 30
0.0
  3
4
  1

  0
DIMENSION
  5
1A5
330
158
100
AcDbEntity
  8
0
  6
Continuous
 62
     7
100
AcDbDimension
  2
*D6
 10
203.048774
 20
26.883496
 30
0.0
 11
204.056632
 21
27.994452
 31
0.0
 70
    36
 71
     5
 42
-1.0
  3
DIMSTYLE002
100
AcDbRadialDimension
 15
205.064489
 25
29.105407
 35
0.0
 40
0.0
1001
ACAD
1000
DSTYLE
1002
{
1070
    43
1040
1000.0
1070
    73
1070
     0
1070
    74
1070
     0
1070
    77
1070
     1
1070
   277
1070
     2
1070
   172
1070
     1
1070
   174
1070
     1
1070
   179
1070
     4
1070
   287
1070
     3
1070
   289
1070
     0
1070
     5
1000
_ORIGIN
1002
}
  0
DIMENSION
  5
1AD
330
158
100
AcDbEntity
  8
0
  6
Continuous
 62
     7
100
AcDbDimension
  2
*D7
 10
198.387641
 20
41.083496
 30
0.0
 11
195.028115
 21
37.38030999999999
 31
0.0
 70
    36
 71
     5
 42
-1.0
  3
DIMSTYLE002
100
AcDbRadialDimension
 15
191.668589
 25
33.677125
 35
0.0
 40
0.0
1001
ACAD
1000
DSTYLE
1002
{
1070
    43
1040
1000.0
1070
    73
1070
     0
1070
    74
1070
     0
1070
    77
1070
     1
1070
   277
1070
     2
1070
   172
1070
     1
1070
   174
1070
     1
1070
   179
1070
     4
1070
   287
1070
     3
1070
   289
1070
     0
1070
     5
1000
_ORIGIN
1002
}
  0
DIMENSION
  5
1B5
330
158
100
AcDbEntity
  8
0
  6
Continuous
 62
     7
100
AcDbDimension
  2
*D8
 10
179.05
 20
78.18349599999997
 30
0.0
 11
179.933883
 21
79.067379
 31
0.0
 70
    36
 71
     5
 42
-1.0
  3
DIMSTYLE002
100
AcDbRadialDimension
 15
180.817767
 25
79.95126299999999
 35
0.0
 40
0.0
1001
ACAD
1000
DSTYLE
1002
{
1070
    43
1040
1000.0
1070
    73
1070
     0
1070
    74
1070
     0
1070
    77
1070
     1
1070
   277
1070
     2
1070
   172
1070
     1
1070
   174
1070
     1
1070
   179
1070
     4
1070
   287
1070
     3
1070
   289
1070
     0
1070
     5
1000
_ORIGIN
1002
}
  0
LINE
  5
1B6
330
158
100
AcDbEntity
  8
0
  6
CENTER
 62
     2
100
AcDbLine
 10
-204.233584
 20
14.883496
 30
0.0
 11
-211.43928
 21
14.883496
 31
0.0
  0
LINE
  5
1B7
330
158
100
AcDbEntity
  8
0
  6
HIDDEN
 62
     7
100
AcDbLine
 10
-206.989715
 20
17.383496
 30
0.0
 11
-208.195411
 21
17.383496
 31
0.0
  0
LINE
  5
1B8
330
158
100
AcDbEntity
  8
0
  6
HIDDEN
 62
     7
100
AcDbLine
 10
-207.477453
 20
12.383496
 30
0.0
 11
-208.683149
 21
12.383496
 31
0.0
  0
LINE
  5
1B9
330
158
100
AcDbEntity
  8
0
  6
HIDDEN
 62
     7
100
AcDbLine
 10
207.477453
 20
12.383496
 30
0.0
 11
208.683149
 21
12.383496
 31
0.0
  0
LINE
  5
1BA
330
158
100
AcDbEntity
  8
0
  6
HIDDEN
 62
     7
100
AcDbLine
 10
206.989715
 20
17.383496
 30
0.0
 11
208.195411
 21
17.383496
 31
0.0
  0
LINE
  5
1BB
330
158
100
AcDbEntity
  8
0
  6
CENTER
 62
     2
100
AcDbLine
 10
204.233584
 20
14.883496
 30
0.0
 11
211.43928
 21
14.883496
 31
0.0
  0
LINE
  5
1BC
330
158
100
AcDbEntity
  8
0
  6
Continuous
 62
     7
100
AcDbLine
 10
188.434882
 20
40.112629
 30
0.0
 11
188.12181
 21
43.322051
 31
0.0
  0
LINE
  5
1BD
330
158
100
AcDbEntity
  8
0
  6
Continuous
 62
     7
100
AcDbLine
 10
-188.434882
 20
40.112629
 30
0.0
 11
-188.12181
 21
43.322051
 31
0.0
  0
ARC
  5
1BE
330
158
100
AcDbEntity
  8
0
  6
HIDDEN
 62
     7
100
AcDbCircle
 10
-183.941651
 20
42.91428699999999
 30
0.0
 40
3.0
100
AcDbArc
 50
104.546138
 51
174.428564
  0
ARC
  5
1BF
330
158
100
AcDbEntity
  8
0
  6
Continuous
 62
     7
100
AcDbCircle
 10
-185.75
 20
49.883496
 30
0.0
 40
3.0
100
AcDbArc
 50
284.546138
 51
360.0
  0
LINE
  5
1C0
330
158
100
AcDbEntity
  8
0
  6
HIDDEN
 62
     7
100
AcDbLine
 10
-181.55
 20
78.18349599999997
 30
0.0
 11
-181.55
 21
49.883496
 31
0.0
  0
ARC
  5
1C1
330
158
100
AcDbEntity
  8
0
  6
HIDDEN
 62
     7
100
AcDbCircle
 10
-203.048774
 20
26.883496
 30
0.0
 40
3.0
100
AcDbArc
 50
90.0
 51
174.428564
  0
ARC
  5
1C2
330
158
100
AcDbEntity
  8
0
  6
HIDDEN
 62
     7
100
AcDbCircle
 10
-185.75
 20
49.883496
 30
0.0
 40
4.2
100
AcDbArc
 50
284.546138
 51
360.0
  0
ARC
  5
1C3
330
158
100
AcDbEntity
  8
0
  6
HIDDEN
 62
     7
100
AcDbCircle
 10
185.75
 20
49.883496
 30
0.0
 40
4.2
100
AcDbArc
 50
180.0
 51
255.453862
  0
ARC
  5
1C4
330
158
100
AcDbEntity
  8
0
  6
Continuous
 62
     7
100
AcDbCircle
 10
183.941651
 20
42.91428699999999
 30
0.0
 40
4.2
100
AcDbArc
 50
5.571436
 51
75.453862
  0
LINE
  5
1C5
330
158
100
AcDbEntity
  8
0
  6
HIDDEN
 62
     7
100
AcDbLine
 10
187.24055
 20
39.996125
 30
0.0
 11
186.927479
 21
43.20554699999998
 31
0.0
  0
LINE
  5
1C6
330
158
100
AcDbEntity
  8
0
  6
HIDDEN
 62
     7
100
AcDbLine
 10
181.55
 20
78.18349599999997
 30
0.0
 11
181.55
 21
49.883496
 31
0.0
  0
ARC
  5
1C7
330
158
100
AcDbEntity
  8
0
  6
Continuous
 62
     7
100
AcDbCircle
 10
179.05
 20
78.18349599999997
 30
0.0
 40
3.7
100
AcDbArc
 50
0.0
 51
90.0
  0
ARC
  5
1C8
330
158
100
AcDbEntity
  8
0
  6
HIDDEN
 62
     7
100
AcDbCircle
 10
179.05
 20
78.18349599999997
 30
0.0
 40
2.5
100
AcDbArc
 50
0.0
 51
90.0
  0
ARC
  5
1C9
330
158
100
AcDbEntity
  8
0
  6
Continuous
 62
     7
100
AcDbCircle
 10
-179.05
 20
78.18349599999997
 30
0.0
 40
3.7
100
AcDbArc
 50
90.0
 51
180.0
  0
LINE
  5
1CA
330
158
100
AcDbEntity
  8
0
  6
CENTER
 62
     2
100
AcDbLine
 10
4.5
 20
14.883496
 30
0.0
 11
-4.5
 21
14.883496
 31
0.0
  0
CIRCLE
  5
1CB
330
158
100
AcDbEntity
  8
0
  6
Continuous
 62
     7
100
AcDbCircle
 10
0.0
 20
14.883496
 30
0.0
 40
2.5
  0
LINE
  5
1CC
330
158
100
AcDbEntity
  8
0
  6
Continuous
 62
     7
100
AcDbLine
 10
209.891128
 20
0.0
 30
0.0
 11
207.228933
 21
27.29126
 31
0.0
  0
LINE
  5
1CD
330
158
100
AcDbEntity
  8
0
  6
Continuous
 62
     7
100
AcDbLine
 10
-208.696797
 20
-0.116504
 30
0.0
 11
0.0
 21
-0.116504
 31
0.0
  0
ARC
  5
1CE
330
158
100
AcDbEntity
  8
0
  6
Continuous
 62
     7
100
AcDbCircle
 10
185.75
 20
49.883496
 30
0.0
 40
3.0
100
AcDbArc
 50
180.0
 51
255.453862
  0
LINE
  5
1CF
330
158
100
AcDbEntity
  8
0
  6
HIDDEN
 62
     7
100
AcDbLine
 10
-209.891128
 20
0.0
 30
0.0
 11
209.891128
 21
0.0
 31
0.0
  0
ARC
  5
1D0
330
158
100
AcDbEntity
  8
0
  6
HIDDEN
 62
     7
100
AcDbCircle
 10
183.941651
 20
42.91428699999999
 30
0.0
 40
3.0
100
AcDbArc
 50
5.571436
 51
75.453862
  0
ARC
  5
1D1
330
158
100
AcDbEntity
  8
0
  6
Continuous
 62
     7
100
AcDbCircle
 10
-198.387641
 20
41.083496
 30
0.0
 40
10.0
100
AcDbArc
 50
270.0
 51
354.428564
  0
LINE
  5
1D2
330
158
100
AcDbEntity
  8
0
  6
Continuous
 62
     2
100
AcDbLine
 10
-189.315651
 20
31.083496
 30
0.0
 11
-189.072935
 21
33.571686
 31
0.0
  0
LINE
  5
1D3
330
158
100
AcDbEntity
  8
0
  6
HIDDEN
 62
     7
100
AcDbLine
 10
-187.24055
 20
39.996125
 30
0.0
 11
-186.927479
 21
43.20554699999998
 31
0.0
  0
LINE
  5
1D4
330
158
100
AcDbEntity
  8
0
  6
Continuous
 62
     7
100
AcDbLine
 10
-182.75
 20
78.18349599999997
 30
0.0
 11
-182.75
 21
49.883496
 31
0.0
  0
LINE
  5
1D5
330
158
100
AcDbEntity
  8
0
  6
HIDDEN
 62
     7
100
AcDbLine
 10
-179.05
 20
80.68349599999997
 30
0.0
 11
179.05
 21
80.68349599999997
 31
0.0
  0
LINE
  5
1D6
330
158
100
AcDbEntity
  8
0
  6
Continuous
 62
     7
100
AcDbLine
 10
203.048774
 20
31.083496
 30
0.0
 11
-203.048774
 21
31.083496
 31
0.0
  0
LINE
  5
1D7
330
158
100
AcDbEntity
  8
0
  6
HIDDEN
 62
     7
100
AcDbLine
 10
-178.75
 20
81.883496
 30
0.0
 11
-178.75
 21
80.68349599999997
 31
0.0
  0
LINE
  5
1D8
330
158
100
AcDbEntity
  8
0
  6
Continuous
 62
     7
100
AcDbLine
 10
0.0
 20
81.883496
 30
0.0
 11
179.05
 21
81.883496
 31
0.0
  0
LINE
  5
1D9
330
158
100
AcDbEntity
  8
0
  6
Continuous
 62
     7
100
AcDbLine
 10
0.0
 20
-0.116504
 30
0.0
 11
208.696797
 21
-0.116504
 31
0.0
  0
LINE
  5
1DA
330
158
100
AcDbEntity
  8
0
  6
HIDDEN
 62
     7
100
AcDbLine
 10
178.75
 20
81.883496
 30
0.0
 11
178.75
 21
80.68349599999997
 31
0.0
  0
LINE
  5
1DB
330
158
100
AcDbEntity
  8
0
  6
HIDDEN
 62
     7
100
AcDbLine
 10
-203.048774
 20
29.883496
 30
0.0
 11
203.048774
 21
29.883496
 31
0.0
  0
LINE
  5
1DC
330
158
100
AcDbEntity
  8
0
  6
HIDDEN
 62
     7
100
AcDbLine
 10
208.696797
 20
-0.116504
 30
0.0
 11
206.034602
 21
27.174756
 31
0.0
  0
ARC
  5
1DD
330
158
100
AcDbEntity
  8
0
  6
Continuous
 62
     7
100
AcDbCircle
 10
-183.941651
 20
42.91428699999999
 30
0.0
 40
4.2
100
AcDbArc
 50
104.546138
 51
174.428564
  0
ARC
  5
1DE
330
158
100
AcDbEntity
  8
0
  6
HIDDEN
 62
     7
100
AcDbCircle
 10
-198.387641
 20
41.083496
 30
0.0
 40
11.2
100
AcDbArc
 50
270.0
 51
354.428564
  0
LINE
  5
1DF
330
158
100
AcDbEntity
  8
0
  6
HIDDEN
 62
     7
100
AcDbLine
 10
-208.696797
 20
-0.116504
 30
0.0
 11
-206.034602
 21
27.174756
 31
0.0
  0
ARC
  5
1E0
330
158
100
AcDbEntity
  8
0
  6
Continuous
 62
     7
100
AcDbCircle
 10
203.048774
 20
26.883496
 30
0.0
 40
4.2
100
AcDbArc
 50
5.571436
 51
90.0
  0
ARC
  5
1E1
330
158
100
AcDbEntity
  8
0
  6
HIDDEN
 62
     7
100
AcDbCircle
 10
203.048774
 20
26.883496
 30
0.0
 40
3.0
100
AcDbArc
 50
5.571436
 51
90.0
  0
LINE
  5
1E2
330
158
100
AcDbEntity
  8
0
  6
Continuous
 62
     7
100
AcDbLine
 10
209.891128
 20
0.0
 30
0.0
 11
208.696797
 21
-0.116504
 31
0.0
  0
ARC
  5
1E3
330
158
100
AcDbEntity
  8
0
  6
HIDDEN
 62
     7
100
AcDbCircle
 10
-179.05
 20
78.18349599999997
 30
0.0
 40
2.5
100
AcDbArc
 50
90.0
 51
180.0
  0
ARC
  5
1E4
330
158
100
AcDbEntity
  8
0
  6
Continuous
 62
     7
100
AcDbCircle
 10
198.387641
 20
41.083496
 30
0.0
 40
10.0
100
AcDbArc
 50
185.571436
 51
270.0
  0
LINE
  5
1E5
330
158
100
AcDbEntity
  8
0
  6
Continuous
 62
     7
100
AcDbLine
 10
182.75
 20
78.18349599999997
 30
0.0
 11
182.75
 21
49.883496
 31
0.0
  0
LINE
  5
1E6
330
158
100
AcDbEntity
  8
0
  6
Continuous
 62
     2
100
AcDbLine
 10
189.315651
 20
31.083496
 30
0.0
 11
189.072935
 21
33.571686
 31
0.0
  0
ARC
  5
1E7
330
158
100
AcDbEntity
  8
0
  6
Continuous
 62
     7
100
AcDbCircle
 10
-203.048774
 20
26.883496
 30
0.0
 40
4.2
100
AcDbArc
 50
90.0
 51
174.428564
  0
LINE
  5
1E8
330
158
100
AcDbEntity
  8
0
  6
Continuous
 62
     7
100
AcDbLine
 10
-209.891128
 20
0.0
 30
0.0
 11
-207.228933
 21
27.29126
 31
0.0
  0
LINE
  5
1E9
330
158
100
AcDbEntity
  8
0
  6
Continuous
 62
     7
100
AcDbLine
 10
-209.891128
 20
0.0
 30
0.0
 11
-208.696797
 21
-0.116504
 31
0.0
  0
LINE
  5
1EA
330
158
100
AcDbEntity
  8
0
  6
Continuous
 62
     7
100
AcDbLine
 10
0.0
 20
81.883496
 30
0.0
 11
-179.05
 21
81.883496
 31
0.0
  0
ARC
  5
1EB
330
158
100
AcDbEntity
  8
0
  6
HIDDEN
 62
     7
100
AcDbCircle
 10
198.387641
 20
41.083496
 30
0.0
 40
11.2
100
AcDbArc
 50
185.571436
 51
270.0
  0
ENDBLK
  5
1EC
330
158
100
AcDbEntity
  8
0
100
AcDbBlockEnd
  0
BLOCK
  5
19F
330
19E
100
AcDbEntity
  8
0
100
AcDbBlockBegin
  2
*D6
 70
     1
 10
0.0
 20
0.0
 30
0.0
  3
*D6
  1

  0
LINE
  5
1A0
330
19E
100
AcDbEntity
  8
0
  6
ByBlock
 62
     0
100
AcDbLine
 10
203.048774
 20
26.883496
 30
0.0
 11
205.064489
 21
29.105407
 31
0.0
  0
INSERT
  5
1A1
330
19E
100
AcDbEntity
  8
0
  6
ByBlock
 62
     0
100
AcDbBlockReference
  2
_ORIGIN
 10
203.048774
 20
26.883496
 30
0.0
 41
0.18
 42
0.18
 43
0.18
 50
227.785718
  0
INSERT
  5
1A2
330
19E
100
AcDbEntity
  8
0
  6
ByBlock
 62
     0
100
AcDbBlockReference
  2
_ORIGIN
 10
205.064489
 20
29.105407
 30
0.0
 41
0.18
 42
0.18
 43
0.18
 50
47.785718
  0
MTEXT
  5
1A3
330
19E
100
AcDbEntity
  8
0
  6
ByBlock
 62
     0
100
AcDbMText
 10
204.056632
 20
27.994452
 30
0.0
 40
0.18
 41
0.0
 71
     5
 72
     1
  1
{\A1;3.0000}
  7
DRACAD
 11
0.671905169725283
 21
0.7406371870871991
 31
0.0
 73
     1
 44
1.0
1001
ACAD
1000
MTEXTBEGIN
1070
    73
1070
     1
1070
    44
1040
1.0
1070
    74
1070
     0
1000
MTEXTEND
  0
ENDBLK
  5
1A4
330
19E
100
AcDbEntity
  8
0
100
AcDbBlockEnd
  0
BLOCK
  5
1A7
330
1A6
100
AcDbEntity
  8
0
100
AcDbBlockBegin
  2
*D7
 70
     1
 10
0.0
 20
0.0
 30
0.0
  3
*D7
  1

  0
LINE
  5
1A8
330
1A6
100
AcDbEntity
  8
0
  6
ByBlock
 62
     0
100
AcDbLine
 10
198.387641
 20
41.083496
 30
0.0
 11
191.668589
 21
33.677125
 31
0.0
  0
INSERT
  5
1A9
330
1A6
100
AcDbEntity
  8
0
  6
ByBlock
 62
     0
100
AcDbBlockReference
  2
_ORIGIN
 10
198.387641
 20
41.083496
 30
0.0
 41
0.18
 42
0.18
 43
0.18
 50
47.785718
  0
INSERT
  5
1AA
330
1A6
100
AcDbEntity
  8
0
  6
ByBlock
 62
     0
100
AcDbBlockReference
  2
_ORIGIN
 10
191.668589
 20
33.677125
 30
0.0
 41
0.18
 42
0.18
 43
0.18
 50
227.785718
  0
MTEXT
  5
1AB
330
1A6
100
AcDbEntity
  8
0
  6
ByBlock
 62
     0
100
AcDbMText
 10
195.028115
 20
37.38030999999999
 30
0.0
 40
0.18
 41
0.0
 71
     5
 72
     1
  1
{\A1;10.0000}
  7
DRACAD
 11
0.671905169725283
 21
0.7406371870871991
 31
0.0
 73
     1
 44
1.0
1001
ACAD
1000
MTEXTBEGIN
1070
    73
1070
     1
1070
    44
1040
1.0
1070
    74
1070
     0
1000
MTEXTEND
  0
ENDBLK
  5
1AC
330
1A6
100
AcDbEntity
  8
0
100
AcDbBlockEnd
  0
BLOCK
  5
1AF
330
1AE
100
AcDbEntity
  8
0
100
AcDbBlockBegin
  2
*D8
 70
     1
 10
0.0
 20
0.0
 30
0.0
  3
*D8
  1

  0
LINE
  5
1B0
330
1AE
100
AcDbEntity
  8
0
  6
ByBlock
 62
     0
100
AcDbLine
 10
179.05
 20
78.18349599999997
 30
0.0
 11
180.817767
 21
79.95126299999999
 31
0.0
  0
INSERT
  5
1B1
330
1AE
100
AcDbEntity
  8
0
  6
ByBlock
 62
     0
100
AcDbBlockReference
  2
_ORIGIN
 10
179.05
 20
78.18349599999997
 30
0.0
 41
0.18
 42
0.18
 43
0.18
 50
225.0
  0
INSERT
  5
1B2
330
1AE
100
AcDbEntity
  8
0
  6
ByBlock
 62
     0
100
AcDbBlockReference
  2
_ORIGIN
 10
180.817767
 20
79.95126299999999
 30
0.0
 41
0.18
 42
0.18
 43
0.18
 50
45.0
  0
MTEXT
  5
1B3
330
1AE
100
AcDbEntity
  8
0
  6
ByBlock
 62
     0
100
AcDbMText
 10
179.933883
 20
79.067379
 30
0.0
 40
0.18
 41
0.0
 71
     5
 72
     1
  1
{\A1;2.5000}
  7
DRACAD
 11
0.7071067811865476
 21
0.7071067811865476
 31
0.0
 73
     1
 44
1.0
1001
ACAD
1000
MTEXTBEGIN
1070
    73
1070
     1
1070
    44
1040
1.0
1070
    74
1070
     0
1000
MTEXTEND
  0
ENDBLK
  5
1B4
330
1AE
100
AcDbEntity
  8
0
100
AcDbBlockEnd
  0
BLOCK
  5
236
330
235
100
AcDbEntity
  8
0
100
AcDbBlockBegin
  2
*D9
 70
     1
 10
0.0
 20
0.0
 30
0.0
  3
*D9
  1

  0
LINE
  5
237
330
235
100
AcDbEntity
  8
0
  6
ByBlock
 62
     0
100
AcDbLine
 10
14403.87889
 20
-15410.416677
 30
0.0
 11
14284.840551
 21
-15410.416677
 31
0.0
  0
LINE
  5
238
330
235
100
AcDbEntity
  8
0
  6
ByBlock
 62
     0
100
AcDbLine
 10
14404.295207
 20
-15010.416677
 30
0.0
 11
14284.840551
 21
-15010.416677
 31
0.0
  0
LINE
  5
239
330
235
100
AcDbEntity
  8
0
  6
ByBlock
 62
     0
100
AcDbLine
 10
14284.840551
 20
-15410.416677
 30
0.0
 11
14284.840551
 21
-15010.416677
 31
0.0
  0
INSERT
  5
23A
330
235
100
AcDbEntity
  8
0
  6
ByBlock
 62
     0
100
AcDbBlockReference
  2
_ORIGIN
 10
14284.840551
 20
-15410.416677
 30
0.0
 41
10.0
 42
10.0
 43
10.0
 50
270.0
  0
INSERT
  5
23B
330
235
100
AcDbEntity
  8
0
  6
ByBlock
 62
     0
100
AcDbBlockReference
  2
_ORIGIN
 10
14284.840551
 20
-15010.416677
 30
0.0
 41
10.0
 42
10.0
 43
10.0
 50
90.0
  0
MTEXT
  5
23C
330
235
100
AcDbEntity
  8
0
  6
ByBlock
 62
     0
100
AcDbMText
 10
14272.340551
 20
-15210.416677
 30
0.0
 40
25.0
 41
0.0
 71
     5
 72
     1
  1
{\A1;400}
  7
DRACAD
 11
0.0
 21
1.0
 31
0.0
 73
     1
 44
1.0
1001
ACAD
1000
MTEXTBEGIN
1070
    73
1070
     1
1070
    44
1040
1.0
1070
    74
1070
     0
1000
MTEXTEND
  0
ENDBLK
  5
23D
330
235
100
AcDbEntity
  8
0
100
AcDbBlockEnd
  0
BLOCK
  5
240
330
23F
100
AcDbEntity
  8
0
100
AcDbBlockBegin
  2
*D10
 70
     1
 10
0.0
 20
0.0
 30
0.0
  3
*D10
  1

  0
LINE
  5
241
330
23F
100
AcDbEntity
  8
0
  6
ByBlock
 62
     0
100
AcDbLine
 10
14503.334031
 20
-15014.538559
 30
0.0
 11
14503.334031
 21
-14895.083918
 31
0.0
  0
LINE
  5
242
330
23F
100
AcDbEntity
  8
0
  6
ByBlock
 62
     0
100
AcDbLine
 10
15503.334031
 20
-15014.538559
 30
0.0
 11
15503.334031
 21
-14895.083918
 31
0.0
  0
LINE
  5
243
330
23F
100
AcDbEntity
  8
0
  6
ByBlock
 62
     0
100
AcDbLine
 10
14503.334031
 20
-14895.083918
 30
0.0
 11
15503.334031
 21
-14895.083918
 31
0.0
  0
INSERT
  5
244
330
23F
100
AcDbEntity
  8
0
  6
ByBlock
 62
     0
100
AcDbBlockReference
  2
_ORIGIN
 10
14503.334031
 20
-14895.083918
 30
0.0
 41
10.0
 42
10.0
 43
10.0
 50
180.0
  0
INSERT
  5
245
330
23F
100
AcDbEntity
  8
0
  6
ByBlock
 62
     0
100
AcDbBlockReference
  2
_ORIGIN
 10
15503.334031
 20
-14895.083918
 30
0.0
 41
10.0
 42
10.0
 43
10.0
  0
MTEXT
  5
246
330
23F
100
AcDbEntity
  8
0
  6
ByBlock
 62
     0
100
AcDbMText
 10
15003.334038
 20
-14882.583918
 30
0.0
 40
25.0
 41
0.0
 71
     5
 72
     1
  1
{\A1;1000}
  7
DRACAD
 73
     1
 44
1.0
1001
ACAD
1000
MTEXTBEGIN
1070
    73
1070
     1
1070
    44
1040
1.0
1070
    74
1070
     0
1000
MTEXTEND
  0
ENDBLK
  5
247
330
23F
100
AcDbEntity
  8
0
100
AcDbBlockEnd
  0
BLOCK
  5
24A
330
249
100
AcDbEntity
  8
0
100
AcDbBlockBegin
  2
*D11
 70
     1
 10
0.0
 20
0.0
 30
0.0
  3
*D11
  1

  0
LINE
  5
520
330
249
100
AcDbEntity
  8
0
  6
Continuous
 62
     0
370
    -2
100
AcDbLine
 10
14803.334031
 20
-16277.932892
 30
0.0
 11
14803.334031
 21
-16213.591165
 31
0.0
  0
LINE
  5
521
330
249
100
AcDbEntity
  8
0
  6
Continuous
 62
     0
370
    -2
100
AcDbLine
 10
15203.334031
 20
-16277.932892
 30
0.0
 11
15203.334031
 21
-16213.591165
 31
0.0
  0
LINE
  5
522
330
249
100
AcDbEntity
  8
0
  6
Continuous
 62
     0
370
    -2
100
AcDbLine
 10
14813.334031
 20
-16213.591165
 30
0.0
 11
15193.334031
 21
-16213.591165
 31
0.0
  0
INSERT
  5
523
330
249
100
AcDbEntity
  8
0
  6
Continuous
 62
     0
370
    -2
100
AcDbBlockReference
  2
_ORIGIN
 10
14803.334031
 20
-16213.591165
 30
0.0
 41
10.0
 42
10.0
 43
10.0
 50
180.0
  0
INSERT
  5
524
330
249
100
AcDbEntity
  8
0
  6
Continuous
 62
     0
370
    -2
100
AcDbBlockReference
  2
_ORIGIN
 10
15203.334031
 20
-16213.591165
 30
0.0
 41
10.0
 42
10.0
 43
10.0
  0
MTEXT
  5
525
330
249
100
AcDbEntity
  8
0
  6
Continuous
 62
     0
100
AcDbMText
 10
15003.334031
 20
-16201.091165
 30
0.0
 40
25.0
 41
0.0
 71
     5
 72
     1
  1
\A1;400
  7
DRACAD
 73
     1
 44
1.0
1001
ACAD
1000
MTEXTBEGIN
1070
    73
1070
     1
1070
    44
1040
1.0
1070
    74
1070
     0
1000
MTEXTEND
  0
POINT
  5
526
330
249
100
AcDbEntity
  8
Defpoints
  6
Continuous
 62
     0
100
AcDbPoint
 10
14803.334031
 20
-16277.932892
 30
0.0
  0
POINT
  5
527
330
249
100
AcDbEntity
  8
Defpoints
  6
Continuous
 62
     0
100
AcDbPoint
 10
15203.334031
 20
-16277.932892
 30
0.0
  0
POINT
  5
528
330
249
100
AcDbEntity
  8
Defpoints
  6
Continuous
 62
     0
100
AcDbPoint
 10
15203.334031
 20
-16213.591165
 30
0.0
  0
ENDBLK
  5
251
330
249
100
AcDbEntity
  8
0
100
AcDbBlockEnd
  0
BLOCK
  5
26D
330
26C
100
AcDbEntity
  8
0
100
AcDbBlockBegin
  2
*D12
 70
     1
 10
0.0
 20
0.0
 30
0.0
  3
*D12
  1

  0
LINE
  5
26E
330
26C
100
AcDbEntity
  8
0
  6
ByBlock
 62
     0
100
AcDbLine
 10
14503.834031
 20
-16584.960753
 30
0.0
 11
14503.834031
 21
-16660.487563
 31
0.0
  0
LINE
  5
26F
330
26C
100
AcDbEntity
  8
0
  6
ByBlock
 62
     0
100
AcDbLine
 10
15503.996531
 20
-16584.960753
 30
0.0
 11
15503.996531
 21
-16660.487563
 31
0.0
  0
LINE
  5
270
330
26C
100
AcDbEntity
  8
0
  6
ByBlock
 62
     0
100
AcDbLine
 10
14503.834031
 20
-16660.487563
 30
0.0
 11
15503.996531
 21
-16660.487563
 31
0.0
  0
INSERT
  5
271
330
26C
100
AcDbEntity
  8
0
  6
ByBlock
 62
     0
100
AcDbBlockReference
  2
_ORIGIN
 10
14503.834031
 20
-16660.487563
 30
0.0
 41
10.0
 42
10.0
 43
10.0
 50
180.0
  0
INSERT
  5
272
330
26C
100
AcDbEntity
  8
0
  6
ByBlock
 62
     0
100
AcDbBlockReference
  2
_ORIGIN
 10
15503.996531
 20
-16660.487563
 30
0.0
 41
10.0
 42
10.0
 43
10.0
  0
MTEXT
  5
273
330
26C
100
AcDbEntity
  8
0
  6
ByBlock
 62
     0
100
AcDbMText
 10
15003.334031
 20
-16647.987563
 30
0.0
 40
25.0
 41
0.0
 71
     5
 72
     1
  1
{\A1;1000}
  7
DRACAD
 73
     1
 44
1.0
1001
ACAD
1000
MTEXTBEGIN
1070
    73
1070
     1
1070
    44
1040
1.0
1070
    74
1070
     0
1000
MTEXTEND
  0
ENDBLK
  5
274
330
26C
100
AcDbEntity
  8
0
100
AcDbBlockEnd
  0
BLOCK
  5
279
330
278
100
AcDbEntity
  8
0
100
AcDbBlockBegin
  2
*D13
 70
     1
 10
0.0
 20
0.0
 30
0.0
  3
*D13
  1

  0
LINE
  5
529
330
278
100
AcDbEntity
  8
0
  6
Continuous
 62
     0
370
    -2
100
AcDbLine
 10
14473.279664
 20
-16472.076092
 30
0.0
 11
14428.010974
 21
-16472.076092
 31
0.0
  0
LINE
  5
52A
330
278
100
AcDbEntity
  8
0
  6
Continuous
 62
     0
370
    -2
100
AcDbLine
 10
14473.279664
 20
-16342.376092
 30
0.0
 11
14428.010974
 21
-16342.376092
 31
0.0
  0
LINE
  5
52B
330
278
100
AcDbEntity
  8
0
  6
Continuous
 62
     0
370
    -2
100
AcDbLine
 10
14428.010974
 20
-16462.076092
 30
0.0
 11
14428.010974
 21
-16352.376092
 31
0.0
  0
INSERT
  5
52C
330
278
100
AcDbEntity
  8
0
  6
Continuous
 62
     0
370
    -2
100
AcDbBlockReference
  2
_ORIGIN
 10
14428.010974
 20
-16472.076092
 30
0.0
 41
10.0
 42
10.0
 43
10.0
 50
270.0
  0
INSERT
  5
52D
330
278
100
AcDbEntity
  8
0
  6
Continuous
 62
     0
370
    -2
100
AcDbBlockReference
  2
_ORIGIN
 10
14428.010974
 20
-16342.376092
 30
0.0
 41
10.0
 42
10.0
 43
10.0
 50
90.0
  0
MTEXT
  5
52E
330
278
100
AcDbEntity
  8
0
  6
Continuous
 62
     0
100
AcDbMText
 10
14415.510974
 20
-16407.226092
 30
0.0
 40
25.0
 41
0.0
 71
     5
 72
     1
  1
\A1;130
  7
DRACAD
 11
0.0000000000000001
 21
1.0
 31
0.0
 73
     1
 44
1.0
1001
ACAD
1000
MTEXTBEGIN
1070
    73
1070
     1
1070
    44
1040
1.0
1070
    74
1070
     0
1000
MTEXTEND
  0
POINT
  5
52F
330
278
100
AcDbEntity
  8
Defpoints
  6
Continuous
 62
     0
100
AcDbPoint
 10
14473.279664
 20
-16472.076092
 30
0.0
  0
POINT
  5
530
330
278
100
AcDbEntity
  8
Defpoints
  6
Continuous
 62
     0
100
AcDbPoint
 10
14473.279664
 20
-16342.376092
 30
0.0
  0
POINT
  5
531
330
278
100
AcDbEntity
  8
Defpoints
  6
Continuous
 62
     0
100
AcDbPoint
 10
14428.010974
 20
-16342.376092
 30
0.0
  0
ENDBLK
  5
280
330
278
100
AcDbEntity
  8
0
100
AcDbBlockEnd
  0
BLOCK
  5
285
330
284
100
AcDbEntity
  8
0
100
AcDbBlockBegin
  2
*D14
 70
     1
 10
0.0
 20
0.0
 30
0.0
  3
*D14
  1

  0
LINE
  5
286
330
284
100
AcDbEntity
  8
0
  6
ByBlock
 62
     0
100
AcDbLine
 10
14274.020273
 20
-16010.416677
 30
0.0
 11
14154.981934
 21
-16010.416677
 31
0.0
  0
LINE
  5
287
330
284
100
AcDbEntity
  8
0
  6
ByBlock
 62
     0
100
AcDbLine
 10
14274.43659
 20
-15010.416677
 30
0.0
 11
14154.981934
 21
-15010.416677
 31
0.0
  0
LINE
  5
288
330
284
100
AcDbEntity
  8
0
  6
ByBlock
 62
     0
100
AcDbLine
 10
14154.981934
 20
-16010.416677
 30
0.0
 11
14154.981934
 21
-15010.416677
 31
0.0
  0
INSERT
  5
289
330
284
100
AcDbEntity
  8
0
  6
ByBlock
 62
     0
100
AcDbBlockReference
  2
_ORIGIN
 10
14154.981934
 20
-16010.416677
 30
0.0
 41
10.0
 42
10.0
 43
10.0
 50
270.0
  0
INSERT
  5
28A
330
284
100
AcDbEntity
  8
0
  6
ByBlock
 62
     0
100
AcDbBlockReference
  2
_ORIGIN
 10
14154.981934
 20
-15010.416677
 30
0.0
 41
10.0
 42
10.0
 43
10.0
 50
90.0
  0
MTEXT
  5
28B
330
284
100
AcDbEntity
  8
0
  6
ByBlock
 62
     0
100
AcDbMText
 10
14142.481934
 20
-15535.342481
 30
0.0
 40
25.0
 41
0.0
 71
     5
 72
     1
  1
{\A1;1000}
  7
DRACAD
 11
0.0
 21
1.0
 31
0.0
 73
     1
 44
1.0
1001
ACAD
1000
MTEXTBEGIN
1070
    73
1070
     1
1070
    44
1040
1.0
1070
    74
1070
     0
1000
MTEXTEND
  0
ENDBLK
  5
28C
330
284
100
AcDbEntity
  8
0
100
AcDbBlockEnd
  0
BLOCK
  5
28F
330
28E
100
AcDbEntity
  8
0
100
AcDbBlockBegin
  2
*D15
 70
     1
 10
0.0
 20
0.0
 30
0.0
  3
*D15
  1

  0
LINE
  5
4E7
330
28E
100
AcDbEntity
  8
0
  6
Continuous
 62
     0
370
    -2
100
AcDbLine
 10
14403.87889
 20
-16010.416677
 30
0.0
 11
14284.840551
 21
-16010.416677
 31
0.0
  0
LINE
  5
4E8
330
28E
100
AcDbEntity
  8
0
  6
Continuous
 62
     0
370
    -2
100
AcDbLine
 10
14404.295207
 20
-15410.416677
 30
0.0
 11
14284.840551
 21
-15410.416677
 31
0.0
  0
LINE
  5
4E9
330
28E
100
AcDbEntity
  8
0
  6
Continuous
 62
     0
370
    -2
100
AcDbLine
 10
14284.840551
 20
-16000.416677
 30
0.0
 11
14284.840551
 21
-15420.416677
 31
0.0
  0
MTEXT
  5
4EA
330
28E
100
AcDbEntity
  8
0
  6
Continuous
 62
     0
100
AcDbMText
 10
14272.340551
 20
-15713.27762805273
 30
0.0
 40
25.0
 41
0.0
 71
     5
 72
     1
  1
\A1;600
  7
DRACAD
 11
0.0000000000000001
 21
1.0
 31
0.0
 73
     1
 44
1.0
1001
ACAD
1000
MTEXTBEGIN
1070
    73
1070
     1
1070
    44
1040
1.0
1070
    74
1070
     0
1000
MTEXTEND
  0
INSERT
  5
4EB
330
28E
100
AcDbEntity
  8
0
  6
Continuous
 62
     0
370
    -2
100
AcDbBlockReference
  2
_ORIGIN
 10
14284.840551
 20
-16010.416677
 30
0.0
 41
10.0
 42
10.0
 43
10.0
 50
270.0
  0
INSERT
  5
4EC
330
28E
100
AcDbEntity
  8
0
  6
Continuous
 62
     0
370
    -2
100
AcDbBlockReference
  2
_ORIGIN
 10
14284.840551
 20
-15410.416677
 30
0.0
 41
10.0
 42
10.0
 43
10.0
 50
90.0
  0
POINT
  5
4ED
330
28E
100
AcDbEntity
  8
Defpoints
  6
Continuous
 62
     0
100
AcDbPoint
 10
14403.87889
 20
-16010.416677
 30
0.0
  0
POINT
  5
4EE
330
28E
100
AcDbEntity
  8
Defpoints
  6
Continuous
 62
     0
100
AcDbPoint
 10
14404.295207
 20
-15410.416677
 30
0.0
  0
POINT
  5
4EF
330
28E
100
AcDbEntity
  8
Defpoints
  6
Continuous
 62
     0
100
AcDbPoint
 10
14284.840551
 20
-15410.416677
 30
0.0
  0
ENDBLK
  5
296
330
28E
100
AcDbEntity
  8
0
100
AcDbBlockEnd
  0
BLOCK
  5
299
330
298
100
AcDbEntity
  8
0
100
AcDbBlockBegin
  2
*D16
 70
     1
 10
0.0
 20
0.0
 30
0.0
  3
*D16
  1

  0
LINE
  5
29A
330
298
100
AcDbEntity
  8
0
  6
ByBlock
 62
     0
100
AcDbLine
 10
16362.521488
 20
-15392.409792
 30
0.0
 11
16364.537204
 21
-15390.18788
 31
0.0
  0
INSERT
  5
29B
330
298
100
AcDbEntity
  8
0
  6
ByBlock
 62
     0
100
AcDbBlockReference
  2
_ORIGIN
 10
16362.521488
 20
-15392.409792
 30
0.0
 41
0.18
 42
0.18
 43
0.18
 50
227.785718
  0
INSERT
  5
29C
330
298
100
AcDbEntity
  8
0
  6
ByBlock
 62
     0
100
AcDbBlockReference
  2
_ORIGIN
 10
16364.537204
 20
-15390.18788
 30
0.0
 41
0.18
 42
0.18
 43
0.18
 50
47.785718
  0
MTEXT
  5
29D
330
298
100
AcDbEntity
  8
0
  6
ByBlock
 62
     0
100
AcDbMText
 10
16363.529346
 20
-15391.298836
 30
0.0
 40
0.18
 41
0.0
 71
     5
 72
     1
  1
{\A1;3.0000}
  7
DRACAD
 11
0.671905169725283
 21
0.7406371870871991
 31
0.0
 73
     1
 44
1.0
1001
ACAD
1000
MTEXTBEGIN
1070
    73
1070
     1
1070
    44
1040
1.0
1070
    74
1070
     0
1000
MTEXTEND
  0
ENDBLK
  5
29E
330
298
100
AcDbEntity
  8
0
100
AcDbBlockEnd
  0
BLOCK
  5
2A1
330
2A0
100
AcDbEntity
  8
0
100
AcDbBlockBegin
  2
*D17
 70
     1
 10
0.0
 20
0.0
 30
0.0
  3
*D17
  1

  0
LINE
  5
2A2
330
2A0
100
AcDbEntity
  8
0
  6
ByBlock
 62
     0
100
AcDbLine
 10
16357.860355
 20
-15378.209792
 30
0.0
 11
16351.141303
 21
-15385.616163
 31
0.0
  0
INSERT
  5
2A3
330
2A0
100
AcDbEntity
  8
0
  6
ByBlock
 62
     0
100
AcDbBlockReference
  2
_ORIGIN
 10
16357.860355
 20
-15378.209792
 30
0.0
 41
0.18
 42
0.18
 43
0.18
 50
47.785718
  0
INSERT
  5
2A4
330
2A0
100
AcDbEntity
  8
0
  6
ByBlock
 62
     0
100
AcDbBlockReference
  2
_ORIGIN
 10
16351.141303
 20
-15385.616163
 30
0.0
 41
0.18
 42
0.18
 43
0.18
 50
227.785718
  0
MTEXT
  5
2A5
330
2A0
100
AcDbEntity
  8
0
  6
ByBlock
 62
     0
100
AcDbMText
 10
16354.500829
 20
-15381.912977
 30
0.0
 40
0.18
 41
0.0
 71
     5
 72
     1
  1
{\A1;10.0000}
  7
DRACAD
 11
0.671905169725283
 21
0.7406371870871991
 31
0.0
 73
     1
 44
1.0
1001
ACAD
1000
MTEXTBEGIN
1070
    73
1070
     1
1070
    44
1040
1.0
1070
    74
1070
     0
1000
MTEXTEND
  0
ENDBLK
  5
2A6
330
2A0
100
AcDbEntity
  8
0
100
AcDbBlockEnd
  0
BLOCK
  5
2A9
330
2A8
100
AcDbEntity
  8
0
100
AcDbBlockBegin
  2
*D18
 70
     1
 10
0.0
 20
0.0
 30
0.0
  3
*D18
  1

  0
LINE
  5
2AA
330
2A8
100
AcDbEntity
  8
0
  6
ByBlock
 62
     0
100
AcDbLine
 10
16338.522715
 20
-15341.109792
 30
0.0
 11
16340.290482
 21
-15339.342025
 31
0.0
  0
INSERT
  5
2AB
330
2A8
100
AcDbEntity
  8
0
  6
ByBlock
 62
     0
100
AcDbBlockReference
  2
_ORIGIN
 10
16338.522715
 20
-15341.109792
 30
0.0
 41
0.18
 42
0.18
 43
0.18
 50
225.0
  0
INSERT
  5
2AC
330
2A8
100
AcDbEntity
  8
0
  6
ByBlock
 62
     0
100
AcDbBlockReference
  2
_ORIGIN
 10
16340.290482
 20
-15339.342025
 30
0.0
 41
0.18
 42
0.18
 43
0.18
 50
45.0
  0
MTEXT
  5
2AD
330
2A8
100
AcDbEntity
  8
0
  6
ByBlock
 62
     0
100
AcDbMText
 10
16339.406598
 20
-15340.225908
 30
0.0
 40
0.18
 41
0.0
 71
     5
 72
     1
  1
{\A1;2.5000}
  7
DRACAD
 11
0.7071067811865476
 21
0.7071067811865476
 31
0.0
 73
     1
 44
1.0
1001
ACAD
1000
MTEXTBEGIN
1070
    73
1070
     1
1070
    44
1040
1.0
1070
    74
1070
     0
1000
MTEXTEND
  0
ENDBLK
  5
2AE
330
2A8
100
AcDbEntity
  8
0
100
AcDbBlockEnd
  0
BLOCK
  5
2B1
330
2B0
100
AcDbEntity
  8
0
100
AcDbBlockBegin
  2
*D19
 70
     1
 10
0.0
 20
0.0
 30
0.0
  3
*D19
  1

  0
LINE
  5
2B2
330
2B0
100
AcDbEntity
  8
0
  6
ByBlock
 62
     0
100
AcDbLine
 10
15979.722715
 20
-15311.563727
 30
0.0
 11
15979.722715
 21
-15269.775281
 31
0.0
  0
LINE
  5
2B3
330
2B0
100
AcDbEntity
  8
0
  6
ByBlock
 62
     0
100
AcDbLine
 10
16339.222715
 20
-15311.563727
 30
0.0
 11
16339.222715
 21
-15269.775281
 31
0.0
  0
LINE
  5
2B4
330
2B0
100
AcDbEntity
  8
0
  6
ByBlock
 62
     0
100
AcDbLine
 10
15979.722715
 20
-15269.775281
 30
0.0
 11
16339.222715
 21
-15269.775281
 31
0.0
  0
INSERT
  5
2B5
330
2B0
100
AcDbEntity
  8
0
  6
ByBlock
 62
     0
100
AcDbBlockReference
  2
_ORIGIN
 10
15979.722715
 20
-15269.775281
 30
0.0
 41
10.0
 42
10.0
 43
10.0
 50
180.0
  0
INSERT
  5
2B6
330
2B0
100
AcDbEntity
  8
0
  6
ByBlock
 62
     0
100
AcDbBlockReference
  2
_ORIGIN
 10
16339.222715
 20
-15269.775281
 30
0.0
 41
10.0
 42
10.0
 43
10.0
  0
MTEXT
  5
2B7
330
2B0
100
AcDbEntity
  8
0
  6
ByBlock
 62
     0
100
AcDbMText
 10
16159.472715
 20
-15257.275281
 30
0.0
 40
25.0
 41
0.0
 71
     5
 72
     1
  1
{\A1;359}
  7
DRACAD
 73
     1
 44
1.0
1001
ACAD
1000
MTEXTBEGIN
1070
    73
1070
     1
1070
    44
1040
1.0
1070
    74
1070
     0
1000
MTEXTEND
  0
ENDBLK
  5
2B8
330
2B0
100
AcDbEntity
  8
0
100
AcDbBlockEnd
  0
BLOCK
  5
2BB
330
2BA
100
AcDbEntity
  8
0
100
AcDbBlockBegin
  2
*D20
 70
     1
 10
0.0
 20
0.0
 30
0.0
  3
*D20
  1

  0
LINE
  5
2BC
330
2BA
100
AcDbEntity
  8
0
  6
ByBlock
 62
     0
100
AcDbLine
 10
16340.085215
 20
-15337.409792
 30
0.0
 11
16429.652715
 21
-15337.409792
 31
0.0
  0
LINE
  5
2BD
330
2BA
100
AcDbEntity
  8
0
  6
ByBlock
 62
     0
100
AcDbLine
 10
16368.232012
 20
-15419.409792
 30
0.0
 11
16429.652715
 21
-15419.409792
 31
0.0
  0
LINE
  5
2BE
330
2BA
100
AcDbEntity
  8
0
  6
ByBlock
 62
     0
100
AcDbLine
 10
16429.472715
 20
-15337.409792
 30
0.0
 11
16429.472715
 21
-15419.409792
 31
0.0
  0
INSERT
  5
2BF
330
2BA
100
AcDbEntity
  8
0
  6
ByBlock
 62
     0
100
AcDbBlockReference
  2
_ORIGIN
 10
16429.472715
 20
-15337.409792
 30
0.0
 41
0.18
 42
0.18
 43
0.18
 50
90.0
  0
INSERT
  5
2C0
330
2BA
100
AcDbEntity
  8
0
  6
ByBlock
 62
     0
100
AcDbBlockReference
  2
_ORIGIN
 10
16429.472715
 20
-15419.409792
 30
0.0
 41
0.18
 42
0.18
 43
0.18
 50
270.0
  0
MTEXT
  5
2C1
330
2BA
100
AcDbEntity
  8
0
  6
ByBlock
 62
     0
100
AcDbMText
 10
16429.472715
 20
-15378.409792
 30
0.0
 40
0.18
 41
0.0
 71
     5
 72
     1
  1
{\A1;82.0000}
  7
DRACAD
 11
0.0
 21
1.0
 31
0.0
 73
     1
 44
1.0
1001
ACAD
1000
MTEXTBEGIN
1070
    73
1070
     1
1070
    44
1040
1.0
1070
    74
1070
     0
1000
MTEXTEND
  0
ENDBLK
  5
2C2
330
2BA
100
AcDbEntity
  8
0
100
AcDbBlockEnd
  0
BLOCK
  5
2C5
330
2C4
100
AcDbEntity
  8
0
100
AcDbBlockBegin
  2
*D21
 70
     1
 10
0.0
 20
0.0
 30
0.0
  3
*D21
  1

  0
LINE
  5
2C6
330
2C4
100
AcDbEntity
  8
0
  6
ByBlock
 62
     0
100
AcDbLine
 10
15949.581586
 20
-15419.293288
 30
0.0
 11
15949.581586
 21
-15517.082692
 31
0.0
  0
LINE
  5
2C7
330
2C4
100
AcDbEntity
  8
0
  6
ByBlock
 62
     0
100
AcDbLine
 10
16369.363843
 20
-15424.926097
 30
0.0
 11
16369.363843
 21
-15517.082692
 31
0.0
  0
LINE
  5
2C8
330
2C4
100
AcDbEntity
  8
0
  6
ByBlock
 62
     0
100
AcDbLine
 10
15949.581586
 20
-15517.082692
 30
0.0
 11
16369.363843
 21
-15517.082692
 31
0.0
  0
INSERT
  5
2C9
330
2C4
100
AcDbEntity
  8
0
  6
ByBlock
 62
     0
100
AcDbBlockReference
  2
_ORIGIN
 10
15949.581586
 20
-15517.082692
 30
0.0
 41
10.0
 42
10.0
 43
10.0
 50
180.0
  0
INSERT
  5
2CA
330
2C4
100
AcDbEntity
  8
0
  6
ByBlock
 62
     0
100
AcDbBlockReference
  2
_ORIGIN
 10
16369.363843
 20
-15517.082692
 30
0.0
 41
10.0
 42
10.0
 43
10.0
  0
MTEXT
  5
2CB
330
2C4
100
AcDbEntity
  8
0
  6
ByBlock
 62
     0
100
AcDbMText
 10
16159.472715
 20
-15504.582692
 30
0.0
 40
25.0
 41
0.0
 71
     5
 72
     1
  1
{\A1;420}
  7
DRACAD
 73
     1
 44
1.0
1001
ACAD
1000
MTEXTBEGIN
1070
    73
1070
     1
1070
    44
1040
1.0
1070
    74
1070
     0
1000
MTEXTEND
  0
ENDBLK
  5
2CC
330
2C4
100
AcDbEntity
  8
0
100
AcDbBlockEnd
  0
BLOCK
  5
2CF
330
2CE
100
AcDbEntity
  8
0
100
AcDbBlockBegin
  2
*D22
 70
     1
 10
0.0
 20
0.0
 30
0.0
  3
*D22
  1

  0
LINE
  5
2D0
330
2CE
100
AcDbEntity
  8
0
  6
ByBlock
 62
     0
100
AcDbLine
 10
16160.428896
 20
-15406.720987
 30
0.0
 11
16160.321784
 21
-15406.769292
 31
0.0
  0
LINE
  5
2D1
330
2CE
100
AcDbEntity
  8
0
  6
ByBlock
 62
     0
100
AcDbLine
 10
16179.535215
 20
-15449.526296
 30
0.0
 11
16179.652715
 21
-15449.526296
 31
0.0
  0
LINE
  5
2D2
330
2CE
100
AcDbEntity
  8
0
  6
ByBlock
 62
     0
100
AcDbLine
 10
16160.48587
 20
-15406.695293
 30
0.0
 11
16179.472715
 21
-15449.526296
 31
0.0
  0
INSERT
  5
2D3
330
2CE
100
AcDbEntity
  8
0
  6
ByBlock
 62
     0
100
AcDbBlockReference
  2
_ORIGIN
 10
16160.48587
 20
-15406.695293
 30
0.0
 41
0.18
 42
0.18
 43
0.18
 50
113.907555
  0
INSERT
  5
2D4
330
2CE
100
AcDbEntity
  8
0
  6
ByBlock
 62
     0
100
AcDbBlockReference
  2
_ORIGIN
 10
16179.472715
 20
-15449.526296
 30
0.0
 41
0.18
 42
0.18
 43
0.18
 50
293.907555
  0
MTEXT
  5
2D5
330
2CE
100
AcDbEntity
  8
0
  6
ByBlock
 62
     0
100
AcDbMText
 10
16169.979292
 20
-15428.110794
 30
0.0
 40
0.18
 41
0.0
 71
     5
 72
     1
  1
{\A1;46.8508}
  7
DRACAD
 11
0.4052618465993018
 21
-0.9142006539545484
 31
0.0
 73
     1
 44
1.0
1001
ACAD
1000
MTEXTBEGIN
1070
    73
1070
     1
1070
    44
1040
1.0
1070
    74
1070
     0
1000
MTEXTEND
  0
ENDBLK
  5
2D6
330
2CE
100
AcDbEntity
  8
0
100
AcDbBlockEnd
  0
BLOCK
  5
2D9
330
2D8
100
AcDbEntity
  8
0
100
AcDbBlockBegin
  2
*D23
 70
     1
 10
0.0
 20
0.0
 30
0.0
  3
*D23
  1

  0
LINE
  5
2DA
330
2D8
100
AcDbEntity
  8
0
  6
ByBlock
 62
     0
100
AcDbLine
 10
16389.410215
 20
-15419.409792
 30
0.0
 11
16389.292715
 21
-15419.409792
 31
0.0
  0
LINE
  5
2DB
330
2D8
100
AcDbEntity
  8
0
  6
ByBlock
 62
     0
100
AcDbLine
 10
16370.974494
 20
-15404.409792
 30
0.0
 11
16389.652715
 21
-15404.409792
 31
0.0
  0
LINE
  5
2DC
330
2D8
100
AcDbEntity
  8
0
  6
ByBlock
 62
     0
100
AcDbLine
 10
16389.472715
 20
-15419.409792
 30
0.0
 11
16389.472715
 21
-15404.409792
 31
0.0
  0
INSERT
  5
2DD
330
2D8
100
AcDbEntity
  8
0
  6
ByBlock
 62
     0
100
AcDbBlockReference
  2
_ORIGIN
 10
16389.472715
 20
-15419.409792
 30
0.0
 41
0.18
 42
0.18
 43
0.18
 50
270.0
  0
INSERT
  5
2DE
330
2D8
100
AcDbEntity
  8
0
  6
ByBlock
 62
     0
100
AcDbBlockReference
  2
_ORIGIN
 10
16389.472715
 20
-15404.409792
 30
0.0
 41
0.18
 42
0.18
 43
0.18
 50
90.0
  0
MTEXT
  5
2DF
330
2D8
100
AcDbEntity
  8
0
  6
ByBlock
 62
     0
100
AcDbMText
 10
16389.472715
 20
-15411.909792
 30
0.0
 40
0.18
 41
0.0
 71
     5
 72
     1
  1
{\A1;15.0000}
  7
DRACAD
 11
0.0
 21
1.0
 31
0.0
 73
     1
 44
1.0
1001
ACAD
1000
MTEXTBEGIN
1070
    73
1070
     1
1070
    44
1040
1.0
1070
    74
1070
     0
1000
MTEXTEND
  0
ENDBLK
  5
2E0
330
2D8
100
AcDbEntity
  8
0
100
AcDbBlockEnd
  0
BLOCK
  5
3D4
330
3D3
100
AcDbEntity
  8
0
100
AcDbBlockBegin
  2
*D24
 70
     1
 10
0.0
 20
0.0
 30
0.0
  3
*D24
  1

  0
LINE
  5
532
330
3D3
100
AcDbEntity
  8
0
  6
Continuous
 62
     0
370
    -2
100
AcDbLine
 10
15938.192095
 20
-16059.017519
 30
0.0
 11
15869.716357
 21
-16059.017519
 31
0.0
  0
LINE
  5
533
330
3D3
100
AcDbEntity
  8
0
  6
Continuous
 62
     0
370
    -2
100
AcDbLine
 10
15914.985046
 20
-15876.617519
 30
0.0
 11
15869.716357
 21
-15876.617519
 31
0.0
  0
LINE
  5
534
330
3D3
100
AcDbEntity
  8
0
  6
Continuous
 62
     0
370
    -2
100
AcDbLine
 10
15869.716357
 20
-16049.017519
 30
0.0
 11
15869.716357
 21
-15886.617519
 31
0.0
  0
INSERT
  5
535
330
3D3
100
AcDbEntity
  8
0
  6
Continuous
 62
     0
370
    -2
100
AcDbBlockReference
  2
_ORIGIN
 10
15869.716357
 20
-16059.017519
 30
0.0
 41
10.0
 42
10.0
 43
10.0
 50
270.0
  0
INSERT
  5
536
330
3D3
100
AcDbEntity
  8
0
  6
Continuous
 62
     0
370
    -2
100
AcDbBlockReference
  2
_ORIGIN
 10
15869.716357
 20
-15876.617519
 30
0.0
 41
10.0
 42
10.0
 43
10.0
 50
90.0
  0
MTEXT
  5
537
330
3D3
100
AcDbEntity
  8
0
  6
Continuous
 62
     0
100
AcDbMText
 10
15857.216357
 20
-15967.817519
 30
0.0
 40
25.0
 41
0.0
 71
     5
 72
     1
  1
\A1;182
  7
DRACAD
 11
0.0000000000000001
 21
1.0
 31
0.0
 73
     1
 44
1.0
1001
ACAD
1000
MTEXTBEGIN
1070
    73
1070
     1
1070
    44
1040
1.0
1070
    74
1070
     0
1000
MTEXTEND
  0
POINT
  5
538
330
3D3
100
AcDbEntity
  8
Defpoints
  6
Continuous
 62
     0
100
AcDbPoint
 10
15938.192095
 20
-16059.017519
 30
0.0
  0
POINT
  5
539
330
3D3
100
AcDbEntity
  8
Defpoints
  6
Continuous
 62
     0
100
AcDbPoint
 10
15914.985046
 20
-15876.617519
 30
0.0
  0
POINT
  5
53A
330
3D3
100
AcDbEntity
  8
Defpoints
  6
Continuous
 62
     0
100
AcDbPoint
 10
15869.716357
 20
-15876.617519
 30
0.0
  0
ENDBLK
  5
3DB
330
3D3
100
AcDbEntity
  8
0
100
AcDbBlockEnd
  0
BLOCK
  5
3DF
330
3DE
100
AcDbEntity
  8
0
100
AcDbBlockBegin
  2
*D25
 70
     1
 10
0.0
 20
0.0
 30
0.0
  3
*D25
  1

  0
LINE
  5
53B
330
3DE
100
AcDbEntity
  8
0
  6
Continuous
 62
     0
370
    -2
100
AcDbLine
 10
15979.722715
 20
-15850.771455
 30
0.0
 11
15979.722715
 21
-15808.983008
 31
0.0
  0
LINE
  5
53C
330
3DE
100
AcDbEntity
  8
0
  6
Continuous
 62
     0
370
    -2
100
AcDbLine
 10
16339.222715
 20
-15850.771455
 30
0.0
 11
16339.222715
 21
-15808.983008
 31
0.0
  0
LINE
  5
53D
330
3DE
100
AcDbEntity
  8
0
  6
Continuous
 62
     0
370
    -2
100
AcDbLine
 10
15989.722715
 20
-15808.983008
 30
0.0
 11
16329.222715
 21
-15808.983008
 31
0.0
  0
INSERT
  5
53E
330
3DE
100
AcDbEntity
  8
0
  6
Continuous
 62
     0
370
    -2
100
AcDbBlockReference
  2
_ORIGIN
 10
15979.722715
 20
-15808.983008
 30
0.0
 41
10.0
 42
10.0
 43
10.0
 50
180.0
  0
INSERT
  5
53F
330
3DE
100
AcDbEntity
  8
0
  6
Continuous
 62
     0
370
    -2
100
AcDbBlockReference
  2
_ORIGIN
 10
16339.222715
 20
-15808.983008
 30
0.0
 41
10.0
 42
10.0
 43
10.0
  0
MTEXT
  5
540
330
3DE
100
AcDbEntity
  8
0
  6
Continuous
 62
     0
100
AcDbMText
 10
16159.472715
 20
-15796.483008
 30
0.0
 40
25.0
 41
0.0
 71
     5
 72
     1
  1
\A1;360
  7
DRACAD
 73
     1
 44
1.0
1001
ACAD
1000
MTEXTBEGIN
1070
    73
1070
     1
1070
    44
1040
1.0
1070
    74
1070
     0
1000
MTEXTEND
  0
POINT
  5
541
330
3DE
100
AcDbEntity
  8
Defpoints
  6
Continuous
 62
     0
100
AcDbPoint
 10
15979.722715
 20
-15850.771455
 30
0.0
  0
POINT
  5
542
330
3DE
100
AcDbEntity
  8
Defpoints
  6
Continuous
 62
     0
100
AcDbPoint
 10
16339.222715
 20
-15850.771455
 30
0.0
  0
POINT
  5
543
330
3DE
100
AcDbEntity
  8
Defpoints
  6
Continuous
 62
     0
100
AcDbPoint
 10
16339.222715
 20
-15808.983008
 30
0.0
  0
ENDBLK
  5
3E6
330
3DE
100
AcDbEntity
  8
0
100
AcDbBlockEnd
  0
BLOCK
  5
48F
330
48E
100
AcDbEntity
  8
0
100
AcDbBlockBegin
  2
*D26
 70
     1
 10
0.0
 20
0.0
 30
0.0
  3
*D26
  1

  0
LINE
  5
4A8
330
48E
100
AcDbEntity
  8
0
  6
Continuous
 62
     0
370
    -2
100
AcDbLine
 10
16362.521489
 20
-15909.617519
 30
0.0
 11
16364.41626106945
 21
-15907.52892269367
 31
0.0
  0
INSERT
  5
4A9
330
48E
100
AcDbEntity
  8
0
  6
Continuous
 62
     0
370
    -2
100
AcDbBlockReference
  2
_ORIGIN
 10
16364.537204
 20
-15907.395608
 30
0.0
 41
0.18
 42
0.18
 43
0.18
 50
47.78572245213613
  0
MTEXT
  5
4AA
330
48E
100
AcDbEntity
  8
0
  6
Continuous
 62
     0
100
AcDbMText
 10
16363.33556034105
 20
-15908.45227791628
 30
0.0
 40
0.18
 41
0.0
 71
     5
 72
     1
  1
\A1;R3.0000
  7
DRACAD
 11
0.6719051697254113
 21
0.7406371870870827
 31
0.0
 73
     1
 44
1.0
1001
ACAD
1000
MTEXTBEGIN
1070
    73
1070
     1
1070
    44
1040
1.0
1070
    74
1070
     0
1000
MTEXTEND
  0
POINT
  5
4AB
330
48E
100
AcDbEntity
  8
Defpoints
  6
Continuous
 62
     0
100
AcDbPoint
 10
16364.537204
 20
-15907.395608
 30
0.0
  0
POINT
  5
4AC
330
48E
100
AcDbEntity
  8
Defpoints
  6
Continuous
 62
     0
100
AcDbPoint
 10
16362.521489
 20
-15909.617519
 30
0.0
  0
ENDBLK
  5
490
330
48E
100
AcDbEntity
  8
0
100
AcDbBlockEnd
  0
BLOCK
  5
497
330
496
100
AcDbEntity
  8
0
100
AcDbBlockBegin
  2
*D27
 70
     1
 10
0.0
 20
0.0
 30
0.0
  3
*D27
  1

  0
LINE
  5
4AD
330
496
100
AcDbEntity
  8
0
  6
Continuous
 62
     0
370
    -2
100
AcDbLine
 10
16357.860356
 20
-15895.417519
 30
0.0
 11
16351.26224694134
 21
-15902.69057531611
 31
0.0
  0
INSERT
  5
4AE
330
496
100
AcDbEntity
  8
0
  6
Continuous
 62
     0
370
    -2
100
AcDbBlockReference
  2
_ORIGIN
 10
16351.141304
 20
-15902.82389
 30
0.0
 41
0.18
 42
0.18
 43
0.18
 50
227.7857178148047
  0
MTEXT
  5
4AF
330
496
100
AcDbEntity
  8
0
  6
Continuous
 62
     0
100
AcDbMText
 10
16354.42798678678
 20
-15898.93310421671
 30
0.0
 40
0.18
 41
0.0
 71
     5
 72
     1
  1
\A1;R10.0000
  7
DRACAD
 11
0.671905229670141
 21
0.7406371327052912
 31
0.0
 73
     1
 44
1.0
1001
ACAD
1000
MTEXTBEGIN
1070
    73
1070
     1
1070
    44
1040
1.0
1070
    74
1070
     0
1000
MTEXTEND
  0
POINT
  5
4B0
330
496
100
AcDbEntity
  8
Defpoints
  6
Continuous
 62
     0
100
AcDbPoint
 10
16351.141304
 20
-15902.82389
 30
0.0
  0
POINT
  5
4B1
330
496
100
AcDbEntity
  8
Defpoints
  6
Continuous
 62
     0
100
AcDbPoint
 10
16357.860356
 20
-15895.417519
 30
0.0
  0
ENDBLK
  5
498
330
496
100
AcDbEntity
  8
0
100
AcDbBlockEnd
  0
BLOCK
  5
49F
330
49E
100
AcDbEntity
  8
0
100
AcDbBlockBegin
  2
*D28
 70
     1
 10
0.0
 20
0.0
 30
0.0
  3
*D28
  1

  0
LINE
  5
4B2
330
49E
100
AcDbEntity
  8
0
  6
Continuous
 62
     0
370
    -2
100
AcDbLine
 10
16338.522715
 20
-15858.317519
 30
0.0
 11
16340.16320277939
 21
-15856.67703122061
 31
0.0
  0
INSERT
  5
4B3
330
49E
100
AcDbEntity
  8
0
  6
Continuous
 62
     0
370
    -2
100
AcDbBlockReference
  2
_ORIGIN
 10
16340.290482
 20
-15856.549752
 30
0.0
 41
0.18
 42
0.18
 43
0.18
 50
45.0
  0
MTEXT
  5
4B4
330
49E
100
AcDbEntity
  8
0
  6
Continuous
 62
     0
100
AcDbMText
 10
16339.21567966907
 20
-15857.3699958897
 30
0.0
 40
0.18
 41
0.0
 71
     5
 72
     1
  1
\A1;R2.5000
  7
DRACAD
 11
0.7071067811865476
 21
0.7071067811865475
 31
0.0
 73
     1
 44
1.0
1001
ACAD
1000
MTEXTBEGIN
1070
    73
1070
     1
1070
    44
1040
1.0
1070
    74
1070
     0
1000
MTEXTEND
  0
POINT
  5
4B5
330
49E
100
AcDbEntity
  8
Defpoints
  6
Continuous
 62
     0
100
AcDbPoint
 10
16340.290482
 20
-15856.549752
 30
0.0
  0
POINT
  5
4B6
330
49E
100
AcDbEntity
  8
Defpoints
  6
Continuous
 62
     0
100
AcDbPoint
 10
16338.522715
 20
-15858.317519
 30
0.0
  0
ENDBLK
  5
4A0
330
49E
100
AcDbEntity
  8
0
100
AcDbBlockEnd
  0
BLOCK
  5
4B9
330
4B8
100
AcDbEntity
  8
0
100
AcDbBlockBegin
  2
*D29
 70
     1
 10
0.0
 20
0.0
 30
0.0
  3
*D29
  1

  0
LINE
  5
4D3
330
4B8
100
AcDbEntity
  8
0
  6
Continuous
 62
     0
370
    -2
100
AcDbLine
 10
16347.47180594897
 20
-15337.409792
 30
0.0
 11
16409.472715
 21
-15337.409792
 31
0.0
  0
LINE
  5
4D4
330
4B8
100
AcDbEntity
  8
0
  6
Continuous
 62
     0
370
    -2
100
AcDbLine
 10
16362.521488
 20
-15388.209792
 30
0.0
 11
16409.472715
 21
-15388.209792
 31
0.0
  0
LINE
  5
4D5
330
4B8
100
AcDbEntity
  8
0
  6
Continuous
 62
     0
370
    -2
100
AcDbLine
 10
16409.472715
 20
-15347.409792
 30
0.0
 11
16409.472715
 21
-15378.209792
 31
0.0
  0
INSERT
  5
4D6
330
4B8
100
AcDbEntity
  8
0
  6
Continuous
 62
     0
370
    -2
100
AcDbBlockReference
  2
_ORIGIN
 10
16409.472715
 20
-15337.409792
 30
0.0
 41
10.0
 42
10.0
 43
10.0
 50
90.0
  0
INSERT
  5
4D7
330
4B8
100
AcDbEntity
  8
0
  6
Continuous
 62
     0
370
    -2
100
AcDbBlockReference
  2
_ORIGIN
 10
16409.472715
 20
-15388.209792
 30
0.0
 41
10.0
 42
10.0
 43
10.0
 50
270.0
  0
MTEXT
  5
4D8
330
4B8
100
AcDbEntity
  8
0
  6
Continuous
 62
     0
100
AcDbMText
 10
16396.972715
 20
-15362.80979199999
 30
0.0
 40
25.0
 41
0.0
 71
     5
 72
     1
  1
\A1;51
  7
DRACAD
 11
0.0000000000000001
 21
1.0
 31
0.0
 73
     1
 44
1.0
1001
ACAD
1000
MTEXTBEGIN
1070
    73
1070
     1
1070
    44
1040
1.0
1070
    74
1070
     0
1000
MTEXTEND
  0
POINT
  5
4D9
330
4B8
100
AcDbEntity
  8
Defpoints
  6
Continuous
 62
     0
100
AcDbPoint
 10
16347.47180594897
 20
-15337.409792
 30
0.0
  0
POINT
  5
4DA
330
4B8
100
AcDbEntity
  8
Defpoints
  6
Continuous
 62
     0
100
AcDbPoint
 10
16362.521488
 20
-15388.209792
 30
0.0
  0
POINT
  5
4DB
330
4B8
100
AcDbEntity
  8
Defpoints
  6
Continuous
 62
     0
100
AcDbPoint
 10
16409.472715
 20
-15388.209792
 30
0.0
  0
ENDBLK
  5
4BA
330
4B8
100
AcDbEntity
  8
0
100
AcDbBlockEnd
  0
BLOCK
  5
4C7
330
4C6
100
AcDbEntity
  8
0
100
AcDbBlockBegin
  2
*D30
 70
     1
 10
0.0
 20
0.0
 30
0.0
  3
*D30
  1

  0
LINE
  5
4DC
330
4C6
100
AcDbEntity
  8
0
  6
Continuous
 62
     0
370
    -2
100
AcDbLine
 10
16362.583988
 20
-15388.209792
 30
0.0
 11
16409.472715
 21
-15388.209792
 31
0.0
  0
LINE
  5
4DD
330
4C6
100
AcDbEntity
  8
0
  6
Continuous
 62
     0
370
    -2
100
AcDbLine
 10
16368.169512
 20
-15419.409792
 30
0.0
 11
16409.472715
 21
-15419.409792
 31
0.0
  0
LINE
  5
4DE
330
4C6
100
AcDbEntity
  8
0
  6
Continuous
 62
     0
370
    -2
100
AcDbLine
 10
16409.472715
 20
-15378.209792
 30
0.0
 11
16409.472715
 21
-15368.209792
 31
0.0
  0
LINE
  5
4DF
330
4C6
100
AcDbEntity
  8
0
  6
Continuous
 62
     0
370
    -2
100
AcDbLine
 10
16409.472715
 20
-15429.409792
 30
0.0
 11
16409.472715
 21
-15439.409792
 31
0.0
  0
LINE
  5
4E0
330
4C6
100
AcDbEntity
  8
0
  6
Continuous
 62
     0
370
    -2
100
AcDbLine
 10
16409.472715
 20
-15388.209792
 30
0.0
 11
16409.472715
 21
-15419.409792
 31
0.0
  0
INSERT
  5
4E1
330
4C6
100
AcDbEntity
  8
0
  6
Continuous
 62
     0
370
    -2
100
AcDbBlockReference
  2
_ORIGIN
 10
16409.472715
 20
-15388.209792
 30
0.0
 41
10.0
 42
10.0
 43
10.0
 50
270.0
  0
INSERT
  5
4E2
330
4C6
100
AcDbEntity
  8
0
  6
Continuous
 62
     0
370
    -2
100
AcDbBlockReference
  2
_ORIGIN
 10
16409.472715
 20
-15419.409792
 30
0.0
 41
10.0
 42
10.0
 43
10.0
 50
90.0
  0
MTEXT
  5
4E3
330
4C6
100
AcDbEntity
  8
0
  6
Continuous
 62
     0
100
AcDbMText
 10
16396.972715
 20
-15403.80979199999
 30
0.0
 40
25.0
 41
0.0
 71
     5
 72
     1
  1
\A1;31
  7
DRACAD
 11
0.0000000000000001
 21
1.0
 31
0.0
 73
     1
 44
1.0
1001
ACAD
1000
MTEXTBEGIN
1070
    73
1070
     1
1070
    44
1040
1.0
1070
    74
1070
     0
1000
MTEXTEND
  0
POINT
  5
4E4
330
4C6
100
AcDbEntity
  8
Defpoints
  6
Continuous
 62
     0
100
AcDbPoint
 10
16362.583988
 20
-15388.209792
 30
0.0
  0
POINT
  5
4E5
330
4C6
100
AcDbEntity
  8
Defpoints
  6
Continuous
 62
     0
100
AcDbPoint
 10
16368.169512
 20
-15419.409792
 30
0.0
  0
POINT
  5
4E6
330
4C6
100
AcDbEntity
  8
Defpoints
  6
Continuous
 62
     0
100
AcDbPoint
 10
16409.472715
 20
-15419.409792
 30
0.0
  0
ENDBLK
  5
4C8
330
4C6
100
AcDbEntity
  8
0
100
AcDbBlockEnd
  0
ENDSEC
  0
SECTION
  2
ENTITIES
  0
LINE
  5
1ED
330
A
100
AcDbEntity
  8
0
  6
Continuous
 62
     7
100
AcDbLine
 10
15501.2683
 20
-15014.546526
 30
0.0
 11
15503.25034
 21
-15014.546526
 31
0.0
  0
LINE
  5
1EE
330
A
100
AcDbEntity
  8
0
  6
Continuous
 62
     7
100
AcDbLine
 10
15502.834023
 20
-16005.78683
 30
0.0
 11
15503.25034
 21
-15014.546526
 31
0.0
  0
LINE
  5
1EF
330
A
100
AcDbEntity
  8
0
  6
Continuous
 62
     7
100
AcDbLine
 10
15502.834023
 20
-16005.78683
 30
0.0
 11
15500.851983
 21
-16005.78683
 31
0.0
  0
LINE
  5
1F0
330
A
100
AcDbEntity
  8
0
  6
Continuous
 62
     7
100
AcDbLine
 10
15500.851983
 20
-16005.78683
 30
0.0
 11
15501.2683
 21
-15014.546526
 31
0.0
  0
LINE
  5
1F1
330
A
100
AcDbEntity
  8
0
  6
Continuous
 62
     7
100
AcDbLine
 10
14505.732409
 20
-15012.165562
 30
0.0
 11
14505.732409
 21
-15014.546526
 31
0.0
  0
LINE
  5
1F2
330
A
100
AcDbEntity
  8
0
  6
Continuous
 62
     7
100
AcDbLine
 10
15501.2683
 20
-15012.165562
 30
0.0
 11
14505.732409
 21
-15012.165562
 31
0.0
  0
LINE
  5
1F3
330
A
100
AcDbEntity
  8
0
  6
Continuous
 62
     7
100
AcDbLine
 10
15501.2683
 20
-15012.165562
 30
0.0
 11
15501.2683
 21
-15014.546526
 31
0.0
  0
LINE
  5
1F4
330
A
100
AcDbEntity
  8
0
  6
Continuous
 62
     7
100
AcDbLine
 10
15500.851983
 20
-16008.167824
 30
0.0
 11
15500.851983
 21
-16005.78683
 31
0.0
  0
LINE
  5
1F5
330
A
100
AcDbEntity
  8
0
  6
Continuous
 62
     7
100
AcDbLine
 10
14505.316093
 20
-16008.167824
 30
0.0
 11
15500.851983
 21
-16008.167824
 31
0.0
  0
LINE
  5
1F6
330
A
100
AcDbEntity
  8
0
  6
Continuous
 62
     7
100
AcDbLine
 10
14505.316093
 20
-16008.167824
 30
0.0
 11
14505.316093
 21
-16005.78683
 31
0.0
  0
LINE
  5
1F7
330
A
100
AcDbEntity
  8
0
  6
Continuous
 62
     7
100
AcDbLine
 10
14505.732409
 20
-15014.546526
 30
0.0
 11
14505.316093
 21
-16005.78683
 31
0.0
  0
LINE
  5
1F8
330
A
100
AcDbEntity
  8
0
  6
Continuous
 62
     7
100
AcDbLine
 10
14505.316093
 20
-16005.78683
 30
0.0
 11
14503.334023
 21
-16005.78683
 31
0.0
  0
LINE
  5
1F9
330
A
100
AcDbEntity
  8
0
  6
Continuous
 62
     7
100
AcDbLine
 10
14503.75034
 20
-15014.546526
 30
0.0
 11
14503.334023
 21
-16005.78683
 31
0.0
  0
LINE
  5
1FA
330
A
100
AcDbEntity
  8
0
  6
Continuous
 62
     7
100
AcDbLine
 10
14503.75034
 20
-15014.546526
 30
0.0
 11
14505.732409
 21
-15014.546526
 31
0.0
  0
LINE
  5
1FB
330
A
100
AcDbEntity
  8
0
  6
Continuous
 62
     7
100
AcDbLine
 10
15501.2683
 20
-15010.183522
 30
0.0
 11
14505.732409
 21
-15010.183522
 31
0.0
  0
LINE
  5
1FC
330
A
100
AcDbEntity
  8
0
  6
Continuous
 62
     7
100
AcDbLine
 10
14505.732409
 20
-15012.165562
 30
0.0
 11
14505.732409
 21
-15010.183522
 31
0.0
  0
LINE
  5
1FD
330
A
100
AcDbEntity
  8
0
  6
Continuous
 62
     7
100
AcDbLine
 10
15501.2683
 20
-15010.183522
 30
0.0
 11
15501.2683
 21
-15012.165562
 31
0.0
  0
LINE
  5
1FE
330
A
100
AcDbEntity
  8
0
  6
Continuous
 62
     7
100
AcDbLine
 10
15500.851983
 20
-16008.167824
 30
0.0
 11
15500.851983
 21
-16010.149864
 31
0.0
  0
LINE
  5
1FF
330
A
100
AcDbEntity
  8
0
  6
Continuous
 62
     7
100
AcDbLine
 10
14505.316093
 20
-16010.149864
 30
0.0
 11
15500.851983
 21
-16010.149864
 31
0.0
  0
LINE
  5
200
330
A
100
AcDbEntity
  8
0
  6
Continuous
 62
     7
100
AcDbLine
 10
14505.316093
 20
-16010.149864
 30
0.0
 11
14505.316093
 21
-16008.167824
 31
0.0
  0
LINE
  5
201
330
A
100
AcDbEntity
  8
0
  6
Continuous
 62
     7
100
AcDbLine
 10
15502.538835
 20
-15012.927871
 30
0.0
 11
15502.538835
 21
-15014.546526
 31
0.0
  0
LINE
  5
202
330
A
100
AcDbEntity
  8
0
  6
Continuous
 62
     7
100
AcDbLine
 10
15502.538835
 20
-15012.927871
 30
0.0
 11
15503.25034
 21
-15012.927871
 31
0.0
  0
LINE
  5
203
330
A
100
AcDbEntity
  8
0
  6
Continuous
 62
     7
100
AcDbLine
 10
15503.25034
 20
-15012.927871
 30
0.0
 11
15503.25034
 21
-15014.546526
 31
0.0
  0
ARC
  5
204
330
A
100
AcDbEntity
  8
0
  6
Continuous
 62
     7
100
AcDbCircle
 10
15501.268295
 20
-15012.927876
 30
0.0
 40
1.982043999999999
100
AcDbArc
 50
0.0
 51
89.99986899999997
  0
ARC
  5
205
330
A
100
AcDbEntity
  8
0
  6
Continuous
 62
     7
100
AcDbCircle
 10
15501.268335
 20
-15012.927836
 30
0.0
 40
1.270499999999998
100
AcDbArc
 50
0.0
 51
90.00161400000001
  0
LINE
  5
206
330
A
100
AcDbEntity
  8
0
  6
Continuous
 62
     7
100
AcDbLine
 10
14504.461844
 20
-15012.927871
 30
0.0
 11
14503.75034
 21
-15012.927871
 31
0.0
  0
ARC
  5
207
330
A
100
AcDbEntity
  8
0
  6
Continuous
 62
     7
100
AcDbCircle
 10
14505.732384
 20
-15012.927876
 30
0.0
 40
1.982043999999999
100
AcDbArc
 50
89.999269
 51
180.0
  0
ARC
  5
208
330
A
100
AcDbEntity
  8
0
  6
Continuous
 62
     7
100
AcDbCircle
 10
14505.732395
 20
-15012.927887
 30
0.0
 40
1.27055
100
AcDbArc
 50
89.99933699999997
 51
180.0
  0
LINE
  5
209
330
A
100
AcDbEntity
  8
0
  6
Continuous
 62
     7
100
AcDbLine
 10
14504.461844
 20
-15012.927871
 30
0.0
 11
14504.461844
 21
-15014.546526
 31
0.0
  0
LINE
  5
20A
330
A
100
AcDbEntity
  8
0
  6
Continuous
 62
     7
100
AcDbLine
 10
14503.75034
 20
-15012.927871
 30
0.0
 11
14503.75034
 21
-15014.546526
 31
0.0
  0
LINE
  5
20B
330
A
100
AcDbEntity
  8
0
  6
Continuous
 62
     7
100
AcDbLine
 10
15502.122518
 20
-16007.405515
 30
0.0
 11
15502.834023
 21
-16007.405515
 31
0.0
  0
ARC
  5
20C
330
A
100
AcDbEntity
  8
0
  6
Continuous
 62
     7
100
AcDbCircle
 10
15500.851968
 20
-16007.4055
 30
0.0
 40
1.27055
100
AcDbArc
 50
270.000681
 51
360.0
  0
ARC
  5
20D
330
A
100
AcDbEntity
  8
0
  6
Continuous
 62
     7
100
AcDbCircle
 10
15500.851979
 20
-16007.40551
 30
0.0
 40
1.982043999999999
100
AcDbArc
 50
270.000131
 51
360.0
  0
LINE
  5
20E
330
A
100
AcDbEntity
  8
0
  6
Continuous
 62
     7
100
AcDbLine
 10
15502.834023
 20
-16007.405515
 30
0.0
 11
15502.834023
 21
-16005.78683
 31
0.0
  0
LINE
  5
20F
330
A
100
AcDbEntity
  8
0
  6
Continuous
 62
     7
100
AcDbLine
 10
15502.122518
 20
-16007.405515
 30
0.0
 11
15502.122518
 21
-16005.78683
 31
0.0
  0
LINE
  5
210
330
A
100
AcDbEntity
  8
0
  6
Continuous
 62
     7
100
AcDbLine
 10
14504.045528
 20
-16007.405515
 30
0.0
 11
14503.334023
 21
-16007.405515
 31
0.0
  0
LINE
  5
211
330
A
100
AcDbEntity
  8
0
  6
Continuous
 62
     7
100
AcDbLine
 10
14504.045528
 20
-16007.405515
 30
0.0
 11
14504.045528
 21
-16005.78683
 31
0.0
  0
LINE
  5
212
330
A
100
AcDbEntity
  8
0
  6
Continuous
 62
     7
100
AcDbLine
 10
14503.334023
 20
-16007.405515
 30
0.0
 11
14503.334023
 21
-16005.78683
 31
0.0
  0
ARC
  5
213
330
A
100
AcDbEntity
  8
0
  6
Continuous
 62
     7
100
AcDbCircle
 10
14505.316129
 20
-16007.405449
 30
0.0
 40
1.270601
100
AcDbArc
 50
180.0
 51
269.998368
  0
ARC
  5
214
330
A
100
AcDbEntity
  8
0
  6
Continuous
 62
     7
100
AcDbCircle
 10
14505.316068
 20
-16007.40551
 30
0.0
 40
1.982043999999999
100
AcDbArc
 50
180.0
 51
270.000731
  0
TEXT
  5
215
330
A
100
AcDbEntity
  8
002
  6
Continuous
 62
     7
100
AcDbText
 10
16605.626196
 20
-16853.35095
 30
0.0
 40
17.219965
  1
1/10
 41
1.660899666035665
  7
DRACAD
 72
     5
 11
16686.661326
 21
-16853.35095
 31
0.0
100
AcDbText
  0
LWPOLYLINE
  5
216
330
A
100
AcDbEntity
  8
002
  6
Continuous
 62
     6
100
AcDbPolyline
 90
        4
 70
   129
 43
0.0
 10
14002.202784
 20
-14850.056591
 10
16895.452784
 20
-14850.056591
 10
16895.452784
 20
-16859.356591
 10
14002.202784
 20
-16859.356591
  0
LINE
  5
21C
330
A
100
AcDbEntity
  8
002
  6
Continuous
 62
     6
100
AcDbLine
 10
14051.902784
 20
-16765.95833899999
 30
0.0
 11
16895.452784
 21
-16765.95833899999
 31
0.0
  0
LINE
  5
21D
330
A
100
AcDbEntity
  8
002
  6
Continuous
 62
     6
100
AcDbLine
 10
14002.202784
 20
-16765.95833899999
 30
0.0
 11
16895.452784
 21
-16765.95833899999
 31
0.0
  0
LINE
  5
21E
330
A
100
AcDbEntity
  8
002
  6
Continuous
 62
     6
100
AcDbLine
 10
16895.452784
 20
-16765.95833899999
 30
0.0
 11
16895.452784
 21
-16857.988539
 31
0.0
  0
LINE
  5
21F
330
A
100
AcDbEntity
  8
002
  6
Continuous
 62
     6
100
AcDbLine
 10
14716.462784
 20
-16765.95833899999
 30
0.0
 11
14716.462784
 21
-16857.988539
 31
0.0
  0
TEXT
  5
220
330
A
100
AcDbEntity
  8
002
  6
Continuous
 62
     7
100
AcDbText
 10
16757.357784
 20
-16787.145922
 30
0.0
 40
10.762478
  1
No.
 41
1.764705953405973
  7
DRACAD
 72
     5
 11
16795.343002
 21
-16787.145922
 31
0.0
100
AcDbText
  0
LINE
  5
221
330
A
100
AcDbEntity
  8
002
  6
Continuous
 62
     7
100
AcDbLine
 10
16575.952784
 20
-16765.95833899999
 30
0.0
 11
16575.952784
 21
-16857.988539
 31
0.0
  0
TEXT
  5
222
330
A
100
AcDbEntity
  8
002
  6
Continuous
 62
     7
100
AcDbText
 10
16578.211176
 20
-16823.944631
 30
0.0
 40
10.762478
  1
SCALE
 41
1.260504239159156
  7
DRACAD
 72
     5
 11
16641.519872
 21
-16823.944631
 31
0.0
100
AcDbText
  0
LINE
  5
223
330
A
100
AcDbEntity
  8
002
  6
Continuous
 62
     6
100
AcDbLine
 10
16753.452784
 20
-16765.95833899999
 30
0.0
 11
16753.452784
 21
-16857.988539
 31
0.0
  0
LINE
  5
224
330
A
100
AcDbEntity
  8
002
  6
Continuous
 62
     6
100
AcDbLine
 10
16220.952784
 20
-16765.95833899999
 30
0.0
 11
16220.952784
 21
-16857.988539
 31
0.0
  0
TEXT
  5
225
330
A
100
AcDbEntity
  8
002
  6
Continuous
 62
     7
100
AcDbText
 10
16578.417671
 20
-16785.354569
 30
0.0
 40
10.762478
  1
Date
 41
1.283422477780518
  7
DRACAD
 72
     5
 11
16629.064627
 21
-16785.354569
 31
0.0
100
AcDbText
  0
LINE
  5
226
330
A
100
AcDbEntity
  8
002
  6
Continuous
 62
     7
100
AcDbLine
 10
16575.952784
 20
-16804.873439
 30
0.0
 11
16753.452784
 21
-16804.873439
 31
0.0
  0
TEXT
  5
227
330
A
100
AcDbEntity
  8
002
  6
Continuous
 62
     7
100
AcDbText
 10
16225.014578
 20
-16790.219631
 30
0.0
 40
10.762478
  1
Drawing Title
 41
1.465889917472577
  7
DRACAD
 72
     5
 11
16389.617188
 21
-16790.219631
 31
0.0
100
AcDbText
  0
LINE
  5
228
330
A
100
AcDbEntity
  8
002
  6
Continuous
 62
     4
100
AcDbLine
 10
14717.444831
 20
-16811.973439
 30
0.0
 11
15716.852784
 21
-16811.973439
 31
0.0
  0
LINE
  5
229
330
A
100
AcDbEntity
  8
002
  6
Continuous
 62
     4
100
AcDbLine
 10
14716.561891
 20
-16788.965889
 30
0.0
 11
15716.852784
 21
-16788.965889
 31
0.0
  0
LINE
  5
22A
330
A
100
AcDbEntity
  8
002
  6
Continuous
 62
     4
100
AcDbLine
 10
14716.561891
 20
-16834.980989
 30
0.0
 11
15716.852784
 21
-16834.980989
 31
0.0
  0
TEXT
  5
22B
330
A
100
AcDbEntity
  8
002
  6
Continuous
 62
     7
100
AcDbText
 10
14722.489222
 20
-16785.717728
 30
0.0
 40
10.054993
  1
Memo
 41
1.283422402454927
  7
DRACAD
 72
     5
 11
14769.806834
 21
-16785.717728
 31
0.0
100
AcDbText
  0
LINE
  5
22C
330
A
100
AcDbEntity
  8
002
  6
Continuous
 62
     6
100
AcDbLine
 10
15716.852784
 20
-16765.95833899999
 30
0.0
 11
15716.852784
 21
-16857.988539
 31
0.0
  0
TEXT
  5
22D
330
A
100
AcDbEntity
  8
002
  6
Continuous
 62
     7
100
AcDbText
 10
15722.879222
 20
-16785.354569
 30
0.0
 40
10.270983
  1
Project
 41
1.266968282617909
  7
DRACAD
 72
     5
 11
15807.463785
 21
-16785.354569
 31
0.0
100
AcDbText
  0
TEXT
  5
22E
330
A
100
AcDbEntity
  8
002
  6
Continuous
 62
     7
100
AcDbText
 10
15764.007867
 20
-16829.188429
 30
0.0
 40
19.410192
  1
SLT　CAD部品図面
 41
1.102941202815708
  7
DRACAD
 72
     5
 11
16015.198593
 21
-16829.188429
 31
0.0
100
AcDbText
  0
TEXT
  5
22F
330
A
100
AcDbEntity
  8
002
  6
Continuous
 62
     7
100
AcDbText
 10
16615.018561
 20
-16802.467841
 30
0.0
 40
15.497969
  1
11/2/10
 41
1.497326180435134
  7
DRACAD
 72
     5
 11
16742.648892
 21
-16802.467841
 31
0.0
100
AcDbText
  0
TEXT
  5
230
330
A
100
AcDbEntity
  8
002
  6
Continuous
 62
     7
100
AcDbText
 10
16278.02055
 20
-16836.161477
 30
0.0
 40
19.811038
  1
ＲＢ-290-2ＳＡ
 41
1.149645494916483
  7
DRACAD
 72
     5
 11
16511.091579
 21
-16836.161477
 31
0.0
100
AcDbText
  0
TEXT
  5
231
330
A
100
AcDbEntity
  8
002
  6
Continuous
 62
     4
100
AcDbText
 10
14170.739027
 20
-16833.193928
 30
0.0
 40
18.941962
  1
ス カ イ ラ イ ト チ ュ ー ブ
 41
1.304646358754843
  7
DRACAD
 72
     5
 11
14594.147585
 21
-16833.193928
 31
0.0
100
AcDbText
  0
INSERT
  5
232
330
A
100
AcDbEntity
  8
003
  6
Continuous
 62
     4
100
AcDbBlockReference
  2
3
 10
14002.202784
 20
-16859.356591
 30
0.0
 41
0.71
 42
0.71
  0
LINE
  5
233
330
A
100
AcDbEntity
  8
0
  6
STYLE_07
 62
     1
100
AcDbLine
 10
15003.334031
 20
-14986.520938
 30
0.0
 11
15003.334031
 21
-16513.388686
 31
0.0
  0
LINE
  5
234
330
A
100
AcDbEntity
  8
0
  6
STYLE_07
 62
     1
100
AcDbLine
 10
14362.618583
 20
-15410.416677
 30
0.0
 11
15527.229769
 21
-15410.416677
 31
0.0
  0
DIMENSION
  5
23E
330
A
100
AcDbEntity
  8
0
  6
Continuous
 62
     5
100
AcDbDimension
  2
*D9
 10
14284.840551
 20
-15010.416677
 30
0.0
 11
14272.340551
 21
-15210.416677
 31
0.0
 70
   160
 71
     5
 42
-1.0
  3
DIMSTYLE001
100
AcDbAlignedDimension
 13
14403.87889
 23
-15410.416677
 33
0.0
 14
14404.295207
 24
-15010.416677
 34
0.0
 50
90.0
100
AcDbRotatedDimension
1001
ACAD
1000
DSTYLE
1002
{
1070
    43
1040
1000.0
1070
    73
1070
     0
1070
    74
1070
     0
1070
    77
1070
     1
1070
   277
1070
     2
1070
   172
1070
     1
1070
   174
1070
     1
1070
   179
1070
     0
1070
   279
1070
     2
1070
   287
1070
     5
1070
   289
1070
     3
1070
     5
1000
_ORIGIN
1002
}
  0
DIMENSION
  5
248
330
A
100
AcDbEntity
  8
0
  6
Continuous
 62
     5
100
AcDbDimension
  2
*D10
 10
15503.334031
 20
-14895.083918
 30
0.0
 11
15003.334038
 21
-14882.583918
 31
0.0
 70
   160
 71
     5
 42
-1.0
  3
DIMSTYLE001
100
AcDbAlignedDimension
 13
14503.334031
 23
-15014.538559
 33
0.0
 14
15503.334031
 24
-15014.538559
 34
0.0
100
AcDbRotatedDimension
1001
ACAD
1000
DSTYLE
1002
{
1070
    43
1040
1000.0
1070
    73
1070
     0
1070
    74
1070
     0
1070
    77
1070
     1
1070
   277
1070
     2
1070
   172
1070
     1
1070
   174
1070
     1
1070
   179
1070
     0
1070
   279
1070
     2
1070
   287
1070
     5
1070
   289
1070
     3
1070
     5
1000
_ORIGIN
1002
}
  0
DIMENSION
  5
252
330
A
100
AcDbEntity
  8
0
  6
Continuous
 62
     5
100
AcDbDimension
  2
*D11
 10
15203.334031
 20
-16213.591165
 30
0.0
 11
15003.334031
 21
-16201.091165
 31
0.0
 70
    32
 71
     5
 42
400.0
  3
DIMSTYLE001
100
AcDbAlignedDimension
 13
14803.334031
 23
-16277.932892
 33
0.0
 14
15203.334031
 24
-16277.932892
 34
0.0
100
AcDbRotatedDimension
1001
ACAD
1000
DSTYLE
1002
{
1070
    43
1040
1000.0
1070
    73
1070
     0
1070
    74
1070
     0
1070
    77
1070
     1
1070
   277
1070
     2
1070
   172
1070
     1
1070
   174
1070
     1
1070
   179
1070
     0
1070
   287
1070
     3
1070
   289
1070
     3
1070
     5
1000
_ORIGIN
1002
}
  0
LINE
  5
253
330
A
100
AcDbEntity
  8
0
  6
Continuous
 62
     7
100
AcDbLine
 10
14801.111884
 20
-16461.211638
 30
0.0
 11
14801.111975
 21
-16346.331986
 31
0.0
  0
LINE
  5
254
330
A
100
AcDbEntity
  8
0
  6
Continuous
 62
     7
100
AcDbLine
 10
14800.40077
 20
-16354.19851399999
 30
0.0
 11
14800.400764
 21
-16346.331989
 31
0.0
  0
LINE
  5
255
330
A
100
AcDbEntity
  8
0
  6
Continuous
 62
     7
100
AcDbLine
 10
14503.334031
 20
-16471.364892
 30
0.0
 11
14787.944714
 21
-16471.364892
 31
0.0
  0
ARC
  5
256
330
A
100
AcDbEntity
  8
0
  6
Continuous
 62
     7
100
AcDbCircle
 10
14787.944714
 20
-16458.664892
 30
0.0
 40
12.7
100
AcDbArc
 50
270.0
 51
349.053231
  0
ARC
  5
257
330
A
100
AcDbEntity
  8
0
  6
Continuous
 62
     7
100
AcDbCircle
 10
14798.876764
 20
-16363.012092
 30
0.0
 40
1.524
100
AcDbArc
 50
349.053231
 51
360.0
  0
ARC
  5
258
330
A
100
AcDbEntity
  8
0
  6
Continuous
 62
     7
100
AcDbCircle
 10
14798.876764
 20
-16363.012092
 30
0.0
 40
2.235199999999998
100
AcDbArc
 50
349.053231
 51
360.0
  0
ARC
  5
259
330
A
100
AcDbEntity
  8
0
  6
Continuous
 62
     7
100
AcDbCircle
 10
14787.944714
 20
-16458.664892
 30
0.0
 40
13.4112
100
AcDbArc
 50
270.0
 51
349.053231
  0
LINE
  5
25A
330
A
100
AcDbEntity
  8
0
  6
Continuous
 62
     7
100
AcDbLine
 10
14503.334031
 20
-16472.076092
 30
0.0
 11
14787.944714
 21
-16472.076092
 31
0.0
  0
LINE
  5
25B
330
A
100
AcDbEntity
  8
0
  6
Continuous
 62
     7
100
AcDbLine
 10
14804.210764
 20
-16341.676092
 30
0.0
 11
14804.210764
 21
-16342.404258
 31
0.0
  0
ARC
  5
25C
330
A
100
AcDbEntity
  8
0
  6
Continuous
 62
     7
100
AcDbCircle
 10
14805.15056399999
 20
-16346.331989
 30
0.0
 40
4.038599999999998
100
AcDbArc
 50
103.456344
 51
180.0
  0
ARC
  5
25D
330
A
100
AcDbEntity
  8
0
  6
Continuous
 62
     7
100
AcDbCircle
 10
14805.15056399999
 20
-16346.331989
 30
0.0
 40
4.749799999999998
100
AcDbArc
 50
101.411902
 51
180.0
  0
LINE
  5
25E
330
A
100
AcDbEntity
  8
0
  6
Continuous
 62
     7
100
AcDbLine
 10
14503.334031
 20
-16471.364892
 30
0.0
 11
14503.334031
 21
-16472.076092
 31
0.0
  0
LINE
  5
25F
330
A
100
AcDbEntity
  8
0
  6
Continuous
 62
     7
100
AcDbLine
 10
15205.556178
 20
-16461.211638
 30
0.0
 11
15205.556087
 21
-16346.322527
 31
0.0
  0
LINE
  5
260
330
A
100
AcDbEntity
  8
0
  6
Continuous
 62
     7
100
AcDbLine
 10
15206.267292
 20
-16354.19851399999
 30
0.0
 11
15206.267298
 21
-16346.331989
 31
0.0
  0
LINE
  5
261
330
A
100
AcDbEntity
  8
0
  6
Continuous
 62
     7
100
AcDbLine
 10
15503.334031
 20
-16471.364892
 30
0.0
 11
15218.723348
 21
-16471.364892
 31
0.0
  0
ARC
  5
262
330
A
100
AcDbEntity
  8
0
  6
Continuous
 62
     7
100
AcDbCircle
 10
15218.723348
 20
-16458.664892
 30
0.0
 40
12.7
100
AcDbArc
 50
190.9467689999999
 51
270.0
  0
ARC
  5
263
330
A
100
AcDbEntity
  8
0
  6
Continuous
 62
     7
100
AcDbCircle
 10
15207.791298
 20
-16363.012092
 30
0.0
 40
1.524
100
AcDbArc
 50
180.0
 51
190.9467689999999
  0
ARC
  5
264
330
A
100
AcDbEntity
  8
0
  6
Continuous
 62
     7
100
AcDbCircle
 10
15207.791298
 20
-16363.012092
 30
0.0
 40
2.235199999999998
100
AcDbArc
 50
180.0
 51
190.9467689999999
  0
ARC
  5
265
330
A
100
AcDbEntity
  8
0
  6
Continuous
 62
     7
100
AcDbCircle
 10
15218.723348
 20
-16458.664892
 30
0.0
 40
13.4112
100
AcDbArc
 50
190.9467689999999
 51
270.0
  0
LINE
  5
266
330
A
100
AcDbEntity
  8
0
  6
Continuous
 62
     7
100
AcDbLine
 10
15503.334031
 20
-16472.076092
 30
0.0
 11
15218.723348
 21
-16472.076092
 31
0.0
  0
LINE
  5
267
330
A
100
AcDbEntity
  8
0
  6
Continuous
 62
     7
100
AcDbLine
 10
15202.457298
 20
-16341.676092
 30
0.0
 11
15202.457298
 21
-16342.404258
 31
0.0
  0
ARC
  5
268
330
A
100
AcDbEntity
  8
0
  6
Continuous
 62
     7
100
AcDbCircle
 10
15201.517498
 20
-16346.331989
 30
0.0
 40
4.038599999999998
100
AcDbArc
 50
0.0
 51
76.543656
  0
ARC
  5
269
330
A
100
AcDbEntity
  8
0
  6
Continuous
 62
     7
100
AcDbCircle
 10
15201.517498
 20
-16346.331989
 30
0.0
 40
4.749799999999998
100
AcDbArc
 50
0.0
 51
78.588098
  0
LINE
  5
26A
330
A
100
AcDbEntity
  8
0
  6
Continuous
 62
     7
100
AcDbLine
 10
15503.334031
 20
-16471.364892
 30
0.0
 11
15503.334031
 21
-16472.076092
 31
0.0
  0
LINE
  5
26B
330
A
100
AcDbEntity
  8
0
  6
Continuous
 62
     5
100
AcDbLine
 10
14804.210764
 20
-16341.676092
 30
0.0
 11
15202.457298
 21
-16341.676092
 31
0.0
  0
DIMENSION
  5
275
330
A
100
AcDbEntity
  8
0
  6
Continuous
 62
     5
100
AcDbDimension
  2
*D12
 10
15503.996531
 20
-16660.487563
 30
0.0
 11
15003.334031
 21
-16647.987563
 31
0.0
 70
   160
 71
     5
 42
-1.0
  3
DIMSTYLE001
100
AcDbAlignedDimension
 13
14503.834031
 23
-16584.960753
 33
0.0
 14
15503.996531
 24
-16584.960753
 34
0.0
100
AcDbRotatedDimension
1001
ACAD
1000
DSTYLE
1002
{
1070
    43
1040
1000.0
1070
    73
1070
     0
1070
    74
1070
     0
1070
    77
1070
     1
1070
   277
1070
     2
1070
   172
1070
     1
1070
   174
1070
     1
1070
   179
1070
     0
1070
   279
1070
     2
1070
   287
1070
     5
1070
   289
1070
     3
1070
     5
1000
_ORIGIN
1002
}
  0
LINE
  5
276
330
A
100
AcDbEntity
  8
0
  6
Continuous
 62
     5
100
AcDbLine
 10
14804.210764
 20
-16342.404258
 30
0.0
 11
15202.457298
 21
-16342.404258
 31
0.0
  0
LINE
  5
277
330
A
100
AcDbEntity
  8
0
  6
Continuous
 62
     5
100
AcDbLine
 10
14787.944714
 20
-16472.076092
 30
0.0
 11
15218.723348
 21
-16472.076092
 31
0.0
  0
DIMENSION
  5
281
330
A
100
AcDbEntity
  8
0
  6
Continuous
 62
     5
100
AcDbDimension
  2
*D13
 10
14428.010974
 20
-16342.376092
 30
0.0
 11
14415.510974
 21
-16407.226092
 31
0.0
 70
    32
 71
     5
 42
129.7000000000007
  3
DIMSTYLE001
100
AcDbAlignedDimension
 13
14473.279664
 23
-16472.076092
 33
0.0
 14
14473.279664
 24
-16342.376092
 34
0.0
 50
90.0
100
AcDbRotatedDimension
1001
ACAD
1000
DSTYLE
1002
{
1070
    43
1040
1000.0
1070
    73
1070
     0
1070
    74
1070
     0
1070
    77
1070
     1
1070
   277
1070
     2
1070
   172
1070
     1
1070
   174
1070
     1
1070
   179
1070
     0
1070
   287
1070
     3
1070
   289
1070
     3
1070
     5
1000
_ORIGIN
1002
}
  0
CIRCLE
  5
282
330
A
100
AcDbEntity
  8
0
  6
Continuous
 62
     7
100
AcDbCircle
 10
15003.334031
 20
-15410.416677
 30
0.0
 40
199.123267
  0
CIRCLE
  5
283
330
A
100
AcDbEntity
  8
0
  6
Continuous
 62
     7
100
AcDbCircle
 10
15003.334031
 20
-15410.416677
 30
0.0
 40
202.933267
  0
DIMENSION
  5
28D
330
A
100
AcDbEntity
  8
0
  6
Continuous
 62
     5
100
AcDbDimension
  2
*D14
 10
14154.981934
 20
-15010.416677
 30
0.0
 11
14142.481934
 21
-15535.342481
 31
0.0
 70
   160
 71
     5
 42
-1.0
  3
DIMSTYLE001
100
AcDbAlignedDimension
 13
14274.020273
 23
-16010.416677
 33
0.0
 14
14274.43659
 24
-15010.416677
 34
0.0
 50
90.0
100
AcDbRotatedDimension
1001
ACAD
1000
DSTYLE
1002
{
1070
    43
1040
1000.0
1070
    73
1070
     0
1070
    74
1070
     0
1070
    77
1070
     1
1070
   277
1070
     2
1070
   172
1070
     1
1070
   174
1070
     1
1070
   179
1070
     0
1070
   279
1070
     2
1070
   287
1070
     5
1070
   289
1070
     3
1070
     5
1000
_ORIGIN
1002
}
  0
DIMENSION
  5
297
330
A
100
AcDbEntity
  8
0
  6
Continuous
 62
     5
100
AcDbDimension
  2
*D15
 10
14284.840551
 20
-15410.416677
 30
0.0
 11
14272.340551
 21
-15713.27762805273
 31
0.0
 70
   160
 71
     5
 42
600.0
  3
DIMSTYLE001
100
AcDbAlignedDimension
 13
14403.87889
 23
-16010.416677
 33
0.0
 14
14404.295207
 24
-15410.416677
 34
0.0
 50
90.0
100
AcDbRotatedDimension
1001
ACAD
1000
DSTYLE
1002
{
1070
    43
1040
1000.0
1070
    73
1070
     0
1070
    74
1070
     0
1070
    77
1070
     1
1070
   277
1070
     2
1070
   172
1070
     1
1070
   174
1070
     1
1070
   179
1070
     0
1070
   279
1070
     2
1070
   287
1070
     5
1070
   289
1070
     3
1070
     5
1000
_ORIGIN
1002
}
  0
DIMENSION
  5
2B9
330
A
100
AcDbEntity
  8
0
  6
Continuous
 62
     5
100
AcDbDimension
  2
*D19
 10
16339.222715
 20
-15269.775281
 30
0.0
 11
16159.472715
 21
-15257.275281
 31
0.0
 70
    32
 71
     5
 42
-1.0
  3
DIMSTYLE001
100
AcDbAlignedDimension
 13
15979.722715
 23
-15311.563727
 33
0.0
 14
16339.222715
 24
-15311.563727
 34
0.0
100
AcDbRotatedDimension
1001
ACAD
1000
DSTYLE
1002
{
1070
    43
1040
1000.0
1070
    73
1070
     0
1070
    74
1070
     0
1070
    77
1070
     1
1070
   277
1070
     2
1070
   172
1070
     1
1070
   174
1070
     1
1070
   179
1070
     0
1070
   287
1070
     3
1070
   289
1070
     3
1070
     5
1000
_ORIGIN
1002
}
  0
DIMENSION
  5
2CD
330
A
100
AcDbEntity
  8
0
  6
Continuous
 62
     5
100
AcDbDimension
  2
*D21
 10
16369.363843
 20
-15517.082692
 30
0.0
 11
16159.472715
 21
-15504.582692
 31
0.0
 70
    32
 71
     5
 42
-1.0
  3
DIMSTYLE001
100
AcDbAlignedDimension
 13
15949.581586
 23
-15419.293288
 33
0.0
 14
16369.363843
 24
-15424.926097
 34
0.0
100
AcDbRotatedDimension
1001
ACAD
1000
DSTYLE
1002
{
1070
    43
1040
1000.0
1070
    73
1070
     0
1070
    74
1070
     0
1070
    77
1070
     1
1070
   277
1070
     2
1070
   172
1070
     1
1070
   174
1070
     1
1070
   179
1070
     0
1070
   287
1070
     3
1070
   289
1070
     3
1070
     5
1000
_ORIGIN
1002
}
  0
DIMENSION
  5
2D7
330
A
100
AcDbEntity
  8
0
  6
Continuous
 62
     7
100
AcDbDimension
  2
*D22
 10
16179.472715
 20
-15449.526296
 30
0.0
 11
16169.979292
 21
-15428.110794
 31
0.0
 70
    32
 71
     5
 42
-1.0
  3
DIMSTYLE002
100
AcDbAlignedDimension
 13
16160.48587
 23
-15406.695293
 33
0.0
 14
16179.472715
 24
-15449.526296
 34
0.0
 50
293.907555
100
AcDbRotatedDimension
1001
ACAD
1000
DSTYLE
1002
{
1070
    42
1040
0.0625
1070
    43
1040
1000.0
1070
    44
1040
0.18
1070
    73
1070
     0
1070
    74
1070
     0
1070
    77
1070
     1
1070
   277
1070
     2
1070
   172
1070
     1
1070
   174
1070
     1
1070
   179
1070
     4
1070
   287
1070
     3
1070
   289
1070
     3
1070
     5
1000
_ORIGIN
1002
}
  0
LINE
  5
2E2
330
A
100
AcDbEntity
  8
0
  6
CENTER
 62
     2
100
AcDbLine
 10
15955.239131
 20
-15404.409792
 30
0.0
 11
15948.033435
 21
-15404.409792
 31
0.0
  0
LINE
  5
2E3
330
A
100
AcDbEntity
  8
0
  6
HIDDEN
 62
     7
100
AcDbLine
 10
15952.483
 20
-15401.909792
 30
0.0
 11
15951.277304
 21
-15401.909792
 31
0.0
  0
LINE
  5
2E4
330
A
100
AcDbEntity
  8
0
  6
HIDDEN
 62
     7
100
AcDbLine
 10
15951.995262
 20
-15406.909792
 30
0.0
 11
15950.789566
 21
-15406.909792
 31
0.0
  0
LINE
  5
2E5
330
A
100
AcDbEntity
  8
0
  6
HIDDEN
 62
     7
100
AcDbLine
 10
16366.950167
 20
-15406.909792
 30
0.0
 11
16368.155863
 21
-15406.909792
 31
0.0
  0
LINE
  5
2E6
330
A
100
AcDbEntity
  8
0
  6
HIDDEN
 62
     7
100
AcDbLine
 10
16366.46243
 20
-15401.909792
 30
0.0
 11
16367.668125
 21
-15401.909792
 31
0.0
  0
LINE
  5
2E7
330
A
100
AcDbEntity
  8
0
  6
CENTER
 62
     2
100
AcDbLine
 10
16363.706299
 20
-15404.409792
 30
0.0
 11
16370.911994
 21
-15404.409792
 31
0.0
  0
LINE
  5
2E8
330
A
100
AcDbEntity
  8
0
  6
Continuous
 62
     7
100
AcDbLine
 10
16347.907596
 20
-15379.180659
 30
0.0
 11
16347.594525
 21
-15375.971237
 31
0.0
  0
LINE
  5
2E9
330
A
100
AcDbEntity
  8
0
  6
Continuous
 62
     7
100
AcDbLine
 10
15971.037833
 20
-15379.180659
 30
0.0
 11
15971.350904
 21
-15375.971237
 31
0.0
  0
ARC
  5
2EA
330
A
100
AcDbEntity
  8
0
  6
HIDDEN
 62
     7
100
AcDbCircle
 10
15975.531063
 20
-15376.379001
 30
0.0
 40
3.0
100
AcDbArc
 50
104.546138
 51
174.428564
  0
ARC
  5
2EB
330
A
100
AcDbEntity
  8
0
  6
Continuous
 62
     7
100
AcDbCircle
 10
15973.722715
 20
-15369.409792
 30
0.0
 40
3.0
100
AcDbArc
 50
284.546138
 51
360.0
  0
LINE
  5
2EC
330
A
100
AcDbEntity
  8
0
  6
HIDDEN
 62
     7
100
AcDbLine
 10
15977.922715
 20
-15341.109792
 30
0.0
 11
15977.922715
 21
-15369.409792
 31
0.0
  0
ARC
  5
2ED
330
A
100
AcDbEntity
  8
0
  6
HIDDEN
 62
     7
100
AcDbCircle
 10
15956.423941
 20
-15392.409792
 30
0.0
 40
3.0
100
AcDbArc
 50
90.0
 51
174.428564
  0
ARC
  5
2EE
330
A
100
AcDbEntity
  8
0
  6
HIDDEN
 62
     7
100
AcDbCircle
 10
15973.722715
 20
-15369.409792
 30
0.0
 40
4.2
100
AcDbArc
 50
284.546138
 51
360.0
  0
ARC
  5
2EF
330
A
100
AcDbEntity
  8
0
  6
HIDDEN
 62
     7
100
AcDbCircle
 10
16345.222715
 20
-15369.409792
 30
0.0
 40
4.2
100
AcDbArc
 50
180.0
 51
255.453862
  0
ARC
  5
2F0
330
A
100
AcDbEntity
  8
0
  6
Continuous
 62
     7
100
AcDbCircle
 10
16343.414366
 20
-15376.379001
 30
0.0
 40
4.2
100
AcDbArc
 50
5.571436
 51
75.453862
  0
LINE
  5
2F1
330
A
100
AcDbEntity
  8
0
  6
HIDDEN
 62
     7
100
AcDbLine
 10
16346.713265
 20
-15379.297163
 30
0.0
 11
16346.400194
 21
-15376.087741
 31
0.0
  0
LINE
  5
2F2
330
A
100
AcDbEntity
  8
0
  6
HIDDEN
 62
     7
100
AcDbLine
 10
16341.022715
 20
-15341.109792
 30
0.0
 11
16341.022715
 21
-15369.409792
 31
0.0
  0
ARC
  5
2F3
330
A
100
AcDbEntity
  8
0
  6
Continuous
 62
     7
100
AcDbCircle
 10
16338.522715
 20
-15341.109792
 30
0.0
 40
3.7
100
AcDbArc
 50
0.0
 51
90.0
  0
ARC
  5
2F4
330
A
100
AcDbEntity
  8
0
  6
HIDDEN
 62
     7
100
AcDbCircle
 10
16338.522715
 20
-15341.109792
 30
0.0
 40
2.5
100
AcDbArc
 50
0.0
 51
90.0
  0
ARC
  5
2F5
330
A
100
AcDbEntity
  8
0
  6
Continuous
 62
     7
100
AcDbCircle
 10
15980.422715
 20
-15341.109792
 30
0.0
 40
3.7
100
AcDbArc
 50
90.0
 51
180.0
  0
LINE
  5
2F6
330
A
100
AcDbEntity
  8
0
  6
CENTER
 62
     2
100
AcDbLine
 10
16163.972715
 20
-15404.409792
 30
0.0
 11
16154.972715
 21
-15404.409792
 31
0.0
  0
CIRCLE
  5
2F7
330
A
100
AcDbEntity
  8
0
  6
Continuous
 62
     7
100
AcDbCircle
 10
16159.472715
 20
-15404.409792
 30
0.0
 40
2.5
  0
LINE
  5
2F8
330
A
100
AcDbEntity
  8
0
  6
Continuous
 62
     7
100
AcDbLine
 10
16369.363843
 20
-15419.293288
 30
0.0
 11
16366.701647
 21
-15392.002027
 31
0.0
  0
LINE
  5
2F9
330
A
100
AcDbEntity
  8
0
  6
Continuous
 62
     7
100
AcDbLine
 10
15950.775917
 20
-15419.409792
 30
0.0
 11
16159.472715
 21
-15419.409792
 31
0.0
  0
ARC
  5
2FA
330
A
100
AcDbEntity
  8
0
  6
Continuous
 62
     7
100
AcDbCircle
 10
16345.222715
 20
-15369.409792
 30
0.0
 40
3.0
100
AcDbArc
 50
180.0
 51
255.453862
  0
LINE
  5
2FB
330
A
100
AcDbEntity
  8
0
  6
HIDDEN
 62
     7
100
AcDbLine
 10
15949.581586
 20
-15419.293288
 30
0.0
 11
16369.363843
 21
-15419.293288
 31
0.0
  0
ARC
  5
2FC
330
A
100
AcDbEntity
  8
0
  6
HIDDEN
 62
     7
100
AcDbCircle
 10
16343.414366
 20
-15376.379001
 30
0.0
 40
3.0
100
AcDbArc
 50
5.571436
 51
75.453862
  0
ARC
  5
2FD
330
A
100
AcDbEntity
  8
0
  6
Continuous
 62
     7
100
AcDbCircle
 10
15961.085074
 20
-15378.209792
 30
0.0
 40
10.0
100
AcDbArc
 50
270.0
 51
354.428564
  0
LINE
  5
2FE
330
A
100
AcDbEntity
  8
0
  6
Continuous
 62
     2
100
AcDbLine
 10
15970.157063
 20
-15388.209792
 30
0.0
 11
15970.39978
 21
-15385.721602
 31
0.0
  0
LINE
  5
2FF
330
A
100
AcDbEntity
  8
0
  6
HIDDEN
 62
     7
100
AcDbLine
 10
15972.232164
 20
-15379.297163
 30
0.0
 11
15972.545236
 21
-15376.087741
 31
0.0
  0
LINE
  5
300
330
A
100
AcDbEntity
  8
0
  6
Continuous
 62
     7
100
AcDbLine
 10
15976.722715
 20
-15341.109792
 30
0.0
 11
15976.722715
 21
-15369.409792
 31
0.0
  0
LINE
  5
30B
330
A
100
AcDbEntity
  8
0
  6
HIDDEN
 62
     7
100
AcDbLine
 10
15980.422715
 20
-15338.609792
 30
0.0
 11
16338.522715
 21
-15338.609792
 31
0.0
  0
LINE
  5
30C
330
A
100
AcDbEntity
  8
0
  6
Continuous
 62
     7
100
AcDbLine
 10
16362.521488
 20
-15388.209792
 30
0.0
 11
15956.423941
 21
-15388.209792
 31
0.0
  0
LINE
  5
30D
330
A
100
AcDbEntity
  8
0
  6
HIDDEN
 62
     7
100
AcDbLine
 10
15980.722715
 20
-15337.409792
 30
0.0
 11
15980.722715
 21
-15338.609792
 31
0.0
  0
LINE
  5
30E
330
A
100
AcDbEntity
  8
0
  6
Continuous
 62
     7
100
AcDbLine
 10
16159.472715
 20
-15337.409792
 30
0.0
 11
16338.522715
 21
-15337.409792
 31
0.0
  0
LINE
  5
30F
330
A
100
AcDbEntity
  8
0
  6
Continuous
 62
     7
100
AcDbLine
 10
16159.472715
 20
-15419.409792
 30
0.0
 11
16368.169512
 21
-15419.409792
 31
0.0
  0
LINE
  5
310
330
A
100
AcDbEntity
  8
0
  6
HIDDEN
 62
     7
100
AcDbLine
 10
16338.222715
 20
-15337.409792
 30
0.0
 11
16338.222715
 21
-15338.609792
 31
0.0
  0
LINE
  5
311
330
A
100
AcDbEntity
  8
0
  6
HIDDEN
 62
     7
100
AcDbLine
 10
15956.423941
 20
-15389.409792
 30
0.0
 11
16362.521488
 21
-15389.409792
 31
0.0
  0
LINE
  5
313
330
A
100
AcDbEntity
  8
0
  6
HIDDEN
 62
     7
100
AcDbLine
 10
16368.169512
 20
-15419.409792
 30
0.0
 11
16365.507316
 21
-15392.118532
 31
0.0
  0
ARC
  5
314
330
A
100
AcDbEntity
  8
0
  6
Continuous
 62
     7
100
AcDbCircle
 10
15975.531063
 20
-15376.379001
 30
0.0
 40
4.2
100
AcDbArc
 50
104.546138
 51
174.428564
  0
ARC
  5
315
330
A
100
AcDbEntity
  8
0
  6
HIDDEN
 62
     7
100
AcDbCircle
 10
15961.085074
 20
-15378.209792
 30
0.0
 40
11.2
100
AcDbArc
 50
270.0
 51
354.428564
  0
LINE
  5
316
330
A
100
AcDbEntity
  8
0
  6
HIDDEN
 62
     7
100
AcDbLine
 10
15950.775917
 20
-15419.409792
 30
0.0
 11
15953.438113
 21
-15392.118532
 31
0.0
  0
ARC
  5
317
330
A
100
AcDbEntity
  8
0
  6
Continuous
 62
     7
100
AcDbCircle
 10
16362.521488
 20
-15392.409792
 30
0.0
 40
4.2
100
AcDbArc
 50
5.571436
 51
90.0
  0
ARC
  5
318
330
A
100
AcDbEntity
  8
0
  6
HIDDEN
 62
     7
100
AcDbCircle
 10
16362.521488
 20
-15392.409792
 30
0.0
 40
3.0
100
AcDbArc
 50
5.571436
 51
90.0
  0
LINE
  5
319
330
A
100
AcDbEntity
  8
0
  6
Continuous
 62
     7
100
AcDbLine
 10
16369.363843
 20
-15419.293288
 30
0.0
 11
16368.169512
 21
-15419.409792
 31
0.0
  0
ARC
  5
31A
330
A
100
AcDbEntity
  8
0
  6
HIDDEN
 62
     7
100
AcDbCircle
 10
15980.422715
 20
-15341.109792
 30
0.0
 40
2.5
100
AcDbArc
 50
90.0
 51
180.0
  0
ARC
  5
31B
330
A
100
AcDbEntity
  8
0
  6
Continuous
 62
     7
100
AcDbCircle
 10
16357.860355
 20
-15378.209792
 30
0.0
 40
10.0
100
AcDbArc
 50
185.571436
 51
270.0
  0
LINE
  5
31C
330
A
100
AcDbEntity
  8
0
  6
Continuous
 62
     7
100
AcDbLine
 10
16342.222715
 20
-15341.109792
 30
0.0
 11
16342.222715
 21
-15369.409792
 31
0.0
  0
ARC
  5
31E
330
A
100
AcDbEntity
  8
0
  6
Continuous
 62
     7
100
AcDbCircle
 10
15956.423941
 20
-15392.409792
 30
0.0
 40
4.2
100
AcDbArc
 50
90.0
 51
174.428564
  0
LINE
  5
31F
330
A
100
AcDbEntity
  8
0
  6
Continuous
 62
     7
100
AcDbLine
 10
15949.581586
 20
-15419.293288
 30
0.0
 11
15952.243782
 21
-15392.002027
 31
0.0
  0
LINE
  5
320
330
A
100
AcDbEntity
  8
0
  6
Continuous
 62
     7
100
AcDbLine
 10
15949.581586
 20
-15419.293288
 30
0.0
 11
15950.775917
 21
-15419.409792
 31
0.0
  0
LINE
  5
321
330
A
100
AcDbEntity
  8
0
  6
Continuous
 62
     7
100
AcDbLine
 10
16159.472715
 20
-15337.409792
 30
0.0
 11
15980.422715
 21
-15337.409792
 31
0.0
  0
ARC
  5
322
330
A
100
AcDbEntity
  8
0
  6
HIDDEN
 62
     7
100
AcDbCircle
 10
16357.860355
 20
-15378.209792
 30
0.0
 40
11.2
100
AcDbArc
 50
185.571436
 51
270.0
  0
TEXT
  5
323
330
A
100
AcDbEntity
  8
002
  6
Continuous
 62
     7
100
AcDbText
 10
16175.999651
 20
-15458.367975
 30
0.0
 40
19.410192
  1
4-\U+03C65
 41
1.217038566201717
  7
DRACAD
 72
     5
 11
16267.341733
 21
-15458.367975
 31
0.0
100
AcDbText
  0
TEXT
  5
324
330
A
100
AcDbEntity
  8
002
  6
Continuous
 62
     7
100
AcDbText
 10
15882.825168
 20
-15584.341724
 30
0.0
 40
25.0
  1
アジャストリング\U+03C6400　　\U+03C6350　同梱
 41
1.063380876327118
  7
DRACAD
 72
     5
 11
16500.472227
 21
-15584.341724
 31
0.0
100
AcDbText
  0
LINE
  5
325
330
A
100
AcDbEntity
  8
0
  6
Continuous
 62
     7
100
AcDbLine
 10
16234.542366
 20
-15575.916628
 30
0.0
 11
16260.813075
 21
-15575.916628
 31
0.0
  0
LINE
  5
326
330
A
100
AcDbEntity
  8
0
  6
Continuous
 62
     7
100
AcDbLine
 10
16260.813075
 20
-15575.916628
 30
0.0
 11
16254.312388
 21
-15564.657109
 31
0.0
  0
LINE
  5
327
330
A
100
AcDbEntity
  8
0
  6
Continuous
 62
     7
100
AcDbLine
 10
16260.813075
 20
-15575.916628
 30
0.0
 11
16254.312388
 21
-15587.176148
 31
0.0
  0
LINE
  5
328
330
A
100
AcDbEntity
  8
0
  6
Continuous
 62
     7
100
AcDbLine
 10
15957.250648
 20
-15949.953519
 30
0.0
 11
15957.250659
 21
-15933.273414
 31
0.0
  0
LINE
  5
329
330
A
100
AcDbEntity
  8
0
  6
Continuous
 62
     7
100
AcDbLine
 10
15956.539453
 20
-15941.139941
 30
0.0
 11
15956.539448
 21
-15933.273416
 31
0.0
  0
LINE
  5
32A
330
A
100
AcDbEntity
  8
0
  6
Continuous
 62
     7
100
AcDbLine
 10
15956.539448
 20
-15949.953519
 30
0.0
 11
15956.539451
 21
-15940.847604
 31
0.0
  0
ARC
  5
32B
330
A
100
AcDbEntity
  8
0
  6
Continuous
 62
     7
100
AcDbCircle
 10
15955.015448
 20
-15949.953519
 30
0.0
 40
1.524
100
AcDbArc
 50
349.053231
 51
360.0
  0
ARC
  5
32C
330
A
100
AcDbEntity
  8
0
  6
Continuous
 62
     7
100
AcDbCircle
 10
15955.015448
 20
-15949.953519
 30
0.0
 40
2.235199999999998
100
AcDbArc
 50
349.053231
 51
360.0
  0
LINE
  5
32D
330
A
100
AcDbEntity
  8
0
  6
Continuous
 62
     7
100
AcDbLine
 10
15960.349448
 20
-15928.617519
 30
0.0
 11
15960.349448
 21
-15929.345686
 31
0.0
  0
ARC
  5
32E
330
A
100
AcDbEntity
  8
0
  6
Continuous
 62
     7
100
AcDbCircle
 10
15961.289248
 20
-15933.273416
 30
0.0
 40
4.038599999999998
100
AcDbArc
 50
103.456344
 51
180.0
  0
ARC
  5
32F
330
A
100
AcDbEntity
  8
0
  6
Continuous
 62
     7
100
AcDbCircle
 10
15961.289248
 20
-15933.273416
 30
0.0
 40
4.749799999999998
100
AcDbArc
 50
101.411902
 51
180.0
  0
LINE
  5
330
330
A
100
AcDbEntity
  8
0
  6
Continuous
 62
     7
100
AcDbLine
 10
16361.694782
 20
-15949.953519
 30
0.0
 11
16361.694771
 21
-15933.273414
 31
0.0
  0
LINE
  5
331
330
A
100
AcDbEntity
  8
0
  6
Continuous
 62
     7
100
AcDbLine
 10
16362.405976
 20
-15941.139941
 30
0.0
 11
16362.405982
 21
-15933.273416
 31
0.0
  0
LINE
  5
332
330
A
100
AcDbEntity
  8
0
  6
Continuous
 62
     7
100
AcDbLine
 10
16362.405982
 20
-15949.953519
 30
0.0
 11
16362.405978
 21
-15940.847604
 31
0.0
  0
LINE
  5
333
330
A
100
AcDbEntity
  8
0
  6
Continuous
 62
     7
100
AcDbLine
 10
16490.308871
 20
-16058.306319
 30
0.0
 11
16374.862032
 21
-16058.306319
 31
0.0
  0
ARC
  5
334
330
A
100
AcDbEntity
  8
0
  6
Continuous
 62
     7
100
AcDbCircle
 10
16363.929982
 20
-15949.953519
 30
0.0
 40
1.524
100
AcDbArc
 50
180.0
 51
190.9467689999999
  0
ARC
  5
335
330
A
100
AcDbEntity
  8
0
  6
Continuous
 62
     7
100
AcDbCircle
 10
16363.929982
 20
-15949.953519
 30
0.0
 40
2.235199999999998
100
AcDbArc
 50
180.0
 51
190.9467689999999
  0
LINE
  5
336
330
A
100
AcDbEntity
  8
0
  6
Continuous
 62
     7
100
AcDbLine
 10
16490.308871
 20
-16059.017519
 30
0.0
 11
16374.862032
 21
-16059.017519
 31
0.0
  0
LINE
  5
337
330
A
100
AcDbEntity
  8
0
  6
Continuous
 62
     7
100
AcDbLine
 10
16358.595982
 20
-15928.617519
 30
0.0
 11
16358.595982
 21
-15929.345686
 31
0.0
  0
ARC
  5
338
330
A
100
AcDbEntity
  8
0
  6
Continuous
 62
     7
100
AcDbCircle
 10
16357.656182
 20
-15933.273416
 30
0.0
 40
4.038599999999998
100
AcDbArc
 50
0.0
 51
76.543656
  0
ARC
  5
339
330
A
100
AcDbEntity
  8
0
  6
Continuous
 62
     7
100
AcDbCircle
 10
16357.656182
 20
-15933.273416
 30
0.0
 40
4.749799999999998
100
AcDbArc
 50
0.0
 51
78.588098
  0
LINE
  5
33A
330
A
100
AcDbEntity
  8
0
  6
Continuous
 62
     5
100
AcDbLine
 10
15960.349448
 20
-15928.617519
 30
0.0
 11
16358.595982
 21
-15928.617519
 31
0.0
  0
LINE
  5
33B
330
A
100
AcDbEntity
  8
0
  6
Continuous
 62
     5
100
AcDbLine
 10
15960.349448
 20
-15929.345686
 30
0.0
 11
16358.595982
 21
-15929.345686
 31
0.0
  0
LINE
  5
33C
330
A
100
AcDbEntity
  8
0
  6
Continuous
 62
     7
100
AcDbLine
 10
15830.688222
 20
-16059.017519
 30
0.0
 11
15944.083398
 21
-16059.017519
 31
0.0
  0
LINE
  5
33D
330
A
100
AcDbEntity
  8
0
  6
Continuous
 62
     7
100
AcDbLine
 10
15830.688222
 20
-16058.306319
 30
0.0
 11
15944.083398
 21
-16058.306319
 31
0.0
  0
POLYLINE
  5
33E
330
A
100
AcDbEntity
  8
0
  6
Continuous
 62
     7
100
AcDb2dPolyline
 66
     1
 10
0.0
 20
0.0
 30
0.0
 70
   132
 75
     6
  0
VERTEX
  5
33F
330
33E
100
AcDbEntity
  8
0
  6
Continuous
 62
     7
100
AcDbVertex
100
AcDb2dVertex
 10
15820.052946
 20
-15944.743654
 30
0.0
 70
    16
  0
VERTEX
  5
340
330
33E
100
AcDbEntity
  8
0
  6
Continuous
 62
     7
100
AcDbVertex
100
AcDb2dVertex
 10
15820.052946
 20
-15944.743654
 30
0.0
 70
     8
  0
VERTEX
  5
341
330
33E
100
AcDbEntity
  8
0
  6
Continuous
 62
     7
100
AcDbVertex
100
AcDb2dVertex
 10
15816.686791
 20
-15952.196946
 30
0.0
 70
     8
  0
VERTEX
  5
342
330
33E
100
AcDbEntity
  8
0
  6
Continuous
 62
     7
100
AcDbVertex
100
AcDb2dVertex
 10
15813.414753
 20
-15959.608647
 30
0.0
 70
     8
  0
VERTEX
  5
343
330
33E
100
AcDbEntity
  8
0
  6
Continuous
 62
     7
100
AcDbVertex
100
AcDb2dVertex
 10
15810.330948
 20
-15966.937166
 30
0.0
 70
     8
  0
VERTEX
  5
344
330
33E
100
AcDbEntity
  8
0
  6
Continuous
 62
     7
100
AcDbVertex
100
AcDb2dVertex
 10
15807.529493
 20
-15974.140912
 30
0.0
 70
     8
  0
VERTEX
  5
345
330
33E
100
AcDbEntity
  8
0
  6
Continuous
 62
     7
100
AcDbVertex
100
AcDb2dVertex
 10
15805.104504
 20
-15981.178294
 30
0.0
 70
     8
  0
VERTEX
  5
346
330
33E
100
AcDbEntity
  8
0
  6
Continuous
 62
     7
100
AcDbVertex
100
AcDb2dVertex
 10
15803.150099
 20
-15988.007721
 30
0.0
 70
     8
  0
VERTEX
  5
347
330
33E
100
AcDbEntity
  8
0
  6
Continuous
 62
     7
100
AcDbVertex
100
AcDb2dVertex
 10
15801.760394
 20
-15994.587602
 30
0.0
 70
     8
  0
VERTEX
  5
348
330
33E
100
AcDbEntity
  8
0
  6
Continuous
 62
     7
100
AcDbVertex
100
AcDb2dVertex
 10
15801.029505
 20
-16000.876345
 30
0.0
 70
     8
  0
VERTEX
  5
349
330
33E
100
AcDbEntity
  8
0
  6
Continuous
 62
     7
100
AcDbVertex
100
AcDb2dVertex
 10
15801.05155
 20
-16006.832361
 30
0.0
 70
     8
  0
VERTEX
  5
34A
330
33E
100
AcDbEntity
  8
0
  6
Continuous
 62
     7
100
AcDbVertex
100
AcDb2dVertex
 10
15801.920644
 20
-16012.414058
 30
0.0
 70
     8
  0
VERTEX
  5
34B
330
33E
100
AcDbEntity
  8
0
  6
Continuous
 62
     7
100
AcDbVertex
100
AcDb2dVertex
 10
15803.682334
 20
-16017.601246
 30
0.0
 70
     8
  0
VERTEX
  5
34C
330
33E
100
AcDbEntity
  8
0
  6
Continuous
 62
     7
100
AcDbVertex
100
AcDb2dVertex
 10
15806.187882
 20
-16022.459348
 30
0.0
 70
     8
  0
VERTEX
  5
34D
330
33E
100
AcDbEntity
  8
0
  6
Continuous
 62
     7
100
AcDbVertex
100
AcDb2dVertex
 10
15809.23998
 20
-16027.075185
 30
0.0
 70
     8
  0
VERTEX
  5
34E
330
33E
100
AcDbEntity
  8
0
  6
Continuous
 62
     7
100
AcDbVertex
100
AcDb2dVertex
 10
15812.64132
 20
-16031.535579
 30
0.0
 70
     8
  0
VERTEX
  5
34F
330
33E
100
AcDbEntity
  8
0
  6
Continuous
 62
     7
100
AcDbVertex
100
AcDb2dVertex
 10
15816.194593
 20
-16035.927355
 30
0.0
 70
     8
  0
VERTEX
  5
350
330
33E
100
AcDbEntity
  8
0
  6
Continuous
 62
     7
100
AcDbVertex
100
AcDb2dVertex
 10
15819.702493
 20
-16040.337334
 30
0.0
 70
     8
  0
VERTEX
  5
351
330
33E
100
AcDbEntity
  8
0
  6
Continuous
 62
     7
100
AcDbVertex
100
AcDb2dVertex
 10
15822.967709
 20
-16044.852339
 30
0.0
 70
     8
  0
VERTEX
  5
352
330
33E
100
AcDbEntity
  8
0
  6
Continuous
 62
     7
100
AcDbVertex
100
AcDb2dVertex
 10
15825.792934
 20
-16049.559194
 30
0.0
 70
     8
  0
VERTEX
  5
353
330
33E
100
AcDbEntity
  8
0
  6
Continuous
 62
     7
100
AcDbVertex
100
AcDb2dVertex
 10
15827.980861
 20
-16054.54472
 30
0.0
 70
     8
  0
VERTEX
  5
354
330
33E
100
AcDbEntity
  8
0
  6
Continuous
 62
     7
100
AcDbVertex
100
AcDb2dVertex
 10
15829.33418
 20
-16059.89574
 30
0.0
 70
     8
  0
VERTEX
  5
355
330
33E
100
AcDbEntity
  8
0
  6
Continuous
 62
     7
100
AcDbVertex
100
AcDb2dVertex
 10
15829.705667
 20
-16065.677068
 30
0.0
 70
     8
  0
VERTEX
  5
356
330
33E
100
AcDbEntity
  8
0
  6
Continuous
 62
     7
100
AcDbVertex
100
AcDb2dVertex
 10
15829.14843
 20
-16071.865482
 30
0.0
 70
     8
  0
VERTEX
  5
357
330
33E
100
AcDbEntity
  8
0
  6
Continuous
 62
     7
100
AcDbVertex
100
AcDb2dVertex
 10
15827.76566
 20
-16078.415749
 30
0.0
 70
     8
  0
VERTEX
  5
358
330
33E
100
AcDbEntity
  8
0
  6
Continuous
 62
     7
100
AcDbVertex
100
AcDb2dVertex
 10
15825.66055
 20
-16085.282638
 30
0.0
 70
     8
  0
VERTEX
  5
359
330
33E
100
AcDbEntity
  8
0
  6
Continuous
 62
     7
100
AcDbVertex
100
AcDb2dVertex
 10
15822.93629
 20
-16092.420917
 30
0.0
 70
     8
  0
VERTEX
  5
35A
330
33E
100
AcDbEntity
  8
0
  6
Continuous
 62
     7
100
AcDbVertex
100
AcDb2dVertex
 10
15819.696073
 20
-16099.785355
 30
0.0
 70
     8
  0
VERTEX
  5
35B
330
33E
100
AcDbEntity
  8
0
  6
Continuous
 62
     7
100
AcDbVertex
100
AcDb2dVertex
 10
15816.043089
 20
-16107.33072
 30
0.0
 70
     8
  0
VERTEX
  5
35C
330
33E
100
AcDbEntity
  8
0
  6
Continuous
 62
     7
100
AcDbVertex
100
AcDb2dVertex
 10
15812.080531
 20
-16115.01178
 30
0.0
 70
     8
  0
VERTEX
  5
35D
330
33E
100
AcDbEntity
  8
0
  6
Continuous
 62
     7
100
AcDbVertex
100
AcDb2dVertex
 10
15807.91159
 20
-16122.783304
 30
0.0
 70
     8
  0
VERTEX
  5
35E
330
33E
100
AcDbEntity
  8
0
  6
Continuous
 62
     7
100
AcDbVertex
100
AcDb2dVertex
 10
15803.639457
 20
-16130.600059
 30
0.0
 70
     8
  0
VERTEX
  5
35F
330
33E
100
AcDbEntity
  8
0
  6
Continuous
 62
     7
100
AcDbVertex
100
AcDb2dVertex
 10
15786.234536
 20
-16019.345892
 30
0.0
 70
    16
  0
VERTEX
  5
360
330
33E
100
AcDbEntity
  8
0
  6
Continuous
 62
     7
100
AcDbVertex
100
AcDb2dVertex
 10
15846.532772
 20
-16052.357122
 30
0.0
 70
    16
  0
VERTEX
  5
361
330
33E
100
AcDbEntity
  8
0
  6
Continuous
 62
     7
100
AcDbVertex
100
AcDb2dVertex
 10
15803.639457
 20
-16130.600059
 30
0.0
 70
    16
  0
SEQEND
  5
362
330
33E
100
AcDbEntity
  8
0
  6
Continuous
 62
     7
  0
POLYLINE
  5
363
330
A
100
AcDbEntity
  8
0
  6
Continuous
 62
     7
100
AcDb2dPolyline
 66
     1
 10
0.0
 20
0.0
 30
0.0
 70
   132
 75
     6
  0
VERTEX
  5
364
330
363
100
AcDbEntity
  8
0
  6
Continuous
 62
     7
100
AcDbVertex
100
AcDb2dVertex
 10
16481.178263
 20
-15944.743654
 30
0.0
 70
    16
  0
VERTEX
  5
365
330
363
100
AcDbEntity
  8
0
  6
Continuous
 62
     7
100
AcDbVertex
100
AcDb2dVertex
 10
16481.178263
 20
-15944.743654
 30
0.0
 70
     8
  0
VERTEX
  5
366
330
363
100
AcDbEntity
  8
0
  6
Continuous
 62
     7
100
AcDbVertex
100
AcDb2dVertex
 10
16477.812109
 20
-15952.196946
 30
0.0
 70
     8
  0
VERTEX
  5
367
330
363
100
AcDbEntity
  8
0
  6
Continuous
 62
     7
100
AcDbVertex
100
AcDb2dVertex
 10
16474.54007
 20
-15959.608647
 30
0.0
 70
     8
  0
VERTEX
  5
368
330
363
100
AcDbEntity
  8
0
  6
Continuous
 62
     7
100
AcDbVertex
100
AcDb2dVertex
 10
16471.456266
 20
-15966.937166
 30
0.0
 70
     8
  0
VERTEX
  5
369
330
363
100
AcDbEntity
  8
0
  6
Continuous
 62
     7
100
AcDbVertex
100
AcDb2dVertex
 10
16468.654811
 20
-15974.140912
 30
0.0
 70
     8
  0
VERTEX
  5
36A
330
363
100
AcDbEntity
  8
0
  6
Continuous
 62
     7
100
AcDbVertex
100
AcDb2dVertex
 10
16466.229822
 20
-15981.178294
 30
0.0
 70
     8
  0
VERTEX
  5
36B
330
363
100
AcDbEntity
  8
0
  6
Continuous
 62
     7
100
AcDbVertex
100
AcDb2dVertex
 10
16464.275417
 20
-15988.007721
 30
0.0
 70
     8
  0
VERTEX
  5
36C
330
363
100
AcDbEntity
  8
0
  6
Continuous
 62
     7
100
AcDbVertex
100
AcDb2dVertex
 10
16462.885712
 20
-15994.587602
 30
0.0
 70
     8
  0
VERTEX
  5
36D
330
363
100
AcDbEntity
  8
0
  6
Continuous
 62
     7
100
AcDbVertex
100
AcDb2dVertex
 10
16462.15482299999
 20
-16000.876345
 30
0.0
 70
     8
  0
VERTEX
  5
36E
330
363
100
AcDbEntity
  8
0
  6
Continuous
 62
     7
100
AcDbVertex
100
AcDb2dVertex
 10
16462.176867
 20
-16006.832361
 30
0.0
 70
     8
  0
VERTEX
  5
36F
330
363
100
AcDbEntity
  8
0
  6
Continuous
 62
     7
100
AcDbVertex
100
AcDb2dVertex
 10
16463.045962
 20
-16012.414058
 30
0.0
 70
     8
  0
VERTEX
  5
370
330
363
100
AcDbEntity
  8
0
  6
Continuous
 62
     7
100
AcDbVertex
100
AcDb2dVertex
 10
16464.807651
 20
-16017.601246
 30
0.0
 70
     8
  0
VERTEX
  5
371
330
363
100
AcDbEntity
  8
0
  6
Continuous
 62
     7
100
AcDbVertex
100
AcDb2dVertex
 10
16467.313199
 20
-16022.459348
 30
0.0
 70
     8
  0
VERTEX
  5
372
330
363
100
AcDbEntity
  8
0
  6
Continuous
 62
     7
100
AcDbVertex
100
AcDb2dVertex
 10
16470.365298
 20
-16027.075185
 30
0.0
 70
     8
  0
VERTEX
  5
373
330
363
100
AcDbEntity
  8
0
  6
Continuous
 62
     7
100
AcDbVertex
100
AcDb2dVertex
 10
16473.766638
 20
-16031.535579
 30
0.0
 70
     8
  0
VERTEX
  5
374
330
363
100
AcDbEntity
  8
0
  6
Continuous
 62
     7
100
AcDbVertex
100
AcDb2dVertex
 10
16477.319911
 20
-16035.927355
 30
0.0
 70
     8
  0
VERTEX
  5
375
330
363
100
AcDbEntity
  8
0
  6
Continuous
 62
     7
100
AcDbVertex
100
AcDb2dVertex
 10
16480.82781
 20
-16040.337334
 30
0.0
 70
     8
  0
VERTEX
  5
376
330
363
100
AcDbEntity
  8
0
  6
Continuous
 62
     7
100
AcDbVertex
100
AcDb2dVertex
 10
16484.093027
 20
-16044.852339
 30
0.0
 70
     8
  0
VERTEX
  5
377
330
363
100
AcDbEntity
  8
0
  6
Continuous
 62
     7
100
AcDbVertex
100
AcDb2dVertex
 10
16486.918252
 20
-16049.559194
 30
0.0
 70
     8
  0
VERTEX
  5
378
330
363
100
AcDbEntity
  8
0
  6
Continuous
 62
     7
100
AcDbVertex
100
AcDb2dVertex
 10
16489.106179
 20
-16054.54472
 30
0.0
 70
     8
  0
VERTEX
  5
379
330
363
100
AcDbEntity
  8
0
  6
Continuous
 62
     7
100
AcDbVertex
100
AcDb2dVertex
 10
16490.459498
 20
-16059.89574
 30
0.0
 70
     8
  0
VERTEX
  5
37A
330
363
100
AcDbEntity
  8
0
  6
Continuous
 62
     7
100
AcDbVertex
100
AcDb2dVertex
 10
16490.830985
 20
-16065.677068
 30
0.0
 70
     8
  0
VERTEX
  5
37B
330
363
100
AcDbEntity
  8
0
  6
Continuous
 62
     7
100
AcDbVertex
100
AcDb2dVertex
 10
16490.273748
 20
-16071.865482
 30
0.0
 70
     8
  0
VERTEX
  5
37C
330
363
100
AcDbEntity
  8
0
  6
Continuous
 62
     7
100
AcDbVertex
100
AcDb2dVertex
 10
16488.890978
 20
-16078.415749
 30
0.0
 70
     8
  0
VERTEX
  5
37D
330
363
100
AcDbEntity
  8
0
  6
Continuous
 62
     7
100
AcDbVertex
100
AcDb2dVertex
 10
16486.785868
 20
-16085.282638
 30
0.0
 70
     8
  0
VERTEX
  5
37E
330
363
100
AcDbEntity
  8
0
  6
Continuous
 62
     7
100
AcDbVertex
100
AcDb2dVertex
 10
16484.061608
 20
-16092.420917
 30
0.0
 70
     8
  0
VERTEX
  5
37F
330
363
100
AcDbEntity
  8
0
  6
Continuous
 62
     7
100
AcDbVertex
100
AcDb2dVertex
 10
16480.821391
 20
-16099.785355
 30
0.0
 70
     8
  0
VERTEX
  5
380
330
363
100
AcDbEntity
  8
0
  6
Continuous
 62
     7
100
AcDbVertex
100
AcDb2dVertex
 10
16477.168407
 20
-16107.33072
 30
0.0
 70
     8
  0
VERTEX
  5
381
330
363
100
AcDbEntity
  8
0
  6
Continuous
 62
     7
100
AcDbVertex
100
AcDb2dVertex
 10
16473.205849
 20
-16115.01178
 30
0.0
 70
     8
  0
VERTEX
  5
382
330
363
100
AcDbEntity
  8
0
  6
Continuous
 62
     7
100
AcDbVertex
100
AcDb2dVertex
 10
16469.036907
 20
-16122.783304
 30
0.0
 70
     8
  0
VERTEX
  5
383
330
363
100
AcDbEntity
  8
0
  6
Continuous
 62
     7
100
AcDbVertex
100
AcDb2dVertex
 10
16464.764775
 20
-16130.600059
 30
0.0
 70
     8
  0
VERTEX
  5
384
330
363
100
AcDbEntity
  8
0
  6
Continuous
 62
     7
100
AcDbVertex
100
AcDb2dVertex
 10
16447.359854
 20
-16019.345892
 30
0.0
 70
    16
  0
VERTEX
  5
385
330
363
100
AcDbEntity
  8
0
  6
Continuous
 62
     7
100
AcDbVertex
100
AcDb2dVertex
 10
16507.65808899999
 20
-16052.357122
 30
0.0
 70
    16
  0
VERTEX
  5
386
330
363
100
AcDbEntity
  8
0
  6
Continuous
 62
     7
100
AcDbVertex
100
AcDb2dVertex
 10
16464.764775
 20
-16130.600059
 30
0.0
 70
    16
  0
SEQEND
  5
387
330
363
100
AcDbEntity
  8
0
  6
Continuous
 62
     7
  0
POLYLINE
  5
388
330
A
100
AcDbEntity
  8
0
  6
Continuous
 62
     7
100
AcDb2dPolyline
 66
     1
 10
0.0
 20
0.0
 30
0.0
 70
   132
 75
     6
  0
VERTEX
  5
389
330
388
100
AcDbEntity
  8
0
  6
Continuous
 62
     7
100
AcDbVertex
100
AcDb2dVertex
 10
15812.965057
 20
-15944.743654
 30
0.0
 70
    16
  0
VERTEX
  5
38A
330
388
100
AcDbEntity
  8
0
  6
Continuous
 62
     7
100
AcDbVertex
100
AcDb2dVertex
 10
15812.965057
 20
-15944.743654
 30
0.0
 70
     8
  0
VERTEX
  5
38B
330
388
100
AcDbEntity
  8
0
  6
Continuous
 62
     7
100
AcDbVertex
100
AcDb2dVertex
 10
15809.598902
 20
-15952.196946
 30
0.0
 70
     8
  0
VERTEX
  5
38C
330
388
100
AcDbEntity
  8
0
  6
Continuous
 62
     7
100
AcDbVertex
100
AcDb2dVertex
 10
15806.326864
 20
-15959.608647
 30
0.0
 70
     8
  0
VERTEX
  5
38D
330
388
100
AcDbEntity
  8
0
  6
Continuous
 62
     7
100
AcDbVertex
100
AcDb2dVertex
 10
15803.243059
 20
-15966.937166
 30
0.0
 70
     8
  0
VERTEX
  5
38E
330
388
100
AcDbEntity
  8
0
  6
Continuous
 62
     7
100
AcDbVertex
100
AcDb2dVertex
 10
15800.441604
 20
-15974.140912
 30
0.0
 70
     8
  0
VERTEX
  5
38F
330
388
100
AcDbEntity
  8
0
  6
Continuous
 62
     7
100
AcDbVertex
100
AcDb2dVertex
 10
15798.016615
 20
-15981.178294
 30
0.0
 70
     8
  0
VERTEX
  5
390
330
388
100
AcDbEntity
  8
0
  6
Continuous
 62
     7
100
AcDbVertex
100
AcDb2dVertex
 10
15796.06221
 20
-15988.007721
 30
0.0
 70
     8
  0
VERTEX
  5
391
330
388
100
AcDbEntity
  8
0
  6
Continuous
 62
     7
100
AcDbVertex
100
AcDb2dVertex
 10
15794.672505
 20
-15994.587602
 30
0.0
 70
     8
  0
VERTEX
  5
392
330
388
100
AcDbEntity
  8
0
  6
Continuous
 62
     7
100
AcDbVertex
100
AcDb2dVertex
 10
15793.941616
 20
-16000.876345
 30
0.0
 70
     8
  0
VERTEX
  5
393
330
388
100
AcDbEntity
  8
0
  6
Continuous
 62
     7
100
AcDbVertex
100
AcDb2dVertex
 10
15793.963661
 20
-16006.832361
 30
0.0
 70
     8
  0
VERTEX
  5
394
330
388
100
AcDbEntity
  8
0
  6
Continuous
 62
     7
100
AcDbVertex
100
AcDb2dVertex
 10
15794.832755
 20
-16012.414058
 30
0.0
 70
     8
  0
VERTEX
  5
395
330
388
100
AcDbEntity
  8
0
  6
Continuous
 62
     7
100
AcDbVertex
100
AcDb2dVertex
 10
15796.594445
 20
-16017.601246
 30
0.0
 70
     8
  0
VERTEX
  5
396
330
388
100
AcDbEntity
  8
0
  6
Continuous
 62
     7
100
AcDbVertex
100
AcDb2dVertex
 10
15799.099993
 20
-16022.459348
 30
0.0
 70
     8
  0
VERTEX
  5
397
330
388
100
AcDbEntity
  8
0
  6
Continuous
 62
     7
100
AcDbVertex
100
AcDb2dVertex
 10
15802.152091
 20
-16027.075185
 30
0.0
 70
     8
  0
VERTEX
  5
398
330
388
100
AcDbEntity
  8
0
  6
Continuous
 62
     7
100
AcDbVertex
100
AcDb2dVertex
 10
15805.553431
 20
-16031.535579
 30
0.0
 70
     8
  0
VERTEX
  5
399
330
388
100
AcDbEntity
  8
0
  6
Continuous
 62
     7
100
AcDbVertex
100
AcDb2dVertex
 10
15809.106704
 20
-16035.927355
 30
0.0
 70
     8
  0
VERTEX
  5
39A
330
388
100
AcDbEntity
  8
0
  6
Continuous
 62
     7
100
AcDbVertex
100
AcDb2dVertex
 10
15812.614604
 20
-16040.337334
 30
0.0
 70
     8
  0
VERTEX
  5
39B
330
388
100
AcDbEntity
  8
0
  6
Continuous
 62
     7
100
AcDbVertex
100
AcDb2dVertex
 10
15815.87982
 20
-16044.852339
 30
0.0
 70
     8
  0
VERTEX
  5
39C
330
388
100
AcDbEntity
  8
0
  6
Continuous
 62
     7
100
AcDbVertex
100
AcDb2dVertex
 10
15818.705045
 20
-16049.559194
 30
0.0
 70
     8
  0
VERTEX
  5
39D
330
388
100
AcDbEntity
  8
0
  6
Continuous
 62
     7
100
AcDbVertex
100
AcDb2dVertex
 10
15820.892972
 20
-16054.54472
 30
0.0
 70
     8
  0
VERTEX
  5
39E
330
388
100
AcDbEntity
  8
0
  6
Continuous
 62
     7
100
AcDbVertex
100
AcDb2dVertex
 10
15822.246291
 20
-16059.89574
 30
0.0
 70
     8
  0
VERTEX
  5
39F
330
388
100
AcDbEntity
  8
0
  6
Continuous
 62
     7
100
AcDbVertex
100
AcDb2dVertex
 10
15822.617778
 20
-16065.677068
 30
0.0
 70
     8
  0
VERTEX
  5
3A0
330
388
100
AcDbEntity
  8
0
  6
Continuous
 62
     7
100
AcDbVertex
100
AcDb2dVertex
 10
15822.060541
 20
-16071.865482
 30
0.0
 70
     8
  0
VERTEX
  5
3A1
330
388
100
AcDbEntity
  8
0
  6
Continuous
 62
     7
100
AcDbVertex
100
AcDb2dVertex
 10
15820.677771
 20
-16078.415749
 30
0.0
 70
     8
  0
VERTEX
  5
3A2
330
388
100
AcDbEntity
  8
0
  6
Continuous
 62
     7
100
AcDbVertex
100
AcDb2dVertex
 10
15818.572661
 20
-16085.282638
 30
0.0
 70
     8
  0
VERTEX
  5
3A3
330
388
100
AcDbEntity
  8
0
  6
Continuous
 62
     7
100
AcDbVertex
100
AcDb2dVertex
 10
15815.848401
 20
-16092.420917
 30
0.0
 70
     8
  0
VERTEX
  5
3A4
330
388
100
AcDbEntity
  8
0
  6
Continuous
 62
     7
100
AcDbVertex
100
AcDb2dVertex
 10
15812.608184
 20
-16099.785355
 30
0.0
 70
     8
  0
VERTEX
  5
3A5
330
388
100
AcDbEntity
  8
0
  6
Continuous
 62
     7
100
AcDbVertex
100
AcDb2dVertex
 10
15808.9552
 20
-16107.33072
 30
0.0
 70
     8
  0
VERTEX
  5
3A6
330
388
100
AcDbEntity
  8
0
  6
Continuous
 62
     7
100
AcDbVertex
100
AcDb2dVertex
 10
15804.992642
 20
-16115.01178
 30
0.0
 70
     8
  0
VERTEX
  5
3A7
330
388
100
AcDbEntity
  8
0
  6
Continuous
 62
     7
100
AcDbVertex
100
AcDb2dVertex
 10
15800.823701
 20
-16122.783304
 30
0.0
 70
     8
  0
VERTEX
  5
3A8
330
388
100
AcDbEntity
  8
0
  6
Continuous
 62
     7
100
AcDbVertex
100
AcDb2dVertex
 10
15796.551568
 20
-16130.600059
 30
0.0
 70
     8
  0
VERTEX
  5
3A9
330
388
100
AcDbEntity
  8
0
  6
Continuous
 62
     7
100
AcDbVertex
100
AcDb2dVertex
 10
15779.146647
 20
-16019.345892
 30
0.0
 70
    16
  0
VERTEX
  5
3AA
330
388
100
AcDbEntity
  8
0
  6
Continuous
 62
     7
100
AcDbVertex
100
AcDb2dVertex
 10
15839.444883
 20
-16052.357122
 30
0.0
 70
    16
  0
VERTEX
  5
3AB
330
388
100
AcDbEntity
  8
0
  6
Continuous
 62
     7
100
AcDbVertex
100
AcDb2dVertex
 10
15796.551568
 20
-16130.600059
 30
0.0
 70
    16
  0
SEQEND
  5
3AC
330
388
100
AcDbEntity
  8
0
  6
Continuous
 62
     7
  0
POLYLINE
  5
3AD
330
A
100
AcDbEntity
  8
0
  6
Continuous
 62
     7
100
AcDb2dPolyline
 66
     1
 10
0.0
 20
0.0
 30
0.0
 70
   132
 75
     6
  0
VERTEX
  5
3AE
330
3AD
100
AcDbEntity
  8
0
  6
Continuous
 62
     7
100
AcDbVertex
100
AcDb2dVertex
 10
16488.206922
 20
-15944.743654
 30
0.0
 70
    16
  0
VERTEX
  5
3AF
330
3AD
100
AcDbEntity
  8
0
  6
Continuous
 62
     7
100
AcDbVertex
100
AcDb2dVertex
 10
16488.206922
 20
-15944.743654
 30
0.0
 70
     8
  0
VERTEX
  5
3B0
330
3AD
100
AcDbEntity
  8
0
  6
Continuous
 62
     7
100
AcDbVertex
100
AcDb2dVertex
 10
16484.840767
 20
-15952.196946
 30
0.0
 70
     8
  0
VERTEX
  5
3B1
330
3AD
100
AcDbEntity
  8
0
  6
Continuous
 62
     7
100
AcDbVertex
100
AcDb2dVertex
 10
16481.568729
 20
-15959.608647
 30
0.0
 70
     8
  0
VERTEX
  5
3B2
330
3AD
100
AcDbEntity
  8
0
  6
Continuous
 62
     7
100
AcDbVertex
100
AcDb2dVertex
 10
16478.484924
 20
-15966.937166
 30
0.0
 70
     8
  0
VERTEX
  5
3B3
330
3AD
100
AcDbEntity
  8
0
  6
Continuous
 62
     7
100
AcDbVertex
100
AcDb2dVertex
 10
16475.683469
 20
-15974.140912
 30
0.0
 70
     8
  0
VERTEX
  5
3B4
330
3AD
100
AcDbEntity
  8
0
  6
Continuous
 62
     7
100
AcDbVertex
100
AcDb2dVertex
 10
16473.258481
 20
-15981.178294
 30
0.0
 70
     8
  0
VERTEX
  5
3B5
330
3AD
100
AcDbEntity
  8
0
  6
Continuous
 62
     7
100
AcDbVertex
100
AcDb2dVertex
 10
16471.304076
 20
-15988.007721
 30
0.0
 70
     8
  0
VERTEX
  5
3B6
330
3AD
100
AcDbEntity
  8
0
  6
Continuous
 62
     7
100
AcDbVertex
100
AcDb2dVertex
 10
16469.914371
 20
-15994.587602
 30
0.0
 70
     8
  0
VERTEX
  5
3B7
330
3AD
100
AcDbEntity
  8
0
  6
Continuous
 62
     7
100
AcDbVertex
100
AcDb2dVertex
 10
16469.183482
 20
-16000.876345
 30
0.0
 70
     8
  0
VERTEX
  5
3B8
330
3AD
100
AcDbEntity
  8
0
  6
Continuous
 62
     7
100
AcDbVertex
100
AcDb2dVertex
 10
16469.205526
 20
-16006.832361
 30
0.0
 70
     8
  0
VERTEX
  5
3B9
330
3AD
100
AcDbEntity
  8
0
  6
Continuous
 62
     7
100
AcDbVertex
100
AcDb2dVertex
 10
16470.07462
 20
-16012.414058
 30
0.0
 70
     8
  0
VERTEX
  5
3BA
330
3AD
100
AcDbEntity
  8
0
  6
Continuous
 62
     7
100
AcDbVertex
100
AcDb2dVertex
 10
16471.83631
 20
-16017.601246
 30
0.0
 70
     8
  0
VERTEX
  5
3BB
330
3AD
100
AcDbEntity
  8
0
  6
Continuous
 62
     7
100
AcDbVertex
100
AcDb2dVertex
 10
16474.341858
 20
-16022.459348
 30
0.0
 70
     8
  0
VERTEX
  5
3BC
330
3AD
100
AcDbEntity
  8
0
  6
Continuous
 62
     7
100
AcDbVertex
100
AcDb2dVertex
 10
16477.393956
 20
-16027.075185
 30
0.0
 70
     8
  0
VERTEX
  5
3BD
330
3AD
100
AcDbEntity
  8
0
  6
Continuous
 62
     7
100
AcDbVertex
100
AcDb2dVertex
 10
16480.795296
 20
-16031.535579
 30
0.0
 70
     8
  0
VERTEX
  5
3BE
330
3AD
100
AcDbEntity
  8
0
  6
Continuous
 62
     7
100
AcDbVertex
100
AcDb2dVertex
 10
16484.34856999999
 20
-16035.927355
 30
0.0
 70
     8
  0
VERTEX
  5
3BF
330
3AD
100
AcDbEntity
  8
0
  6
Continuous
 62
     7
100
AcDbVertex
100
AcDb2dVertex
 10
16487.856469
 20
-16040.337334
 30
0.0
 70
     8
  0
VERTEX
  5
3C0
330
3AD
100
AcDbEntity
  8
0
  6
Continuous
 62
     7
100
AcDbVertex
100
AcDb2dVertex
 10
16491.121686
 20
-16044.852339
 30
0.0
 70
     8
  0
VERTEX
  5
3C1
330
3AD
100
AcDbEntity
  8
0
  6
Continuous
 62
     7
100
AcDbVertex
100
AcDb2dVertex
 10
16493.946911
 20
-16049.559194
 30
0.0
 70
     8
  0
VERTEX
  5
3C2
330
3AD
100
AcDbEntity
  8
0
  6
Continuous
 62
     7
100
AcDbVertex
100
AcDb2dVertex
 10
16496.134837
 20
-16054.54472
 30
0.0
 70
     8
  0
VERTEX
  5
3C3
330
3AD
100
AcDbEntity
  8
0
  6
Continuous
 62
     7
100
AcDbVertex
100
AcDb2dVertex
 10
16497.488157
 20
-16059.89574
 30
0.0
 70
     8
  0
VERTEX
  5
3C4
330
3AD
100
AcDbEntity
  8
0
  6
Continuous
 62
     7
100
AcDbVertex
100
AcDb2dVertex
 10
16497.859643
 20
-16065.677068
 30
0.0
 70
     8
  0
VERTEX
  5
3C5
330
3AD
100
AcDbEntity
  8
0
  6
Continuous
 62
     7
100
AcDbVertex
100
AcDb2dVertex
 10
16497.302406
 20
-16071.865482
 30
0.0
 70
     8
  0
VERTEX
  5
3C6
330
3AD
100
AcDbEntity
  8
0
  6
Continuous
 62
     7
100
AcDbVertex
100
AcDb2dVertex
 10
16495.919637
 20
-16078.415749
 30
0.0
 70
     8
  0
VERTEX
  5
3C7
330
3AD
100
AcDbEntity
  8
0
  6
Continuous
 62
     7
100
AcDbVertex
100
AcDb2dVertex
 10
16493.814526
 20
-16085.282638
 30
0.0
 70
     8
  0
VERTEX
  5
3C8
330
3AD
100
AcDbEntity
  8
0
  6
Continuous
 62
     7
100
AcDbVertex
100
AcDb2dVertex
 10
16491.090267
 20
-16092.420917
 30
0.0
 70
     8
  0
VERTEX
  5
3C9
330
3AD
100
AcDbEntity
  8
0
  6
Continuous
 62
     7
100
AcDbVertex
100
AcDb2dVertex
 10
16487.850049
 20
-16099.785355
 30
0.0
 70
     8
  0
VERTEX
  5
3CA
330
3AD
100
AcDbEntity
  8
0
  6
Continuous
 62
     7
100
AcDbVertex
100
AcDb2dVertex
 10
16484.197066
 20
-16107.33072
 30
0.0
 70
     8
  0
VERTEX
  5
3CB
330
3AD
100
AcDbEntity
  8
0
  6
Continuous
 62
     7
100
AcDbVertex
100
AcDb2dVertex
 10
16480.234508
 20
-16115.01178
 30
0.0
 70
     8
  0
VERTEX
  5
3CC
330
3AD
100
AcDbEntity
  8
0
  6
Continuous
 62
     7
100
AcDbVertex
100
AcDb2dVertex
 10
16476.065566
 20
-16122.783304
 30
0.0
 70
     8
  0
VERTEX
  5
3CD
330
3AD
100
AcDbEntity
  8
0
  6
Continuous
 62
     7
100
AcDbVertex
100
AcDb2dVertex
 10
16471.793433
 20
-16130.600059
 30
0.0
 70
     8
  0
VERTEX
  5
3CE
330
3AD
100
AcDbEntity
  8
0
  6
Continuous
 62
     7
100
AcDbVertex
100
AcDb2dVertex
 10
16454.38851299999
 20
-16019.345892
 30
0.0
 70
    16
  0
VERTEX
  5
3CF
330
3AD
100
AcDbEntity
  8
0
  6
Continuous
 62
     7
100
AcDbVertex
100
AcDb2dVertex
 10
16514.686748
 20
-16052.357122
 30
0.0
 70
    16
  0
VERTEX
  5
3D0
330
3AD
100
AcDbEntity
  8
0
  6
Continuous
 62
     7
100
AcDbVertex
100
AcDb2dVertex
 10
16471.793433
 20
-16130.600059
 30
0.0
 70
    16
  0
SEQEND
  5
3D1
330
3AD
100
AcDbEntity
  8
0
  6
Continuous
 62
     7
  0
DIMENSION
  5
3DC
330
A
100
AcDbEntity
  8
0
  6
Continuous
 62
     5
100
AcDbDimension
  2
*D24
 10
15869.716357
 20
-15876.617519
 30
0.0
 11
15857.216357
 21
-15967.817519
 31
0.0
 70
    32
 71
     5
 42
182.3999999999996
  3
DIMSTYLE001
100
AcDbAlignedDimension
 13
15938.192095
 23
-16059.017519
 33
0.0
 14
15914.985046
 24
-15876.617519
 34
0.0
 50
90.0
100
AcDbRotatedDimension
1001
ACAD
1000
DSTYLE
1002
{
1070
    43
1040
1000.0
1070
    73
1070
     0
1070
    74
1070
     0
1070
    77
1070
     1
1070
   277
1070
     2
1070
   172
1070
     1
1070
   174
1070
     1
1070
   179
1070
     0
1070
   287
1070
     3
1070
   289
1070
     3
1070
     5
1000
_ORIGIN
1002
}
  0
TEXT
  5
3DD
330
A
100
AcDbEntity
  8
002
  6
Continuous
 62
     7
100
AcDbText
 10
15856.944282
 20
-16167.317452
 30
0.0
 40
25.0
  1
アジャストリング取付後ルーフベース高さ
 41
0.9978991589285765
  7
DRACAD
 72
     5
 11
16415.767811
 21
-16167.317452
 31
0.0
100
AcDbText
  0
DIMENSION
  5
3E7
330
A
100
AcDbEntity
  8
0
  6
Continuous
 62
     5
100
AcDbDimension
  2
*D25
 10
16339.222715
 20
-15808.983008
 30
0.0
 11
16159.472715
 21
-15796.483008
 31
0.0
 70
    32
 71
     5
 42
359.5
  3
DIMSTYLE001
100
AcDbAlignedDimension
 13
15979.722715
 23
-15850.771455
 33
0.0
 14
16339.222715
 24
-15850.771455
 34
0.0
100
AcDbRotatedDimension
1001
ACAD
1000
DSTYLE
1002
{
1070
    43
1040
1000.0
1070
    73
1070
     0
1070
    74
1070
     0
1070
    77
1070
     1
1070
   277
1070
     2
1070
   172
1070
     1
1070
   174
1070
     1
1070
   179
1070
     0
1070
   287
1070
     3
1070
   289
1070
     3
1070
     5
1000
_ORIGIN
1002
}
  0
LINE
  5
3EA
330
A
100
AcDbEntity
  8
0
  6
Continuous
 62
     7
100
AcDbLine
 10
15206.267343
 20
-16461.142379
 30
0.0
 11
15206.267294
 21
-16353.906177
 31
0.0
  0
LINE
  5
3EB
330
A
100
AcDbEntity
  8
0
  6
Continuous
 62
     7
100
AcDbLine
 10
14800.400719
 20
-16461.142379
 30
0.0
 11
14800.400767
 21
-16353.906177
 31
0.0
  0
LINE
  5
3EC
330
A
100
AcDbEntity
  8
0
  6
Continuous
 62
     7
100
AcDbLine
 10
15957.250568
 20
-16048.153065
 30
0.0
 11
15957.250659
 21
-15933.273414
 31
0.0
  0
LINE
  5
3ED
330
A
100
AcDbEntity
  8
0
  6
Continuous
 62
     7
100
AcDbLine
 10
15956.539402
 20
-16048.083807
 30
0.0
 11
15956.539451
 21
-15940.847604
 31
0.0
  0
ARC
  5
3EE
330
A
100
AcDbEntity
  8
0
  6
Continuous
 62
     7
100
AcDbCircle
 10
15944.083398
 20
-16045.606319
 30
0.0
 40
12.7
100
AcDbArc
 50
270.0
 51
349.053231
  0
ARC
  5
3EF
330
A
100
AcDbEntity
  8
0
  6
Continuous
 62
     7
100
AcDbCircle
 10
15944.083398
 20
-16045.606319
 30
0.0
 40
13.4112
100
AcDbArc
 50
270.0
 51
349.053231
  0
ARC
  5
3F0
330
A
100
AcDbEntity
  8
0
  6
Continuous
 62
     7
100
AcDbCircle
 10
16374.862032
 20
-16045.606319
 30
0.0
 40
12.7
100
AcDbArc
 50
190.9467689999999
 51
270.0
  0
ARC
  5
3F1
330
A
100
AcDbEntity
  8
0
  6
Continuous
 62
     7
100
AcDbCircle
 10
16374.862032
 20
-16045.606319
 30
0.0
 40
13.4112
100
AcDbArc
 50
190.9467689999999
 51
270.0
  0
LINE
  5
3F2
330
A
100
AcDbEntity
  8
0
  6
Continuous
 62
     5
100
AcDbLine
 10
15944.083398
 20
-16059.017519
 30
0.0
 11
16374.862032
 21
-16059.017519
 31
0.0
  0
LINE
  5
3F3
330
A
100
AcDbEntity
  8
0
  6
Continuous
 62
     7
100
AcDbLine
 10
16361.694861
 20
-16048.153065
 30
0.0
 11
16361.694771
 21
-15933.263954
 31
0.0
  0
LINE
  5
3F4
330
A
100
AcDbEntity
  8
0
  6
Continuous
 62
     7
100
AcDbLine
 10
16362.406027
 20
-16048.083807
 30
0.0
 11
16362.405978
 21
-15940.847604
 31
0.0
  0
LINE
  5
457
330
A
100
AcDbEntity
  8
0
  6
CENTER
 62
     2
100
AcDbLine
 10
15955.239131
 20
-15943.617519
 30
0.0
 11
15948.033435
 21
-15943.617519
 31
0.0
  0
LINE
  5
458
330
A
100
AcDbEntity
  8
0
  6
HIDDEN
 62
     7
100
AcDbLine
 10
15952.483
 20
-15941.117519
 30
0.0
 11
15951.277304
 21
-15941.117519
 31
0.0
  0
LINE
  5
459
330
A
100
AcDbEntity
  8
0
  6
HIDDEN
 62
     7
100
AcDbLine
 10
15951.995262
 20
-15946.117519
 30
0.0
 11
15950.789566
 21
-15946.117519
 31
0.0
  0
LINE
  5
45A
330
A
100
AcDbEntity
  8
0
  6
HIDDEN
 62
     7
100
AcDbLine
 10
16366.950168
 20
-15946.117519
 30
0.0
 11
16368.155864
 21
-15946.117519
 31
0.0
  0
LINE
  5
45B
330
A
100
AcDbEntity
  8
0
  6
HIDDEN
 62
     7
100
AcDbLine
 10
16366.46243
 20
-15941.117519
 30
0.0
 11
16367.668126
 21
-15941.117519
 31
0.0
  0
LINE
  5
45C
330
A
100
AcDbEntity
  8
0
  6
CENTER
 62
     2
100
AcDbLine
 10
16363.706299
 20
-15943.617519
 30
0.0
 11
16370.911995
 21
-15943.617519
 31
0.0
  0
LINE
  5
45D
330
A
100
AcDbEntity
  8
0
  6
Continuous
 62
     7
100
AcDbLine
 10
16347.907597
 20
-15918.388386
 30
0.0
 11
16347.594525
 21
-15915.178964
 31
0.0
  0
LINE
  5
45E
330
A
100
AcDbEntity
  8
0
  6
Continuous
 62
     7
100
AcDbLine
 10
15971.037833
 20
-15918.388386
 30
0.0
 11
15971.350905
 21
-15915.178964
 31
0.0
  0
ARC
  5
45F
330
A
100
AcDbEntity
  8
0
  6
HIDDEN
 62
     7
100
AcDbCircle
 10
15975.531064
 20
-15915.586728
 30
0.0
 40
3.0
100
AcDbArc
 50
104.5461380000219
 51
174.4285640000403
  0
ARC
  5
460
330
A
100
AcDbEntity
  8
0
  6
Continuous
 62
     7
100
AcDbCircle
 10
15973.722715
 20
-15908.617519
 30
0.0
 40
3.0
100
AcDbArc
 50
284.5461380000219
 51
0.0
  0
LINE
  5
461
330
A
100
AcDbEntity
  8
0
  6
HIDDEN
 62
     7
100
AcDbLine
 10
15977.922715
 20
-15880.317519
 30
0.0
 11
15977.922715
 21
-15908.617519
 31
0.0
  0
ARC
  5
462
330
A
100
AcDbEntity
  8
0
  6
HIDDEN
 62
     7
100
AcDbCircle
 10
15956.423941
 20
-15931.617519
 30
0.0
 40
3.0
100
AcDbArc
 50
90.0
 51
174.4285640000403
  0
ARC
  5
463
330
A
100
AcDbEntity
  8
0
  6
HIDDEN
 62
     7
100
AcDbCircle
 10
15973.722715
 20
-15908.617519
 30
0.0
 40
4.2
100
AcDbArc
 50
284.5461380000219
 51
0.0
  0
ARC
  5
464
330
A
100
AcDbEntity
  8
0
  6
HIDDEN
 62
     7
100
AcDbCircle
 10
16345.222715
 20
-15908.617519
 30
0.0
 40
4.2
100
AcDbArc
 50
180.0
 51
255.453861999978
  0
ARC
  5
465
330
A
100
AcDbEntity
  8
0
  6
Continuous
 62
     7
100
AcDbCircle
 10
16343.414366
 20
-15915.586728
 30
0.0
 40
4.2
100
AcDbArc
 50
5.571435999959658
 51
75.45386199997804
  0
LINE
  5
466
330
A
100
AcDbEntity
  8
0
  6
HIDDEN
 62
     7
100
AcDbLine
 10
16346.713265
 20
-15918.50489
 30
0.0
 11
16346.400194
 21
-15915.295468
 31
0.0
  0
LINE
  5
467
330
A
100
AcDbEntity
  8
0
  6
HIDDEN
 62
     7
100
AcDbLine
 10
16341.022715
 20
-15880.317519
 30
0.0
 11
16341.022715
 21
-15908.617519
 31
0.0
  0
ARC
  5
468
330
A
100
AcDbEntity
  8
0
  6
Continuous
 62
     7
100
AcDbCircle
 10
16338.522715
 20
-15880.317519
 30
0.0
 40
3.7
100
AcDbArc
 50
0.0
 51
90.0
  0
ARC
  5
469
330
A
100
AcDbEntity
  8
0
  6
HIDDEN
 62
     7
100
AcDbCircle
 10
16338.522715
 20
-15880.317519
 30
0.0
 40
2.5
100
AcDbArc
 50
0.0
 51
90.0
  0
ARC
  5
46A
330
A
100
AcDbEntity
  8
0
  6
Continuous
 62
     7
100
AcDbCircle
 10
15980.422715
 20
-15880.317519
 30
0.0
 40
3.7
100
AcDbArc
 50
90.0
 51
180.0
  0
LINE
  5
46B
330
A
100
AcDbEntity
  8
0
  6
CENTER
 62
     2
100
AcDbLine
 10
16163.972715
 20
-15943.617519
 30
0.0
 11
16154.972715
 21
-15943.617519
 31
0.0
  0
CIRCLE
  5
46C
330
A
100
AcDbEntity
  8
0
  6
Continuous
 62
     7
100
AcDbCircle
 10
16159.472715
 20
-15943.617519
 30
0.0
 40
2.5
  0
LINE
  5
46D
330
A
100
AcDbEntity
  8
0
  6
Continuous
 62
     7
100
AcDbLine
 10
16369.363843
 20
-15958.501015
 30
0.0
 11
16366.701648
 21
-15931.209755
 31
0.0
  0
LINE
  5
46E
330
A
100
AcDbEntity
  8
0
  6
Continuous
 62
     7
100
AcDbLine
 10
15950.775918
 20
-15958.617519
 30
0.0
 11
16159.472715
 21
-15958.617519
 31
0.0
  0
ARC
  5
46F
330
A
100
AcDbEntity
  8
0
  6
Continuous
 62
     7
100
AcDbCircle
 10
16345.222715
 20
-15908.617519
 30
0.0
 40
3.0
100
AcDbArc
 50
180.0
 51
255.453861999978
  0
LINE
  5
470
330
A
100
AcDbEntity
  8
0
  6
HIDDEN
 62
     7
100
AcDbLine
 10
15949.581587
 20
-15958.501015
 30
0.0
 11
16369.363843
 21
-15958.501015
 31
0.0
  0
ARC
  5
471
330
A
100
AcDbEntity
  8
0
  6
HIDDEN
 62
     7
100
AcDbCircle
 10
16343.414366
 20
-15915.586728
 30
0.0
 40
3.0
100
AcDbArc
 50
5.571435999959658
 51
75.45386199997804
  0
ARC
  5
472
330
A
100
AcDbEntity
  8
0
  6
Continuous
 62
     7
100
AcDbCircle
 10
15961.085074
 20
-15917.417519
 30
0.0
 40
10.0
100
AcDbArc
 50
270.0
 51
354.4285640000404
  0
LINE
  5
473
330
A
100
AcDbEntity
  8
0
  6
Continuous
 62
     2
100
AcDbLine
 10
15970.157064
 20
-15927.417519
 30
0.0
 11
15970.39978
 21
-15924.929329
 31
0.0
  0
LINE
  5
474
330
A
100
AcDbEntity
  8
0
  6
HIDDEN
 62
     7
100
AcDbLine
 10
15972.232165
 20
-15918.50489
 30
0.0
 11
15972.545236
 21
-15915.295468
 31
0.0
  0
LINE
  5
475
330
A
100
AcDbEntity
  8
0
  6
Continuous
 62
     7
100
AcDbLine
 10
15976.722715
 20
-15880.317519
 30
0.0
 11
15976.722715
 21
-15908.617519
 31
0.0
  0
LINE
  5
476
330
A
100
AcDbEntity
  8
0
  6
HIDDEN
 62
     7
100
AcDbLine
 10
15980.422715
 20
-15877.817519
 30
0.0
 11
16338.522715
 21
-15877.817519
 31
0.0
  0
LINE
  5
477
330
A
100
AcDbEntity
  8
0
  6
Continuous
 62
     7
100
AcDbLine
 10
16362.521489
 20
-15927.417519
 30
0.0
 11
15956.423941
 21
-15927.417519
 31
0.0
  0
LINE
  5
478
330
A
100
AcDbEntity
  8
0
  6
HIDDEN
 62
     7
100
AcDbLine
 10
15980.722715
 20
-15876.617519
 30
0.0
 11
15980.722715
 21
-15877.817519
 31
0.0
  0
LINE
  5
479
330
A
100
AcDbEntity
  8
0
  6
Continuous
 62
     7
100
AcDbLine
 10
16159.472715
 20
-15876.617519
 30
0.0
 11
16338.522715
 21
-15876.617519
 31
0.0
  0
LINE
  5
47A
330
A
100
AcDbEntity
  8
0
  6
Continuous
 62
     7
100
AcDbLine
 10
16159.472715
 20
-15958.617519
 30
0.0
 11
16368.169512
 21
-15958.617519
 31
0.0
  0
LINE
  5
47B
330
A
100
AcDbEntity
  8
0
  6
HIDDEN
 62
     7
100
AcDbLine
 10
16338.222715
 20
-15876.617519
 30
0.0
 11
16338.222715
 21
-15877.817519
 31
0.0
  0
LINE
  5
47C
330
A
100
AcDbEntity
  8
0
  6
HIDDEN
 62
     7
100
AcDbLine
 10
15956.423941
 20
-15928.617519
 30
0.0
 11
16362.521489
 21
-15928.617519
 31
0.0
  0
LINE
  5
47D
330
A
100
AcDbEntity
  8
0
  6
HIDDEN
 62
     7
100
AcDbLine
 10
16368.169512
 20
-15958.617519
 30
0.0
 11
16365.507317
 21
-15931.326259
 31
0.0
  0
ARC
  5
47E
330
A
100
AcDbEntity
  8
0
  6
Continuous
 62
     7
100
AcDbCircle
 10
15975.531064
 20
-15915.586728
 30
0.0
 40
4.2
100
AcDbArc
 50
104.5461380000219
 51
174.4285640000403
  0
ARC
  5
47F
330
A
100
AcDbEntity
  8
0
  6
HIDDEN
 62
     7
100
AcDbCircle
 10
15961.085074
 20
-15917.417519
 30
0.0
 40
11.2
100
AcDbArc
 50
270.0
 51
354.4285640000404
  0
LINE
  5
480
330
A
100
AcDbEntity
  8
0
  6
HIDDEN
 62
     7
100
AcDbLine
 10
15950.775918
 20
-15958.617519
 30
0.0
 11
15953.438113
 21
-15931.326259
 31
0.0
  0
ARC
  5
481
330
A
100
AcDbEntity
  8
0
  6
Continuous
 62
     7
100
AcDbCircle
 10
16362.521489
 20
-15931.617519
 30
0.0
 40
4.2
100
AcDbArc
 50
5.571435999959658
 51
90.0
  0
ARC
  5
482
330
A
100
AcDbEntity
  8
0
  6
HIDDEN
 62
     7
100
AcDbCircle
 10
16362.521489
 20
-15931.617519
 30
0.0
 40
3.0
100
AcDbArc
 50
5.571435999959658
 51
90.0
  0
LINE
  5
483
330
A
100
AcDbEntity
  8
0
  6
Continuous
 62
     7
100
AcDbLine
 10
16369.363843
 20
-15958.501015
 30
0.0
 11
16368.169512
 21
-15958.617519
 31
0.0
  0
ARC
  5
484
330
A
100
AcDbEntity
  8
0
  6
HIDDEN
 62
     7
100
AcDbCircle
 10
15980.422715
 20
-15880.317519
 30
0.0
 40
2.5
100
AcDbArc
 50
90.0
 51
180.0
  0
ARC
  5
485
330
A
100
AcDbEntity
  8
0
  6
Continuous
 62
     7
100
AcDbCircle
 10
16357.860356
 20
-15917.417519
 30
0.0
 40
10.0
100
AcDbArc
 50
185.5714359999596
 51
270.0
  0
LINE
  5
486
330
A
100
AcDbEntity
  8
0
  6
Continuous
 62
     7
100
AcDbLine
 10
16342.222715
 20
-15880.317519
 30
0.0
 11
16342.222715
 21
-15908.617519
 31
0.0
  0
LINE
  5
487
330
A
100
AcDbEntity
  8
0
  6
Continuous
 62
     2
100
AcDbLine
 10
16348.788366
 20
-15927.417519
 30
0.0
 11
16348.54565
 21
-15924.929329
 31
0.0
  0
ARC
  5
488
330
A
100
AcDbEntity
  8
0
  6
Continuous
 62
     7
100
AcDbCircle
 10
15956.423941
 20
-15931.617519
 30
0.0
 40
4.2
100
AcDbArc
 50
90.0
 51
174.4285640000403
  0
LINE
  5
489
330
A
100
AcDbEntity
  8
0
  6
Continuous
 62
     7
100
AcDbLine
 10
15949.581587
 20
-15958.501015
 30
0.0
 11
15952.243782
 21
-15931.209755
 31
0.0
  0
LINE
  5
48A
330
A
100
AcDbEntity
  8
0
  6
Continuous
 62
     7
100
AcDbLine
 10
15949.581587
 20
-15958.501015
 30
0.0
 11
15950.775918
 21
-15958.617519
 31
0.0
  0
LINE
  5
48B
330
A
100
AcDbEntity
  8
0
  6
Continuous
 62
     7
100
AcDbLine
 10
16159.472715
 20
-15876.617519
 30
0.0
 11
15980.422715
 21
-15876.617519
 31
0.0
  0
ARC
  5
48C
330
A
100
AcDbEntity
  8
0
  6
HIDDEN
 62
     7
100
AcDbCircle
 10
16357.860356
 20
-15917.417519
 30
0.0
 40
11.2
100
AcDbArc
 50
185.5714359999596
 51
270.0
  0
DIMENSION
  5
4B7
330
A
100
AcDbEntity
  8
0
  6
Continuous
 62
     5
100
AcDbDimension
  2
*D29
 10
16409.472715
 20
-15388.209792
 30
0.0
 11
16396.972715
 21
-15362.80979199999
 31
0.0
 70
    32
 71
     5
 42
50.79999999999927
  3
DIMSTYLE001
100
AcDbAlignedDimension
 13
16347.47180594897
 23
-15337.409792
 33
0.0
 14
16362.521488
 24
-15388.209792
 34
0.0
 50
90.0
100
AcDbRotatedDimension
  0
DIMENSION
  5
4C5
330
A
100
AcDbEntity
  8
0
  6
Continuous
 62
     5
100
AcDbDimension
  2
*D30
 10
16409.472715
 20
-15419.409792
 30
0.0
 11
16396.972715
 21
-15403.80979199999
 31
0.0
 70
    32
 71
     5
 42
31.20000000000073
  3
DIMSTYLE001
100
AcDbAlignedDimension
 13
16362.583988
 23
-15388.209792
 33
0.0
 14
16368.169512
 24
-15419.409792
 34
0.0
 50
90.0
100
AcDbRotatedDimension
  0
ENDSEC
  0
SECTION
  2
OBJECTS
  0
DICTIONARY
  5
19
330
0
100
AcDbDictionary
281
     1
  3
ACAD_COLOR
350
425
  3
ACAD_GROUP
350
1A
  3
ACAD_LAYOUT
350
44D
  3
ACAD_MATERIAL
350
3FB
  3
ACAD_MLEADERSTYLE
350
44A
  3
ACAD_MLINESTYLE
350
1B
  3
ACAD_PLOTSETTINGS
350
44E
  3
ACAD_PLOTSTYLENAME
350
3F9
  3
ACAD_SCALELIST
350
428
  3
ACAD_TABLESTYLE
350
426
  3
ACAD_VISUALSTYLE
350
414
  3
ACDB_RECOMPOSE_DATA
350
546
  3
AcDbVariableDictionary
350
4FE
  3
ASE_INDEX_DICTIONARY
350
4FB
  3
DWGPROPS
350
547
  0
DICTIONARY
  5
4F0
330
14
100
AcDbDictionary
280
     1
281
     1
  3
ADSK_XREC_LAYER_RECONCILED
360
4F1
  0
DICTIONARY
  5
4F2
330
27
100
AcDbDictionary
280
     1
281
     1
  3
ADSK_XREC_LAYER_RECONCILED
360
4F3
  0
DICTIONARY
  5
4F4
330
28
100
AcDbDictionary
280
     1
281
     1
  3
ADSK_XREC_LAYER_RECONCILED
360
4F5
  0
DICTIONARY
  5
4F6
330
29
100
AcDbDictionary
280
     1
281
     1
  3
ADSK_XREC_LAYER_RECONCILED
360
4F7
  0
DICTIONARY
  5
4F8
330
2A
100
AcDbDictionary
280
     1
281
     1
  3
ADSK_XREC_LAYER_RECONCILED
360
4F9
  0
DICTIONARY
  5
4A6
330
A
100
AcDbDictionary
280
     1
281
     1
  3
ACAD_SORTENTS
360
4A7
  0
DICTIONARY
  5
425
102
{ACAD_REACTORS
330
19
102
}
330
19
100
AcDbDictionary
281
     1
  0
DICTIONARY
  5
1A
102
{ACAD_REACTORS
330
19
102
}
330
19
100
AcDbDictionary
281
     1
  0
DICTIONARY
  5
44D
102
{ACAD_REACTORS
330
19
102
}
330
19
100
AcDbDictionary
281
     1
  3
Model
350
44F
  3
レイアウト1
350
450
  0
DICTIONARY
  5
3FB
102
{ACAD_REACTORS
330
19
102
}
330
19
100
AcDbDictionary
281
     1
  3
ByBlock
350
404
  3
ByLayer
350
3FC
  3
Global
350
40C
  0
DICTIONARY
  5
44A
102
{ACAD_REACTORS
330
19
102
}
330
19
100
AcDbDictionary
281
     1
  3
Standard
350
44B
  0
DICTIONARY
  5
1B
102
{ACAD_REACTORS
330
19
102
}
330
19
100
AcDbDictionary
281
     1
  3
STANDARD
350
1C
  0
DICTIONARY
  5
44E
102
{ACAD_REACTORS
330
19
102
}
330
19
100
AcDbDictionary
281
     1
  0
ACDBDICTIONARYWDFLT
  5
3F9
102
{ACAD_REACTORS
330
19
102
}
330
19
100
AcDbDictionary
281
     1
  3
Normal
350
3FA
100
AcDbDictionaryWithDefault
340
3FA
  0
DICTIONARY
  5
428
102
{ACAD_REACTORS
330
19
102
}
330
19
100
AcDbDictionary
281
     1
  3
A0
350
429
  3
A1
350
42A
  3
A2
350
42B
  3
A3
350
42C
  3
A4
350
42D
  3
A5
350
42E
  3
A6
350
42F
  3
A7
350
430
  3
A8
350
431
  3
A9
350
432
  3
B0
350
433
  3
B1
350
434
  3
B2
350
435
  3
B3
350
436
  3
B4
350
437
  3
B5
350
438
  3
B6
350
439
  3
B7
350
43A
  3
B8
350
43B
  3
B9
350
43C
  3
C0
350
43D
  3
C1
350
43E
  3
C2
350
43F
  3
C3
350
440
  3
C4
350
441
  3
C5
350
442
  3
C6
350
443
  3
C7
350
444
  3
C8
350
445
  3
C9
350
446
  3
D0
350
447
  3
D1
350
448
  3
D2
350
449
  0
DICTIONARY
  5
426
102
{ACAD_REACTORS
330
19
102
}
330
19
100
AcDbDictionary
281
     1
  3
Standard
350
427
  0
DICTIONARY
  5
414
102
{ACAD_REACTORS
330
19
102
}
330
19
100
AcDbDictionary
281
     1
  3
2dWireframe
350
41A
  3
3D Hidden
350
41C
  3
3dWireframe
350
41B
  3
Basic
350
419
  3
Brighten
350
420
  3
ColorChange
350
424
  3
Conceptual
350
41D
  3
Dim
350
41F
  3
EdgeColorOff
350
51E
  3
Facepattern
350
423
  3
Flat
350
415
  3
FlatWithEdges
350
416
  3
Gouraud
350
417
  3
GouraudWithEdges
350
418
  3
Hidden
350
516
  3
JitterOff
350
51C
  3
Linepattern
350
422
  3
OverhangOff
350
51D
  3
Realistic
350
41E
  3
Shaded
350
51B
  3
Shaded with edges
350
51A
  3
Shades of Gray
350
517
  3
Sketchy
350
518
  3
Thicken
350
421
  3
Wireframe
350
515
  3
X-Ray
350
519
  0
XRECORD
  5
546
102
{ACAD_REACTORS
330
19
102
}
330
19
100
AcDbXrecord
280
     1
 90
        1
330
427
  0
DICTIONARY
  5
4FE
102
{ACAD_REACTORS
330
19
102
}
330
19
100
AcDbDictionary
281
     1
  3
CANNOSCALE
350
501
  3
CMLEADERSTYLE
350
500
  3
CTABLESTYLE
350
4FF
  3
DIMASSOC
350
504
  3
INDEXCTL
350
503
  3
SORTENTS
350
502
  3
XCLIPFRAME
350
544
  0
DICTIONARY
  5
4FB
102
{ACAD_REACTORS
330
19
102
}
330
19
100
AcDbDictionary
281
     1
  3
ASEBlockHierarchyIndexRecord
350
4FD
1001
DCO15
1040
1714116913.274
  0
XRECORD
  5
547
102
{ACAD_REACTORS
330
19
102
}
330
19
100
AcDbXrecord
280
     1
  1
DWGPROPS COOKIE
  2

  3

  4

  6

  7

  8
toshi10492
  9

300
=
301
=
302
=
303
=
304
=
305
=
306
=
307
=
308
=
309
=
 40
0.0017806134259259
 41
2305814.416758658
 42
2456939.47225956
  1

 90
        0
  0
XRECORD
  5
4F1
102
{ACAD_REACTORS
330
4F0
102
}
330
4F0
100
AcDbXrecord
280
     1
290
     1
  0
XRECORD
  5
4F3
102
{ACAD_REACTORS
330
4F2
102
}
330
4F2
100
AcDbXrecord
280
     1
290
     1
  0
XRECORD
  5
4F5
102
{ACAD_REACTORS
330
4F4
102
}
330
4F4
100
AcDbXrecord
280
     1
290
     1
  0
XRECORD
  5
4F7
102
{ACAD_REACTORS
330
4F6
102
}
330
4F6
100
AcDbXrecord
280
     1
290
     1
  0
XRECORD
  5
4F9
102
{ACAD_REACTORS
330
4F8
102
}
330
4F8
100
AcDbXrecord
280
     1
290
     1
  0
SORTENTSTABLE
  5
4A7
102
{ACAD_REACTORS
330
4A6
102
}
330
4A6
100
AcDbSortentsTable
330
A
331
282
  5
282
331
230
  5
230
331
321
  5
321
331
1F7
  5
1F7
331
329
  5
329
331
1FF
  5
1FF
331
201
  5
201
331
2E8
  5
2E8
331
3AD
  5
3AD
331
2F0
  5
2F0
331
337
  5
337
331
464
  5
454
331
26B
  5
26B
331
209
  5
209
331
211
  5
211
331
2F8
  5
2F8
331
46C
  5
45C
331
474
  5
464
331
300
  5
300
331
47C
  5
46C
331
253
  5
253
331
48C
  5
47C
331
221
  5
221
331
310
  5
310
331
484
  5
474
331
229
  5
229
331
259
  5
259
331
318
  5
318
331
3ED
  5
485
331
261
  5
261
331
45D
  5
3EE
331
231
  5
231
331
283
  5
283
331
322
  5
322
331
1F0
  5
1F0
331
1F8
  5
1F8
331
32A
  5
32A
331
202
  5
202
331
2E9
  5
2E9
331
330
  5
330
331
338
  5
338
331
465
  5
455
331
20A
  5
20A
331
2F1
  5
2F1
331
46D
  5
45D
331
212
  5
212
331
2F9
  5
2F9
331
475
  5
465
331
47D
  5
46D
331
254
  5
254
331
222
  5
222
331
485
  5
475
331
22A
  5
22A
331
311
  5
311
331
25A
  5
25A
331
319
  5
319
331
3EE
  5
486
331
262
  5
262
331
45E
  5
3EF
331
232
  5
232
331
1F1
  5
1F1
331
323
  5
323
331
1F9
  5
1F9
331
32B
  5
32B
331
2EA
  5
2EA
331
331
  5
331
331
203
  5
203
331
2F2
  5
2F2
331
339
  5
339
331
466
  5
456
331
20B
  5
20B
331
213
  5
213
331
2FA
  5
2FA
331
46E
  5
45E
331
476
  5
466
331
388
  5
388
331
47E
  5
46E
331
3DC
  5
47D
331
255
  5
255
331
2E2
  5
2E2
331
275
  5
275
331
223
  5
223
331
486
  5
476
331
22B
  5
22B
331
25B
  5
25B
331
31A
  5
31A
331
3EF
  5
487
331
263
  5
263
331
45F
  5
3F0
331
233
  5
233
331
324
  5
324
331
28D
  5
28D
331
1F2
  5
1F2
331
1FA
  5
1FA
331
32C
  5
32C
331
457
  5
3E8
331
204
  5
204
331
2EB
  5
2EB
331
332
  5
332
331
33A
  5
33A
331
467
  5
457
331
20C
  5
20C
331
2F3
  5
2F3
331
2FB
  5
2FB
331
46F
  5
45F
331
214
  5
214
331
477
  5
467
331
21C
  5
21C
331
47F
  5
46F
331
23E
  5
23E
331
2CD
  5
2CD
331
3DD
  5
47E
331
256
  5
256
331
2E3
  5
2E3
331
276
  5
276
331
224
  5
224
331
30B
  5
30B
331
487
  5
477
331
22C
  5
22C
331
313
  5
313
331
3F0
  5
488
331
25C
  5
25C
331
31B
  5
31B
331
458
  5
3E9
331
264
  5
264
331
234
  5
234
331
1F3
  5
1F3
331
325
  5
325
331
1FB
  5
1FB
331
32D
  5
32D
331
2EC
  5
2EC
331
333
  5
333
331
460
  5
3F1
331
205
  5
205
331
2F4
  5
2F4
331
33B
  5
33B
331
468
  5
458
331
20D
  5
20D
331
215
  5
215
331
2FC
  5
2FC
331
470
  5
460
331
478
  5
468
331
21D
  5
21D
331
257
  5
257
331
2E4
  5
2E4
331
488
  5
478
331
277
  5
277
331
30C
  5
30C
331
480
  5
470
331
225
  5
225
331
314
  5
314
331
22D
  5
22D
331
3F1
  5
489
331
25D
  5
25D
331
31C
  5
31C
331
363
  5
363
331
265
  5
265
331
459
  5
3EA
331
326
  5
326
331
1F4
  5
1F4
331
1FC
  5
1FC
331
297
  5
297
331
32E
  5
32E
331
461
  5
3F2
331
206
  5
206
331
268
  5
268
331
2ED
  5
2ED
331
334
  5
334
331
33C
  5
33C
331
469
  5
459
331
20E
  5
20E
331
2F5
  5
2F5
331
2FD
  5
2FD
331
471
  5
461
331
216
  5
216
331
479
  5
469
331
21E
  5
21E
331
248
  5
248
331
1ED
  5
1ED
331
3E7
  5
47F
331
489
  5
479
331
2E5
  5
2E5
331
226
  5
226
331
30D
  5
30D
331
481
  5
471
331
22E
  5
22E
331
315
  5
315
331
3EA
  5
482
331
3F2
  5
48A
331
25E
  5
25E
331
45A
  5
3EB
331
266
  5
266
331
1F5
  5
1F5
331
327
  5
327
331
32F
  5
32F
331
1FD
  5
1FD
331
2EE
  5
2EE
331
335
  5
335
331
462
  5
3F3
331
269
  5
269
331
207
  5
207
331
20F
  5
20F
331
2F6
  5
2F6
331
33D
  5
33D
331
46A
  5
45A
331
472
  5
462
331
2FE
  5
2FE
331
47A
  5
46A
331
21F
  5
21F
331
1EE
  5
1EE
331
2E6
  5
2E6
331
48A
  5
47A
331
2D7
  5
2D7
331
30E
  5
30E
331
482
  5
472
331
227
  5
227
331
316
  5
316
331
3EB
  5
483
331
22F
  5
22F
331
25F
  5
25F
331
31E
  5
31E
331
3F3
  5
48B
331
267
  5
267
331
45B
  5
3EC
331
281
  5
281
331
320
  5
320
331
1F6
  5
1F6
331
328
  5
328
331
2B9
  5
2B9
331
1FE
  5
1FE
331
200
  5
200
331
336
  5
336
331
463
  5
3F4
331
208
  5
208
331
26A
  5
26A
331
2EF
  5
2EF
331
33E
  5
33E
331
46B
  5
45B
331
210
  5
210
331
2F7
  5
2F7
331
2FF
  5
2FF
331
473
  5
463
331
47B
  5
46B
331
252
  5
252
331
1EF
  5
1EF
331
48B
  5
47B
331
2E7
  5
2E7
331
220
  5
220
331
483
  5
473
331
228
  5
228
331
30F
  5
30F
331
258
  5
258
331
317
  5
317
331
3EC
  5
484
331
31F
  5
31F
331
3F4
  5
48C
331
260
  5
260
331
45C
  5
3ED
  0
LAYOUT
  5
44F
102
{ACAD_XDICTIONARY
360
569
102
}
102
{ACAD_REACTORS
330
44D
102
}
330
44D
100
AcDbPlotSettings
  1

  2
OneNote 2007 に送る
  4

  6

 40
0.0
 41
0.0
 42
0.0
 43
0.0
 44
0.0
 45
0.0
 46
0.0
 47
0.0
 48
0.0
 49
0.0
140
0.0
141
0.0
142
1.0
143
1.0
 70
  1712
 72
     0
 73
     0
 74
     0
  7
hiroya.ctb
 75
     0
147
1.0
148
0.0
149
0.0
100
AcDbLayout
  1
Model
 70
     1
 71
     0
 10
0.0
 20
0.0
 11
12.0
 21
9.0
 12
0.0
 22
0.0
 32
0.0
 14
0.0
 24
0.0
 34
0.0
 15
0.0
 25
0.0
 35
0.0
146
0.0
 13
0.0
 23
0.0
 33
0.0
 16
1.0
 26
0.0
 36
0.0
 17
0.0
 27
1.0
 37
0.0
 76
     0
330
A
331
15
  0
LAYOUT
  5
450
102
{ACAD_XDICTIONARY
360
56B
102
}
102
{ACAD_REACTORS
330
44D
102
}
330
44D
100
AcDbPlotSettings
  1

  2
OneNote 2007 に送る
  4

  6

 40
0.0
 41
0.0
 42
0.0
 43
0.0
 44
0.0
 45
0.0
 46
0.0
 47
0.0
 48
0.0
 49
0.0
140
0.0
141
0.0
142
1.0
143
1.0
 70
   688
 72
     0
 73
     0
 74
     5
  7
hiroya.ctb
 75
    16
147
1.0
148
0.0
149
0.0
100
AcDbLayout
  1
レイアウト1
 70
     0
 71
     1
 10
0.0
 20
0.0
 11
12.0
 21
9.0
 12
0.0
 22
0.0
 32
0.0
 14
1.000000000000000E+20
 24
1.000000000000000E+20
 34
1.000000000000000E+20
 15
-1.000000000000000E+20
 25
-1.000000000000000E+20
 35
-1.000000000000000E+20
146
0.0
 13
0.0
 23
0.0
 33
0.0
 16
1.0
 26
0.0
 36
0.0
 17
0.0
 27
1.0
 37
0.0
 76
     0
330
B
  0
MATERIAL
  5
404
102
{ACAD_XDICTIONARY
360
405
102
}
102
{ACAD_REACTORS
330
3FB
102
}
330
3FB
100
AcDbMaterial
  1
ByBlock
 72
     0
 43
0.0208333333333333
 43
0.0
 43
0.0
 43
0.0
 43
0.0
 43
0.0208333333333333
 43
0.0
 43
0.0
 43
0.0
 43
0.0
 43
1.0
 43
0.0
 43
0.0
 43
0.0
 43
0.0
 43
1.0
 77
     0
 47
0.0208333333333333
 47
0.0
 47
0.0
 47
0.0
 47
0.0
 47
0.0208333333333333
 47
0.0
 47
0.0
 47
0.0
 47
0.0
 47
1.0
 47
0.0
 47
0.0
 47
0.0
 47
0.0
 47
1.0
171
     0
 49
0.0208333333333333
 49
0.0
 49
0.0
 49
0.0
 49
0.0
 49
0.0208333333333333
 49
0.0
 49
0.0
 49
0.0
 49
0.0
 49
1.0
 49
0.0
 49
0.0
 49
0.0
 49
0.0
 49
1.0
175
     0
142
0.0208333333333333
142
0.0
142
0.0
142
0.0
142
0.0
142
0.0208333333333333
142
0.0
142
0.0
142
0.0
142
0.0
142
1.0
142
0.0
142
0.0
142
0.0
142
0.0
142
1.0
179
     0
144
0.0208333333333333
144
0.0
144
0.0
144
0.0
144
0.0
144
0.0208333333333333
144
0.0
144
0.0
144
0.0
144
0.0
144
1.0
144
0.0
144
0.0
144
0.0
144
0.0
144
1.0
147
0.0208333333333333
147
0.0
147
0.0
147
0.0
147
0.0
147
0.0208333333333333
147
0.0
147
0.0
147
0.0
147
0.0
147
1.0
147
0.0
147
0.0
147
0.0
147
0.0
147
1.0
  0
MATERIAL
  5
3FC
102
{ACAD_XDICTIONARY
360
3FD
102
}
102
{ACAD_REACTORS
330
3FB
102
}
330
3FB
100
AcDbMaterial
  1
ByLayer
 72
     0
 43
0.0208333333333333
 43
0.0
 43
0.0
 43
0.0
 43
0.0
 43
0.0208333333333333
 43
0.0
 43
0.0
 43
0.0
 43
0.0
 43
1.0
 43
0.0
 43
0.0
 43
0.0
 43
0.0
 43
1.0
 77
     0
 47
0.0208333333333333
 47
0.0
 47
0.0
 47
0.0
 47
0.0
 47
0.0208333333333333
 47
0.0
 47
0.0
 47
0.0
 47
0.0
 47
1.0
 47
0.0
 47
0.0
 47
0.0
 47
0.0
 47
1.0
171
     0
 49
0.0208333333333333
 49
0.0
 49
0.0
 49
0.0
 49
0.0
 49
0.0208333333333333
 49
0.0
 49
0.0
 49
0.0
 49
0.0
 49
1.0
 49
0.0
 49
0.0
 49
0.0
 49
0.0
 49
1.0
175
     0
142
0.0208333333333333
142
0.0
142
0.0
142
0.0
142
0.0
142
0.0208333333333333
142
0.0
142
0.0
142
0.0
142
0.0
142
1.0
142
0.0
142
0.0
142
0.0
142
0.0
142
1.0
179
     0
144
0.0208333333333333
144
0.0
144
0.0
144
0.0
144
0.0
144
0.0208333333333333
144
0.0
144
0.0
144
0.0
144
0.0
144
1.0
144
0.0
144
0.0
144
0.0
144
0.0
144
1.0
147
0.0208333333333333
147
0.0
147
0.0
147
0.0
147
0.0
147
0.0208333333333333
147
0.0
147
0.0
147
0.0
147
0.0
147
1.0
147
0.0
147
0.0
147
0.0
147
0.0
147
1.0
  0
MATERIAL
  5
40C
102
{ACAD_XDICTIONARY
360
40D
102
}
102
{ACAD_REACTORS
330
3FB
102
}
330
3FB
100
AcDbMaterial
  1
Global
 72
     0
 43
0.0208333333333333
 43
0.0
 43
0.0
 43
0.0
 43
0.0
 43
0.0208333333333333
 43
0.0
 43
0.0
 43
0.0
 43
0.0
 43
1.0
 43
0.0
 43
0.0
 43
0.0
 43
0.0
 43
1.0
 77
     0
 47
0.0208333333333333
 47
0.0
 47
0.0
 47
0.0
 47
0.0
 47
0.0208333333333333
 47
0.0
 47
0.0
 47
0.0
 47
0.0
 47
1.0
 47
0.0
 47
0.0
 47
0.0
 47
0.0
 47
1.0
171
     0
 49
0.0208333333333333
 49
0.0
 49
0.0
 49
0.0
 49
0.0
 49
0.0208333333333333
 49
0.0
 49
0.0
 49
0.0
 49
0.0
 49
1.0
 49
0.0
 49
0.0
 49
0.0
 49
0.0
 49
1.0
175
     0
142
0.0208333333333333
142
0.0
142
0.0
142
0.0
142
0.0
142
0.0208333333333333
142
0.0
142
0.0
142
0.0
142
0.0
142
1.0
142
0.0
142
0.0
142
0.0
142
0.0
142
1.0
179
     0
144
0.0208333333333333
144
0.0
144
0.0
144
0.0
144
0.0
144
0.0208333333333333
144
0.0
144
0.0
144
0.0
144
0.0
144
1.0
144
0.0
144
0.0
144
0.0
144
0.0
144
1.0
147
0.0208333333333333
147
0.0
147
0.0
147
0.0
147
0.0
147
0.0208333333333333
147
0.0
147
0.0
147
0.0
147
0.0
147
1.0
147
0.0
147
0.0
147
0.0
147
0.0
147
1.0
  0
MLEADERSTYLE
  5
44B
102
{ACAD_REACTORS
330
44A
102
}
330
44A
100
AcDbMLeaderStyle
170
     2
171
     1
172
     0
 90
        2
 40
0.0
 41
0.0
173
     1
 91
-1056964608
340
11
 92
       -2
290
     1
 42
0.09
291
     1
 43
0.36
  3
Standard
 44
0.18
300

342
17
174
     1
178
     6
175
     1
176
     0
 93
-1056964608
 45
0.18
292
     0
297
     0
 46
0.18
 94
-1056964608
 47
1.0
 49
1.0
140
1.0
293
     1
141
0.0
294
     1
177
     0
142
1.0
295
     0
296
     0
143
0.125
1001
ACAD_MLEADERVER
1070
     2
  0
MLINESTYLE
  5
1C
102
{ACAD_REACTORS
330
1B
102
}
330
1B
100
AcDbMlineStyle
  2
STANDARD
 70
     0
  3

 62
     0
 51
90.0
 52
90.0
 71
     2
 49
0.5
 62
   256
  6
BYLAYER
 49
-0.5
 62
   256
  6
BYLAYER
  0
ACDBPLACEHOLDER
  5
3FA
102
{ACAD_REACTORS
330
3F9
102
}
330
3F9
  0
SCALE
  5
429
102
{ACAD_REACTORS
330
428
102
}
330
428
100
AcDbScale
 70
     0
300
1:1
140
1.0
141
1.0
290
     1
  0
SCALE
  5
42A
102
{ACAD_REACTORS
330
428
102
}
330
428
100
AcDbScale
 70
     0
300
1:2
140
1.0
141
2.0
290
     0
  0
SCALE
  5
42B
102
{ACAD_REACTORS
330
428
102
}
330
428
100
AcDbScale
 70
     0
300
1:4
140
1.0
141
4.0
290
     0
  0
SCALE
  5
42C
102
{ACAD_REACTORS
330
428
102
}
330
428
100
AcDbScale
 70
     0
300
1:5
140
1.0
141
5.0
290
     0
  0
SCALE
  5
42D
102
{ACAD_REACTORS
330
428
102
}
330
428
100
AcDbScale
 70
     0
300
1:8
140
1.0
141
8.0
290
     0
  0
SCALE
  5
42E
102
{ACAD_REACTORS
330
428
102
}
330
428
100
AcDbScale
 70
     0
300
1:10
140
1.0
141
10.0
290
     0
  0
SCALE
  5
42F
102
{ACAD_REACTORS
330
428
102
}
330
428
100
AcDbScale
 70
     0
300
1:16
140
1.0
141
16.0
290
     0
  0
SCALE
  5
430
102
{ACAD_REACTORS
330
428
102
}
330
428
100
AcDbScale
 70
     0
300
1:20
140
1.0
141
20.0
290
     0
  0
SCALE
  5
431
102
{ACAD_REACTORS
330
428
102
}
330
428
100
AcDbScale
 70
     0
300
1:30
140
1.0
141
30.0
290
     0
  0
SCALE
  5
432
102
{ACAD_REACTORS
330
428
102
}
330
428
100
AcDbScale
 70
     0
300
1:40
140
1.0
141
40.0
290
     0
  0
SCALE
  5
433
102
{ACAD_REACTORS
330
428
102
}
330
428
100
AcDbScale
 70
     0
300
1:50
140
1.0
141
50.0
290
     0
  0
SCALE
  5
434
102
{ACAD_REACTORS
330
428
102
}
330
428
100
AcDbScale
 70
     0
300
1:100
140
1.0
141
100.0
290
     0
  0
SCALE
  5
435
102
{ACAD_REACTORS
330
428
102
}
330
428
100
AcDbScale
 70
     0
300
2:1
140
2.0
141
1.0
290
     0
  0
SCALE
  5
436
102
{ACAD_REACTORS
330
428
102
}
330
428
100
AcDbScale
 70
     0
300
4:1
140
4.0
141
1.0
290
     0
  0
SCALE
  5
437
102
{ACAD_REACTORS
330
428
102
}
330
428
100
AcDbScale
 70
     0
300
8:1
140
8.0
141
1.0
290
     0
  0
SCALE
  5
438
102
{ACAD_REACTORS
330
428
102
}
330
428
100
AcDbScale
 70
     0
300
10:1
140
10.0
141
1.0
290
     0
  0
SCALE
  5
439
102
{ACAD_REACTORS
330
428
102
}
330
428
100
AcDbScale
 70
     0
300
100:1
140
100.0
141
1.0
290
     0
  0
SCALE
  5
43A
102
{ACAD_REACTORS
330
428
102
}
330
428
100
AcDbScale
 70
     0
300
1/128" = 1'-0"
140
0.0078125
141
12.0
290
     0
  0
SCALE
  5
43B
102
{ACAD_REACTORS
330
428
102
}
330
428
100
AcDbScale
 70
     0
300
1/64" = 1'-0"
140
0.015625
141
12.0
290
     0
  0
SCALE
  5
43C
102
{ACAD_REACTORS
330
428
102
}
330
428
100
AcDbScale
 70
     0
300
1/32" = 1'-0"
140
0.03125
141
12.0
290
     0
  0
SCALE
  5
43D
102
{ACAD_REACTORS
330
428
102
}
330
428
100
AcDbScale
 70
     0
300
1/16" = 1'-0"
140
0.0625
141
12.0
290
     0
  0
SCALE
  5
43E
102
{ACAD_REACTORS
330
428
102
}
330
428
100
AcDbScale
 70
     0
300
3/32" = 1'-0"
140
0.09375
141
12.0
290
     0
  0
SCALE
  5
43F
102
{ACAD_REACTORS
330
428
102
}
330
428
100
AcDbScale
 70
     0
300
1/8" = 1'-0"
140
0.125
141
12.0
290
     0
  0
SCALE
  5
440
102
{ACAD_REACTORS
330
428
102
}
330
428
100
AcDbScale
 70
     0
300
3/16" = 1'-0"
140
0.1875
141
12.0
290
     0
  0
SCALE
  5
441
102
{ACAD_REACTORS
330
428
102
}
330
428
100
AcDbScale
 70
     0
300
1/4" = 1'-0"
140
0.25
141
12.0
290
     0
  0
SCALE
  5
442
102
{ACAD_REACTORS
330
428
102
}
330
428
100
AcDbScale
 70
     0
300
3/8" = 1'-0"
140
0.375
141
12.0
290
     0
  0
SCALE
  5
443
102
{ACAD_REACTORS
330
428
102
}
330
428
100
AcDbScale
 70
     0
300
1/2" = 1'-0"
140
0.5
141
12.0
290
     0
  0
SCALE
  5
444
102
{ACAD_REACTORS
330
428
102
}
330
428
100
AcDbScale
 70
     0
300
3/4" = 1'-0"
140
0.75
141
12.0
290
     0
  0
SCALE
  5
445
102
{ACAD_REACTORS
330
428
102
}
330
428
100
AcDbScale
 70
     0
300
1" = 1'-0"
140
1.0
141
12.0
290
     0
  0
SCALE
  5
446
102
{ACAD_REACTORS
330
428
102
}
330
428
100
AcDbScale
 70
     0
300
1-1/2" = 1'-0"
140
1.5
141
12.0
290
     0
  0
SCALE
  5
447
102
{ACAD_REACTORS
330
428
102
}
330
428
100
AcDbScale
 70
     0
300
3" = 1'-0"
140
3.0
141
12.0
290
     0
  0
SCALE
  5
448
102
{ACAD_REACTORS
330
428
102
}
330
428
100
AcDbScale
 70
     0
300
6" = 1'-0"
140
6.0
141
12.0
290
     0
  0
SCALE
  5
449
102
{ACAD_REACTORS
330
428
102
}
330
428
100
AcDbScale
 70
     0
300
1'-0" = 1'-0"
140
12.0
141
12.0
290
     0
  0
TABLESTYLE
  5
427
102
{ACAD_XDICTIONARY
360
505
102
}
102
{ACAD_REACTORS
330
426
102
}
330
426
100
AcDbTableStyle
  3
Standard
 70
     0
 71
     0
 40
0.06
 41
0.06
280
     0
281
     0
  7
STANDARD
140
0.18
170
     2
 62
     0
 63
     7
283
     0
274
    -2
284
     1
 64
     0
275
    -2
285
     1
 65
     0
276
    -2
286
     1
 66
     0
277
    -2
287
     1
 67
     0
278
    -2
288
     1
 68
     0
279
    -2
289
     1
 69
     0
  7
STANDARD
140
0.25
170
     5
 62
     0
 63
     7
283
     0
274
    -2
284
     1
 64
     0
275
    -2
285
     1
 65
     0
276
    -2
286
     1
 66
     0
277
    -2
287
     1
 67
     0
278
    -2
288
     1
 68
     0
279
    -2
289
     1
 69
     0
  7
STANDARD
140
0.18
170
     5
 62
     0
 63
     7
283
     0
274
    -2
284
     1
 64
     0
275
    -2
285
     1
 65
     0
276
    -2
286
     1
 66
     0
277
    -2
287
     1
 67
     0
278
    -2
288
     1
 68
     0
279
    -2
289
     1
 69
     0
  0
VISUALSTYLE
  5
41A
102
{ACAD_XDICTIONARY
360
552
102
}
102
{ACAD_REACTORS
330
414
102
}
330
414
100
AcDbVisualStyle
  2

 70
     4
 71
     0
 72
     2
 73
     0
 90
        0
 40
-0.6
 41
-30.0
 62
     5
 63
     7
 74
     1
 91
        4
 64
     7
 65
   257
 75
     1
175
     1
 42
1.0
 92
        0
 66
   257
 43
1.0
 76
     1
 77
     6
 78
     2
 67
     7
 79
     5
170
     0
171
     0
290
     0
174
     0
 93
        1
 44
0.0
173
     0
291
     0
 45
0.0
1001
ACAD
1000
AcDbSavedByObjectVersion
1070
     0
  0
VISUALSTYLE
  5
41C
102
{ACAD_XDICTIONARY
360
556
102
}
102
{ACAD_REACTORS
330
414
102
}
330
414
100
AcDbVisualStyle
  2

 70
     6
 71
     1
 72
     2
 73
     2
 90
        0
 40
-0.6
 41
-30.0
 62
     5
 63
     7
 74
     2
 91
        2
 64
     7
 65
   257
 75
     2
175
     1
 42
40.0
 92
        0
 66
   257
 43
1.0
 76
     1
 77
     6
 78
     2
 67
     7
 79
     3
170
     0
171
     0
290
     0
174
     0
 93
        1
 44
0.0
173
     0
291
     0
 45
0.0
1001
ACAD
1000
AcDbSavedByObjectVersion
1070
     0
  0
VISUALSTYLE
  5
41B
102
{ACAD_XDICTIONARY
360
554
102
}
102
{ACAD_REACTORS
330
414
102
}
330
414
100
AcDbVisualStyle
  2

 70
     5
 71
     0
 72
     2
 73
     0
 90
        0
 40
-0.6
 41
-30.0
 62
     5
 63
     7
 74
     1
 91
        4
 64
     7
 65
   257
 75
     1
175
     1
 42
1.0
 92
        0
 66
   257
 43
1.0
 76
     1
 77
     6
 78
     2
 67
     7
 79
     5
170
     0
171
     0
290
     0
174
     0
 93
        1
 44
0.0
173
     0
291
     0
 45
0.0
1001
ACAD
1000
AcDbSavedByObjectVersion
1070
     0
  0
VISUALSTYLE
  5
419
102
{ACAD_XDICTIONARY
360
550
102
}
102
{ACAD_REACTORS
330
414
102
}
330
414
100
AcDbVisualStyle
  2

 70
     7
 71
     1
 72
     0
 73
     1
 90
        0
 40
-0.6
 41
-30.0
 62
     5
 63
     7
 74
     0
 91
        4
 64
     7
 65
   257
 75
     1
175
     1
 42
1.0
 92
        8
 66
     7
 43
1.0
 76
     1
 77
     6
 78
     2
 67
     7
 79
     5
170
     0
171
     0
290
     0
174
     0
 93
        1
 44
0.0
173
     0
291
     1
 45
0.0
1001
ACAD
1000
AcDbSavedByObjectVersion
1070
     0
  0
VISUALSTYLE
  5
420
102
{ACAD_XDICTIONARY
360
55E
102
}
102
{ACAD_REACTORS
330
414
102
}
330
414
100
AcDbVisualStyle
  2

 70
    12
 71
     2
 72
     2
 73
     0
 90
        0
 40
-0.6
 41
-30.0
 62
     5
 63
     7
 74
     1
 91
        4
 64
     7
 65
   257
 75
     1
175
     1
 42
1.0
 92
        8
 66
     7
 43
1.0
 76
     1
 77
     6
 78
     2
 67
     7
 79
     5
170
     0
171
     0
290
     0
174
     0
 93
        1
 44
50.0
173
     0
291
     1
 45
0.0
1001
ACAD
1000
AcDbSavedByObjectVersion
1070
     0
  0
VISUALSTYLE
  5
424
102
{ACAD_XDICTIONARY
360
566
102
}
102
{ACAD_REACTORS
330
414
102
}
330
414
100
AcDbVisualStyle
  2

 70
    16
 71
     2
 72
     2
 73
     3
 90
        0
 40
-0.6
 41
-30.0
 62
     5
 63
     8
 74
     1
 91
        4
 64
     7
 65
   257
 75
     1
175
     1
 42
1.0
 92
        8
 66
     8
 43
1.0
 76
     1
 77
     6
 78
     2
 67
     7
 79
     5
170
     0
171
     0
290
     0
174
     0
 93
        1
 44
0.0
173
     0
291
     1
 45
0.0
1001
ACAD
1000
AcDbSavedByObjectVersion
1070
     0
  0
VISUALSTYLE
  5
41D
102
{ACAD_XDICTIONARY
360
558
102
}
102
{ACAD_REACTORS
330
414
102
}
330
414
100
AcDbVisualStyle
  2

 70
     9
 71
     3
 72
     2
 73
     0
 90
        0
 40
-0.6
 41
-30.0
 62
     5
 63
     7
 74
     2
 91
        2
 64
     7
 65
   257
 75
     1
175
     1
 42
40.0
 92
        8
 66
     7
 43
1.0
 76
     1
 77
     6
 78
     2
 67
     7
 79
     3
170
     0
171
     0
290
     0
174
     0
 93
        1
 44
0.0
173
     0
291
     0
 45
0.0
1001
ACAD
1000
AcDbSavedByObjectVersion
1070
     0
  0
VISUALSTYLE
  5
41F
102
{ACAD_XDICTIONARY
360
55C
102
}
102
{ACAD_REACTORS
330
414
102
}
330
414
100
AcDbVisualStyle
  2

 70
    11
 71
     2
 72
     2
 73
     0
 90
        0
 40
-0.6
 41
-30.0
 62
     5
 63
     7
 74
     1
 91
        4
 64
     7
 65
   257
 75
     1
175
     1
 42
1.0
 92
        8
 66
     7
 43
1.0
 76
     1
 77
     6
 78
     2
 67
     7
 79
     5
170
     0
171
     0
290
     0
174
     0
 93
        1
 44
-50.0
173
     0
291
     1
 45
0.0
1001
ACAD
1000
AcDbSavedByObjectVersion
1070
     0
  0
VISUALSTYLE
  5
51E
102
{ACAD_XDICTIONARY
360
57F
102
}
102
{ACAD_REACTORS
330
414
102
}
330
414
100
AcDbVisualStyle
  2
EdgeColorOff
 70
    22
 71
     2
 72
     2
 73
     0
 90
        0
 40
-0.6
 41
-30.0
 62
     5
 63
     7
 74
     1
 91
        4
 64
     7
 65
   257
 75
     1
175
     1
 42
1.0
 92
        8
 66
     7
 43
1.0
 76
     1
 77
     6
 78
     2
 67
     7
 79
     5
170
     0
171
     0
290
     0
174
     0
 93
        1
 44
0.0
173
     0
291
     1
 45
0.0
1001
ACAD
1000
AcDbSavedByObjectVersion
1070
     0
  0
VISUALSTYLE
  5
423
102
{ACAD_XDICTIONARY
360
564
102
}
102
{ACAD_REACTORS
330
414
102
}
330
414
100
AcDbVisualStyle
  2

 70
    15
 71
     2
 72
     2
 73
     0
 90
        0
 40
-0.6
 41
-30.0
 62
     5
 63
     7
 74
     1
 91
        4
 64
     7
 65
   257
 75
     1
175
     1
 42
1.0
 92
        8
 66
     7
 43
1.0
 76
     1
 77
     6
 78
     2
 67
     7
 79
     5
170
     0
171
     0
290
     0
174
     0
 93
        1
 44
0.0
173
     0
291
     1
 45
0.0
1001
ACAD
1000
AcDbSavedByObjectVersion
1070
     0
  0
VISUALSTYLE
  5
415
102
{ACAD_XDICTIONARY
360
548
102
}
102
{ACAD_REACTORS
330
414
102
}
330
414
100
AcDbVisualStyle
  2

 70
     0
 71
     2
 72
     1
 73
     1
 90
        2
 40
-0.6
 41
30.0
 62
     5
 63
     7
 74
     0
 91
        4
 64
     7
 65
   257
 75
     1
175
     1
 42
1.0
 92
        8
 66
     7
 43
1.0
 76
     1
 77
     6
 78
     2
 67
     7
 79
     5
170
     0
171
     0
290
     0
174
     0
 93
       13
 44
0.0
173
     0
291
     1
 45
0.0
1001
ACAD
1000
AcDbSavedByObjectVersion
1070
     0
  0
VISUALSTYLE
  5
416
102
{ACAD_XDICTIONARY
360
54A
102
}
102
{ACAD_REACTORS
330
414
102
}
330
414
100
AcDbVisualStyle
  2

 70
     1
 71
     2
 72
     1
 73
     1
 90
        2
 40
-0.6
 41
30.0
 62
     5
 63
     7
 74
     1
 91
        4
 64
     7
 65
   257
 75
     1
175
     1
 42
1.0
 92
        0
 66
   257
 43
1.0
 76
     1
 77
     6
 78
     2
 67
     7
 79
     5
170
     0
171
     0
290
     0
174
     0
 93
       13
 44
0.0
173
     0
291
     1
 45
0.0
1001
ACAD
1000
AcDbSavedByObjectVersion
1070
     0
  0
VISUALSTYLE
  5
417
102
{ACAD_XDICTIONARY
360
54C
102
}
102
{ACAD_REACTORS
330
414
102
}
330
414
100
AcDbVisualStyle
  2

 70
     2
 71
     2
 72
     2
 73
     1
 90
        2
 40
-0.6
 41
30.0
 62
     5
 63
     7
 74
     0
 91
        4
 64
     7
 65
   257
 75
     1
175
     1
 42
1.0
 92
        0
 66
     7
 43
1.0
 76
     1
 77
     6
 78
     2
 67
     7
 79
     5
170
     0
171
     0
290
     0
174
     0
 93
       13
 44
0.0
173
     0
291
     1
 45
0.0
1001
ACAD
1000
AcDbSavedByObjectVersion
1070
     0
  0
VISUALSTYLE
  5
418
102
{ACAD_XDICTIONARY
360
54E
102
}
102
{ACAD_REACTORS
330
414
102
}
330
414
100
AcDbVisualStyle
  2

 70
     3
 71
     2
 72
     2
 73
     1
 90
        2
 40
-0.6
 41
30.0
 62
     5
 63
     7
 74
     1
 91
        4
 64
     7
 65
   257
 75
     1
175
     1
 42
1.0
 92
        0
 66
   257
 43
1.0
 76
     1
 77
     6
 78
     2
 67
     7
 79
     5
170
     0
171
     0
290
     0
174
     0
 93
       13
 44
0.0
173
     0
291
     1
 45
0.0
1001
ACAD
1000
AcDbSavedByObjectVersion
1070
     0
  0
VISUALSTYLE
  5
516
102
{ACAD_XDICTIONARY
360
56F
102
}
102
{ACAD_REACTORS
330
414
102
}
330
414
100
AcDbVisualStyle
  2
Hidden
 70
     6
 71
     1
 72
     2
 73
     2
 90
        0
 40
-0.6
 41
-30.0
 62
     5
 63
     7
 74
     2
 91
        2
 64
     7
 65
   257
 75
     2
175
     1
 42
40.0
 92
        0
 66
   257
 43
1.0
 76
     1
 77
     6
 78
     2
 67
     7
 79
     3
170
     0
171
     0
290
     0
174
     0
 93
        1
 44
0.0
173
     0
291
     0
 45
0.0
1001
ACAD
1000
AcDbSavedByObjectVersion
1070
     0
  0
VISUALSTYLE
  5
51C
102
{ACAD_XDICTIONARY
360
57B
102
}
102
{ACAD_REACTORS
330
414
102
}
330
414
100
AcDbVisualStyle
  2
JitterOff
 70
    20
 71
     2
 72
     2
 73
     0
 90
        0
 40
-0.6
 41
-30.0
 62
     5
 63
     7
 74
     1
 91
        4
 64
     7
 65
   257
 75
     1
175
     1
 42
1.0
 92
       10
 66
     7
 43
1.0
 76
     1
 77
     6
 78
     2
 67
     7
 79
     5
170
     0
171
     0
290
     0
174
     0
 93
        1
 44
0.0
173
     0
291
     1
 45
0.0
1001
ACAD
1000
AcDbSavedByObjectVersion
1070
     0
  0
VISUALSTYLE
  5
422
102
{ACAD_XDICTIONARY
360
562
102
}
102
{ACAD_REACTORS
330
414
102
}
330
414
100
AcDbVisualStyle
  2

 70
    14
 71
     2
 72
     2
 73
     0
 90
        0
 40
-0.6
 41
-30.0
 62
     5
 63
     7
 74
     1
 91
        4
 64
     7
 65
   257
 75
     7
175
     7
 42
1.0
 92
        8
 66
     7
 43
1.0
 76
     1
 77
     6
 78
     2
 67
     7
 79
     5
170
     0
171
     0
290
     0
174
     0
 93
        1
 44
0.0
173
     0
291
     1
 45
0.0
1001
ACAD
1000
AcDbSavedByObjectVersion
1070
     0
  0
VISUALSTYLE
  5
51D
102
{ACAD_XDICTIONARY
360
57D
102
}
102
{ACAD_REACTORS
330
414
102
}
330
414
100
AcDbVisualStyle
  2
OverhangOff
 70
    21
 71
     2
 72
     2
 73
     0
 90
        0
 40
-0.6
 41
-30.0
 62
     5
 63
     7
 74
     1
 91
        4
 64
     7
 65
   257
 75
     1
175
     1
 42
1.0
 92
        9
 66
     7
 43
1.0
 76
     1
 77
     6
 78
     2
 67
     7
 79
     5
170
     0
171
     0
290
     0
174
     0
 93
        1
 44
0.0
173
     0
291
     1
 45
0.0
1001
ACAD
1000
AcDbSavedByObjectVersion
1070
     0
  0
VISUALSTYLE
  5
41E
102
{ACAD_XDICTIONARY
360
55A
102
}
102
{ACAD_REACTORS
330
414
102
}
330
414
100
AcDbVisualStyle
  2

 70
     8
 71
     2
 72
     2
 73
     0
 90
        0
 40
-0.6
 41
-30.0
 62
     5
 63
     7
 74
     1
 91
        0
 64
     7
 65
   257
 75
     1
175
     1
 42
1.0
 92
        8
 66
     8
 43
1.0
 76
     1
 77
     6
 78
     2
 67
     7
 79
     5
170
     0
171
     0
290
     0
174
     0
 93
       13
 44
0.0
173
     0
291
     0
 45
0.0
1001
ACAD
1000
AcDbSavedByObjectVersion
1070
     0
  0
VISUALSTYLE
  5
51B
102
{ACAD_XDICTIONARY
360
579
102
}
102
{ACAD_REACTORS
330
414
102
}
330
414
100
AcDbVisualStyle
  2
Shaded
 70
    27
 71
     2
 72
     2
 73
     1
 90
        2
 40
-0.6
 41
30.0
 62
     5
 63
     7
 74
     0
 91
        4
 64
     7
 65
   257
 75
     1
175
     1
 42
1.0
 92
        8
 66
   257
 43
1.0
 76
     1
 77
     6
 78
     2
 67
     8
 79
     3
170
     0
171
     0
290
     0
174
     0
 93
        5
 44
0.0
173
     0
291
     0
 45
0.0
1001
ACAD
1000
AcDbSavedByObjectVersion
1070
     0
  0
VISUALSTYLE
  5
51A
102
{ACAD_XDICTIONARY
360
577
102
}
102
{ACAD_REACTORS
330
414
102
}
330
414
100
AcDbVisualStyle
  2
Shaded with edges
 70
    26
 71
     2
 72
     2
 73
     1
 90
        2
 40
-0.6
 41
30.0
 62
     5
 63
     7
 74
     1
 91
       10
 64
     7
 65
   257
 75
     2
175
     1
 42
1.0
 92
        8
 66
   257
 43
1.0
 76
     1
 77
     6
 78
     2
 67
     7
 79
     3
170
     0
171
     0
290
     0
174
     0
 93
        5
 44
0.0
173
     0
291
     0
 45
0.0
1001
ACAD
1000
AcDbSavedByObjectVersion
1070
     0
  0
VISUALSTYLE
  5
517
102
{ACAD_XDICTIONARY
360
571
102
}
102
{ACAD_REACTORS
330
414
102
}
330
414
100
AcDbVisualStyle
  2
Shades of Gray
 70
    23
 71
     2
 72
     2
 73
     3
 90
        0
 40
-0.6
 41
-30.0
 62
     5
 63
     7
 74
     2
 91
        2
 64
     7
 65
     7
 75
     1
175
     1
 42
40.0
 92
        8
 66
     7
 43
1.0
 76
     1
 77
     6
 78
     2
 67
     7
 79
     3
170
     0
171
     0
290
     0
174
     0
 93
        1
 44
0.0
173
     0
291
     0
 45
0.0
1001
ACAD
1000
AcDbSavedByObjectVersion
1070
     0
  0
VISUALSTYLE
  5
518
102
{ACAD_XDICTIONARY
360
573
102
}
102
{ACAD_REACTORS
330
414
102
}
330
414
100
AcDbVisualStyle
  2
Sketchy
 70
    24
 71
     1
 72
     2
 73
     2
 90
        0
 40
-0.6
 41
-30.0
 62
     5
 63
     7
 74
     2
 91
        2
 64
     7
 65
     7
 75
     1
175
     1
 42
40.0
 92
       11
 66
     7
 43
1.0
 76
     1
 77
     6
 78
     2
 67
     7
 79
     6
170
     0
171
     0
290
     0
174
     0
 93
        1
 44
0.0
173
     0
291
     0
 45
0.0
1001
ACAD
1000
AcDbSavedByObjectVersion
1070
     0
  0
VISUALSTYLE
  5
421
102
{ACAD_XDICTIONARY
360
560
102
}
102
{ACAD_REACTORS
330
414
102
}
330
414
100
AcDbVisualStyle
  2

 70
    13
 71
     2
 72
     2
 73
     0
 90
        0
 40
-0.6
 41
-30.0
 62
     5
 63
     7
 74
     1
 91
        4
 64
     7
 65
   257
 75
     1
175
     1
 42
1.0
 92
       12
 66
     7
 43
1.0
 76
     1
 77
     6
 78
     2
 67
     7
 79
     5
170
     0
171
     0
290
     0
174
     0
 93
        1
 44
0.0
173
     0
291
     1
 45
0.0
1001
ACAD
1000
AcDbSavedByObjectVersion
1070
     0
  0
VISUALSTYLE
  5
515
102
{ACAD_XDICTIONARY
360
56D
102
}
102
{ACAD_REACTORS
330
414
102
}
330
414
100
AcDbVisualStyle
  2
Wireframe
 70
     5
 71
     0
 72
     2
 73
     0
 90
        0
 40
-0.6
 41
-30.0
 62
     5
 63
     7
 74
     1
 91
        4
 64
     7
 65
   257
 75
     1
175
     1
 42
1.0
 92
        0
 66
   257
 43
1.0
 76
     1
 77
     6
 78
     2
 67
     7
 79
     3
170
     0
171
     0
290
     0
174
     0
 93
        1
 44
0.0
173
     0
291
     0
 45
0.0
1001
ACAD
1000
AcDbSavedByObjectVersion
1070
     0
  0
VISUALSTYLE
  5
519
102
{ACAD_XDICTIONARY
360
575
102
}
102
{ACAD_REACTORS
330
414
102
}
330
414
100
AcDbVisualStyle
  2
X-Ray
 70
    25
 71
     2
 72
     2
 73
     1
 90
        1
 40
0.5
 41
-30.0
 62
     5
 63
     7
 74
     1
 91
        0
 64
     7
 65
   257
 75
     1
175
     1
 42
1.0
 92
        8
 66
     7
 43
1.0
 76
     1
 77
     6
 78
     2
 67
     7
 79
     3
170
     0
171
     0
290
     0
174
     0
 93
       13
 44
0.0
173
     0
291
     0
 45
0.0
1001
ACAD
1000
AcDbSavedByObjectVersion
1070
     0
  0
DICTIONARYVAR
  5
501
102
{ACAD_REACTORS
330
4FE
102
}
330
4FE
100
DictionaryVariables
280
     0
  1
1:1
  0
DICTIONARYVAR
  5
500
102
{ACAD_REACTORS
330
4FE
102
}
330
4FE
100
DictionaryVariables
280
     0
  1
STANDARD
  0
DICTIONARYVAR
  5
4FF
102
{ACAD_REACTORS
330
4FE
102
}
330
4FE
100
DictionaryVariables
280
     0
  1
STANDARD
  0
DICTIONARYVAR
  5
504
102
{ACAD_REACTORS
330
4FE
102
}
330
4FE
100
DictionaryVariables
280
     0
  1
1
  0
DICTIONARYVAR
  5
503
102
{ACAD_REACTORS
330
4FE
102
}
330
4FE
100
DictionaryVariables
280
     0
  1
0
  0
DICTIONARYVAR
  5
502
102
{ACAD_REACTORS
330
4FE
102
}
330
4FE
100
DictionaryVariables
280
     0
  1
127
  0
DICTIONARYVAR
  5
544
102
{ACAD_REACTORS
330
4FE
102
}
330
4FE
100
DictionaryVariables
280
     0
  1
2
  0
XRECORD
  5
4FD
102
{ACAD_REACTORS
330
4FB
102
}
330
4FB
100
AcDbXrecord
280
     1
330
232
330
198
330
19B
330
1A1
330
1A2
330
1A9
330
1AA
330
1B1
330
1B2
330
23A
330
23B
330
244
330
245
330
24E
330
24F
330
271
330
272
330
27D
330
27E
330
289
330
28A
330
4EB
330
4EC
330
29B
330
29C
330
2A3
330
2A4
330
2AB
330
2AC
330
2B5
330
2B6
330
2BF
330
2C0
330
2C9
330
2CA
330
2D3
330
2D4
330
2DD
330
2DE
330
3D8
330
3D9
330
3E3
330
3E4
330
4A9
330
4AE
330
4B3
330
4D6
330
4D7
330
4E1
330
4E2
  0
DICTIONARY
  5
569
330
44F
100
AcDbDictionary
280
     1
281
     1
  3
ACAD_XREC_ROUNDTRIP
360
56A
  0
DICTIONARY
  5
56B
330
450
100
AcDbDictionary
280
     1
281
     1
  3
ACAD_XREC_ROUNDTRIP
360
56C
  0
DICTIONARY
  5
405
330
404
100
AcDbDictionary
280
     1
281
     1
  3
ACAD_XREC_ROUNDTRIP
360
50A
  3
BUMPTILE
360
407
  3
DIFFUSETILE
360
406
  3
OPACITYTILE
360
40A
  3
REFLECTIONTILE
360
409
  3
REFRACTIONTILE
360
40B
  3
SPECULARTILE
360
408
  0
DICTIONARY
  5
3FD
330
3FC
100
AcDbDictionary
280
     1
281
     1
  3
ACAD_XREC_ROUNDTRIP
360
509
  3
BUMPTILE
360
3FF
  3
DIFFUSETILE
360
3FE
  3
OPACITYTILE
360
402
  3
REFLECTIONTILE
360
401
  3
REFRACTIONTILE
360
403
  3
SPECULARTILE
360
400
  0
DICTIONARY
  5
40D
330
40C
100
AcDbDictionary
280
     1
281
     1
  3
ACAD_XREC_ROUNDTRIP
360
50B
  3
BUMPTILE
360
40F
  3
DIFFUSETILE
360
40E
  3
OPACITYTILE
360
412
  3
REFLECTIONTILE
360
411
  3
REFRACTIONTILE
360
413
  3
SPECULARTILE
360
410
  0
DICTIONARY
  5
505
330
427
100
AcDbDictionary
280
     1
281
     1
  3
ACAD_ROUNDTRIP_2008_TABLESTYLE_CELLSTYLEMAP
360
545
  3
ACAD_XREC_ROUNDTRIP
360
568
  0
DICTIONARY
  5
552
330
41A
100
AcDbDictionary
280
     1
281
     1
  3
ACAD_XREC_ROUNDTRIP
360
553
  0
DICTIONARY
  5
556
330
41C
100
AcDbDictionary
280
     1
281
     1
  3
ACAD_XREC_ROUNDTRIP
360
557
  0
DICTIONARY
  5
554
330
41B
100
AcDbDictionary
280
     1
281
     1
  3
ACAD_XREC_ROUNDTRIP
360
555
  0
DICTIONARY
  5
550
330
419
100
AcDbDictionary
280
     1
281
     1
  3
ACAD_XREC_ROUNDTRIP
360
551
  0
DICTIONARY
  5
55E
330
420
100
AcDbDictionary
280
     1
281
     1
  3
ACAD_XREC_ROUNDTRIP
360
55F
  0
DICTIONARY
  5
566
330
424
100
AcDbDictionary
280
     1
281
     1
  3
ACAD_XREC_ROUNDTRIP
360
567
  0
DICTIONARY
  5
558
330
41D
100
AcDbDictionary
280
     1
281
     1
  3
ACAD_XREC_ROUNDTRIP
360
559
  0
DICTIONARY
  5
55C
330
41F
100
AcDbDictionary
280
     1
281
     1
  3
ACAD_XREC_ROUNDTRIP
360
55D
  0
DICTIONARY
  5
57F
330
51E
100
AcDbDictionary
280
     1
281
     1
  3
ACAD_XREC_ROUNDTRIP
360
580
  0
DICTIONARY
  5
564
330
423
100
AcDbDictionary
280
     1
281
     1
  3
ACAD_XREC_ROUNDTRIP
360
565
  0
DICTIONARY
  5
548
330
415
100
AcDbDictionary
280
     1
281
     1
  3
ACAD_XREC_ROUNDTRIP
360
549
  0
DICTIONARY
  5
54A
330
416
100
AcDbDictionary
280
     1
281
     1
  3
ACAD_XREC_ROUNDTRIP
360
54B
  0
DICTIONARY
  5
54C
330
417
100
AcDbDictionary
280
     1
281
     1
  3
ACAD_XREC_ROUNDTRIP
360
54D
  0
DICTIONARY
  5
54E
330
418
100
AcDbDictionary
280
     1
281
     1
  3
ACAD_XREC_ROUNDTRIP
360
54F
  0
DICTIONARY
  5
56F
330
516
100
AcDbDictionary
280
     1
281
     1
  3
ACAD_XREC_ROUNDTRIP
360
570
  0
DICTIONARY
  5
57B
330
51C
100
AcDbDictionary
280
     1
281
     1
  3
ACAD_XREC_ROUNDTRIP
360
57C
  0
DICTIONARY
  5
562
330
422
100
AcDbDictionary
280
     1
281
     1
  3
ACAD_XREC_ROUNDTRIP
360
563
  0
DICTIONARY
  5
57D
330
51D
100
AcDbDictionary
280
     1
281
     1
  3
ACAD_XREC_ROUNDTRIP
360
57E
  0
DICTIONARY
  5
55A
330
41E
100
AcDbDictionary
280
     1
281
     1
  3
ACAD_XREC_ROUNDTRIP
360
55B
  0
DICTIONARY
  5
579
330
51B
100
AcDbDictionary
280
     1
281
     1
  3
ACAD_XREC_ROUNDTRIP
360
57A
  0
DICTIONARY
  5
577
330
51A
100
AcDbDictionary
280
     1
281
     1
  3
ACAD_XREC_ROUNDTRIP
360
578
  0
DICTIONARY
  5
571
330
517
100
AcDbDictionary
280
     1
281
     1
  3
ACAD_XREC_ROUNDTRIP
360
572
  0
DICTIONARY
  5
573
330
518
100
AcDbDictionary
280
     1
281
     1
  3
ACAD_XREC_ROUNDTRIP
360
574
  0
DICTIONARY
  5
560
330
421
100
AcDbDictionary
280
     1
281
     1
  3
ACAD_XREC_ROUNDTRIP
360
561
  0
DICTIONARY
  5
56D
330
515
100
AcDbDictionary
280
     1
281
     1
  3
ACAD_XREC_ROUNDTRIP
360
56E
  0
DICTIONARY
  5
575
330
519
100
AcDbDictionary
280
     1
281
     1
  3
ACAD_XREC_ROUNDTRIP
360
576
  0
XRECORD
  5
56A
102
{ACAD_REACTORS
330
569
102
}
330
569
100
AcDbXrecord
280
     1
102
SHADEPLOT
 70
     0
102
SHADEPLOTRESLEVEL
 70
     2
102
SHADEPLOTCUSTOMDPI
 70
   300
  0
XRECORD
  5
56C
102
{ACAD_REACTORS
330
56B
102
}
330
56B
100
AcDbXrecord
280
     1
102
SHADEPLOT
 70
     0
102
SHADEPLOTRESLEVEL
 70
     2
102
SHADEPLOTCUSTOMDPI
 70
   300
  0
XRECORD
  5
50A
102
{ACAD_REACTORS
330
405
102
}
330
405
100
AcDbXrecord
280
     1
102
MATERIAL
148
0.0
149
0.0
149
0.0
 93
        0
 94
      127
282
     0
 72
     0
 77
     0
171
     0
175
     0
179
     0
273
     0
  0
XRECORD
  5
407
102
{ACAD_REACTORS
330
405
102
}
330
405
100
AcDbXrecord
280
     1
270
     1
271
     1
  0
XRECORD
  5
406
102
{ACAD_REACTORS
330
405
102
}
330
405
100
AcDbXrecord
280
     1
270
     1
271
     1
  0
XRECORD
  5
40A
102
{ACAD_REACTORS
330
405
102
}
330
405
100
AcDbXrecord
280
     1
270
     1
271
     1
  0
XRECORD
  5
409
102
{ACAD_REACTORS
330
405
102
}
330
405
100
AcDbXrecord
280
     1
270
     1
271
     1
  0
XRECORD
  5
40B
102
{ACAD_REACTORS
330
405
102
}
330
405
100
AcDbXrecord
280
     1
270
     1
271
     1
  0
XRECORD
  5
408
102
{ACAD_REACTORS
330
405
102
}
330
405
100
AcDbXrecord
280
     1
270
     1
271
     1
  0
XRECORD
  5
509
102
{ACAD_REACTORS
330
3FD
102
}
330
3FD
100
AcDbXrecord
280
     1
102
MATERIAL
148
0.0
149
0.0
149
0.0
 93
        0
 94
      127
282
     0
 72
     0
 77
     0
171
     0
175
     0
179
     0
273
     0
  0
XRECORD
  5
3FF
102
{ACAD_REACTORS
330
3FD
102
}
330
3FD
100
AcDbXrecord
280
     1
270
     1
271
     1
  0
XRECORD
  5
3FE
102
{ACAD_REACTORS
330
3FD
102
}
330
3FD
100
AcDbXrecord
280
     1
270
     1
271
     1
  0
XRECORD
  5
402
102
{ACAD_REACTORS
330
3FD
102
}
330
3FD
100
AcDbXrecord
280
     1
270
     1
271
     1
  0
XRECORD
  5
401
102
{ACAD_REACTORS
330
3FD
102
}
330
3FD
100
AcDbXrecord
280
     1
270
     1
271
     1
  0
XRECORD
  5
403
102
{ACAD_REACTORS
330
3FD
102
}
330
3FD
100
AcDbXrecord
280
     1
270
     1
271
     1
  0
XRECORD
  5
400
102
{ACAD_REACTORS
330
3FD
102
}
330
3FD
100
AcDbXrecord
280
     1
270
     1
271
     1
  0
XRECORD
  5
50B
102
{ACAD_REACTORS
330
40D
102
}
330
40D
100
AcDbXrecord
280
     1
102
MATERIAL
148
0.0
149
0.0
149
0.0
 93
        0
 94
      127
282
     0
 72
     0
 77
     0
171
     0
175
     0
179
     0
273
     0
  0
XRECORD
  5
40F
102
{ACAD_REACTORS
330
40D
102
}
330
40D
100
AcDbXrecord
280
     1
270
     1
271
     1
  0
XRECORD
  5
40E
102
{ACAD_REACTORS
330
40D
102
}
330
40D
100
AcDbXrecord
280
     1
270
     1
271
     1
  0
XRECORD
  5
412
102
{ACAD_REACTORS
330
40D
102
}
330
40D
100
AcDbXrecord
280
     1
270
     1
271
     1
  0
XRECORD
  5
411
102
{ACAD_REACTORS
330
40D
102
}
330
40D
100
AcDbXrecord
280
     1
270
     1
271
     1
  0
XRECORD
  5
413
102
{ACAD_REACTORS
330
40D
102
}
330
40D
100
AcDbXrecord
280
     1
270
     1
271
     1
  0
XRECORD
  5
410
102
{ACAD_REACTORS
330
40D
102
}
330
40D
100
AcDbXrecord
280
     1
270
     1
271
     1
  0
CELLSTYLEMAP
  5
545
102
{ACAD_REACTORS
330
505
102
}
330
505
100
AcDbCellStyleMap
 90
        3
300
CELLSTYLE
  1
TABLEFORMAT_BEGIN
 90
        5
170
     1
 91
        0
 92
    32768
 62
   257
 93
        1
300
CONTENTFORMAT
  1
CONTENTFORMAT_BEGIN
 90
        0
 91
        0
 92
      512
 93
        0
300

 40
0.0
140
1.0
 94
        5
 62
     0
340
17
144
0.25
309
CONTENTFORMAT_END
171
     1
301
MARGIN
  1
CELLMARGIN_BEGIN
 40
0.06
 40
0.06
 40
0.06
 40
0.06
 40
0.18
 40
0.18
309
CELLMARGIN_END
 94
        6
 95
        1
302
GRIDFORMAT
  1
GRIDFORMAT_BEGIN
 90
        0
 91
        1
 62
     0
 92
       -2
340
0
 93
        0
 40
0.045
309
GRIDFORMAT_END
 95
        2
302
GRIDFORMAT
  1
GRIDFORMAT_BEGIN
 90
        0
 91
        1
 62
     0
 92
       -2
340
0
 93
        0
 40
0.045
309
GRIDFORMAT_END
 95
        4
302
GRIDFORMAT
  1
GRIDFORMAT_BEGIN
 90
        0
 91
        1
 62
     0
 92
       -2
340
0
 93
        0
 40
0.045
309
GRIDFORMAT_END
 95
        8
302
GRIDFORMAT
  1
GRIDFORMAT_BEGIN
 90
        0
 91
        1
 62
     0
 92
       -2
340
0
 93
        0
 40
0.045
309
GRIDFORMAT_END
 95
       16
302
GRIDFORMAT
  1
GRIDFORMAT_BEGIN
 90
        0
 91
        1
 62
     0
 92
       -2
340
0
 93
        0
 40
0.045
309
GRIDFORMAT_END
 95
       32
302
GRIDFORMAT
  1
GRIDFORMAT_BEGIN
 90
        0
 91
        1
 62
     0
 92
       -2
340
0
 93
        0
 40
0.045
309
GRIDFORMAT_END
309
TABLEFORMAT_END
  1
CELLSTYLE_BEGIN
 90
        1
 91
        1
300
_TITLE
309
CELLSTYLE_END
300
CELLSTYLE
  1
TABLEFORMAT_BEGIN
 90
        5
170
     1
 91
        0
 92
        0
 62
   257
 93
        1
300
CONTENTFORMAT
  1
CONTENTFORMAT_BEGIN
 90
        0
 91
        0
 92
      512
 93
        0
300

 40
0.0
140
1.0
 94
        5
 62
     0
340
17
144
0.18
309
CONTENTFORMAT_END
171
     1
301
MARGIN
  1
CELLMARGIN_BEGIN
 40
0.06
 40
0.06
 40
0.06
 40
0.06
 40
0.18
 40
0.18
309
CELLMARGIN_END
 94
        6
 95
        1
302
GRIDFORMAT
  1
GRIDFORMAT_BEGIN
 90
        0
 91
        1
 62
     0
 92
       -2
340
0
 93
        0
 40
0.045
309
GRIDFORMAT_END
 95
        2
302
GRIDFORMAT
  1
GRIDFORMAT_BEGIN
 90
        0
 91
        1
 62
     0
 92
       -2
340
0
 93
        0
 40
0.045
309
GRIDFORMAT_END
 95
        4
302
GRIDFORMAT
  1
GRIDFORMAT_BEGIN
 90
        0
 91
        1
 62
     0
 92
       -2
340
0
 93
        0
 40
0.045
309
GRIDFORMAT_END
 95
        8
302
GRIDFORMAT
  1
GRIDFORMAT_BEGIN
 90
        0
 91
        1
 62
     0
 92
       -2
340
0
 93
        0
 40
0.045
309
GRIDFORMAT_END
 95
       16
302
GRIDFORMAT
  1
GRIDFORMAT_BEGIN
 90
        0
 91
        1
 62
     0
 92
       -2
340
0
 93
        0
 40
0.045
309
GRIDFORMAT_END
 95
       32
302
GRIDFORMAT
  1
GRIDFORMAT_BEGIN
 90
        0
 91
        1
 62
     0
 92
       -2
340
0
 93
        0
 40
0.045
309
GRIDFORMAT_END
309
TABLEFORMAT_END
  1
CELLSTYLE_BEGIN
 90
        2
 91
        1
300
_HEADER
309
CELLSTYLE_END
300
CELLSTYLE
  1
TABLEFORMAT_BEGIN
 90
        5
170
     1
 91
        0
 92
        0
 62
   257
 93
        1
300
CONTENTFORMAT
  1
CONTENTFORMAT_BEGIN
 90
        0
 91
        0
 92
      512
 93
        0
300

 40
0.0
140
1.0
 94
        2
 62
     0
340
17
144
0.18
309
CONTENTFORMAT_END
171
     1
301
MARGIN
  1
CELLMARGIN_BEGIN
 40
0.06
 40
0.06
 40
0.06
 40
0.06
 40
0.18
 40
0.18
309
CELLMARGIN_END
 94
        6
 95
        1
302
GRIDFORMAT
  1
GRIDFORMAT_BEGIN
 90
        0
 91
        1
 62
     0
 92
       -2
340
0
 93
        0
 40
0.045
309
GRIDFORMAT_END
 95
        2
302
GRIDFORMAT
  1
GRIDFORMAT_BEGIN
 90
        0
 91
        1
 62
     0
 92
       -2
340
0
 93
        0
 40
0.045
309
GRIDFORMAT_END
 95
        4
302
GRIDFORMAT
  1
GRIDFORMAT_BEGIN
 90
        0
 91
        1
 62
     0
 92
       -2
340
0
 93
        0
 40
0.045
309
GRIDFORMAT_END
 95
        8
302
GRIDFORMAT
  1
GRIDFORMAT_BEGIN
 90
        0
 91
        1
 62
     0
 92
       -2
340
0
 93
        0
 40
0.045
309
GRIDFORMAT_END
 95
       16
302
GRIDFORMAT
  1
GRIDFORMAT_BEGIN
 90
        0
 91
        1
 62
     0
 92
       -2
340
0
 93
        0
 40
0.045
309
GRIDFORMAT_END
 95
       32
302
GRIDFORMAT
  1
GRIDFORMAT_BEGIN
 90
        0
 91
        1
 62
     0
 92
       -2
340
0
 93
        0
 40
0.045
309
GRIDFORMAT_END
309
TABLEFORMAT_END
  1
CELLSTYLE_BEGIN
 90
        3
 91
        2
300
_DATA
309
CELLSTYLE_END
  0
XRECORD
  5
568
102
{ACAD_REACTORS
330
505
102
}
330
505
100
AcDbXrecord
280
     1
102
ACAD_ROUNDTRIP_PRE2007_TABLESTYLE
 90
      512
 91
        0
  1

 92
      512
 93
        0
  2

 94
      512
 95
        0
  3

  0
XRECORD
  5
553
102
{ACAD_REACTORS
330
552
102
}
330
552
100
AcDbXrecord
280
     1
102
RTVSPropertyOp0
 70
     1
102
RTVSPropertyOp1
 70
     1
102
RTVSPropertyOp2
 70
     1
102
RTVSPropertyOp3
 70
     1
102
RTVSPropertyOp4
 70
     1
102
RTVSPropertyOp5
 70
     1
102
RTVSPropertyOp6
 70
     1
102
RTVSPropertyOp7
 70
     1
102
RTVSPropertyOp8
 70
     1
102
RTVSPropertyOp9
 70
     1
102
RTVSPropertyOp10
 70
     1
102
RTVSPropertyOp11
 70
     1
102
RTVSPropertyOp12
 70
     1
102
RTVSPropertyOp13
 70
     1
102
RTVSPropertyOp14
 70
     1
102
RTVSPropertyOp15
 70
     1
102
RTVSPropertyOp16
 70
     1
102
RTVSPropertyOp17
 70
     1
102
RTVSPropertyOp18
 70
     1
102
RTVSPropertyOp19
 70
     1
102
RTVSPropertyOp20
 70
     1
102
RTVSPropertyOp21
 70
     1
102
RTVSPropertyOp22
 70
     1
102
RTVSPropertyOp23
 70
     1
102
RTVSPropertyOp24
 70
     1
102
RTVSPropertyOp25
 70
     1
102
RTVSPropertyOp26
 70
     1
102
RTVSPropertyOp27
 70
     1
102
RTVSPropertyOp28
 70
     1
102
RTVSPropertyOp29
 70
     1
102
RTVSPropertyOp30
 70
     1
102
RTVSPropertyOp31
 70
     1
102
RTVSPropertyOp32
 70
     1
  0
XRECORD
  5
557
102
{ACAD_REACTORS
330
556
102
}
330
556
100
AcDbXrecord
280
     1
102
RTVSPropertyOp0
 70
     1
102
RTVSPropertyOp1
 70
     1
102
RTVSPropertyOp2
 70
     1
102
RTVSPropertyOp3
 70
     1
102
RTVSPropertyOp4
 70
     1
102
RTVSPropertyOp5
 70
     1
102
RTVSPropertyOp6
 70
     1
102
RTVSPropertyOp7
 70
     1
102
RTVSPropertyOp8
 70
     1
102
RTVSPropertyOp9
 70
     1
102
RTVSPropertyOp10
 70
     1
102
RTVSPropertyOp11
 70
     1
102
RTVSPropertyOp12
 70
     1
102
RTVSPropertyOp13
 70
     1
102
RTVSPropertyOp14
 70
     1
102
RTVSPropertyOp15
 70
     1
102
RTVSPropertyOp16
 70
     1
102
RTVSPropertyOp17
 70
     1
102
RTVSPropertyOp18
 70
     1
102
RTVSPropertyOp19
 70
     1
102
RTVSPropertyOp20
 70
     1
102
RTVSPropertyOp21
 70
     1
102
RTVSPropertyOp22
 70
     1
102
RTVSPropertyOp23
 70
     1
102
RTVSPropertyOp24
 70
     1
102
RTVSPropertyOp25
 70
     1
102
RTVSPropertyOp26
 70
     1
102
RTVSPropertyOp27
 70
     1
102
RTVSPropertyOp28
 70
     1
102
RTVSPropertyOp29
 70
     1
102
RTVSPropertyOp30
 70
     1
102
RTVSPropertyOp31
 70
     1
102
RTVSPropertyOp32
 70
     1
  0
XRECORD
  5
555
102
{ACAD_REACTORS
330
554
102
}
330
554
100
AcDbXrecord
280
     1
102
RTVSPropertyOp0
 70
     1
102
RTVSPropertyOp1
 70
     1
102
RTVSPropertyOp2
 70
     1
102
RTVSPropertyOp3
 70
     1
102
RTVSPropertyOp4
 70
     1
102
RTVSPropertyOp5
 70
     1
102
RTVSPropertyOp6
 70
     1
102
RTVSPropertyOp7
 70
     1
102
RTVSPropertyOp8
 70
     1
102
RTVSPropertyOp9
 70
     1
102
RTVSPropertyOp10
 70
     1
102
RTVSPropertyOp11
 70
     1
102
RTVSPropertyOp12
 70
     1
102
RTVSPropertyOp13
 70
     1
102
RTVSPropertyOp14
 70
     1
102
RTVSPropertyOp15
 70
     1
102
RTVSPropertyOp16
 70
     1
102
RTVSPropertyOp17
 70
     1
102
RTVSPropertyOp18
 70
     1
102
RTVSPropertyOp19
 70
     1
102
RTVSPropertyOp20
 70
     1
102
RTVSPropertyOp21
 70
     1
102
RTVSPropertyOp22
 70
     1
102
RTVSPropertyOp23
 70
     1
102
RTVSPropertyOp24
 70
     1
102
RTVSPropertyOp25
 70
     1
102
RTVSPropertyOp26
 70
     1
102
RTVSPropertyOp27
 70
     1
102
RTVSPropertyOp28
 70
     1
102
RTVSPropertyOp29
 70
     1
102
RTVSPropertyOp30
 70
     1
102
RTVSPropertyOp31
 70
     1
102
RTVSPropertyOp32
 70
     1
  0
XRECORD
  5
551
102
{ACAD_REACTORS
330
550
102
}
330
550
100
AcDbXrecord
280
     1
102
RTVSPropertyOp0
 70
     1
102
RTVSPropertyOp1
 70
     1
102
RTVSPropertyOp2
 70
     1
102
RTVSPropertyOp3
 70
     1
102
RTVSPropertyOp4
 70
     1
102
RTVSPropertyOp5
 70
     1
102
RTVSPropertyOp6
 70
     1
102
RTVSPropertyOp7
 70
     1
102
RTVSPropertyOp8
 70
     1
102
RTVSPropertyOp9
 70
     1
102
RTVSPropertyOp10
 70
     1
102
RTVSPropertyOp11
 70
     1
102
RTVSPropertyOp12
 70
     1
102
RTVSPropertyOp13
 70
     1
102
RTVSPropertyOp14
 70
     1
102
RTVSPropertyOp15
 70
     1
102
RTVSPropertyOp16
 70
     1
102
RTVSPropertyOp17
 70
     1
102
RTVSPropertyOp18
 70
     1
102
RTVSPropertyOp19
 70
     1
102
RTVSPropertyOp20
 70
     1
102
RTVSPropertyOp21
 70
     1
102
RTVSPropertyOp22
 70
     1
102
RTVSPropertyOp23
 70
     1
102
RTVSPropertyOp24
 70
     1
102
RTVSPropertyOp25
 70
     1
102
RTVSPropertyOp26
 70
     1
102
RTVSPropertyOp27
 70
     1
102
RTVSPropertyOp28
 70
     1
102
RTVSPropertyOp29
 70
     1
102
RTVSPropertyOp30
 70
     1
102
RTVSPropertyOp31
 70
     1
102
RTVSPropertyOp32
 70
     1
  0
XRECORD
  5
55F
102
{ACAD_REACTORS
330
55E
102
}
330
55E
100
AcDbXrecord
280
     1
102
RTVSPropertyOp0
 70
     1
102
RTVSPropertyOp1
 70
     1
102
RTVSPropertyOp2
 70
     1
102
RTVSPropertyOp3
 70
     1
102
RTVSPropertyOp4
 70
     1
102
RTVSPropertyOp5
 70
     1
102
RTVSPropertyOp6
 70
     1
102
RTVSPropertyOp7
 70
     1
102
RTVSPropertyOp8
 70
     1
102
RTVSPropertyOp9
 70
     1
102
RTVSPropertyOp10
 70
     1
102
RTVSPropertyOp11
 70
     1
102
RTVSPropertyOp12
 70
     1
102
RTVSPropertyOp13
 70
     1
102
RTVSPropertyOp14
 70
     1
102
RTVSPropertyOp15
 70
     1
102
RTVSPropertyOp16
 70
     1
102
RTVSPropertyOp17
 70
     1
102
RTVSPropertyOp18
 70
     1
102
RTVSPropertyOp19
 70
     1
102
RTVSPropertyOp20
 70
     1
102
RTVSPropertyOp21
 70
     1
102
RTVSPropertyOp22
 70
     1
102
RTVSPropertyOp23
 70
     1
102
RTVSPropertyOp24
 70
     1
102
RTVSPropertyOp25
 70
     1
102
RTVSPropertyOp26
 70
     1
102
RTVSPropertyOp27
 70
     1
102
RTVSPropertyOp28
 70
     1
102
RTVSPropertyOp29
 70
     1
102
RTVSPropertyOp30
 70
     1
102
RTVSPropertyOp31
 70
     1
102
RTVSPropertyOp32
 70
     1
  0
XRECORD
  5
567
102
{ACAD_REACTORS
330
566
102
}
330
566
100
AcDbXrecord
280
     1
102
RTVSPropertyOp0
 70
     1
102
RTVSPropertyOp1
 70
     1
102
RTVSPropertyOp2
 70
     1
102
RTVSPropertyOp3
 70
     1
102
RTVSPropertyOp4
 70
     1
102
RTVSPropertyOp5
 70
     1
102
RTVSPropertyOp6
 70
     1
102
RTVSPropertyOp7
 70
     1
102
RTVSPropertyOp8
 70
     1
102
RTVSPropertyOp9
 70
     1
102
RTVSPropertyOp10
 70
     1
102
RTVSPropertyOp11
 70
     1
102
RTVSPropertyOp12
 70
     1
102
RTVSPropertyOp13
 70
     1
102
RTVSPropertyOp14
 70
     1
102
RTVSPropertyOp15
 70
     1
102
RTVSPropertyOp16
 70
     1
102
RTVSPropertyOp17
 70
     1
102
RTVSPropertyOp18
 70
     1
102
RTVSPropertyOp19
 70
     1
102
RTVSPropertyOp20
 70
     1
102
RTVSPropertyOp21
 70
     1
102
RTVSPropertyOp22
 70
     1
102
RTVSPropertyOp23
 70
     1
102
RTVSPropertyOp24
 70
     1
102
RTVSPropertyOp25
 70
     1
102
RTVSPropertyOp26
 70
     1
102
RTVSPropertyOp27
 70
     1
102
RTVSPropertyOp28
 70
     1
102
RTVSPropertyOp29
 70
     1
102
RTVSPropertyOp30
 70
     1
102
RTVSPropertyOp31
 70
     1
102
RTVSPropertyOp32
 70
     1
  0
XRECORD
  5
559
102
{ACAD_REACTORS
330
558
102
}
330
558
100
AcDbXrecord
280
     1
102
RTVSPropertyOp0
 70
     1
102
RTVSPropertyOp1
 70
     1
102
RTVSPropertyOp2
 70
     1
102
RTVSPropertyOp3
 70
     1
102
RTVSPropertyOp4
 70
     1
102
RTVSPropertyOp5
 70
     1
102
RTVSPropertyOp6
 70
     1
102
RTVSPropertyOp7
 70
     1
102
RTVSPropertyOp8
 70
     1
102
RTVSPropertyOp9
 70
     1
102
RTVSPropertyOp10
 70
     1
102
RTVSPropertyOp11
 70
     1
102
RTVSPropertyOp12
 70
     1
102
RTVSPropertyOp13
 70
     1
102
RTVSPropertyOp14
 70
     1
102
RTVSPropertyOp15
 70
     1
102
RTVSPropertyOp16
 70
     1
102
RTVSPropertyOp17
 70
     1
102
RTVSPropertyOp18
 70
     1
102
RTVSPropertyOp19
 70
     1
102
RTVSPropertyOp20
 70
     1
102
RTVSPropertyOp21
 70
     1
102
RTVSPropertyOp22
 70
     1
102
RTVSPropertyOp23
 70
     1
102
RTVSPropertyOp24
 70
     1
102
RTVSPropertyOp25
 70
     1
102
RTVSPropertyOp26
 70
     1
102
RTVSPropertyOp27
 70
     1
102
RTVSPropertyOp28
 70
     1
102
RTVSPropertyOp29
 70
     1
102
RTVSPropertyOp30
 70
     1
102
RTVSPropertyOp31
 70
     1
102
RTVSPropertyOp32
 70
     1
  0
XRECORD
  5
55D
102
{ACAD_REACTORS
330
55C
102
}
330
55C
100
AcDbXrecord
280
     1
102
RTVSPropertyOp0
 70
     1
102
RTVSPropertyOp1
 70
     1
102
RTVSPropertyOp2
 70
     1
102
RTVSPropertyOp3
 70
     1
102
RTVSPropertyOp4
 70
     1
102
RTVSPropertyOp5
 70
     1
102
RTVSPropertyOp6
 70
     1
102
RTVSPropertyOp7
 70
     1
102
RTVSPropertyOp8
 70
     1
102
RTVSPropertyOp9
 70
     1
102
RTVSPropertyOp10
 70
     1
102
RTVSPropertyOp11
 70
     1
102
RTVSPropertyOp12
 70
     1
102
RTVSPropertyOp13
 70
     1
102
RTVSPropertyOp14
 70
     1
102
RTVSPropertyOp15
 70
     1
102
RTVSPropertyOp16
 70
     1
102
RTVSPropertyOp17
 70
     1
102
RTVSPropertyOp18
 70
     1
102
RTVSPropertyOp19
 70
     1
102
RTVSPropertyOp20
 70
     1
102
RTVSPropertyOp21
 70
     1
102
RTVSPropertyOp22
 70
     1
102
RTVSPropertyOp23
 70
     1
102
RTVSPropertyOp24
 70
     1
102
RTVSPropertyOp25
 70
     1
102
RTVSPropertyOp26
 70
     1
102
RTVSPropertyOp27
 70
     1
102
RTVSPropertyOp28
 70
     1
102
RTVSPropertyOp29
 70
     1
102
RTVSPropertyOp30
 70
     1
102
RTVSPropertyOp31
 70
     1
102
RTVSPropertyOp32
 70
     1
  0
XRECORD
  5
580
102
{ACAD_REACTORS
330
57F
102
}
330
57F
100
AcDbXrecord
280
     1
102
RTVSPropertyOp0
 70
     0
102
RTVSPropertyOp1
 70
     0
102
RTVSPropertyOp2
 70
     0
102
RTVSPropertyOp3
 70
     0
102
RTVSPropertyOp4
 70
     0
102
RTVSPropertyOp5
 70
     0
102
RTVSPropertyOp6
 70
     0
102
RTVSPropertyOp7
 70
     0
102
RTVSPropertyOp8
 70
     0
102
RTVSPropertyOp9
 70
     0
102
RTVSPropertyOp10
 70
     0
102
RTVSPropertyOp11
 70
     0
102
RTVSPropertyOp12
 70
     0
102
RTVSPropertyOp13
 70
     0
102
RTVSPropertyOp14
 70
     2
102
RTVSPropertyOp15
 70
     0
102
RTVSPropertyOp16
 70
     0
102
RTVSPropertyOp17
 70
     0
102
RTVSPropertyOp18
 70
     0
102
RTVSPropertyOp19
 70
     0
102
RTVSPropertyOp20
 70
     0
102
RTVSPropertyOp21
 70
     0
102
RTVSPropertyOp22
 70
     0
102
RTVSPropertyOp23
 70
     0
102
RTVSPropertyOp24
 70
     0
102
RTVSPropertyOp25
 70
     0
102
RTVSPropertyOp26
 70
     0
102
RTVSPropertyOp27
 70
     0
102
RTVSPropertyOp28
 70
     0
102
RTVSPropertyOp29
 70
     0
102
RTVSPropertyOp30
 70
     0
102
RTVSPropertyOp31
 70
     0
102
RTVSPropertyOp32
 70
     0
  0
XRECORD
  5
565
102
{ACAD_REACTORS
330
564
102
}
330
564
100
AcDbXrecord
280
     1
102
RTVSPropertyOp0
 70
     1
102
RTVSPropertyOp1
 70
     1
102
RTVSPropertyOp2
 70
     1
102
RTVSPropertyOp3
 70
     1
102
RTVSPropertyOp4
 70
     1
102
RTVSPropertyOp5
 70
     1
102
RTVSPropertyOp6
 70
     1
102
RTVSPropertyOp7
 70
     1
102
RTVSPropertyOp8
 70
     1
102
RTVSPropertyOp9
 70
     1
102
RTVSPropertyOp10
 70
     1
102
RTVSPropertyOp11
 70
     1
102
RTVSPropertyOp12
 70
     1
102
RTVSPropertyOp13
 70
     1
102
RTVSPropertyOp14
 70
     1
102
RTVSPropertyOp15
 70
     1
102
RTVSPropertyOp16
 70
     1
102
RTVSPropertyOp17
 70
     1
102
RTVSPropertyOp18
 70
     1
102
RTVSPropertyOp19
 70
     1
102
RTVSPropertyOp20
 70
     1
102
RTVSPropertyOp21
 70
     1
102
RTVSPropertyOp22
 70
     1
102
RTVSPropertyOp23
 70
     1
102
RTVSPropertyOp24
 70
     1
102
RTVSPropertyOp25
 70
     1
102
RTVSPropertyOp26
 70
     1
102
RTVSPropertyOp27
 70
     1
102
RTVSPropertyOp28
 70
     1
102
RTVSPropertyOp29
 70
     1
102
RTVSPropertyOp30
 70
     1
102
RTVSPropertyOp31
 70
     1
102
RTVSPropertyOp32
 70
     1
  0
XRECORD
  5
549
102
{ACAD_REACTORS
330
548
102
}
330
548
100
AcDbXrecord
280
     1
102
RTVSPropertyOp0
 70
     1
102
RTVSPropertyOp1
 70
     1
102
RTVSPropertyOp2
 70
     1
102
RTVSPropertyOp3
 70
     1
102
RTVSPropertyOp4
 70
     1
102
RTVSPropertyOp5
 70
     1
102
RTVSPropertyOp6
 70
     1
102
RTVSPropertyOp7
 70
     1
102
RTVSPropertyOp8
 70
     1
102
RTVSPropertyOp9
 70
     1
102
RTVSPropertyOp10
 70
     1
102
RTVSPropertyOp11
 70
     1
102
RTVSPropertyOp12
 70
     1
102
RTVSPropertyOp13
 70
     1
102
RTVSPropertyOp14
 70
     1
102
RTVSPropertyOp15
 70
     1
102
RTVSPropertyOp16
 70
     1
102
RTVSPropertyOp17
 70
     1
102
RTVSPropertyOp18
 70
     1
102
RTVSPropertyOp19
 70
     1
102
RTVSPropertyOp20
 70
     1
102
RTVSPropertyOp21
 70
     1
102
RTVSPropertyOp22
 70
     1
102
RTVSPropertyOp23
 70
     1
102
RTVSPropertyOp24
 70
     1
102
RTVSPropertyOp25
 70
     1
102
RTVSPropertyOp26
 70
     1
102
RTVSPropertyOp27
 70
     1
102
RTVSPropertyOp28
 70
     1
102
RTVSPropertyOp29
 70
     1
102
RTVSPropertyOp30
 70
     1
102
RTVSPropertyOp31
 70
     1
102
RTVSPropertyOp32
 70
     1
  0
XRECORD
  5
54B
102
{ACAD_REACTORS
330
54A
102
}
330
54A
100
AcDbXrecord
280
     1
102
RTVSPropertyOp0
 70
     1
102
RTVSPropertyOp1
 70
     1
102
RTVSPropertyOp2
 70
     1
102
RTVSPropertyOp3
 70
     1
102
RTVSPropertyOp4
 70
     1
102
RTVSPropertyOp5
 70
     1
102
RTVSPropertyOp6
 70
     1
102
RTVSPropertyOp7
 70
     1
102
RTVSPropertyOp8
 70
     1
102
RTVSPropertyOp9
 70
     1
102
RTVSPropertyOp10
 70
     1
102
RTVSPropertyOp11
 70
     1
102
RTVSPropertyOp12
 70
     1
102
RTVSPropertyOp13
 70
     1
102
RTVSPropertyOp14
 70
     1
102
RTVSPropertyOp15
 70
     1
102
RTVSPropertyOp16
 70
     1
102
RTVSPropertyOp17
 70
     1
102
RTVSPropertyOp18
 70
     1
102
RTVSPropertyOp19
 70
     1
102
RTVSPropertyOp20
 70
     1
102
RTVSPropertyOp21
 70
     1
102
RTVSPropertyOp22
 70
     1
102
RTVSPropertyOp23
 70
     1
102
RTVSPropertyOp24
 70
     1
102
RTVSPropertyOp25
 70
     1
102
RTVSPropertyOp26
 70
     1
102
RTVSPropertyOp27
 70
     1
102
RTVSPropertyOp28
 70
     1
102
RTVSPropertyOp29
 70
     1
102
RTVSPropertyOp30
 70
     1
102
RTVSPropertyOp31
 70
     1
102
RTVSPropertyOp32
 70
     1
  0
XRECORD
  5
54D
102
{ACAD_REACTORS
330
54C
102
}
330
54C
100
AcDbXrecord
280
     1
102
RTVSPropertyOp0
 70
     1
102
RTVSPropertyOp1
 70
     1
102
RTVSPropertyOp2
 70
     1
102
RTVSPropertyOp3
 70
     1
102
RTVSPropertyOp4
 70
     1
102
RTVSPropertyOp5
 70
     1
102
RTVSPropertyOp6
 70
     1
102
RTVSPropertyOp7
 70
     1
102
RTVSPropertyOp8
 70
     1
102
RTVSPropertyOp9
 70
     1
102
RTVSPropertyOp10
 70
     1
102
RTVSPropertyOp11
 70
     1
102
RTVSPropertyOp12
 70
     1
102
RTVSPropertyOp13
 70
     1
102
RTVSPropertyOp14
 70
     1
102
RTVSPropertyOp15
 70
     1
102
RTVSPropertyOp16
 70
     1
102
RTVSPropertyOp17
 70
     1
102
RTVSPropertyOp18
 70
     1
102
RTVSPropertyOp19
 70
     1
102
RTVSPropertyOp20
 70
     1
102
RTVSPropertyOp21
 70
     1
102
RTVSPropertyOp22
 70
     1
102
RTVSPropertyOp23
 70
     1
102
RTVSPropertyOp24
 70
     1
102
RTVSPropertyOp25
 70
     1
102
RTVSPropertyOp26
 70
     1
102
RTVSPropertyOp27
 70
     1
102
RTVSPropertyOp28
 70
     1
102
RTVSPropertyOp29
 70
     1
102
RTVSPropertyOp30
 70
     1
102
RTVSPropertyOp31
 70
     1
102
RTVSPropertyOp32
 70
     1
  0
XRECORD
  5
54F
102
{ACAD_REACTORS
330
54E
102
}
330
54E
100
AcDbXrecord
280
     1
102
RTVSPropertyOp0
 70
     1
102
RTVSPropertyOp1
 70
     1
102
RTVSPropertyOp2
 70
     1
102
RTVSPropertyOp3
 70
     1
102
RTVSPropertyOp4
 70
     1
102
RTVSPropertyOp5
 70
     1
102
RTVSPropertyOp6
 70
     1
102
RTVSPropertyOp7
 70
     1
102
RTVSPropertyOp8
 70
     1
102
RTVSPropertyOp9
 70
     1
102
RTVSPropertyOp10
 70
     1
102
RTVSPropertyOp11
 70
     1
102
RTVSPropertyOp12
 70
     1
102
RTVSPropertyOp13
 70
     1
102
RTVSPropertyOp14
 70
     1
102
RTVSPropertyOp15
 70
     1
102
RTVSPropertyOp16
 70
     1
102
RTVSPropertyOp17
 70
     1
102
RTVSPropertyOp18
 70
     1
102
RTVSPropertyOp19
 70
     1
102
RTVSPropertyOp20
 70
     1
102
RTVSPropertyOp21
 70
     1
102
RTVSPropertyOp22
 70
     1
102
RTVSPropertyOp23
 70
     1
102
RTVSPropertyOp24
 70
     1
102
RTVSPropertyOp25
 70
     1
102
RTVSPropertyOp26
 70
     1
102
RTVSPropertyOp27
 70
     1
102
RTVSPropertyOp28
 70
     1
102
RTVSPropertyOp29
 70
     1
102
RTVSPropertyOp30
 70
     1
102
RTVSPropertyOp31
 70
     1
102
RTVSPropertyOp32
 70
     1
  0
XRECORD
  5
570
102
{ACAD_REACTORS
330
56F
102
}
330
56F
100
AcDbXrecord
280
     1
102
RTVSPropertyOp0
 70
     1
102
RTVSPropertyOp1
 70
     1
102
RTVSPropertyOp2
 70
     1
102
RTVSPropertyOp3
 70
     1
102
RTVSPropertyOp4
 70
     1
102
RTVSPropertyOp5
 70
     1
102
RTVSPropertyOp6
 70
     1
102
RTVSPropertyOp7
 70
     1
102
RTVSPropertyOp8
 70
     1
102
RTVSPropertyOp9
 70
     1
102
RTVSPropertyOp10
 70
     1
102
RTVSPropertyOp11
 70
     1
102
RTVSPropertyOp12
 70
     1
102
RTVSPropertyOp13
 70
     1
102
RTVSPropertyOp14
 70
     1
102
RTVSPropertyOp15
 70
     1
102
RTVSPropertyOp16
 70
     1
102
RTVSPropertyOp17
 70
     1
102
RTVSPropertyOp18
 70
     1
102
RTVSPropertyOp19
 70
     1
102
RTVSPropertyOp20
 70
     1
102
RTVSPropertyOp21
 70
     1
102
RTVSPropertyOp22
 70
     1
102
RTVSPropertyOp23
 70
     1
102
RTVSPropertyOp24
 70
     1
102
RTVSPropertyOp25
 70
     1
102
RTVSPropertyOp26
 70
     1
102
RTVSPropertyOp27
 70
     1
102
RTVSPropertyOp28
 70
     1
102
RTVSPropertyOp29
 70
     1
102
RTVSPropertyOp30
 70
     1
102
RTVSPropertyOp31
 70
     1
102
RTVSPropertyOp32
 70
     1
  0
XRECORD
  5
57C
102
{ACAD_REACTORS
330
57B
102
}
330
57B
100
AcDbXrecord
280
     1
102
RTVSPropertyOp0
 70
     0
102
RTVSPropertyOp1
 70
     0
102
RTVSPropertyOp2
 70
     0
102
RTVSPropertyOp3
 70
     0
102
RTVSPropertyOp4
 70
     0
102
RTVSPropertyOp5
 70
     0
102
RTVSPropertyOp6
 70
     0
102
RTVSPropertyOp7
 70
     0
102
RTVSPropertyOp8
 70
     0
102
RTVSPropertyOp9
 70
     0
102
RTVSPropertyOp10
 70
     0
102
RTVSPropertyOp11
 70
     0
102
RTVSPropertyOp12
 70
     0
102
RTVSPropertyOp13
 70
     0
102
RTVSPropertyOp14
 70
     2
102
RTVSPropertyOp15
 70
     0
102
RTVSPropertyOp16
 70
     0
102
RTVSPropertyOp17
 70
     0
102
RTVSPropertyOp18
 70
     0
102
RTVSPropertyOp19
 70
     0
102
RTVSPropertyOp20
 70
     0
102
RTVSPropertyOp21
 70
     0
102
RTVSPropertyOp22
 70
     0
102
RTVSPropertyOp23
 70
     0
102
RTVSPropertyOp24
 70
     0
102
RTVSPropertyOp25
 70
     0
102
RTVSPropertyOp26
 70
     0
102
RTVSPropertyOp27
 70
     0
102
RTVSPropertyOp28
 70
     0
102
RTVSPropertyOp29
 70
     0
102
RTVSPropertyOp30
 70
     0
102
RTVSPropertyOp31
 70
     0
102
RTVSPropertyOp32
 70
     0
  0
XRECORD
  5
563
102
{ACAD_REACTORS
330
562
102
}
330
562
100
AcDbXrecord
280
     1
102
RTVSPropertyOp0
 70
     1
102
RTVSPropertyOp1
 70
     1
102
RTVSPropertyOp2
 70
     1
102
RTVSPropertyOp3
 70
     1
102
RTVSPropertyOp4
 70
     1
102
RTVSPropertyOp5
 70
     1
102
RTVSPropertyOp6
 70
     1
102
RTVSPropertyOp7
 70
     1
102
RTVSPropertyOp8
 70
     1
102
RTVSPropertyOp9
 70
     1
102
RTVSPropertyOp10
 70
     1
102
RTVSPropertyOp11
 70
     1
102
RTVSPropertyOp12
 70
     1
102
RTVSPropertyOp13
 70
     1
102
RTVSPropertyOp14
 70
     1
102
RTVSPropertyOp15
 70
     1
102
RTVSPropertyOp16
 70
     1
102
RTVSPropertyOp17
 70
     1
102
RTVSPropertyOp18
 70
     1
102
RTVSPropertyOp19
 70
     1
102
RTVSPropertyOp20
 70
     1
102
RTVSPropertyOp21
 70
     1
102
RTVSPropertyOp22
 70
     1
102
RTVSPropertyOp23
 70
     1
102
RTVSPropertyOp24
 70
     1
102
RTVSPropertyOp25
 70
     1
102
RTVSPropertyOp26
 70
     1
102
RTVSPropertyOp27
 70
     1
102
RTVSPropertyOp28
 70
     1
102
RTVSPropertyOp29
 70
     1
102
RTVSPropertyOp30
 70
     1
102
RTVSPropertyOp31
 70
     1
102
RTVSPropertyOp32
 70
     1
  0
XRECORD
  5
57E
102
{ACAD_REACTORS
330
57D
102
}
330
57D
100
AcDbXrecord
280
     1
102
RTVSPropertyOp0
 70
     0
102
RTVSPropertyOp1
 70
     0
102
RTVSPropertyOp2
 70
     0
102
RTVSPropertyOp3
 70
     0
102
RTVSPropertyOp4
 70
     0
102
RTVSPropertyOp5
 70
     0
102
RTVSPropertyOp6
 70
     0
102
RTVSPropertyOp7
 70
     0
102
RTVSPropertyOp8
 70
     0
102
RTVSPropertyOp9
 70
     0
102
RTVSPropertyOp10
 70
     0
102
RTVSPropertyOp11
 70
     0
102
RTVSPropertyOp12
 70
     0
102
RTVSPropertyOp13
 70
     0
102
RTVSPropertyOp14
 70
     2
102
RTVSPropertyOp15
 70
     0
102
RTVSPropertyOp16
 70
     0
102
RTVSPropertyOp17
 70
     0
102
RTVSPropertyOp18
 70
     0
102
RTVSPropertyOp19
 70
     0
102
RTVSPropertyOp20
 70
     0
102
RTVSPropertyOp21
 70
     0
102
RTVSPropertyOp22
 70
     0
102
RTVSPropertyOp23
 70
     0
102
RTVSPropertyOp24
 70
     0
102
RTVSPropertyOp25
 70
     0
102
RTVSPropertyOp26
 70
     0
102
RTVSPropertyOp27
 70
     0
102
RTVSPropertyOp28
 70
     0
102
RTVSPropertyOp29
 70
     0
102
RTVSPropertyOp30
 70
     0
102
RTVSPropertyOp31
 70
     0
102
RTVSPropertyOp32
 70
     0
  0
XRECORD
  5
55B
102
{ACAD_REACTORS
330
55A
102
}
330
55A
100
AcDbXrecord
280
     1
102
RTVSPropertyOp0
 70
     1
102
RTVSPropertyOp1
 70
     1
102
RTVSPropertyOp2
 70
     1
102
RTVSPropertyOp3
 70
     1
102
RTVSPropertyOp4
 70
     1
102
RTVSPropertyOp5
 70
     1
102
RTVSPropertyOp6
 70
     1
102
RTVSPropertyOp7
 70
     1
102
RTVSPropertyOp8
 70
     1
102
RTVSPropertyOp9
 70
     1
102
RTVSPropertyOp10
 70
     1
102
RTVSPropertyOp11
 70
     1
102
RTVSPropertyOp12
 70
     1
102
RTVSPropertyOp13
 70
     1
102
RTVSPropertyOp14
 70
     1
102
RTVSPropertyOp15
 70
     1
102
RTVSPropertyOp16
 70
     1
102
RTVSPropertyOp17
 70
     1
102
RTVSPropertyOp18
 70
     1
102
RTVSPropertyOp19
 70
     1
102
RTVSPropertyOp20
 70
     1
102
RTVSPropertyOp21
 70
     1
102
RTVSPropertyOp22
 70
     1
102
RTVSPropertyOp23
 70
     1
102
RTVSPropertyOp24
 70
     1
102
RTVSPropertyOp25
 70
     1
102
RTVSPropertyOp26
 70
     1
102
RTVSPropertyOp27
 70
     1
102
RTVSPropertyOp28
 70
     1
102
RTVSPropertyOp29
 70
     1
102
RTVSPropertyOp30
 70
     1
102
RTVSPropertyOp31
 70
     1
102
RTVSPropertyOp32
 70
     1
  0
XRECORD
  5
57A
102
{ACAD_REACTORS
330
579
102
}
330
579
100
AcDbXrecord
280
     1
102
RTVSPropertyOp0
 70
     1
102
RTVSPropertyOp1
 70
     1
102
RTVSPropertyOp2
 70
     1
102
RTVSPropertyOp3
 70
     1
102
RTVSPropertyOp4
 70
     1
102
RTVSPropertyOp5
 70
     1
102
RTVSPropertyOp6
 70
     1
102
RTVSPropertyOp7
 70
     1
102
RTVSPropertyOp8
 70
     1
102
RTVSPropertyOp9
 70
     1
102
RTVSPropertyOp10
 70
     1
102
RTVSPropertyOp11
 70
     1
102
RTVSPropertyOp12
 70
     1
102
RTVSPropertyOp13
 70
     1
102
RTVSPropertyOp14
 70
     1
102
RTVSPropertyOp15
 70
     1
102
RTVSPropertyOp16
 70
     1
102
RTVSPropertyOp17
 70
     1
102
RTVSPropertyOp18
 70
     1
102
RTVSPropertyOp19
 70
     1
102
RTVSPropertyOp20
 70
     1
102
RTVSPropertyOp21
 70
     1
102
RTVSPropertyOp22
 70
     1
102
RTVSPropertyOp23
 70
     1
102
RTVSPropertyOp24
 70
     1
102
RTVSPropertyOp25
 70
     1
102
RTVSPropertyOp26
 70
     1
102
RTVSPropertyOp27
 70
     1
102
RTVSPropertyOp28
 70
     1
102
RTVSPropertyOp29
 70
     1
102
RTVSPropertyOp30
 70
     1
102
RTVSPropertyOp31
 70
     1
102
RTVSPropertyOp32
 70
     1
  0
XRECORD
  5
578
102
{ACAD_REACTORS
330
577
102
}
330
577
100
AcDbXrecord
280
     1
102
RTVSPropertyOp0
 70
     1
102
RTVSPropertyOp1
 70
     1
102
RTVSPropertyOp2
 70
     1
102
RTVSPropertyOp3
 70
     1
102
RTVSPropertyOp4
 70
     1
102
RTVSPropertyOp5
 70
     1
102
RTVSPropertyOp6
 70
     1
102
RTVSPropertyOp7
 70
     1
102
RTVSPropertyOp8
 70
     1
102
RTVSPropertyOp9
 70
     1
102
RTVSPropertyOp10
 70
     1
102
RTVSPropertyOp11
 70
     1
102
RTVSPropertyOp12
 70
     1
102
RTVSPropertyOp13
 70
     1
102
RTVSPropertyOp14
 70
     1
102
RTVSPropertyOp15
 70
     1
102
RTVSPropertyOp16
 70
     1
102
RTVSPropertyOp17
 70
     1
102
RTVSPropertyOp18
 70
     1
102
RTVSPropertyOp19
 70
     1
102
RTVSPropertyOp20
 70
     1
102
RTVSPropertyOp21
 70
     1
102
RTVSPropertyOp22
 70
     1
102
RTVSPropertyOp23
 70
     1
102
RTVSPropertyOp24
 70
     1
102
RTVSPropertyOp25
 70
     1
102
RTVSPropertyOp26
 70
     1
102
RTVSPropertyOp27
 70
     1
102
RTVSPropertyOp28
 70
     1
102
RTVSPropertyOp29
 70
     1
102
RTVSPropertyOp30
 70
     1
102
RTVSPropertyOp31
 70
     1
102
RTVSPropertyOp32
 70
     1
  0
XRECORD
  5
572
102
{ACAD_REACTORS
330
571
102
}
330
571
100
AcDbXrecord
280
     1
102
RTVSPropertyOp0
 70
     1
102
RTVSPropertyOp1
 70
     1
102
RTVSPropertyOp2
 70
     1
102
RTVSPropertyOp3
 70
     1
102
RTVSPropertyOp4
 70
     1
102
RTVSPropertyOp5
 70
     1
102
RTVSPropertyOp6
 70
     1
102
RTVSPropertyOp7
 70
     1
102
RTVSPropertyOp8
 70
     1
102
RTVSPropertyOp9
 70
     1
102
RTVSPropertyOp10
 70
     1
102
RTVSPropertyOp11
 70
     1
102
RTVSPropertyOp12
 70
     1
102
RTVSPropertyOp13
 70
     1
102
RTVSPropertyOp14
 70
     1
102
RTVSPropertyOp15
 70
     1
102
RTVSPropertyOp16
 70
     1
102
RTVSPropertyOp17
 70
     1
102
RTVSPropertyOp18
 70
     1
102
RTVSPropertyOp19
 70
     1
102
RTVSPropertyOp20
 70
     1
102
RTVSPropertyOp21
 70
     1
102
RTVSPropertyOp22
 70
     1
102
RTVSPropertyOp23
 70
     1
102
RTVSPropertyOp24
 70
     1
102
RTVSPropertyOp25
 70
     1
102
RTVSPropertyOp26
 70
     1
102
RTVSPropertyOp27
 70
     1
102
RTVSPropertyOp28
 70
     1
102
RTVSPropertyOp29
 70
     1
102
RTVSPropertyOp30
 70
     1
102
RTVSPropertyOp31
 70
     1
102
RTVSPropertyOp32
 70
     1
  0
XRECORD
  5
574
102
{ACAD_REACTORS
330
573
102
}
330
573
100
AcDbXrecord
280
     1
102
RTVSPropertyOp0
 70
     1
102
RTVSPropertyOp1
 70
     1
102
RTVSPropertyOp2
 70
     1
102
RTVSPropertyOp3
 70
     1
102
RTVSPropertyOp4
 70
     1
102
RTVSPropertyOp5
 70
     1
102
RTVSPropertyOp6
 70
     1
102
RTVSPropertyOp7
 70
     1
102
RTVSPropertyOp8
 70
     1
102
RTVSPropertyOp9
 70
     1
102
RTVSPropertyOp10
 70
     1
102
RTVSPropertyOp11
 70
     1
102
RTVSPropertyOp12
 70
     1
102
RTVSPropertyOp13
 70
     1
102
RTVSPropertyOp14
 70
     1
102
RTVSPropertyOp15
 70
     1
102
RTVSPropertyOp16
 70
     1
102
RTVSPropertyOp17
 70
     1
102
RTVSPropertyOp18
 70
     1
102
RTVSPropertyOp19
 70
     1
102
RTVSPropertyOp20
 70
     1
102
RTVSPropertyOp21
 70
     1
102
RTVSPropertyOp22
 70
     1
102
RTVSPropertyOp23
 70
     1
102
RTVSPropertyOp24
 70
     1
102
RTVSPropertyOp25
 70
     1
102
RTVSPropertyOp26
 70
     1
102
RTVSPropertyOp27
 70
     1
102
RTVSPropertyOp28
 70
     1
102
RTVSPropertyOp29
 70
     1
102
RTVSPropertyOp30
 70
     1
102
RTVSPropertyOp31
 70
     1
102
RTVSPropertyOp32
 70
     1
  0
XRECORD
  5
561
102
{ACAD_REACTORS
330
560
102
}
330
560
100
AcDbXrecord
280
     1
102
RTVSPropertyOp0
 70
     1
102
RTVSPropertyOp1
 70
     1
102
RTVSPropertyOp2
 70
     1
102
RTVSPropertyOp3
 70
     1
102
RTVSPropertyOp4
 70
     1
102
RTVSPropertyOp5
 70
     1
102
RTVSPropertyOp6
 70
     1
102
RTVSPropertyOp7
 70
     1
102
RTVSPropertyOp8
 70
     1
102
RTVSPropertyOp9
 70
     1
102
RTVSPropertyOp10
 70
     1
102
RTVSPropertyOp11
 70
     1
102
RTVSPropertyOp12
 70
     1
102
RTVSPropertyOp13
 70
     1
102
RTVSPropertyOp14
 70
     1
102
RTVSPropertyOp15
 70
     1
102
RTVSPropertyOp16
 70
     1
102
RTVSPropertyOp17
 70
     1
102
RTVSPropertyOp18
 70
     1
102
RTVSPropertyOp19
 70
     1
102
RTVSPropertyOp20
 70
     1
102
RTVSPropertyOp21
 70
     1
102
RTVSPropertyOp22
 70
     1
102
RTVSPropertyOp23
 70
     1
102
RTVSPropertyOp24
 70
     1
102
RTVSPropertyOp25
 70
     1
102
RTVSPropertyOp26
 70
     1
102
RTVSPropertyOp27
 70
     1
102
RTVSPropertyOp28
 70
     1
102
RTVSPropertyOp29
 70
     1
102
RTVSPropertyOp30
 70
     1
102
RTVSPropertyOp31
 70
     1
102
RTVSPropertyOp32
 70
     1
  0
XRECORD
  5
56E
102
{ACAD_REACTORS
330
56D
102
}
330
56D
100
AcDbXrecord
280
     1
102
RTVSPropertyOp0
 70
     1
102
RTVSPropertyOp1
 70
     1
102
RTVSPropertyOp2
 70
     1
102
RTVSPropertyOp3
 70
     1
102
RTVSPropertyOp4
 70
     1
102
RTVSPropertyOp5
 70
     1
102
RTVSPropertyOp6
 70
     1
102
RTVSPropertyOp7
 70
     1
102
RTVSPropertyOp8
 70
     1
102
RTVSPropertyOp9
 70
     1
102
RTVSPropertyOp10
 70
     1
102
RTVSPropertyOp11
 70
     1
102
RTVSPropertyOp12
 70
     1
102
RTVSPropertyOp13
 70
     1
102
RTVSPropertyOp14
 70
     1
102
RTVSPropertyOp15
 70
     1
102
RTVSPropertyOp16
 70
     1
102
RTVSPropertyOp17
 70
     1
102
RTVSPropertyOp18
 70
     1
102
RTVSPropertyOp19
 70
     1
102
RTVSPropertyOp20
 70
     1
102
RTVSPropertyOp21
 70
     1
102
RTVSPropertyOp22
 70
     1
102
RTVSPropertyOp23
 70
     1
102
RTVSPropertyOp24
 70
     1
102
RTVSPropertyOp25
 70
     1
102
RTVSPropertyOp26
 70
     1
102
RTVSPropertyOp27
 70
     1
102
RTVSPropertyOp28
 70
     1
102
RTVSPropertyOp29
 70
     1
102
RTVSPropertyOp30
 70
     1
102
RTVSPropertyOp31
 70
     1
102
RTVSPropertyOp32
 70
     1
  0
XRECORD
  5
576
102
{ACAD_REACTORS
330
575
102
}
330
575
100
AcDbXrecord
280
     1
102
RTVSPropertyOp0
 70
     1
102
RTVSPropertyOp1
 70
     1
102
RTVSPropertyOp2
 70
     1
102
RTVSPropertyOp3
 70
     1
102
RTVSPropertyOp4
 70
     1
102
RTVSPropertyOp5
 70
     1
102
RTVSPropertyOp6
 70
     1
102
RTVSPropertyOp7
 70
     1
102
RTVSPropertyOp8
 70
     1
102
RTVSPropertyOp9
 70
     1
102
RTVSPropertyOp10
 70
     1
102
RTVSPropertyOp11
 70
     1
102
RTVSPropertyOp12
 70
     1
102
RTVSPropertyOp13
 70
     1
102
RTVSPropertyOp14
 70
     1
102
RTVSPropertyOp15
 70
     1
102
RTVSPropertyOp16
 70
     1
102
RTVSPropertyOp17
 70
     1
102
RTVSPropertyOp18
 70
     1
102
RTVSPropertyOp19
 70
     1
102
RTVSPropertyOp20
 70
     1
102
RTVSPropertyOp21
 70
     1
102
RTVSPropertyOp22
 70
     1
102
RTVSPropertyOp23
 70
     1
102
RTVSPropertyOp24
 70
     1
102
RTVSPropertyOp25
 70
     1
102
RTVSPropertyOp26
 70
     1
102
RTVSPropertyOp27
 70
     1
102
RTVSPropertyOp28
 70
     1
102
RTVSPropertyOp29
 70
     1
102
RTVSPropertyOp30
 70
     1
102
RTVSPropertyOp31
 70
     1
102
RTVSPropertyOp32
 70
     1
  0
ENDSEC
  0
EOF
