  0
SECTION
  2
HEADER
  9
$ACADVER
  1
AC1015
  9
$ACADMAINTVER
 70
    20
  9
$DWGCODEPAGE
  3
ANSI_932
  9
$INSBASE
 10
0.0
 20
0.0
 30
0.0
  9
$EXTMIN
 10
22002.202784
 20
-16859.356591
 30
0.0
  9
$EXTMAX
 10
24895.452784
 20
-14850.056591
 30
0.0
  9
$LIMMIN
 10
-6251.172216
 20
-36854.706591
  9
$LIMMAX
 10
53148.827784
 20
5145.293409
  9
$ORTHOMODE
 70
     0
  9
$REGENMODE
 70
     1
  9
$FILLMODE
 70
     1
  9
$QTEXTMODE
 70
     0
  9
$MIRRTEXT
 70
     1
  9
$LTSCALE
 40
100.0
  9
$ATTMODE
 70
     1
  9
$TEXTSIZE
 40
0.0
  9
$TRACEWID
 40
0.05
  9
$TEXTSTYLE
  7
STANDARD
  9
$CLAYER
  8
0
  9
$CELTYPE
  6
CONTINUOUS
  9
$CECOLOR
 62
   256
  9
$CELTSCALE
 40
1.0
  9
$DISPSILH
 70
     0
  9
$DIMSCALE
 40
1.0
  9
$DIMASZ
 40
0.18
  9
$DIMEXO
 40
0.0625
  9
$DIMDLI
 40
0.38
  9
$DIMRND
 40
0.0
  9
$DIMDLE
 40
0.0
  9
$DIMEXE
 40
0.18
  9
$DIMTP
 40
0.0
  9
$DIMTM
 40
0.0
  9
$DIMTXT
 40
0.18
  9
$DIMCEN
 40
0.09
  9
$DIMTSZ
 40
0.0
  9
$DIMTOL
 70
     0
  9
$DIMLIM
 70
     0
  9
$DIMTIH
 70
     1
  9
$DIMTOH
 70
     1
  9
$DIMSE1
 70
     0
  9
$DIMSE2
 70
     0
  9
$DIMTAD
 70
     0
  9
$DIMZIN
 70
     0
  9
$DIMBLK
  1

  9
$DIMASO
 70
     1
  9
$DIMSHO
 70
     1
  9
$DIMPOST
  1

  9
$DIMAPOST
  1

  9
$DIMALT
 70
     0
  9
$DIMALTD
 70
     2
  9
$DIMALTF
 40
25.4
  9
$DIMLFAC
 40
1.0
  9
$DIMTOFL
 70
     0
  9
$DIMTVP
 40
0.0
  9
$DIMTIX
 70
     0
  9
$DIMSOXD
 70
     0
  9
$DIMSAH
 70
     0
  9
$DIMBLK1
  1

  9
$DIMBLK2
  1

  9
$DIMSTYLE
  2
STANDARD
  9
$DIMCLRD
 70
     0
  9
$DIMCLRE
 70
     0
  9
$DIMCLRT
 70
     0
  9
$DIMTFAC
 40
1.0
  9
$DIMGAP
 40
0.09
  9
$DIMJUST
 70
     0
  9
$DIMSD1
 70
     0
  9
$DIMSD2
 70
     0
  9
$DIMTOLJ
 70
     1
  9
$DIMTZIN
 70
     0
  9
$DIMALTZ
 70
     0
  9
$DIMALTTZ
 70
     0
  9
$DIMUPT
 70
     0
  9
$DIMDEC
 70
     4
  9
$DIMTDEC
 70
     4
  9
$DIMALTU
 70
     2
  9
$DIMALTTD
 70
     2
  9
$DIMTXSTY
  7
STANDARD
  9
$DIMAUNIT
 70
     0
  9
$DIMADEC
 70
     0
  9
$DIMALTRND
 40
0.0
  9
$DIMAZIN
 70
     0
  9
$DIMDSEP
 70
    46
  9
$DIMATFIT
 70
     3
  9
$DIMFRAC
 70
     0
  9
$DIMLDRBLK
  1

  9
$DIMLUNIT
 70
     2
  9
$DIMLWD
 70
    -2
  9
$DIMLWE
 70
    -2
  9
$DIMTMOVE
 70
     0
  9
$LUNITS
 70
     2
  9
$LUPREC
 70
     4
  9
$SKETCHINC
 40
0.1
  9
$FILLETRAD
 40
0.0
  9
$AUNITS
 70
     0
  9
$AUPREC
 70
     0
  9
$MENU
  1
acad
  9
$ELEVATION
 40
0.0
  9
$PELEVATION
 40
0.0
  9
$THICKNESS
 40
0.0
  9
$LIMCHECK
 70
     0
  9
$CHAMFERA
 40
0.0
  9
$CHAMFERB
 40
0.0
  9
$CHAMFERC
 40
0.0
  9
$CHAMFERD
 40
0.0
  9
$SKPOLY
 70
     0
  9
$TDCREATE
 40
11805287.11318143
  9
$TDUCREATE
 40
6.0000000000
  9
$TDUPDATE
 40
2455642.523429490
  9
$TDUUPDATE
 40
2455642.148429491
  9
$TDINDWG
 40
0.0003838773
  9
$TDUSRTIMER
 40
0.0003838079
  9
$USRTIMER
 70
     1
  9
$ANGBASE
 50
0.0
  9
$ANGDIR
 70
     0
  9
$PDMODE
 70
     0
  9
$PDSIZE
 40
0.0
  9
$PLINEWID
 40
0.0
  9
$SPLFRAME
 70
     0
  9
$SPLINETYPE
 70
     6
  9
$SPLINESEGS
 70
     8
  9
$HANDSEED
  5
4EC
  9
$SURFTAB1
 70
     6
  9
$SURFTAB2
 70
     6
  9
$SURFTYPE
 70
     6
  9
$SURFU
 70
     6
  9
$SURFV
 70
     6
  9
$UCSBASE
  2

  9
$UCSNAME
  2

  9
$UCSORG
 10
0.0
 20
0.0
 30
0.0
  9
$UCSXDIR
 10
1.0
 20
0.0
 30
0.0
  9
$UCSYDIR
 10
0.0
 20
1.0
 30
0.0
  9
$UCSORTHOREF
  2

  9
$UCSORTHOVIEW
 70
     0
  9
$UCSORGTOP
 10
0.0
 20
0.0
 30
0.0
  9
$UCSORGBOTTOM
 10
0.0
 20
0.0
 30
0.0
  9
$UCSORGLEFT
 10
0.0
 20
0.0
 30
0.0
  9
$UCSORGRIGHT
 10
0.0
 20
0.0
 30
0.0
  9
$UCSORGFRONT
 10
0.0
 20
0.0
 30
0.0
  9
$UCSORGBACK
 10
0.0
 20
0.0
 30
0.0
  9
$PUCSBASE
  2

  9
$PUCSNAME
  2

  9
$PUCSORG
 10
0.0
 20
0.0
 30
0.0
  9
$PUCSXDIR
 10
1.0
 20
0.0
 30
0.0
  9
$PUCSYDIR
 10
0.0
 20
1.0
 30
0.0
  9
$PUCSORTHOREF
  2

  9
$PUCSORTHOVIEW
 70
     0
  9
$PUCSORGTOP
 10
0.0
 20
0.0
 30
0.0
  9
$PUCSORGBOTTOM
 10
0.0
 20
0.0
 30
0.0
  9
$PUCSORGLEFT
 10
0.0
 20
0.0
 30
0.0
  9
$PUCSORGRIGHT
 10
0.0
 20
0.0
 30
0.0
  9
$PUCSORGFRONT
 10
0.0
 20
0.0
 30
0.0
  9
$PUCSORGBACK
 10
0.0
 20
0.0
 30
0.0
  9
$USERI1
 70
     0
  9
$USERI2
 70
     0
  9
$USERI3
 70
     0
  9
$USERI4
 70
     0
  9
$USERI5
 70
     0
  9
$USERR1
 40
0.0
  9
$USERR2
 40
0.0
  9
$USERR3
 40
0.0
  9
$USERR4
 40
0.0
  9
$USERR5
 40
0.0
  9
$WORLDVIEW
 70
     1
  9
$SHADEDGE
 70
     3
  9
$SHADEDIF
 70
    70
  9
$TILEMODE
 70
     1
  9
$MAXACTVP
 70
    16
  9
$PINSBASE
 10
0.0
 20
0.0
 30
0.0
  9
$PLIMCHECK
 70
     0
  9
$PEXTMIN
 10
1.000000000000000E+20
 20
1.000000000000000E+20
 30
1.000000000000000E+20
  9
$PEXTMAX
 10
-1.000000000000000E+20
 20
-1.000000000000000E+20
 30
-1.000000000000000E+20
  9
$PLIMMIN
 10
0.0
 20
0.0
  9
$PLIMMAX
 10
12.0
 20
9.0
  9
$UNITMODE
 70
     0
  9
$VISRETAIN
 70
     0
  9
$PLINEGEN
 70
     1
  9
$PSLTSCALE
 70
     0
  9
$TREEDEPTH
 70
  3020
  9
$CMLSTYLE
  2
STANDARD
  9
$CMLJUST
 70
     0
  9
$CMLSCALE
 40
1.0
  9
$PROXYGRAPHICS
 70
     0
  9
$MEASUREMENT
 70
     0
  9
$CELWEIGHT
370
    -1
  9
$ENDCAPS
280
     0
  9
$JOINSTYLE
280
     0
  9
$LWDISPLAY
290
     0
  9
$INSUNITS
 70
     0
  9
$HYPERLINKBASE
  1

  9
$STYLESHEET
  1

  9
$XEDIT
290
     1
  9
$CEPSNTYPE
380
     0
  9
$PSTYLEMODE
290
     1
  9
$FINGERPRINTGUID
  2
{4790DCEA-99E1-45EB-AA53-5AD38CD5E257}
  9
$VERSIONGUID
  2
{BBCFFDCD-6B41-4793-94E6-14A50DB8176C}
  9
$EXTNAMES
290
     1
  9
$PSVPSCALE
 40
0.0
  9
$OLESTARTUP
290
     0
  0
ENDSEC
  0
SECTION
  2
CLASSES
  0
CLASS
  1
IMAGE
  2
AcDbRasterImage
  3
ISM
 90
    34943
280
     0
281
     1
  0
CLASS
  1
DICTIONARYVAR
  2
AcDbDictionaryVar
  3
ObjectDBX Classes
 90
        0
280
     0
281
     0
  0
CLASS
  1
RASTERVARIABLES
  2
AcDbRasterVariables
  3
ISM
 90
    32768
280
     0
281
     0
  0
CLASS
  1
IMAGEDEF
  2
AcDbRasterImageDef
  3
ISM
 90
    32768
280
     0
281
     0
  0
CLASS
  1
IMAGEDEF_REACTOR
  2
AcDbRasterImageDefReactor
  3
ISM
 90
    32769
280
     0
281
     0
  0
CLASS
  1
IDBUFFER
  2
AcDbIdBuffer
  3
ObjectDBX Classes
 90
    32768
280
     0
281
     0
  0
CLASS
  1
SPATIAL_FILTER
  2
AcDbSpatialFilter
  3
ObjectDBX Classes
 90
    32768
280
     0
281
     0
  0
CLASS
  1
SORTENTSTABLE
  2
AcDbSortentsTable
  3
ObjectDBX Classes
 90
    32768
280
     0
281
     0
  0
CLASS
  1
LAYER_INDEX
  2
AcDbLayerIndex
  3
ObjectDBX Classes
 90
    32768
280
     0
281
     0
  0
CLASS
  1
SPATIAL_INDEX
  2
AcDbSpatialIndex
  3
ObjectDBX Classes
 90
    32768
280
     0
281
     0
  0
CLASS
  1
OBJECT_PTR
  2
CAseDLPNTableRecord
  3
ASE-LPNTableRecord
 90
    32769
280
     0
281
     0
  0
CLASS
  1
LAYOUT
  2
AcDbLayout
  3
ObjectDBX Classes
 90
        0
280
     0
281
     0
  0
CLASS
  1
PLOTSETTINGS
  2
AcDbPlotSettings
  3
ObjectDBX Classes
 90
    32768
280
     0
281
     0
  0
CLASS
  1
ACDBDICTIONARYWDFLT
  2
AcDbDictionaryWithDefault
  3
ObjectDBX Classes
 90
        0
280
     0
281
     0
  0
CLASS
  1
ACDBPLACEHOLDER
  2
AcDbPlaceHolder
  3
ObjectDBX Classes
 90
        0
280
     0
281
     0
  0
CLASS
  1
VBA_PROJECT
  2
AcDbVbaProject
  3
acad
 90
    32768
280
     0
281
     0
  0
CLASS
  1
WIPEOUT
  2
AcDbWipeout
  3
"WipeOut|Product Desc: Object Enabler for WipeOut entity                        |Company: Autodesk, Inc.                        |WEB Address: www.autodesk.com"
 90
    34943
280
     0
281
     1
  0
CLASS
  1
WIPEOUTVARIABLES
  2
AcDbWipeoutVariables
  3
"WipeOut|Product Desc:     WipeOut Dbx Application|Company:          Autodesk, Inc.|WEB Address:      www.autodesk.com"
 90
    32768
280
     0
281
     0
  0
CLASS
  1
RTEXT
  2
RText
  3
RText|AutoCAD Express Tool|expresstools@autodesk.com
 90
    32768
280
     0
281
     1
  0
CLASS
  1
ARCALIGNEDTEXT
  2
AcDbArcAlignedText
  3
ATEXT|AutoCAD Express Tool|expresstools@autodesk.com
 90
    32768
280
     0
281
     1
  0
CLASS
  1
MATERIAL
  2
AcDbMaterial
  3
ObjectDBX Classes
 90
     1153
280
     0
281
     0
  0
CLASS
  1
VISUALSTYLE
  2
AcDbVisualStyle
  3
ObjectDBX Classes
 90
     4095
280
     0
281
     0
  0
CLASS
  1
TABLESTYLE
  2
AcDbTableStyle
  3
ObjectDBX Classes
 90
     4095
280
     0
281
     0
  0
CLASS
  1
SCALE
  2
AcDbScale
  3
ObjectDBX Classes
 90
     1153
280
     0
281
     0
  0
CLASS
  1
MLEADERSTYLE
  2
AcDbMLeaderStyle
  3
ACDB_MLEADERSTYLE_CLASS
 90
     4095
280
     0
281
     0
  0
CLASS
  1
CELLSTYLEMAP
  2
AcDbCellStyleMap
  3
ObjectDBX Classes
 90
     1152
280
     0
281
     0
  0
ENDSEC
  0
SECTION
  2
TABLES
  0
TABLE
  2
VPORT
  5
7
330
0
100
AcDbSymbolTable
 70
     1
  0
VPORT
  5
15
330
7
100
AcDbSymbolTableRecord
100
AcDbViewportTableRecord
  2
*ACTIVE
 70
     0
 10
0.0
 20
0.0
 11
1.0
 21
1.0
 12
23688.2967832013
 22
-15688.95836718326
 13
0.0
 23
0.0
 14
1000.0
 24
1000.0
 15
1000.0
 25
1000.0
 16
0.0
 26
0.0
 36
1.0
 17
0.0
 27
0.0
 37
0.0
 40
3119.347717724132
 41
1.698473282442748
 42
50.0
 43
0.0
 44
0.0
 50
0.0
 51
0.0
 71
     0
 72
   100
 73
     1
 74
     1
 75
     0
 76
     0
 77
     0
 78
     0
281
     0
 65
     1
110
0.0
120
0.0
130
0.0
111
1.0
121
0.0
131
0.0
112
0.0
122
1.0
132
0.0
 79
     0
146
0.0
  0
ENDTAB
  0
TABLE
  2
LTYPE
  5
4
330
0
100
AcDbSymbolTable
 70
     6
  0
LTYPE
  5
11
330
4
100
AcDbSymbolTableRecord
100
AcDbLinetypeTableRecord
  2
BYBLOCK
 70
     0
  3

 72
    65
 73
     0
 40
0.0
  0
LTYPE
  5
12
330
4
100
AcDbSymbolTableRecord
100
AcDbLinetypeTableRecord
  2
BYLAYER
 70
     0
  3

 72
    65
 73
     0
 40
0.0
  0
LTYPE
  5
13
330
4
100
AcDbSymbolTableRecord
100
AcDbLinetypeTableRecord
  2
CONTINUOUS
 70
     0
  3
Solid line
 72
    65
 73
     0
 40
0.0
  0
LTYPE
  5
12B
330
4
100
AcDbSymbolTableRecord
100
AcDbLinetypeTableRecord
  2
HIDDEN
 70
     0
  3
__ __ __ __ __ __ __ __ __ __ __ __ __ __ __ __
 72
    65
 73
     5
 40
8.0
 49
1.0
 74
     0
 49
-2.0
 74
     0
 49
2.0
 74
     0
 49
-2.0
 74
     0
 49
1.0
 74
     0
  0
LTYPE
  5
12C
330
4
100
AcDbSymbolTableRecord
100
AcDbLinetypeTableRecord
  2
DOT
 70
     0
  3
. . . . . . . . . . . . . . . . . . . . . . . .
 72
    65
 73
     3
 40
1.6
 49
0.4
 74
     0
 49
-0.8
 74
     0
 49
0.4
 74
     0
  0
LTYPE
  5
12D
330
4
100
AcDbSymbolTableRecord
100
AcDbLinetypeTableRecord
  2
CENTER
 70
     0
  3
____ _ ____ _ ____ _ ____ _ ____ _ ____ _ ____ 
 72
    65
 73
     5
 40
12.0
 49
5.0
 74
     0
 49
-0.8
 74
     0
 49
0.4
 74
     0
 49
-0.8
 74
     0
 49
5.0
 74
     0
  0
LTYPE
  5
12E
330
4
100
AcDbSymbolTableRecord
100
AcDbLinetypeTableRecord
  2
DIVIDE
 70
     0
  3
____ . . ____ . . ____ . . ____ . . ____ . . __
 72
    65
 73
     7
 40
13.2
 49
5.0
 74
     0
 49
-0.8
 74
     0
 49
0.4
 74
     0
 49
-0.8
 74
     0
 49
0.4
 74
     0
 49
-0.8
 74
     0
 49
5.0
 74
     0
  0
LTYPE
  5
12F
330
4
100
AcDbSymbolTableRecord
100
AcDbLinetypeTableRecord
  2
STYLE_07
 70
     0
  3
Solid Line
 72
    65
 73
     6
 40
7.48
 49
2.5
 74
     0
 49
-0.8299999999999998
 74
     0
 49
2.5
 74
     0
 49
-0.8299999999999998
 74
     0
 49
0.27
 74
     0
 49
-0.55
 74
     0
  0
ENDTAB
  0
TABLE
  2
LAYER
  5
2
330
0
100
AcDbSymbolTable
 70
     6
  0
LAYER
  5
14
102
{ACAD_XDICTIONARY
360
4CB
102
}
330
2
100
AcDbSymbolTableRecord
100
AcDbLayerTableRecord
  2
0
 70
     0
 62
     7
  6
CONTINUOUS
370
    -3
390
469
  0
LAYER
  5
27
102
{ACAD_XDICTIONARY
360
4CD
102
}
330
2
100
AcDbSymbolTableRecord
100
AcDbLayerTableRecord
  2
001
 70
     0
 62
     7
  6
CONTINUOUS
370
    -3
390
469
  0
LAYER
  5
28
102
{ACAD_XDICTIONARY
360
4CF
102
}
330
2
100
AcDbSymbolTableRecord
100
AcDbLayerTableRecord
  2
002
 70
     0
 62
     7
  6
CONTINUOUS
370
    -3
390
469
  0
LAYER
  5
29
102
{ACAD_XDICTIONARY
360
4D1
102
}
330
2
100
AcDbSymbolTableRecord
100
AcDbLayerTableRecord
  2
003
 70
     0
 62
     7
  6
CONTINUOUS
370
    -3
390
469
  0
LAYER
  5
2A
102
{ACAD_XDICTIONARY
360
4D3
102
}
330
2
100
AcDbSymbolTableRecord
100
AcDbLayerTableRecord
  2
004
 70
     0
 62
     7
  6
CONTINUOUS
370
    -3
390
469
  0
LAYER
  5
4C1
330
2
100
AcDbSymbolTableRecord
100
AcDbLayerTableRecord
  2
Defpoints
 70
     0
 62
     7
  6
CONTINUOUS
290
     0
370
    -3
390
469
  0
ENDTAB
  0
TABLE
  2
STYLE
  5
3
330
0
100
AcDbSymbolTable
 70
     3
  0
STYLE
  5
17
330
3
100
AcDbSymbolTableRecord
100
AcDbTextStyleTableRecord
  2
STANDARD
 70
     0
 40
0.0
 41
1.0
 50
0.0
 71
     0
 42
0.0
  3
txt
  4

  0
STYLE
  5
127
330
3
100
AcDbSymbolTableRecord
100
AcDbTextStyleTableRecord
  2
DRACAD
 70
     0
 40
0.0
 41
1.0
 50
0.0
 71
     0
 42
0.0
  3
txt
  4
extfont
  0
STYLE
  5
128
330
3
100
AcDbSymbolTableRecord
100
AcDbTextStyleTableRecord
  2
TATEDRACAD
 70
     4
 40
0.0
 41
1.0
 50
0.0
 71
     0
 42
0.0
  3
txt
  4
extfont
  0
ENDTAB
  0
TABLE
  2
VIEW
  5
5
330
0
100
AcDbSymbolTable
 70
     0
  0
ENDTAB
  0
TABLE
  2
UCS
  5
6
330
0
100
AcDbSymbolTable
 70
     0
  0
ENDTAB
  0
TABLE
  2
APPID
  5
8
330
0
100
AcDbSymbolTable
 70
     3
  0
APPID
  5
16
330
8
100
AcDbSymbolTableRecord
100
AcDbRegAppTableRecord
  2
ACAD
 70
     0
  0
APPID
  5
4BB
330
8
100
AcDbSymbolTableRecord
100
AcDbRegAppTableRecord
  2
ACAD_MLEADERVER
 70
     0
  0
APPID
  5
4D7
330
8
100
AcDbSymbolTableRecord
100
AcDbRegAppTableRecord
  2
DCO15
 70
     0
  0
ENDTAB
  0
TABLE
  2
DIMSTYLE
  5
9
330
0
100
AcDbSymbolTable
 70
     3
100
AcDbDimStyleTable
 71
     0
  0
DIMSTYLE
105
18
330
9
100
AcDbSymbolTableRecord
100
AcDbDimStyleTableRecord
  2
STANDARD
 70
     0
340
17
  0
DIMSTYLE
105
14F
102
{ACAD_REACTORS
330
3E8
330
3F2
330
3FC
330
406
330
410
330
43A
330
444
330
45A
102
}
330
9
100
AcDbSymbolTableRecord
100
AcDbDimStyleTableRecord
  2
DIMSTYLE001
 70
     0
 41
10.0
 42
0.0
 43
1000.0
 44
0.0
 73
     0
 74
     0
 77
     1
140
25.0
147
0.0
172
     1
174
     1
271
     0
340
127
341
14A
342
14A
  0
DIMSTYLE
105
150
102
{ACAD_REACTORS
330
423
330
42D
102
}
330
9
100
AcDbSymbolTableRecord
100
AcDbDimStyleTableRecord
  2
DIMSTYLE002
 70
     0
 41
8.0
 42
0.0
 43
1000.0
 44
0.0
 73
     0
 74
     0
 77
     1
140
25.0
147
0.0
172
     1
174
     1
271
     1
340
127
341
14A
342
14A
  0
ENDTAB
  0
TABLE
  2
BLOCK_RECORD
  5
1
330
0
100
AcDbSymbolTable
 70
    14
  0
BLOCK_RECORD
  5
A
330
1
100
AcDbSymbolTableRecord
100
AcDbBlockTableRecord
  2
*MODEL_SPACE
340
4BE
  0
BLOCK_RECORD
  5
B
330
1
100
AcDbSymbolTableRecord
100
AcDbBlockTableRecord
  2
*PAPER_SPACE
340
4BF
  0
BLOCK_RECORD
  5
14A
330
1
100
AcDbSymbolTableRecord
100
AcDbBlockTableRecord
  2
_ORIGIN
340
0
102
{BLKREFS
331
3E4
331
3E5
331
3F8
331
3F9
331
402
331
403
331
40C
331
40D
331
41F
331
420
331
429
331
42A
331
436
331
437
331
440
331
441
331
456
331
457
331
4C6
331
4C7
102
}
  0
BLOCK_RECORD
  5
151
330
1
100
AcDbSymbolTableRecord
100
AcDbBlockTableRecord
  2
1
340
0
102
{BLKREFS
331
193
102
}
  0
BLOCK_RECORD
  5
152
330
1
100
AcDbSymbolTableRecord
100
AcDbBlockTableRecord
  2
2
340
0
102
{BLKREFS
331
196
102
}
  0
BLOCK_RECORD
  5
153
330
1
100
AcDbSymbolTableRecord
100
AcDbBlockTableRecord
  2
3
340
0
102
{BLKREFS
331
1B6
102
}
  0
BLOCK_RECORD
  5
3DF
330
1
100
AcDbSymbolTableRecord
100
AcDbBlockTableRecord
  2
*D4
340
0
  0
BLOCK_RECORD
  5
3E9
330
1
100
AcDbSymbolTableRecord
100
AcDbBlockTableRecord
  2
*D5
340
0
  0
BLOCK_RECORD
  5
3F3
330
1
100
AcDbSymbolTableRecord
100
AcDbBlockTableRecord
  2
*D6
340
0
  0
BLOCK_RECORD
  5
3FD
330
1
100
AcDbSymbolTableRecord
100
AcDbBlockTableRecord
  2
*D7
340
0
  0
BLOCK_RECORD
  5
407
330
1
100
AcDbSymbolTableRecord
100
AcDbBlockTableRecord
  2
*D8
340
0
  0
BLOCK_RECORD
  5
41A
330
1
100
AcDbSymbolTableRecord
100
AcDbBlockTableRecord
  2
*D9
340
0
  0
BLOCK_RECORD
  5
424
330
1
100
AcDbSymbolTableRecord
100
AcDbBlockTableRecord
  2
*D10
340
0
  0
BLOCK_RECORD
  5
431
330
1
100
AcDbSymbolTableRecord
100
AcDbBlockTableRecord
  2
*D11
340
0
  0
BLOCK_RECORD
  5
43B
330
1
100
AcDbSymbolTableRecord
100
AcDbBlockTableRecord
  2
*D12
340
0
  0
BLOCK_RECORD
  5
451
330
1
100
AcDbSymbolTableRecord
100
AcDbBlockTableRecord
  2
*D13
340
0
  0
ENDTAB
  0
ENDSEC
  0
SECTION
  2
BLOCKS
  0
BLOCK
  5
D
330
A
100
AcDbEntity
  8
0
100
AcDbBlockBegin
  2
*MODEL_SPACE
 70
     0
 10
0.0
 20
0.0
 30
0.0
  3
*MODEL_SPACE
  1

  0
ENDBLK
  5
E
330
A
100
AcDbEntity
  8
0
100
AcDbBlockEnd
  0
BLOCK
  5
F
330
B
100
AcDbEntity
 67
     1
  8
0
100
AcDbBlockBegin
  2
*PAPER_SPACE
 70
     0
 10
0.0
 20
0.0
 30
0.0
  3
*PAPER_SPACE
  1

  0
ENDBLK
  5
10
330
B
100
AcDbEntity
 67
     1
  8
0
100
AcDbBlockEnd
  0
BLOCK
  5
14B
330
14A
100
AcDbEntity
  8
0
100
AcDbBlockBegin
  2
_ORIGIN
 70
     0
 10
0.0
 20
0.0
 30
0.0
  3
_ORIGIN
  1

  0
CIRCLE
  5
14C
330
14A
100
AcDbEntity
  8
0
  6
ByBlock
 62
     0
100
AcDbCircle
 10
0.0
 20
0.0
 30
0.0
 40
0.5
  0
LINE
  5
14D
330
14A
100
AcDbEntity
  8
0
  6
ByBlock
 62
     0
100
AcDbLine
 10
0.0
 20
0.0
 30
0.0
 11
-1.0
 21
0.0
 31
0.0
  0
ENDBLK
  5
14E
330
14A
100
AcDbEntity
  8
0
100
AcDbBlockEnd
  0
BLOCK
  5
154
330
151
100
AcDbEntity
  8
0
100
AcDbBlockBegin
  2
1
 70
     0
 10
0.0
 20
0.0
 30
0.0
  3
1
  1

  0
ARC
  5
155
330
151
100
AcDbEntity
  8
004
  6
Continuous
 62
     7
100
AcDbCircle
 10
133.068018
 20
-9.500510999999999
 30
0.0
 40
134.969188
100
AcDbArc
 50
45.663628
 51
224.512358
  0
LINE
  5
156
330
151
100
AcDbEntity
  8
004
  6
Continuous
 62
     7
100
AcDbLine
 10
-120.089883
 20
249.590778
 30
0.0
 11
386.225919
 21
249.590778
 31
0.0
  0
LINE
  5
157
330
151
100
AcDbEntity
  8
004
  6
Continuous
 62
     7
100
AcDbLine
 10
-120.089883
 20
-268.591801
 30
0.0
 11
-120.089883
 21
249.590778
 31
0.0
  0
ARC
  5
158
330
151
100
AcDbEntity
  8
004
  6
Continuous
 62
     7
100
AcDbCircle
 10
133.068018
 20
-9.500510999999999
 30
0.0
 40
134.969188
100
AcDbArc
 50
224.512358
 51
225.663628
  0
LINE
  5
159
330
151
100
AcDbEntity
  8
004
  6
Continuous
 62
     7
100
AcDbLine
 10
-120.089883
 20
239.590778
 30
0.0
 11
376.454927
 21
239.590778
 31
0.0
  0
LINE
  5
15A
330
151
100
AcDbEntity
  8
004
  6
Continuous
 62
     7
100
AcDbLine
 10
-120.089883
 20
229.590778
 30
0.0
 11
366.683934
 21
229.590778
 31
0.0
  0
LINE
  5
15B
330
151
100
AcDbEntity
  8
004
  6
Continuous
 62
     7
100
AcDbLine
 10
-120.089883
 20
219.590778
 30
0.0
 11
356.912942
 21
219.590778
 31
0.0
  0
LINE
  5
15C
330
151
100
AcDbEntity
  8
004
  6
Continuous
 62
     7
100
AcDbLine
 10
-120.089883
 20
209.590778
 30
0.0
 11
347.14195
 21
209.590778
 31
0.0
  0
LINE
  5
15D
330
151
100
AcDbEntity
  8
004
  6
Continuous
 62
     7
100
AcDbLine
 10
-120.089883
 20
199.590778
 30
0.0
 11
337.370957
 21
199.590778
 31
0.0
  0
LINE
  5
15E
330
151
100
AcDbEntity
  8
004
  6
Continuous
 62
     7
100
AcDbLine
 10
-120.089883
 20
189.590778
 30
0.0
 11
327.599965
 21
189.590778
 31
0.0
  0
LINE
  5
15F
330
151
100
AcDbEntity
  8
004
  6
Continuous
 62
     7
100
AcDbLine
 10
-120.089883
 20
179.590778
 30
0.0
 11
317.828973
 21
179.590778
 31
0.0
  0
LINE
  5
160
330
151
100
AcDbEntity
  8
004
  6
Continuous
 62
     7
100
AcDbLine
 10
-120.089883
 20
169.590778
 30
0.0
 11
308.05798
 21
169.590778
 31
0.0
  0
LINE
  5
161
330
151
100
AcDbEntity
  8
004
  6
Continuous
 62
     7
100
AcDbLine
 10
-120.089883
 20
159.590778
 30
0.0
 11
298.286988
 21
159.590778
 31
0.0
  0
LINE
  5
162
330
151
100
AcDbEntity
  8
004
  6
Continuous
 62
     7
100
AcDbLine
 10
-120.089883
 20
149.590778
 30
0.0
 11
288.515995
 21
149.590778
 31
0.0
  0
LINE
  5
163
330
151
100
AcDbEntity
  8
004
  6
Continuous
 62
     7
100
AcDbLine
 10
-120.089883
 20
139.590778
 30
0.0
 11
278.745003
 21
139.590778
 31
0.0
  0
LINE
  5
164
330
151
100
AcDbEntity
  8
004
  6
Continuous
 62
     7
100
AcDbLine
 10
-120.089883
 20
129.590778
 30
0.0
 11
268.974011
 21
129.590778
 31
0.0
  0
LINE
  5
165
330
151
100
AcDbEntity
  8
004
  6
Continuous
 62
     7
100
AcDbLine
 10
386.225919
 20
249.590778
 30
0.0
 11
227.393864
 21
87.03609699999999
 31
0.0
  0
LINE
  5
166
330
151
100
AcDbEntity
  8
004
  6
Continuous
 62
     7
100
AcDbLine
 10
-120.089883
 20
-110.409222
 30
0.0
 11
34.470194
 21
-110.409222
 31
0.0
  0
LINE
  5
167
330
151
100
AcDbEntity
  8
004
  6
Continuous
 62
     7
100
AcDbLine
 10
-120.089883
 20
-120.409222
 30
0.0
 11
24.699202
 21
-120.409222
 31
0.0
  0
LINE
  5
168
330
151
100
AcDbEntity
  8
004
  6
Continuous
 62
     7
100
AcDbLine
 10
-120.089883
 20
-130.409222
 30
0.0
 11
14.928209
 21
-130.409222
 31
0.0
  0
LINE
  5
169
330
151
100
AcDbEntity
  8
004
  6
Continuous
 62
     7
100
AcDbLine
 10
-120.089883
 20
-140.409222
 30
0.0
 11
5.157217
 21
-140.409222
 31
0.0
  0
LINE
  5
16A
330
151
100
AcDbEntity
  8
004
  6
Continuous
 62
     7
100
AcDbLine
 10
-120.089883
 20
-150.409222
 30
0.0
 11
-4.613776
 21
-150.409222
 31
0.0
  0
LINE
  5
16B
330
151
100
AcDbEntity
  8
004
  6
Continuous
 62
     7
100
AcDbLine
 10
-120.089883
 20
-160.409222
 30
0.0
 11
-14.384768
 21
-160.409222
 31
0.0
  0
LINE
  5
16C
330
151
100
AcDbEntity
  8
004
  6
Continuous
 62
     7
100
AcDbLine
 10
-120.089883
 20
-170.409222
 30
0.0
 11
-24.15576
 21
-170.409222
 31
0.0
  0
LINE
  5
16D
330
151
100
AcDbEntity
  8
004
  6
Continuous
 62
     7
100
AcDbLine
 10
-120.089883
 20
-180.409222
 30
0.0
 11
-33.926753
 21
-180.409222
 31
0.0
  0
LINE
  5
16E
330
151
100
AcDbEntity
  8
004
  6
Continuous
 62
     7
100
AcDbLine
 10
-120.089883
 20
-190.409222
 30
0.0
 11
-43.697745
 21
-190.409222
 31
0.0
  0
LINE
  5
16F
330
151
100
AcDbEntity
  8
004
  6
Continuous
 62
     7
100
AcDbLine
 10
-120.089883
 20
-200.409222
 30
0.0
 11
-53.46873699999999
 21
-200.409222
 31
0.0
  0
LINE
  5
170
330
151
100
AcDbEntity
  8
004
  6
Continuous
 62
     7
100
AcDbLine
 10
-120.089883
 20
-210.409222
 30
0.0
 11
-63.23973
 21
-210.409222
 31
0.0
  0
LINE
  5
171
330
151
100
AcDbEntity
  8
004
  6
Continuous
 62
     7
100
AcDbLine
 10
-120.089883
 20
-220.409222
 30
0.0
 11
-73.010722
 21
-220.409222
 31
0.0
  0
LINE
  5
172
330
151
100
AcDbEntity
  8
004
  6
Continuous
 62
     7
100
AcDbLine
 10
-120.089883
 20
-230.409222
 30
0.0
 11
-82.78171400000001
 21
-230.409222
 31
0.0
  0
LINE
  5
173
330
151
100
AcDbEntity
  8
004
  6
Continuous
 62
     7
100
AcDbLine
 10
-120.089883
 20
-240.409222
 30
0.0
 11
-92.552707
 21
-240.409222
 31
0.0
  0
LINE
  5
174
330
151
100
AcDbEntity
  8
004
  6
Continuous
 62
     7
100
AcDbLine
 10
-120.089883
 20
-250.409222
 30
0.0
 11
-102.323699
 21
-250.409222
 31
0.0
  0
LINE
  5
175
330
151
100
AcDbEntity
  8
004
  6
Continuous
 62
     7
100
AcDbLine
 10
-120.089883
 20
-260.409222
 30
0.0
 11
-112.094692
 21
-260.409222
 31
0.0
  0
LINE
  5
176
330
151
100
AcDbEntity
  8
004
  6
Continuous
 62
     7
100
AcDbLine
 10
38.761214
 20
-106.017631
 30
0.0
 11
-120.089883
 21
-268.591801
 31
0.0
  0
LINE
  5
177
330
151
100
AcDbEntity
  8
004
  6
Continuous
 62
     7
100
AcDbLine
 10
-120.089883
 20
-100.409222
 30
0.0
 11
33.306863
 21
-100.409222
 31
0.0
  0
LINE
  5
178
330
151
100
AcDbEntity
  8
004
  6
Continuous
 62
     7
100
AcDbLine
 10
-120.089883
 20
-90.409222
 30
0.0
 11
25.038104
 21
-90.409222
 31
0.0
  0
LINE
  5
179
330
151
100
AcDbEntity
  8
004
  6
Continuous
 62
     7
100
AcDbLine
 10
-120.089883
 20
-80.409222
 30
0.0
 11
18.226229
 21
-80.409222
 31
0.0
  0
LINE
  5
17A
330
151
100
AcDbEntity
  8
004
  6
Continuous
 62
     7
100
AcDbLine
 10
-120.089883
 20
-70.409222
 30
0.0
 11
12.623795
 21
-70.409222
 31
0.0
  0
LINE
  5
17B
330
151
100
AcDbEntity
  8
004
  6
Continuous
 62
     7
100
AcDbLine
 10
-120.089883
 20
-60.409222
 30
0.0
 11
8.068077999999999
 21
-60.409222
 31
0.0
  0
LINE
  5
17C
330
151
100
AcDbEntity
  8
004
  6
Continuous
 62
     7
100
AcDbLine
 10
-120.089883
 20
-50.409222
 30
0.0
 11
4.447805
 21
-50.409222
 31
0.0
  0
LINE
  5
17D
330
151
100
AcDbEntity
  8
004
  6
Continuous
 62
     7
100
AcDbLine
 10
-120.089883
 20
-40.40922199999999
 30
0.0
 11
1.685624
 21
-40.40922199999999
 31
0.0
  0
LINE
  5
17E
330
151
100
AcDbEntity
  8
004
  6
Continuous
 62
     7
100
AcDbLine
 10
-120.089883
 20
-30.409222
 30
0.0
 11
-0.271802
 21
-30.409222
 31
0.0
  0
LINE
  5
17F
330
151
100
AcDbEntity
  8
004
  6
Continuous
 62
     7
100
AcDbLine
 10
-120.089883
 20
-20.409222
 30
0.0
 11
-1.459606999999999
 21
-20.409222
 31
0.0
  0
LINE
  5
180
330
151
100
AcDbEntity
  8
004
  6
Continuous
 62
     7
100
AcDbLine
 10
-120.089883
 20
-10.409222
 30
0.0
 11
-1.898111
 21
-10.409222
 31
0.0
  0
LINE
  5
181
330
151
100
AcDbEntity
  8
004
  6
Continuous
 62
     7
100
AcDbLine
 10
-120.089883
 20
-0.409222
 30
0.0
 11
-1.594635
 21
-0.409222
 31
0.0
  0
LINE
  5
182
330
151
100
AcDbEntity
  8
004
  6
Continuous
 62
     7
100
AcDbLine
 10
-120.089883
 20
9.590778
 30
0.0
 11
-0.544124
 21
9.590778
 31
0.0
  0
LINE
  5
183
330
151
100
AcDbEntity
  8
004
  6
Continuous
 62
     7
100
AcDbLine
 10
-120.089883
 20
19.590778
 30
0.0
 11
1.271286
 21
19.590778
 31
0.0
  0
LINE
  5
184
330
151
100
AcDbEntity
  8
004
  6
Continuous
 62
     7
100
AcDbLine
 10
-120.089883
 20
29.59077800000001
 30
0.0
 11
3.883836
 21
29.59077800000001
 31
0.0
  0
LINE
  5
185
330
151
100
AcDbEntity
  8
004
  6
Continuous
 62
     7
100
AcDbLine
 10
-120.089883
 20
39.590778
 30
0.0
 11
7.343211
 21
39.590778
 31
0.0
  0
LINE
  5
186
330
151
100
AcDbEntity
  8
004
  6
Continuous
 62
     7
100
AcDbLine
 10
-120.089883
 20
49.590778
 30
0.0
 11
11.721814
 21
49.590778
 31
0.0
  0
LINE
  5
187
330
151
100
AcDbEntity
  8
004
  6
Continuous
 62
     7
100
AcDbLine
 10
-120.089883
 20
59.590778
 30
0.0
 11
17.12374
 21
59.590778
 31
0.0
  0
LINE
  5
188
330
151
100
AcDbEntity
  8
004
  6
Continuous
 62
     7
100
AcDbLine
 10
-120.089883
 20
69.590778
 30
0.0
 11
23.70052
 21
69.590778
 31
0.0
  0
LINE
  5
189
330
151
100
AcDbEntity
  8
004
  6
Continuous
 62
     7
100
AcDbLine
 10
-120.089883
 20
79.590778
 30
0.0
 11
31.680524
 21
79.590778
 31
0.0
  0
LINE
  5
18A
330
151
100
AcDbEntity
  8
004
  6
Continuous
 62
     7
100
AcDbLine
 10
-120.089883
 20
89.59077800000001
 30
0.0
 11
41.42960799999999
 21
89.59077800000001
 31
0.0
  0
LINE
  5
18B
330
151
100
AcDbEntity
  8
004
  6
Continuous
 62
     7
100
AcDbLine
 10
-120.089883
 20
99.59077800000001
 30
0.0
 11
53.59618399999999
 21
99.59077800000001
 31
0.0
  0
LINE
  5
18C
330
151
100
AcDbEntity
  8
004
  6
Continuous
 62
     7
100
AcDbLine
 10
-120.089883
 20
109.590778
 30
0.0
 11
69.55466099999999
 21
109.590778
 31
0.0
  0
LINE
  5
18D
330
151
100
AcDbEntity
  8
004
  6
Continuous
 62
     7
100
AcDbLine
 10
-120.089883
 20
119.590778
 30
0.0
 11
93.67105399999999
 21
119.590778
 31
0.0
  0
LINE
  5
18E
330
151
100
AcDbEntity
  8
004
  6
Continuous
 62
     7
100
AcDbLine
 10
172.464982
 20
119.590778
 30
0.0
 11
259.203018
 21
119.590778
 31
0.0
  0
LINE
  5
18F
330
151
100
AcDbEntity
  8
004
  6
Continuous
 62
     7
100
AcDbLine
 10
196.581375
 20
109.590778
 30
0.0
 11
249.432026
 21
109.590778
 31
0.0
  0
LINE
  5
190
330
151
100
AcDbEntity
  8
004
  6
Continuous
 62
     7
100
AcDbLine
 10
212.539852
 20
99.59077800000001
 30
0.0
 11
239.661034
 21
99.59077800000001
 31
0.0
  0
ENDBLK
  5
191
330
151
100
AcDbEntity
  8
0
100
AcDbBlockEnd
  0
BLOCK
  5
192
330
152
100
AcDbEntity
  8
0
100
AcDbBlockBegin
  2
2
 70
     0
 10
0.0
 20
0.0
 30
0.0
  3
2
  1

  0
INSERT
  5
193
330
152
100
AcDbEntity
  8
004
  6
Continuous
 62
     7
100
AcDbBlockReference
  2
1
 10
-26.613604
 20
1.900102
 30
0.0
 41
0.2
 42
0.2
  0
ENDBLK
  5
194
330
152
100
AcDbEntity
  8
0
100
AcDbBlockEnd
  0
BLOCK
  5
195
330
153
100
AcDbEntity
  8
0
100
AcDbBlockBegin
  2
3
 70
     0
 10
0.0
 20
0.0
 30
0.0
  3
3
  1

  0
INSERT
  5
196
330
153
100
AcDbEntity
  8
003
  6
Continuous
 62
     7
100
AcDbBlockReference
  2
2
 10
187.309635
 20
61.739262
 30
0.0
  0
ENDBLK
  5
197
330
153
100
AcDbEntity
  8
0
100
AcDbBlockEnd
  0
BLOCK
  5
3E0
330
3DF
100
AcDbEntity
  8
0
100
AcDbBlockBegin
  2
*D4
 70
     1
 10
0.0
 20
0.0
 30
0.0
  3
*D4
  1

  0
LINE
  5
3E1
330
3DF
100
AcDbEntity
  8
0
  6
ByBlock
 62
     0
100
AcDbLine
 10
22892.737499
 20
-16055.131174
 30
0.0
 11
22821.331691
 21
-16055.131174
 31
0.0
  0
LINE
  5
3E2
330
3DF
100
AcDbEntity
  8
0
  6
ByBlock
 62
     0
100
AcDbLine
 10
22892.862499
 20
-15100.131174
 30
0.0
 11
22821.331691
 21
-15100.131174
 31
0.0
  0
LINE
  5
3E3
330
3DF
100
AcDbEntity
  8
0
  6
ByBlock
 62
     0
100
AcDbLine
 10
22821.331691
 20
-16055.131174
 30
0.0
 11
22821.331691
 21
-15100.131174
 31
0.0
  0
INSERT
  5
3E4
330
3DF
100
AcDbEntity
  8
0
  6
ByBlock
 62
     0
100
AcDbBlockReference
  2
_ORIGIN
 10
22821.331691
 20
-16055.131174
 30
0.0
 41
10.0
 42
10.0
 43
10.0
 50
270.0
  0
INSERT
  5
3E5
330
3DF
100
AcDbEntity
  8
0
  6
ByBlock
 62
     0
100
AcDbBlockReference
  2
_ORIGIN
 10
22821.331691
 20
-15100.131174
 30
0.0
 41
10.0
 42
10.0
 43
10.0
 50
90.0
  0
MTEXT
  5
3E6
330
3DF
100
AcDbEntity
  8
0
  6
ByBlock
 62
     0
100
AcDbMText
 10
22808.831691
 20
-15577.631174
 30
0.0
 40
25.0
 41
0.0
 71
     5
 72
     1
  1
{\A1;955}
  7
DRACAD
 11
0.0
 21
1.0
 31
0.0
 73
     1
 44
1.0
1001
ACAD
1000
MTEXTBEGIN
1070
    73
1070
     1
1070
    44
1040
1.0
1070
    74
1070
     0
1000
MTEXTEND
  0
ENDBLK
  5
3E7
330
3DF
100
AcDbEntity
  8
0
100
AcDbBlockEnd
  0
BLOCK
  5
3EA
330
3E9
100
AcDbEntity
  8
0
100
AcDbBlockBegin
  2
*D5
 70
     1
 10
0.0
 20
0.0
 30
0.0
  3
*D5
  1

  0
LINE
  5
4C2
330
3E9
100
AcDbEntity
  8
0
  6
Continuous
 62
     0
370
    -2
100
AcDbLine
 10
23953.428108
 20
-15053.397729
 30
0.0
 11
23953.428108
 21
-14995.495744
 31
0.0
  0
LINE
  5
4C3
330
3E9
100
AcDbEntity
  8
0
  6
Continuous
 62
     0
370
    -2
100
AcDbLine
 10
22938.428108
 20
-15053.397729
 30
0.0
 11
22938.428108
 21
-14995.495744
 31
0.0
  0
LINE
  5
4C4
330
3E9
100
AcDbEntity
  8
0
  6
Continuous
 62
     0
370
    -2
100
AcDbLine
 10
23943.428108
 20
-14995.495744
 30
0.0
 11
22948.428108
 21
-14995.495744
 31
0.0
  0
MTEXT
  5
4C5
330
3E9
100
AcDbEntity
  8
0
  6
Continuous
 62
     0
100
AcDbMText
 10
23445.928108
 20
-14982.995744
 30
0.0
 40
25.0
 41
0.0
 71
     5
 72
     1
  1
\A1;1015
  7
DRACAD
 73
     1
 44
1.0
1001
ACAD
1000
MTEXTBEGIN
1070
    73
1070
     1
1070
    44
1040
1.0
1070
    74
1070
     0
1000
MTEXTEND
  0
INSERT
  5
4C6
330
3E9
100
AcDbEntity
  8
0
  6
Continuous
 62
     0
370
    -2
100
AcDbBlockReference
  2
_ORIGIN
 10
23953.428108
 20
-14995.495744
 30
0.0
 41
10.0
 42
10.0
 43
10.0
  0
INSERT
  5
4C7
330
3E9
100
AcDbEntity
  8
0
  6
Continuous
 62
     0
370
    -2
100
AcDbBlockReference
  2
_ORIGIN
 10
22938.428108
 20
-14995.495744
 30
0.0
 41
10.0
 42
10.0
 43
10.0
 50
180.0
  0
POINT
  5
4C8
330
3E9
100
AcDbEntity
  8
Defpoints
  6
Continuous
 62
     0
100
AcDbPoint
 10
23953.428108
 20
-15053.397729
 30
0.0
  0
POINT
  5
4C9
330
3E9
100
AcDbEntity
  8
Defpoints
  6
Continuous
 62
     0
100
AcDbPoint
 10
22938.428108
 20
-15053.397729
 30
0.0
  0
POINT
  5
4CA
330
3E9
100
AcDbEntity
  8
Defpoints
  6
Continuous
 62
     0
100
AcDbPoint
 10
22938.428108
 20
-14995.495744
 30
0.0
  0
ENDBLK
  5
3F1
330
3E9
100
AcDbEntity
  8
0
100
AcDbBlockEnd
  0
BLOCK
  5
3F4
330
3F3
100
AcDbEntity
  8
0
100
AcDbBlockBegin
  2
*D6
 70
     1
 10
0.0
 20
0.0
 30
0.0
  3
*D6
  1

  0
LINE
  5
3F5
330
3F3
100
AcDbEntity
  8
0
  6
ByBlock
 62
     0
100
AcDbLine
 10
23408.428108
 20
-16111.875389
 30
0.0
 11
23408.428108
 21
-16215.922193
 31
0.0
  0
LINE
  5
3F6
330
3F3
100
AcDbEntity
  8
0
  6
ByBlock
 62
     0
100
AcDbLine
 10
23953.428108
 20
-16111.875389
 30
0.0
 11
23953.428108
 21
-16215.922193
 31
0.0
  0
LINE
  5
3F7
330
3F3
100
AcDbEntity
  8
0
  6
ByBlock
 62
     0
100
AcDbLine
 10
23408.428108
 20
-16215.922193
 30
0.0
 11
23953.428108
 21
-16215.922193
 31
0.0
  0
INSERT
  5
3F8
330
3F3
100
AcDbEntity
  8
0
  6
ByBlock
 62
     0
100
AcDbBlockReference
  2
_ORIGIN
 10
23408.428108
 20
-16215.922193
 30
0.0
 41
10.0
 42
10.0
 43
10.0
 50
180.0
  0
INSERT
  5
3F9
330
3F3
100
AcDbEntity
  8
0
  6
ByBlock
 62
     0
100
AcDbBlockReference
  2
_ORIGIN
 10
23953.428108
 20
-16215.922193
 30
0.0
 41
10.0
 42
10.0
 43
10.0
  0
MTEXT
  5
3FA
330
3F3
100
AcDbEntity
  8
0
  6
ByBlock
 62
     0
100
AcDbMText
 10
23680.928108
 20
-16203.422193
 30
0.0
 40
25.0
 41
0.0
 71
     5
 72
     1
  1
{\A1;545}
  7
DRACAD
 73
     1
 44
1.0
1001
ACAD
1000
MTEXTBEGIN
1070
    73
1070
     1
1070
    44
1040
1.0
1070
    74
1070
     0
1000
MTEXTEND
  0
ENDBLK
  5
3FB
330
3F3
100
AcDbEntity
  8
0
100
AcDbBlockEnd
  0
BLOCK
  5
3FE
330
3FD
100
AcDbEntity
  8
0
100
AcDbBlockBegin
  2
*D7
 70
     1
 10
0.0
 20
0.0
 30
0.0
  3
*D7
  1

  0
LINE
  5
3FF
330
3FD
100
AcDbEntity
  8
0
  6
ByBlock
 62
     0
100
AcDbLine
 10
22938.428108
 20
-16111.875389
 30
0.0
 11
22938.428108
 21
-16215.922193
 31
0.0
  0
LINE
  5
400
330
3FD
100
AcDbEntity
  8
0
  6
ByBlock
 62
     0
100
AcDbLine
 10
23408.428108
 20
-16111.875389
 30
0.0
 11
23408.428108
 21
-16215.922193
 31
0.0
  0
LINE
  5
401
330
3FD
100
AcDbEntity
  8
0
  6
ByBlock
 62
     0
100
AcDbLine
 10
22938.428108
 20
-16215.922193
 30
0.0
 11
23408.428108
 21
-16215.922193
 31
0.0
  0
INSERT
  5
402
330
3FD
100
AcDbEntity
  8
0
  6
ByBlock
 62
     0
100
AcDbBlockReference
  2
_ORIGIN
 10
22938.428108
 20
-16215.922193
 30
0.0
 41
10.0
 42
10.0
 43
10.0
 50
180.0
  0
INSERT
  5
403
330
3FD
100
AcDbEntity
  8
0
  6
ByBlock
 62
     0
100
AcDbBlockReference
  2
_ORIGIN
 10
23408.428108
 20
-16215.922193
 30
0.0
 41
10.0
 42
10.0
 43
10.0
  0
MTEXT
  5
404
330
3FD
100
AcDbEntity
  8
0
  6
ByBlock
 62
     0
100
AcDbMText
 10
23173.428108
 20
-16203.422193
 30
0.0
 40
25.0
 41
0.0
 71
     5
 72
     1
  1
{\A1;470}
  7
DRACAD
 73
     1
 44
1.0
1001
ACAD
1000
MTEXTBEGIN
1070
    73
1070
     1
1070
    44
1040
1.0
1070
    74
1070
     0
1000
MTEXTEND
  0
ENDBLK
  5
405
330
3FD
100
AcDbEntity
  8
0
100
AcDbBlockEnd
  0
BLOCK
  5
408
330
407
100
AcDbEntity
  8
0
100
AcDbBlockBegin
  2
*D8
 70
     1
 10
0.0
 20
0.0
 30
0.0
  3
*D8
  1

  0
LINE
  5
409
330
407
100
AcDbEntity
  8
0
  6
ByBlock
 62
     0
100
AcDbLine
 10
23198.428108
 20
-16655.361038
 30
0.0
 11
23198.428108
 21
-16737.431078
 31
0.0
  0
LINE
  5
40A
330
407
100
AcDbEntity
  8
0
  6
ByBlock
 62
     0
100
AcDbLine
 10
23618.428108
 20
-16655.361038
 30
0.0
 11
23618.428108
 21
-16737.431078
 31
0.0
  0
LINE
  5
40B
330
407
100
AcDbEntity
  8
0
  6
ByBlock
 62
     0
100
AcDbLine
 10
23198.428108
 20
-16737.431078
 30
0.0
 11
23618.428108
 21
-16737.431078
 31
0.0
  0
INSERT
  5
40C
330
407
100
AcDbEntity
  8
0
  6
ByBlock
 62
     0
100
AcDbBlockReference
  2
_ORIGIN
 10
23198.428108
 20
-16737.431078
 30
0.0
 41
10.0
 42
10.0
 43
10.0
 50
180.0
  0
INSERT
  5
40D
330
407
100
AcDbEntity
  8
0
  6
ByBlock
 62
     0
100
AcDbBlockReference
  2
_ORIGIN
 10
23618.428108
 20
-16737.431078
 30
0.0
 41
10.0
 42
10.0
 43
10.0
  0
MTEXT
  5
40E
330
407
100
AcDbEntity
  8
0
  6
ByBlock
 62
     0
100
AcDbMText
 10
23408.428108
 20
-16724.931078
 30
0.0
 40
25.0
 41
0.0
 71
     5
 72
     1
  1
{\A1;420}
  7
DRACAD
 73
     1
 44
1.0
1001
ACAD
1000
MTEXTBEGIN
1070
    73
1070
     1
1070
    44
1040
1.0
1070
    74
1070
     0
1000
MTEXTEND
  0
ENDBLK
  5
40F
330
407
100
AcDbEntity
  8
0
100
AcDbBlockEnd
  0
BLOCK
  5
41B
330
41A
100
AcDbEntity
  8
0
100
AcDbBlockBegin
  2
*D9
 70
     1
 10
0.0
 20
0.0
 30
0.0
  3
*D9
  1

  0
LINE
  5
41C
330
41A
100
AcDbEntity
  8
0
  6
ByBlock
 62
     0
100
AcDbLine
 10
24028.047932
 20
-16055.131174
 30
0.0
 11
24090.196718
 21
-16055.131174
 31
0.0
  0
LINE
  5
41D
330
41A
100
AcDbEntity
  8
0
  6
ByBlock
 62
     0
100
AcDbLine
 10
24028.047932
 20
-15577.631174
 30
0.0
 11
24090.196718
 21
-15577.631174
 31
0.0
  0
LINE
  5
41E
330
41A
100
AcDbEntity
  8
0
  6
ByBlock
 62
     0
100
AcDbLine
 10
24090.196718
 20
-16055.131174
 30
0.0
 11
24090.196718
 21
-15577.631174
 31
0.0
  0
INSERT
  5
41F
330
41A
100
AcDbEntity
  8
0
  6
ByBlock
 62
     0
100
AcDbBlockReference
  2
_ORIGIN
 10
24090.196718
 20
-16055.131174
 30
0.0
 41
8.0
 42
8.0
 43
8.0
 50
270.0
  0
INSERT
  5
420
330
41A
100
AcDbEntity
  8
0
  6
ByBlock
 62
     0
100
AcDbBlockReference
  2
_ORIGIN
 10
24090.196718
 20
-15577.631174
 30
0.0
 41
8.0
 42
8.0
 43
8.0
 50
90.0
  0
MTEXT
  5
421
330
41A
100
AcDbEntity
  8
0
  6
ByBlock
 62
     0
100
AcDbMText
 10
24077.696718
 20
-15816.381174
 30
0.0
 40
25.0
 41
0.0
 71
     5
 72
     1
  1
{\A1;477.5}
  7
DRACAD
 11
0.0
 21
1.0
 31
0.0
 73
     1
 44
1.0
1001
ACAD
1000
MTEXTBEGIN
1070
    73
1070
     1
1070
    44
1040
1.0
1070
    74
1070
     0
1000
MTEXTEND
  0
ENDBLK
  5
422
330
41A
100
AcDbEntity
  8
0
100
AcDbBlockEnd
  0
BLOCK
  5
425
330
424
100
AcDbEntity
  8
0
100
AcDbBlockBegin
  2
*D10
 70
     1
 10
0.0
 20
0.0
 30
0.0
  3
*D10
  1

  0
LINE
  5
426
330
424
100
AcDbEntity
  8
0
  6
ByBlock
 62
     0
100
AcDbLine
 10
24028.047932
 20
-15577.631174
 30
0.0
 11
24090.196718
 21
-15577.631174
 31
0.0
  0
LINE
  5
427
330
424
100
AcDbEntity
  8
0
  6
ByBlock
 62
     0
100
AcDbLine
 10
24028.047932
 20
-15100.131174
 30
0.0
 11
24090.196718
 21
-15100.131174
 31
0.0
  0
LINE
  5
428
330
424
100
AcDbEntity
  8
0
  6
ByBlock
 62
     0
100
AcDbLine
 10
24090.196718
 20
-15577.631174
 30
0.0
 11
24090.196718
 21
-15100.131174
 31
0.0
  0
INSERT
  5
429
330
424
100
AcDbEntity
  8
0
  6
ByBlock
 62
     0
100
AcDbBlockReference
  2
_ORIGIN
 10
24090.196718
 20
-15577.631174
 30
0.0
 41
8.0
 42
8.0
 43
8.0
 50
270.0
  0
INSERT
  5
42A
330
424
100
AcDbEntity
  8
0
  6
ByBlock
 62
     0
100
AcDbBlockReference
  2
_ORIGIN
 10
24090.196718
 20
-15100.131174
 30
0.0
 41
8.0
 42
8.0
 43
8.0
 50
90.0
  0
MTEXT
  5
42B
330
424
100
AcDbEntity
  8
0
  6
ByBlock
 62
     0
100
AcDbMText
 10
24077.696718
 20
-15338.881174
 30
0.0
 40
25.0
 41
0.0
 71
     5
 72
     1
  1
{\A1;477.5}
  7
DRACAD
 11
0.0
 21
1.0
 31
0.0
 73
     1
 44
1.0
1001
ACAD
1000
MTEXTBEGIN
1070
    73
1070
     1
1070
    44
1040
1.0
1070
    74
1070
     0
1000
MTEXTEND
  0
ENDBLK
  5
42C
330
424
100
AcDbEntity
  8
0
100
AcDbBlockEnd
  0
BLOCK
  5
432
330
431
100
AcDbEntity
  8
0
100
AcDbBlockBegin
  2
*D11
 70
     1
 10
0.0
 20
0.0
 30
0.0
  3
*D11
  1

  0
LINE
  5
433
330
431
100
AcDbEntity
  8
0
  6
ByBlock
 62
     0
100
AcDbLine
 10
22989.183893
 20
-16575.021668
 30
0.0
 11
22885.137088
 21
-16575.021668
 31
0.0
  0
LINE
  5
434
330
431
100
AcDbEntity
  8
0
  6
ByBlock
 62
     0
100
AcDbLine
 10
22989.183893
 20
-16505.021668
 30
0.0
 11
22885.137088
 21
-16505.021668
 31
0.0
  0
LINE
  5
435
330
431
100
AcDbEntity
  8
0
  6
ByBlock
 62
     0
100
AcDbLine
 10
22885.137088
 20
-16575.021668
 30
0.0
 11
22885.137088
 21
-16505.021668
 31
0.0
  0
INSERT
  5
436
330
431
100
AcDbEntity
  8
0
  6
ByBlock
 62
     0
100
AcDbBlockReference
  2
_ORIGIN
 10
22885.137088
 20
-16575.021668
 30
0.0
 41
10.0
 42
10.0
 43
10.0
 50
270.0
  0
INSERT
  5
437
330
431
100
AcDbEntity
  8
0
  6
ByBlock
 62
     0
100
AcDbBlockReference
  2
_ORIGIN
 10
22885.137088
 20
-16505.021668
 30
0.0
 41
10.0
 42
10.0
 43
10.0
 50
90.0
  0
MTEXT
  5
438
330
431
100
AcDbEntity
  8
0
  6
ByBlock
 62
     0
100
AcDbMText
 10
22872.637088
 20
-16540.021668
 30
0.0
 40
25.0
 41
0.0
 71
     5
 72
     1
  1
{\A1;70}
  7
DRACAD
 11
0.0
 21
1.0
 31
0.0
 73
     1
 44
1.0
1001
ACAD
1000
MTEXTBEGIN
1070
    73
1070
     1
1070
    44
1040
1.0
1070
    74
1070
     0
1000
MTEXTEND
  0
ENDBLK
  5
439
330
431
100
AcDbEntity
  8
0
100
AcDbBlockEnd
  0
BLOCK
  5
43C
330
43B
100
AcDbEntity
  8
0
100
AcDbBlockBegin
  2
*D12
 70
     1
 10
0.0
 20
0.0
 30
0.0
  3
*D12
  1

  0
LINE
  5
43D
330
43B
100
AcDbEntity
  8
0
  6
ByBlock
 62
     0
100
AcDbLine
 10
23699.563016
 20
-16375.021668
 30
0.0
 11
23745.468034
 21
-16375.021668
 31
0.0
  0
LINE
  5
43E
330
43B
100
AcDbEntity
  8
0
  6
ByBlock
 62
     0
100
AcDbLine
 10
23699.563016
 20
-16575.021668
 30
0.0
 11
23745.468034
 21
-16575.021668
 31
0.0
  0
LINE
  5
43F
330
43B
100
AcDbEntity
  8
0
  6
ByBlock
 62
     0
100
AcDbLine
 10
23745.468034
 20
-16375.021668
 30
0.0
 11
23745.468034
 21
-16575.021668
 31
0.0
  0
INSERT
  5
440
330
43B
100
AcDbEntity
  8
0
  6
ByBlock
 62
     0
100
AcDbBlockReference
  2
_ORIGIN
 10
23745.468034
 20
-16375.021668
 30
0.0
 41
10.0
 42
10.0
 43
10.0
 50
90.0
  0
INSERT
  5
441
330
43B
100
AcDbEntity
  8
0
  6
ByBlock
 62
     0
100
AcDbBlockReference
  2
_ORIGIN
 10
23745.468034
 20
-16575.021668
 30
0.0
 41
10.0
 42
10.0
 43
10.0
 50
270.0
  0
MTEXT
  5
442
330
43B
100
AcDbEntity
  8
0
  6
ByBlock
 62
     0
100
AcDbMText
 10
23732.968034
 20
-16475.021668
 30
0.0
 40
25.0
 41
0.0
 71
     5
 72
     1
  1
{\A1;200}
  7
DRACAD
 11
0.0
 21
1.0
 31
0.0
 73
     1
 44
1.0
1001
ACAD
1000
MTEXTBEGIN
1070
    73
1070
     1
1070
    44
1040
1.0
1070
    74
1070
     0
1000
MTEXTEND
  0
ENDBLK
  5
443
330
43B
100
AcDbEntity
  8
0
100
AcDbBlockEnd
  0
BLOCK
  5
452
330
451
100
AcDbEntity
  8
0
100
AcDbBlockBegin
  2
*D13
 70
     1
 10
0.0
 20
0.0
 30
0.0
  3
*D13
  1

  0
LINE
  5
453
330
451
100
AcDbEntity
  8
0
  6
ByBlock
 62
     0
100
AcDbLine
 10
23182.983773
 20
-16476.978418
 30
0.0
 11
23161.264778
 21
-16420.891917
 31
0.0
  0
LINE
  5
454
330
451
100
AcDbEntity
  8
0
  6
ByBlock
 62
     0
100
AcDbLine
 10
23518.69198
 20
-16346.978418
 30
0.0
 11
23496.972984
 21
-16290.891917
 31
0.0
  0
LINE
  5
455
330
451
100
AcDbEntity
  8
0
  6
ByBlock
 62
     0
100
AcDbLine
 10
23161.264778
 20
-16420.891917
 30
0.0
 11
23496.972984
 21
-16290.891917
 31
0.0
  0
INSERT
  5
456
330
451
100
AcDbEntity
  8
0
  6
ByBlock
 62
     0
100
AcDbBlockReference
  2
_ORIGIN
 10
23161.264778
 20
-16420.891917
 30
0.0
 41
10.0
 42
10.0
 43
10.0
 50
201.168449
  0
INSERT
  5
457
330
451
100
AcDbEntity
  8
0
  6
ByBlock
 62
     0
100
AcDbBlockReference
  2
_ORIGIN
 10
23496.972984
 20
-16290.891917
 30
0.0
 41
10.0
 42
10.0
 43
10.0
 50
21.168449
  0
MTEXT
  5
458
330
451
100
AcDbEntity
  8
0
  6
ByBlock
 62
     0
100
AcDbMText
 10
23324.604992
 20
-16344.235382
 30
0.0
 40
25.0
 41
0.0
 71
     5
 72
     1
  1
{\A1;360}
  7
DRACAD
 11
0.9325228601915206
 21
0.3611109458604456
 31
0.0
 73
     1
 44
1.0
1001
ACAD
1000
MTEXTBEGIN
1070
    73
1070
     1
1070
    44
1040
1.0
1070
    74
1070
     0
1000
MTEXTEND
  0
ENDBLK
  5
459
330
451
100
AcDbEntity
  8
0
100
AcDbBlockEnd
  0
ENDSEC
  0
SECTION
  2
ENTITIES
  0
LINE
  5
198
330
A
100
AcDbEntity
  8
0
  6
STYLE_07
 62
     1
100
AcDbLine
 10
23986.659477
 20
-15577.631174
 30
0.0
 11
22905.196739
 21
-15577.631174
 31
0.0
  0
LINE
  5
199
330
A
100
AcDbEntity
  8
0
  6
STYLE_07
 62
     1
100
AcDbLine
 10
23408.428108
 20
-14994.757802
 30
0.0
 11
23408.428108
 21
-16614.804627
 31
0.0
  0
TEXT
  5
19A
330
A
100
AcDbEntity
  8
002
  6
Continuous
 62
     7
100
AcDbText
 10
24605.626196
 20
-16853.35095
 30
0.0
 40
17.219965
  1
1/10
 41
1.660899666035665
  7
DRACAD
 72
     5
 11
24686.661326
 21
-16853.35095
 31
0.0
100
AcDbText
  0
LWPOLYLINE
  5
19B
330
A
100
AcDbEntity
  8
002
  6
Continuous
 62
     6
100
AcDbPolyline
 90
        4
 70
   129
 43
0.0
 10
22002.202784
 20
-14850.056591
 10
24895.452784
 20
-14850.056591
 10
24895.452784
 20
-16859.356591
 10
22002.202784
 20
-16859.356591
  0
LINE
  5
1A1
330
A
100
AcDbEntity
  8
002
  6
Continuous
 62
     6
100
AcDbLine
 10
22051.902784
 20
-16765.95833899999
 30
0.0
 11
24895.452784
 21
-16765.95833899999
 31
0.0
  0
LINE
  5
1A2
330
A
100
AcDbEntity
  8
002
  6
Continuous
 62
     6
100
AcDbLine
 10
22002.202784
 20
-16765.95833899999
 30
0.0
 11
24895.452784
 21
-16765.95833899999
 31
0.0
  0
LINE
  5
1A3
330
A
100
AcDbEntity
  8
002
  6
Continuous
 62
     6
100
AcDbLine
 10
24895.452784
 20
-16765.95833899999
 30
0.0
 11
24895.452784
 21
-16857.988539
 31
0.0
  0
LINE
  5
1A4
330
A
100
AcDbEntity
  8
002
  6
Continuous
 62
     6
100
AcDbLine
 10
22716.462784
 20
-16765.95833899999
 30
0.0
 11
22716.462784
 21
-16857.988539
 31
0.0
  0
TEXT
  5
1A5
330
A
100
AcDbEntity
  8
002
  6
Continuous
 62
     7
100
AcDbText
 10
24757.357784
 20
-16787.145922
 30
0.0
 40
10.762478
  1
No.
 41
1.764705953405973
  7
DRACAD
 72
     5
 11
24795.343002
 21
-16787.145922
 31
0.0
100
AcDbText
  0
LINE
  5
1A6
330
A
100
AcDbEntity
  8
002
  6
Continuous
 62
     7
100
AcDbLine
 10
24575.952784
 20
-16765.95833899999
 30
0.0
 11
24575.952784
 21
-16857.988539
 31
0.0
  0
TEXT
  5
1A7
330
A
100
AcDbEntity
  8
002
  6
Continuous
 62
     7
100
AcDbText
 10
24578.211176
 20
-16823.944631
 30
0.0
 40
10.762478
  1
SCALE
 41
1.260504239159155
  7
DRACAD
 72
     5
 11
24641.519872
 21
-16823.944631
 31
0.0
100
AcDbText
  0
LINE
  5
1A8
330
A
100
AcDbEntity
  8
002
  6
Continuous
 62
     6
100
AcDbLine
 10
24753.452784
 20
-16765.95833899999
 30
0.0
 11
24753.452784
 21
-16857.988539
 31
0.0
  0
LINE
  5
1A9
330
A
100
AcDbEntity
  8
002
  6
Continuous
 62
     6
100
AcDbLine
 10
24220.952784
 20
-16765.95833899999
 30
0.0
 11
24220.952784
 21
-16857.988539
 31
0.0
  0
TEXT
  5
1AA
330
A
100
AcDbEntity
  8
002
  6
Continuous
 62
     7
100
AcDbText
 10
24578.417671
 20
-16785.354569
 30
0.0
 40
10.762478
  1
Date
 41
1.283422477780518
  7
DRACAD
 72
     5
 11
24629.064627
 21
-16785.354569
 31
0.0
100
AcDbText
  0
LINE
  5
1AB
330
A
100
AcDbEntity
  8
002
  6
Continuous
 62
     7
100
AcDbLine
 10
24575.952784
 20
-16804.873439
 30
0.0
 11
24753.452784
 21
-16804.873439
 31
0.0
  0
TEXT
  5
1AC
330
A
100
AcDbEntity
  8
002
  6
Continuous
 62
     7
100
AcDbText
 10
24225.014578
 20
-16790.219631
 30
0.0
 40
10.762478
  1
Drawing Title
 41
1.465889917472594
  7
DRACAD
 72
     5
 11
24389.617188
 21
-16790.219631
 31
0.0
100
AcDbText
  0
LINE
  5
1AD
330
A
100
AcDbEntity
  8
002
  6
Continuous
 62
     4
100
AcDbLine
 10
22717.444831
 20
-16811.973439
 30
0.0
 11
23716.852784
 21
-16811.973439
 31
0.0
  0
LINE
  5
1AE
330
A
100
AcDbEntity
  8
002
  6
Continuous
 62
     4
100
AcDbLine
 10
22716.561891
 20
-16788.965889
 30
0.0
 11
23716.852784
 21
-16788.965889
 31
0.0
  0
LINE
  5
1AF
330
A
100
AcDbEntity
  8
002
  6
Continuous
 62
     4
100
AcDbLine
 10
22716.561891
 20
-16834.980989
 30
0.0
 11
23716.852784
 21
-16834.980989
 31
0.0
  0
TEXT
  5
1B0
330
A
100
AcDbEntity
  8
002
  6
Continuous
 62
     7
100
AcDbText
 10
22722.489222
 20
-16785.717728
 30
0.0
 40
10.054993
  1
Memo
 41
1.283422402454877
  7
DRACAD
 72
     5
 11
22769.806834
 21
-16785.717728
 31
0.0
100
AcDbText
  0
LINE
  5
1B1
330
A
100
AcDbEntity
  8
002
  6
Continuous
 62
     6
100
AcDbLine
 10
23716.852784
 20
-16765.95833899999
 30
0.0
 11
23716.852784
 21
-16857.988539
 31
0.0
  0
TEXT
  5
1B2
330
A
100
AcDbEntity
  8
002
  6
Continuous
 62
     7
100
AcDbText
 10
23722.879222
 20
-16785.354569
 30
0.0
 40
10.270983
  1
Project
 41
1.26696828261791
  7
DRACAD
 72
     5
 11
23807.463785
 21
-16785.354569
 31
0.0
100
AcDbText
  0
TEXT
  5
1B3
330
A
100
AcDbEntity
  8
002
  6
Continuous
 62
     7
100
AcDbText
 10
23764.007867
 20
-16829.188429
 30
0.0
 40
19.410192
  1
SLT　CAD部品図面
 41
1.102941202815701
  7
DRACAD
 72
     5
 11
24015.198593
 21
-16829.188429
 31
0.0
100
AcDbText
  0
TEXT
  5
1B4
330
A
100
AcDbEntity
  8
002
  6
Continuous
 62
     7
100
AcDbText
 10
24615.018561
 20
-16802.467841
 30
0.0
 40
15.497969
  1
11/2/10
 41
1.497326180435134
  7
DRACAD
 72
     5
 11
24742.648892
 21
-16802.467841
 31
0.0
100
AcDbText
  0
TEXT
  5
1B5
330
A
100
AcDbEntity
  8
002
  6
Continuous
 62
     4
100
AcDbText
 10
22170.739027
 20
-16833.193928
 30
0.0
 40
18.941962
  1
ス カ イ ラ イ ト チ ュ ー ブ
 41
1.304646358754848
  7
DRACAD
 72
     5
 11
22594.147585
 21
-16833.193928
 31
0.0
100
AcDbText
  0
INSERT
  5
1B6
330
A
100
AcDbEntity
  8
003
  6
Continuous
 62
     4
100
AcDbBlockReference
  2
3
 10
22002.202784
 20
-16859.356591
 30
0.0
 41
0.71
 42
0.71
  0
ARC
  5
1B7
330
A
100
AcDbEntity
  8
0
  6
Continuous
 62
     7
100
AcDbCircle
 10
23959.36425
 20
-15328.398673
 30
0.0
 40
7.765855999999999
100
AcDbArc
 50
152.763755
 51
207.236245
  0
ARC
  5
1B8
330
A
100
AcDbEntity
  8
0
  6
Continuous
 62
     7
100
AcDbCircle
 10
22946.392373
 20
-15328.398673
 30
0.0
 40
7.765942999999999
100
AcDbArc
 50
152.764087
 51
207.235913
  0
ARC
  5
1B9
330
A
100
AcDbEntity
  8
0
  6
Continuous
 62
     7
100
AcDbCircle
 10
22946.392373
 20
-15826.863675
 30
0.0
 40
7.765942999999999
100
AcDbArc
 50
152.764087
 51
207.235913
  0
LINE
  5
1BA
330
A
100
AcDbEntity
  8
0
  6
Continuous
 62
     1
100
AcDbLine
 10
23952.459422
 20
-15823.309541
 30
0.0
 11
22939.48745
 21
-15823.309556
 31
0.0
  0
ARC
  5
1BB
330
A
100
AcDbEntity
  8
0
  6
Continuous
 62
     7
100
AcDbCircle
 10
23959.36425
 20
-15826.863675
 30
0.0
 40
7.765855999999999
100
AcDbArc
 50
152.763755
 51
207.236245
  0
LINE
  5
1BC
330
A
100
AcDbEntity
  8
0
  6
Continuous
 62
     1
100
AcDbLine
 10
23952.459423
 20
-15830.41781
 30
0.0
 11
22939.48745
 21
-15830.417792
 31
0.0
  0
LINE
  5
1BD
330
A
100
AcDbEntity
  8
0
  6
Continuous
 62
     1
100
AcDbLine
 10
23285.355918
 20
-15407.477792
 30
0.0
 11
22939.48745
 21
-15407.477792
 31
0.0
  0
ARC
  5
1BE
330
A
100
AcDbEntity
  8
0
  6
Continuous
 62
     7
100
AcDbCircle
 10
22946.39235
 20
-15403.923674
 30
0.0
 40
7.765919
100
AcDbArc
 50
152.764058
 51
207.235942
  0
LINE
  5
1BF
330
A
100
AcDbEntity
  8
0
  6
Continuous
 62
     1
100
AcDbLine
 10
23295.834637
 20
-15400.369556
 30
0.0
 11
22939.48745
 21
-15400.369556
 31
0.0
  0
LINE
  5
1C0
330
A
100
AcDbEntity
  8
0
  6
Continuous
 62
     1
100
AcDbLine
 10
23952.459426
 20
-15400.369556
 30
0.0
 11
23521.024769
 21
-15400.369556
 31
0.0
  0
ARC
  5
1C1
330
A
100
AcDbEntity
  8
0
  6
Continuous
 62
     7
100
AcDbCircle
 10
23959.364227
 20
-15403.923674
 30
0.0
 40
7.765832
100
AcDbArc
 50
152.763726
 51
207.236274
  0
LINE
  5
1C2
330
A
100
AcDbEntity
  8
0
  6
Continuous
 62
     1
100
AcDbLine
 10
23952.459426
 20
-15407.477792
 30
0.0
 11
23530.472928
 21
-15407.477792
 31
0.0
  0
ARC
  5
1C3
330
A
100
AcDbEntity
  8
0
  6
Continuous
 62
     7
100
AcDbCircle
 10
22946.39235
 20
-15796.65367
 30
0.0
 40
7.765919
100
AcDbArc
 50
152.764058
 51
207.235942
  0
LINE
  5
1C4
330
A
100
AcDbEntity
  8
0
  6
Continuous
 62
     1
100
AcDbLine
 10
23952.459422
 20
-15793.099546
 30
0.0
 11
22939.48745
 21
-15793.099556
 31
0.0
  0
ARC
  5
1C5
330
A
100
AcDbEntity
  8
0
  6
Continuous
 62
     7
100
AcDbCircle
 10
23959.364227
 20
-15796.65367
 30
0.0
 40
7.765832
100
AcDbArc
 50
152.763726
 51
207.236274
  0
LINE
  5
1C6
330
A
100
AcDbEntity
  8
0
  6
Continuous
 62
     1
100
AcDbLine
 10
23952.459415
 20
-15800.207782
 30
0.0
 11
22939.48745
 21
-15800.207792
 31
0.0
  0
ARC
  5
1C7
330
A
100
AcDbEntity
  8
0
  6
Continuous
 62
     7
100
AcDbCircle
 10
22946.39235
 20
-15358.608678
 30
0.0
 40
7.765919
100
AcDbArc
 50
152.764058
 51
207.235942
  0
ARC
  5
1C8
330
A
100
AcDbEntity
  8
0
  6
Continuous
 62
     7
100
AcDbCircle
 10
23959.364227
 20
-15358.608678
 30
0.0
 40
7.765832
100
AcDbArc
 50
152.763726
 51
207.236274
  0
LINE
  5
1C9
330
A
100
AcDbEntity
  8
0
  6
Continuous
 62
     1
100
AcDbLine
 10
23952.459426
 20
-16041.887792
 30
0.0
 11
22939.48745
 21
-16041.887792
 31
0.0
  0
ARC
  5
1CA
330
A
100
AcDbEntity
  8
0
  6
Continuous
 62
     7
100
AcDbCircle
 10
23944.691864
 20
-16045.886164
 30
0.0
 40
8.736242999999999
100
AcDbArc
 50
332.762661
 51
27.237339
  0
LINE
  5
1CB
330
A
100
AcDbEntity
  8
0
  6
Continuous
 62
     1
100
AcDbLine
 10
23952.459426
 20
-16049.884556
 30
0.0
 11
22939.48745
 21
-16049.884556
 31
0.0
  0
ARC
  5
1CC
330
A
100
AcDbEntity
  8
0
  6
Continuous
 62
     7
100
AcDbCircle
 10
22931.71955
 20
-16045.886164
 30
0.0
 40
8.736544999999999
100
AcDbArc
 50
332.763678
 51
27.236322
  0
LINE
  5
1CD
330
A
100
AcDbEntity
  8
0
  6
Continuous
 62
     1
100
AcDbLine
 10
23952.459426
 20
-16026.782792
 30
0.0
 11
22939.48745
 21
-16026.782792
 31
0.0
  0
ARC
  5
1CE
330
A
100
AcDbEntity
  8
0
  6
Continuous
 62
     7
100
AcDbCircle
 10
23944.691899
 20
-16030.78118
 30
0.0
 40
8.736213000000001
100
AcDbArc
 50
332.762558
 51
27.237442
  0
LINE
  5
1CF
330
A
100
AcDbEntity
  8
0
  6
Continuous
 62
     1
100
AcDbLine
 10
23952.459426
 20
-16034.779556
 30
0.0
 11
22939.48745
 21
-16034.779556
 31
0.0
  0
ARC
  5
1D0
330
A
100
AcDbEntity
  8
0
  6
Continuous
 62
     7
100
AcDbCircle
 10
22931.719584
 20
-16030.78118
 30
0.0
 40
8.736513999999999
100
AcDbArc
 50
332.763576
 51
27.236424
  0
ARC
  5
1D1
330
A
100
AcDbEntity
  8
0
  6
Continuous
 62
     7
100
AcDbCircle
 10
22931.719567
 20
-15743.786175
 30
0.0
 40
8.736528999999999
100
AcDbArc
 50
332.763627
 51
27.236373
  0
LINE
  5
1D2
330
A
100
AcDbEntity
  8
0
  6
Continuous
 62
     1
100
AcDbLine
 10
23274.99597
 20
-15739.787793
 30
0.0
 11
22939.48745
 21
-15739.787792
 31
0.0
  0
LINE
  5
1D3
330
A
100
AcDbEntity
  8
0
  6
Continuous
 62
     1
100
AcDbLine
 10
23285.355918
 20
-15747.784556
 30
0.0
 11
22939.48745
 21
-15747.784556
 31
0.0
  0
ARC
  5
1D4
330
A
100
AcDbEntity
  8
0
  6
Continuous
 62
     7
100
AcDbCircle
 10
22931.719567
 20
-15728.681176
 30
0.0
 40
8.736528999999999
100
AcDbArc
 50
332.763627
 51
27.236373
  0
LINE
  5
1D5
330
A
100
AcDbEntity
  8
0
  6
Continuous
 62
     1
100
AcDbLine
 10
23258.512556
 20
-15724.682794
 30
0.0
 11
22939.48745
 21
-15724.68279199999
 31
0.0
  0
LINE
  5
1D6
330
A
100
AcDbEntity
  8
0
  6
Continuous
 62
     1
100
AcDbLine
 10
23266.798743
 20
-15732.679558
 30
0.0
 11
22939.48745
 21
-15732.679556
 31
0.0
  0
LINE
  5
1D7
330
A
100
AcDbEntity
  8
0
  6
Continuous
 62
     1
100
AcDbLine
 10
23952.459426
 20
-15211.112792
 30
0.0
 11
22939.48745
 21
-15211.112792
 31
0.0
  0
ARC
  5
1D8
330
A
100
AcDbEntity
  8
0
  6
Continuous
 62
     7
100
AcDbCircle
 10
23944.691864
 20
-15215.111161
 30
0.0
 40
8.736242999999999
100
AcDbArc
 50
332.762661
 51
27.237339
  0
LINE
  5
1D9
330
A
100
AcDbEntity
  8
0
  6
Continuous
 62
     1
100
AcDbLine
 10
23952.459426
 20
-15219.109556
 30
0.0
 11
22939.48745
 21
-15219.109556
 31
0.0
  0
ARC
  5
1DA
330
A
100
AcDbEntity
  8
0
  6
Continuous
 62
     7
100
AcDbCircle
 10
22931.71955
 20
-15215.111161
 30
0.0
 40
8.736544999999999
100
AcDbArc
 50
332.763678
 51
27.236322
  0
LINE
  5
1DB
330
A
100
AcDbEntity
  8
0
  6
Continuous
 62
     1
100
AcDbLine
 10
23952.459426
 20
-15860.627792
 30
0.0
 11
22939.48745
 21
-15860.627792
 31
0.0
  0
ARC
  5
1DC
330
A
100
AcDbEntity
  8
0
  6
Continuous
 62
     7
100
AcDbCircle
 10
23944.691899
 20
-15864.626179
 30
0.0
 40
8.736213000000001
100
AcDbArc
 50
332.762558
 51
27.237442
  0
LINE
  5
1DD
330
A
100
AcDbEntity
  8
0
  6
Continuous
 62
     1
100
AcDbLine
 10
23952.459426
 20
-15868.624556
 30
0.0
 11
22939.48745
 21
-15868.624556
 31
0.0
  0
ARC
  5
1DE
330
A
100
AcDbEntity
  8
0
  6
Continuous
 62
     7
100
AcDbCircle
 10
22931.719584
 20
-15864.626179
 30
0.0
 40
8.736513999999999
100
AcDbArc
 50
332.763576
 51
27.236424
  0
ARC
  5
1DF
330
A
100
AcDbEntity
  8
0
  6
Continuous
 62
     7
100
AcDbCircle
 10
22931.719567
 20
-15683.366172
 30
0.0
 40
8.736528999999999
100
AcDbArc
 50
332.763627
 51
27.236373
  0
LINE
  5
1E0
330
A
100
AcDbEntity
  8
0
  6
Continuous
 62
     1
100
AcDbLine
 10
23224.720719
 20
-15679.367791
 30
0.0
 11
22939.48745
 21
-15679.367792
 31
0.0
  0
LINE
  5
1E1
330
A
100
AcDbEntity
  8
0
  6
Continuous
 62
     1
100
AcDbLine
 10
23229.382459
 20
-15687.364554
 30
0.0
 11
22939.48745
 21
-15687.364556
 31
0.0
  0
LINE
  5
1E2
330
A
100
AcDbEntity
  8
0
  6
Continuous
 62
     1
100
AcDbLine
 10
23952.459426
 20
-15966.362792
 30
0.0
 11
22939.48745
 21
-15966.362792
 31
0.0
  0
ARC
  5
1E3
330
A
100
AcDbEntity
  8
0
  6
Continuous
 62
     7
100
AcDbCircle
 10
23944.691864
 20
-15970.361185
 30
0.0
 40
8.736242999999999
100
AcDbArc
 50
332.762661
 51
27.237339
  0
LINE
  5
1E4
330
A
100
AcDbEntity
  8
0
  6
Continuous
 62
     1
100
AcDbLine
 10
23952.459426
 20
-15974.359556
 30
0.0
 11
22939.48745
 21
-15974.359556
 31
0.0
  0
ARC
  5
1E5
330
A
100
AcDbEntity
  8
0
  6
Continuous
 62
     7
100
AcDbCircle
 10
22931.71955
 20
-15970.361185
 30
0.0
 40
8.736544999999999
100
AcDbArc
 50
332.763678
 51
27.236322
  0
LINE
  5
1E6
330
A
100
AcDbEntity
  8
0
  6
Continuous
 62
     1
100
AcDbLine
 10
23952.459426
 20
-16011.677792
 30
0.0
 11
22939.48745
 21
-16011.677792
 31
0.0
  0
ARC
  5
1E7
330
A
100
AcDbEntity
  8
0
  6
Continuous
 62
     7
100
AcDbCircle
 10
23944.691864
 20
-16015.676166
 30
0.0
 40
8.736242999999999
100
AcDbArc
 50
332.762661
 51
27.237339
  0
LINE
  5
1E8
330
A
100
AcDbEntity
  8
0
  6
Continuous
 62
     1
100
AcDbLine
 10
23952.459426
 20
-16019.674556
 30
0.0
 11
22939.48745
 21
-16019.674556
 31
0.0
  0
ARC
  5
1E9
330
A
100
AcDbEntity
  8
0
  6
Continuous
 62
     7
100
AcDbCircle
 10
22931.71955
 20
-16015.676166
 30
0.0
 40
8.736544999999999
100
AcDbArc
 50
332.763678
 51
27.236322
  0
ARC
  5
1EA
330
A
100
AcDbEntity
  8
0
  6
Continuous
 62
     7
100
AcDbCircle
 10
22931.719547
 20
-15698.471175
 30
0.0
 40
8.736549
100
AcDbArc
 50
332.763666
 51
27.23633400000001
  0
LINE
  5
1EB
330
A
100
AcDbEntity
  8
0
  6
Continuous
 62
     1
100
AcDbLine
 10
23233.937964
 20
-15694.47279
 30
0.0
 11
22939.48745
 21
-15694.472792
 31
0.0
  0
LINE
  5
1EC
330
A
100
AcDbEntity
  8
0
  6
Continuous
 62
     1
100
AcDbLine
 10
23239.566719
 20
-15702.46956
 30
0.0
 11
22939.48745
 21
-15702.469556
 31
0.0
  0
LINE
  5
1ED
330
A
100
AcDbEntity
  8
0
  6
Continuous
 62
     1
100
AcDbLine
 10
23952.459426
 20
-15875.732792
 30
0.0
 11
22939.48745
 21
-15875.732792
 31
0.0
  0
ARC
  5
1EE
330
A
100
AcDbEntity
  8
0
  6
Continuous
 62
     7
100
AcDbCircle
 10
23944.691864
 20
-15879.731163
 30
0.0
 40
8.736242999999999
100
AcDbArc
 50
332.762661
 51
27.237339
  0
LINE
  5
1EF
330
A
100
AcDbEntity
  8
0
  6
Continuous
 62
     1
100
AcDbLine
 10
23952.459426
 20
-15883.729556
 30
0.0
 11
22939.48745
 21
-15883.729556
 31
0.0
  0
ARC
  5
1F0
330
A
100
AcDbEntity
  8
0
  6
Continuous
 62
     7
100
AcDbCircle
 10
22931.71955
 20
-15879.731163
 30
0.0
 40
8.736544999999999
100
AcDbArc
 50
332.763678
 51
27.236322
  0
LINE
  5
1F1
330
A
100
AcDbEntity
  8
0
  6
Continuous
 62
     1
100
AcDbLine
 10
23952.459426
 20
-15196.007792
 30
0.0
 11
22939.48745
 21
-15196.007792
 31
0.0
  0
ARC
  5
1F2
330
A
100
AcDbEntity
  8
0
  6
Continuous
 62
     7
100
AcDbCircle
 10
23944.691899
 20
-15200.006177
 30
0.0
 40
8.736213000000001
100
AcDbArc
 50
332.762558
 51
27.237442
  0
LINE
  5
1F3
330
A
100
AcDbEntity
  8
0
  6
Continuous
 62
     1
100
AcDbLine
 10
23952.459426
 20
-15204.004556
 30
0.0
 11
22939.48745
 21
-15204.004556
 31
0.0
  0
ARC
  5
1F4
330
A
100
AcDbEntity
  8
0
  6
Continuous
 62
     7
100
AcDbCircle
 10
22931.719584
 20
-15200.006177
 30
0.0
 40
8.736513999999999
100
AcDbArc
 50
332.763576
 51
27.236424
  0
LINE
  5
1F5
330
A
100
AcDbEntity
  8
0
  6
Continuous
 62
     1
100
AcDbLine
 10
23952.459426
 20
-15996.572792
 30
0.0
 11
22939.48745
 21
-15996.572792
 31
0.0
  0
ARC
  5
1F6
330
A
100
AcDbEntity
  8
0
  6
Continuous
 62
     7
100
AcDbCircle
 10
23944.691864
 20
-16000.571182
 30
0.0
 40
8.736242999999999
100
AcDbArc
 50
332.762661
 51
27.237339
  0
LINE
  5
1F7
330
A
100
AcDbEntity
  8
0
  6
Continuous
 62
     1
100
AcDbLine
 10
23952.459426
 20
-16004.569556
 30
0.0
 11
22939.48745
 21
-16004.569556
 31
0.0
  0
ARC
  5
1F8
330
A
100
AcDbEntity
  8
0
  6
Continuous
 62
     7
100
AcDbCircle
 10
22931.71955
 20
-16000.571182
 30
0.0
 40
8.736544999999999
100
AcDbArc
 50
332.763678
 51
27.236322
  0
ARC
  5
1F9
330
A
100
AcDbEntity
  8
0
  6
Continuous
 62
     7
100
AcDbCircle
 10
22931.719567
 20
-15713.576177
 30
0.0
 40
8.736528999999999
100
AcDbArc
 50
332.763627
 51
27.236373
  0
LINE
  5
1FA
330
A
100
AcDbEntity
  8
0
  6
Continuous
 62
     1
100
AcDbLine
 10
23245.060737
 20
-15709.577796
 30
0.0
 11
22939.48745
 21
-15709.577792
 31
0.0
  0
LINE
  5
1FB
330
A
100
AcDbEntity
  8
0
  6
Continuous
 62
     1
100
AcDbLine
 10
23251.856464
 20
-15717.574559
 30
0.0
 11
22939.48745
 21
-15717.574556
 31
0.0
  0
ARC
  5
1FC
330
A
100
AcDbEntity
  8
0
  6
Continuous
 62
     7
100
AcDbCircle
 10
22931.719567
 20
-15396.371175
 30
0.0
 40
8.736528999999999
100
AcDbArc
 50
332.763627
 51
27.236373
  0
LINE
  5
1FD
330
A
100
AcDbEntity
  8
0
  6
Continuous
 62
     1
100
AcDbLine
 10
23309.542583
 20
-15392.372793
 30
0.0
 11
22939.48745
 21
-15392.372792
 31
0.0
  0
LINE
  5
1FE
330
A
100
AcDbEntity
  8
0
  6
Continuous
 62
     1
100
AcDbLine
 10
23952.459426
 20
-15845.522792
 30
0.0
 11
22939.48745
 21
-15845.522792
 31
0.0
  0
ARC
  5
1FF
330
A
100
AcDbEntity
  8
0
  6
Continuous
 62
     7
100
AcDbCircle
 10
23944.691864
 20
-15849.521166
 30
0.0
 40
8.736242999999999
100
AcDbArc
 50
332.762661
 51
27.237339
  0
LINE
  5
200
330
A
100
AcDbEntity
  8
0
  6
Continuous
 62
     1
100
AcDbLine
 10
23952.459426
 20
-15853.519556
 30
0.0
 11
22939.48745
 21
-15853.519556
 31
0.0
  0
ARC
  5
201
330
A
100
AcDbEntity
  8
0
  6
Continuous
 62
     7
100
AcDbCircle
 10
22931.71955
 20
-15849.521166
 30
0.0
 40
8.736544999999999
100
AcDbArc
 50
332.763678
 51
27.236322
  0
LINE
  5
202
330
A
100
AcDbEntity
  8
0
  6
Continuous
 62
     1
100
AcDbLine
 10
23952.459426
 20
-15905.942792
 30
0.0
 11
22939.48745
 21
-15905.942792
 31
0.0
  0
ARC
  5
203
330
A
100
AcDbEntity
  8
0
  6
Continuous
 62
     7
100
AcDbCircle
 10
23944.691864
 20
-15909.941161
 30
0.0
 40
8.736242999999999
100
AcDbArc
 50
332.762661
 51
27.237339
  0
LINE
  5
204
330
A
100
AcDbEntity
  8
0
  6
Continuous
 62
     1
100
AcDbLine
 10
23952.459426
 20
-15913.939556
 30
0.0
 11
22939.48745
 21
-15913.939556
 31
0.0
  0
ARC
  5
205
330
A
100
AcDbEntity
  8
0
  6
Continuous
 62
     7
100
AcDbCircle
 10
22931.71955
 20
-15909.941161
 30
0.0
 40
8.736544999999999
100
AcDbArc
 50
332.763678
 51
27.236322
  0
LINE
  5
206
330
A
100
AcDbEntity
  8
0
  6
Continuous
 62
     1
100
AcDbLine
 10
23952.459426
 20
-15951.257792
 30
0.0
 11
22939.48745
 21
-15951.257792
 31
0.0
  0
ARC
  5
207
330
A
100
AcDbEntity
  8
0
  6
Continuous
 62
     7
100
AcDbCircle
 10
23944.691899
 20
-15955.256171
 30
0.0
 40
8.736213000000001
100
AcDbArc
 50
332.762558
 51
27.237442
  0
LINE
  5
208
330
A
100
AcDbEntity
  8
0
  6
Continuous
 62
     1
100
AcDbLine
 10
23952.459426
 20
-15959.254556
 30
0.0
 11
22939.48745
 21
-15959.254556
 31
0.0
  0
ARC
  5
209
330
A
100
AcDbEntity
  8
0
  6
Continuous
 62
     7
100
AcDbCircle
 10
22931.719584
 20
-15955.256171
 30
0.0
 40
8.736513999999999
100
AcDbArc
 50
332.763576
 51
27.236424
  0
LINE
  5
20A
330
A
100
AcDbEntity
  8
0
  6
Continuous
 62
     1
100
AcDbLine
 10
23952.459426
 20
-15981.467792
 30
0.0
 11
22939.48745
 21
-15981.467792
 31
0.0
  0
ARC
  5
20B
330
A
100
AcDbEntity
  8
0
  6
Continuous
 62
     7
100
AcDbCircle
 10
23944.691899
 20
-15985.466169
 30
0.0
 40
8.736213000000001
100
AcDbArc
 50
332.762558
 51
27.237442
  0
LINE
  5
20C
330
A
100
AcDbEntity
  8
0
  6
Continuous
 62
     1
100
AcDbLine
 10
23952.459426
 20
-15989.464556
 30
0.0
 11
22939.48745
 21
-15989.464556
 31
0.0
  0
ARC
  5
20D
330
A
100
AcDbEntity
  8
0
  6
Continuous
 62
     7
100
AcDbCircle
 10
22931.719584
 20
-15985.466169
 30
0.0
 40
8.736513999999999
100
AcDbArc
 50
332.763576
 51
27.236424
  0
LINE
  5
20E
330
A
100
AcDbEntity
  8
0
  6
Continuous
 62
     1
100
AcDbLine
 10
23952.459426
 20
-15890.837792
 30
0.0
 11
22939.48745
 21
-15890.837792
 31
0.0
  0
ARC
  5
20F
330
A
100
AcDbEntity
  8
0
  6
Continuous
 62
     7
100
AcDbCircle
 10
23944.691899
 20
-15894.836177
 30
0.0
 40
8.736213000000001
100
AcDbArc
 50
332.762558
 51
27.237442
  0
LINE
  5
210
330
A
100
AcDbEntity
  8
0
  6
Continuous
 62
     1
100
AcDbLine
 10
23952.459426
 20
-15898.834556
 30
0.0
 11
22939.48745
 21
-15898.834556
 31
0.0
  0
ARC
  5
211
330
A
100
AcDbEntity
  8
0
  6
Continuous
 62
     7
100
AcDbCircle
 10
22931.719584
 20
-15894.836177
 30
0.0
 40
8.736513999999999
100
AcDbArc
 50
332.763576
 51
27.236424
  0
LINE
  5
212
330
A
100
AcDbEntity
  8
0
  6
Continuous
 62
     1
100
AcDbLine
 10
23952.459426
 20
-15936.152792
 30
0.0
 11
22939.48745
 21
-15936.152792
 31
0.0
  0
ARC
  5
213
330
A
100
AcDbEntity
  8
0
  6
Continuous
 62
     7
100
AcDbCircle
 10
23944.691864
 20
-15940.151187
 30
0.0
 40
8.736242999999999
100
AcDbArc
 50
332.762661
 51
27.237339
  0
LINE
  5
214
330
A
100
AcDbEntity
  8
0
  6
Continuous
 62
     1
100
AcDbLine
 10
23952.459426
 20
-15944.149556
 30
0.0
 11
22939.48745
 21
-15944.149556
 31
0.0
  0
ARC
  5
215
330
A
100
AcDbEntity
  8
0
  6
Continuous
 62
     7
100
AcDbCircle
 10
22931.71955
 20
-15940.151187
 30
0.0
 40
8.736544999999999
100
AcDbArc
 50
332.763678
 51
27.236322
  0
ARC
  5
216
330
A
100
AcDbEntity
  8
0
  6
Continuous
 62
     7
100
AcDbCircle
 10
22944.82727
 20
-15102.246365
 30
0.0
 40
6.190287999999999
100
AcDbArc
 50
160.019787
 51
210.388662
  0
ARC
  5
217
330
A
100
AcDbEntity
  8
0
  6
Continuous
 62
     7
100
AcDbCircle
 10
22931.71955
 20
-15109.376185
 30
0.0
 40
8.736544999999999
100
AcDbArc
 50
332.763678
 51
27.236322
  0
ARC
  5
218
330
A
100
AcDbEntity
  8
0
  6
Continuous
 62
     7
100
AcDbCircle
 10
22946.392327
 20
-15116.928677
 30
0.0
 40
7.765894999999999
100
AcDbArc
 50
152.764029
 51
207.235971
  0
ARC
  5
219
330
A
100
AcDbEntity
  8
0
  6
Continuous
 62
     7
100
AcDbCircle
 10
22931.719584
 20
-15124.481169
 30
0.0
 40
8.736513999999999
100
AcDbArc
 50
332.763576
 51
27.236424
  0
ARC
  5
21A
330
A
100
AcDbEntity
  8
0
  6
Continuous
 62
     7
100
AcDbCircle
 10
22946.392373
 20
-15132.033675
 30
0.0
 40
7.765942999999999
100
AcDbArc
 50
152.764087
 51
207.235913
  0
ARC
  5
21B
330
A
100
AcDbEntity
  8
0
  6
Continuous
 62
     7
100
AcDbCircle
 10
22931.71955
 20
-15139.586182
 30
0.0
 40
8.736544999999999
100
AcDbArc
 50
332.763678
 51
27.236322
  0
ARC
  5
21C
330
A
100
AcDbEntity
  8
0
  6
Continuous
 62
     7
100
AcDbCircle
 10
22946.392327
 20
-15147.138674
 30
0.0
 40
7.765894999999999
100
AcDbArc
 50
152.764029
 51
207.235971
  0
ARC
  5
21D
330
A
100
AcDbEntity
  8
0
  6
Continuous
 62
     7
100
AcDbCircle
 10
22931.71955
 20
-15154.691166
 30
0.0
 40
8.736544999999999
100
AcDbArc
 50
332.763678
 51
27.236322
  0
ARC
  5
21E
330
A
100
AcDbEntity
  8
0
  6
Continuous
 62
     7
100
AcDbCircle
 10
22946.392373
 20
-15162.243673
 30
0.0
 40
7.765942999999999
100
AcDbArc
 50
152.764087
 51
207.235913
  0
ARC
  5
21F
330
A
100
AcDbEntity
  8
0
  6
Continuous
 62
     7
100
AcDbCircle
 10
22931.719584
 20
-15169.796179
 30
0.0
 40
8.736513999999999
100
AcDbArc
 50
332.763576
 51
27.236424
  0
ARC
  5
220
330
A
100
AcDbEntity
  8
0
  6
Continuous
 62
     7
100
AcDbCircle
 10
22946.392327
 20
-15177.348671
 30
0.0
 40
7.765894999999999
100
AcDbArc
 50
152.764029
 51
207.235971
  0
ARC
  5
221
330
A
100
AcDbEntity
  8
0
  6
Continuous
 62
     7
100
AcDbCircle
 10
22931.71955
 20
-15184.901163
 30
0.0
 40
8.736544999999999
100
AcDbArc
 50
332.763678
 51
27.236322
  0
ARC
  5
222
330
A
100
AcDbEntity
  8
0
  6
Continuous
 62
     7
100
AcDbCircle
 10
22946.392373
 20
-15192.45367
 30
0.0
 40
7.765942999999999
100
AcDbArc
 50
152.764087
 51
207.235913
  0
ARC
  5
223
330
A
100
AcDbEntity
  8
0
  6
Continuous
 62
     7
100
AcDbCircle
 10
22946.392293
 20
-15207.558669
 30
0.0
 40
7.765864999999999
100
AcDbArc
 50
152.763913
 51
207.236087
  0
ARC
  5
224
330
A
100
AcDbEntity
  8
0
  6
Continuous
 62
     7
100
AcDbCircle
 10
22946.392373
 20
-15222.663668
 30
0.0
 40
7.765942999999999
100
AcDbArc
 50
152.764087
 51
207.235913
  0
ARC
  5
225
330
A
100
AcDbEntity
  8
0
  6
Continuous
 62
     7
100
AcDbCircle
 10
22931.719584
 20
-15230.216174
 30
0.0
 40
8.736513999999999
100
AcDbArc
 50
332.763576
 51
27.236424
  0
ARC
  5
226
330
A
100
AcDbEntity
  8
0
  6
Continuous
 62
     7
100
AcDbCircle
 10
22946.392373
 20
-15237.768681
 30
0.0
 40
7.765942999999999
100
AcDbArc
 50
152.764087
 51
207.235913
  0
ARC
  5
227
330
A
100
AcDbEntity
  8
0
  6
Continuous
 62
     7
100
AcDbCircle
 10
22931.71955
 20
-15245.321188
 30
0.0
 40
8.736544999999999
100
AcDbArc
 50
332.763678
 51
27.236322
  0
ARC
  5
228
330
A
100
AcDbEntity
  8
0
  6
Continuous
 62
     7
100
AcDbCircle
 10
22946.392293
 20
-15252.87368
 30
0.0
 40
7.765864999999999
100
AcDbArc
 50
152.763913
 51
207.236087
  0
ARC
  5
229
330
A
100
AcDbEntity
  8
0
  6
Continuous
 62
     7
100
AcDbCircle
 10
22931.719584
 20
-15260.426172
 30
0.0
 40
8.736513999999999
100
AcDbArc
 50
332.763576
 51
27.236424
  0
ARC
  5
22A
330
A
100
AcDbEntity
  8
0
  6
Continuous
 62
     7
100
AcDbCircle
 10
22946.392373
 20
-15267.978678
 30
0.0
 40
7.765942999999999
100
AcDbArc
 50
152.764087
 51
207.235913
  0
ARC
  5
22B
330
A
100
AcDbEntity
  8
0
  6
Continuous
 62
     7
100
AcDbCircle
 10
22931.71955
 20
-15275.531185
 30
0.0
 40
8.736544999999999
100
AcDbArc
 50
332.763678
 51
27.236322
  0
ARC
  5
22C
330
A
100
AcDbEntity
  8
0
  6
Continuous
 62
     7
100
AcDbCircle
 10
22946.392327
 20
-15283.083677
 30
0.0
 40
7.765894999999999
100
AcDbArc
 50
152.764029
 51
207.235971
  0
ARC
  5
22D
330
A
100
AcDbEntity
  8
0
  6
Continuous
 62
     7
100
AcDbCircle
 10
22931.719584
 20
-15290.636169
 30
0.0
 40
8.736513999999999
100
AcDbArc
 50
332.763576
 51
27.236424
  0
ARC
  5
22E
330
A
100
AcDbEntity
  8
0
  6
Continuous
 62
     7
100
AcDbCircle
 10
22946.392373
 20
-15298.188676
 30
0.0
 40
7.765942999999999
100
AcDbArc
 50
152.764087
 51
207.235913
  0
ARC
  5
22F
330
A
100
AcDbEntity
  8
0
  6
Continuous
 62
     7
100
AcDbCircle
 10
22931.71955
 20
-15305.741183
 30
0.0
 40
8.736544999999999
100
AcDbArc
 50
332.763678
 51
27.236322
  0
ARC
  5
230
330
A
100
AcDbEntity
  8
0
  6
Continuous
 62
     7
100
AcDbCircle
 10
22946.392327
 20
-15313.293675
 30
0.0
 40
7.765894999999999
100
AcDbArc
 50
152.764029
 51
207.235971
  0
ARC
  5
231
330
A
100
AcDbEntity
  8
0
  6
Continuous
 62
     7
100
AcDbCircle
 10
22931.71955
 20
-15320.846167
 30
0.0
 40
8.736544999999999
100
AcDbArc
 50
332.763678
 51
27.236322
  0
ARC
  5
232
330
A
100
AcDbEntity
  8
0
  6
Continuous
 62
     7
100
AcDbCircle
 10
22931.719567
 20
-15335.95118
 30
0.0
 40
8.736528999999999
100
AcDbArc
 50
332.763627
 51
27.236373
  0
ARC
  5
233
330
A
100
AcDbEntity
  8
0
  6
Continuous
 62
     7
100
AcDbCircle
 10
22946.39235
 20
-15343.503679
 30
0.0
 40
7.765919
100
AcDbArc
 50
152.764058
 51
207.235942
  0
ARC
  5
234
330
A
100
AcDbEntity
  8
0
  6
Continuous
 62
     7
100
AcDbCircle
 10
22931.719567
 20
-15351.056179
 30
0.0
 40
8.736528999999999
100
AcDbArc
 50
332.763627
 51
27.236373
  0
ARC
  5
235
330
A
100
AcDbEntity
  8
0
  6
Continuous
 62
     7
100
AcDbCircle
 10
22931.719567
 20
-15366.161177
 30
0.0
 40
8.736528999999999
100
AcDbArc
 50
332.763627
 51
27.236373
  0
ARC
  5
236
330
A
100
AcDbEntity
  8
0
  6
Continuous
 62
     7
100
AcDbCircle
 10
22946.39235
 20
-15373.713677
 30
0.0
 40
7.765919
100
AcDbArc
 50
152.764058
 51
207.235942
  0
ARC
  5
237
330
A
100
AcDbEntity
  8
0
  6
Continuous
 62
     7
100
AcDbCircle
 10
22931.719567
 20
-15381.266176
 30
0.0
 40
8.736528999999999
100
AcDbArc
 50
332.763627
 51
27.236373
  0
ARC
  5
238
330
A
100
AcDbEntity
  8
0
  6
Continuous
 62
     7
100
AcDbCircle
 10
22946.39235
 20
-15388.818675
 30
0.0
 40
7.765919
100
AcDbArc
 50
152.764058
 51
207.235942
  0
ARC
  5
239
330
A
100
AcDbEntity
  8
0
  6
Continuous
 62
     7
100
AcDbCircle
 10
22931.719567
 20
-15411.476174
 30
0.0
 40
8.736528999999999
100
AcDbArc
 50
332.763627
 51
27.236373
  0
ARC
  5
23A
330
A
100
AcDbEntity
  8
0
  6
Continuous
 62
     7
100
AcDbCircle
 10
22946.39235
 20
-15419.028673
 30
0.0
 40
7.765919
100
AcDbArc
 50
152.764058
 51
207.235942
  0
ARC
  5
23B
330
A
100
AcDbEntity
  8
0
  6
Continuous
 62
     7
100
AcDbCircle
 10
22931.719567
 20
-15426.581172
 30
0.0
 40
8.736528999999999
100
AcDbArc
 50
332.763627
 51
27.236373
  0
ARC
  5
23C
330
A
100
AcDbEntity
  8
0
  6
Continuous
 62
     7
100
AcDbCircle
 10
22946.39235
 20
-15434.133672
 30
0.0
 40
7.765919
100
AcDbArc
 50
152.764058
 51
207.235942
  0
ARC
  5
23D
330
A
100
AcDbEntity
  8
0
  6
Continuous
 62
     7
100
AcDbCircle
 10
22931.719567
 20
-15441.686171
 30
0.0
 40
8.736528999999999
100
AcDbArc
 50
332.763627
 51
27.236373
  0
ARC
  5
23E
330
A
100
AcDbEntity
  8
0
  6
Continuous
 62
     7
100
AcDbCircle
 10
22946.39235
 20
-15449.23867
 30
0.0
 40
7.765919
100
AcDbArc
 50
152.764058
 51
207.235942
  0
ARC
  5
23F
330
A
100
AcDbEntity
  8
0
  6
Continuous
 62
     7
100
AcDbCircle
 10
22931.719547
 20
-15456.791173
 30
0.0
 40
8.736549
100
AcDbArc
 50
332.763666
 51
27.23633400000001
  0
ARC
  5
240
330
A
100
AcDbEntity
  8
0
  6
Continuous
 62
     7
100
AcDbCircle
 10
22946.392341
 20
-15464.343676
 30
0.0
 40
7.765911999999999
100
AcDbArc
 50
152.764029
 51
207.235971
  0
ARC
  5
241
330
A
100
AcDbEntity
  8
0
  6
Continuous
 62
     7
100
AcDbCircle
 10
22931.719567
 20
-15471.896176
 30
0.0
 40
8.736528999999999
100
AcDbArc
 50
332.763627
 51
27.236373
  0
ARC
  5
242
330
A
100
AcDbEntity
  8
0
  6
Continuous
 62
     7
100
AcDbCircle
 10
22946.39235
 20
-15479.448675
 30
0.0
 40
7.765919
100
AcDbArc
 50
152.764058
 51
207.235942
  0
ARC
  5
243
330
A
100
AcDbEntity
  8
0
  6
Continuous
 62
     7
100
AcDbCircle
 10
22931.719567
 20
-15487.001174
 30
0.0
 40
8.736528999999999
100
AcDbArc
 50
332.763627
 51
27.236373
  0
ARC
  5
244
330
A
100
AcDbEntity
  8
0
  6
Continuous
 62
     7
100
AcDbCircle
 10
22946.39235
 20
-15494.553674
 30
0.0
 40
7.765919
100
AcDbArc
 50
152.764058
 51
207.235942
  0
ARC
  5
245
330
A
100
AcDbEntity
  8
0
  6
Continuous
 62
     7
100
AcDbCircle
 10
22931.719567
 20
-15502.106173
 30
0.0
 40
8.736528999999999
100
AcDbArc
 50
332.763627
 51
27.236373
  0
ARC
  5
246
330
A
100
AcDbEntity
  8
0
  6
Continuous
 62
     7
100
AcDbCircle
 10
22946.392341
 20
-15509.658673
 30
0.0
 40
7.765911999999999
100
AcDbArc
 50
152.764029
 51
207.235971
  0
ARC
  5
247
330
A
100
AcDbEntity
  8
0
  6
Continuous
 62
     7
100
AcDbCircle
 10
22931.719561
 20
-15517.211174
 30
0.0
 40
8.736534999999999
100
AcDbArc
 50
332.763633
 51
27.236367
  0
ARC
  5
248
330
A
100
AcDbEntity
  8
0
  6
Continuous
 62
     7
100
AcDbCircle
 10
22946.392346
 20
-15524.763675
 30
0.0
 40
7.765914999999999
100
AcDbArc
 50
152.764043
 51
207.235957
  0
ARC
  5
249
330
A
100
AcDbEntity
  8
0
  6
Continuous
 62
     7
100
AcDbCircle
 10
22931.719567
 20
-15532.316174
 30
0.0
 40
8.736528999999999
100
AcDbArc
 50
332.763627
 51
27.236373
  0
ARC
  5
24A
330
A
100
AcDbEntity
  8
0
  6
Continuous
 62
     7
100
AcDbCircle
 10
22946.392346
 20
-15539.868674
 30
0.0
 40
7.765914999999999
100
AcDbArc
 50
152.764043
 51
207.235957
  0
ARC
  5
24B
330
A
100
AcDbEntity
  8
0
  6
Continuous
 62
     7
100
AcDbCircle
 10
22931.719562
 20
-15547.421174
 30
0.0
 40
8.736533999999998
100
AcDbArc
 50
332.763637
 51
27.236363
  0
ARC
  5
24C
330
A
100
AcDbEntity
  8
0
  6
Continuous
 62
     7
100
AcDbCircle
 10
22946.392346
 20
-15554.973674
 30
0.0
 40
7.765914999999999
100
AcDbArc
 50
152.764043
 51
207.235957
  0
ARC
  5
24D
330
A
100
AcDbEntity
  8
0
  6
Continuous
 62
     7
100
AcDbCircle
 10
22931.719564
 20
-15562.526174
 30
0.0
 40
8.736532
100
AcDbArc
 50
332.763632
 51
27.236368
  0
ARC
  5
24E
330
A
100
AcDbEntity
  8
0
  6
Continuous
 62
     7
100
AcDbCircle
 10
22946.392345
 20
-15570.078674
 30
0.0
 40
7.765914999999999
100
AcDbArc
 50
152.764042
 51
207.235958
  0
ARC
  5
24F
330
A
100
AcDbEntity
  8
0
  6
Continuous
 62
     7
100
AcDbCircle
 10
22931.719561
 20
-15577.631174
 30
0.0
 40
8.736534999999999
100
AcDbArc
 50
332.76364
 51
27.23636
  0
ARC
  5
250
330
A
100
AcDbEntity
  8
0
  6
Continuous
 62
     7
100
AcDbCircle
 10
22946.392345
 20
-15585.183674
 30
0.0
 40
7.765914999999999
100
AcDbArc
 50
152.764042
 51
207.235958
  0
ARC
  5
251
330
A
100
AcDbEntity
  8
0
  6
Continuous
 62
     7
100
AcDbCircle
 10
22931.719564
 20
-15592.736174
 30
0.0
 40
8.736532
100
AcDbArc
 50
332.763632
 51
27.236368
  0
ARC
  5
252
330
A
100
AcDbEntity
  8
0
  6
Continuous
 62
     7
100
AcDbCircle
 10
22946.392346
 20
-15600.288674
 30
0.0
 40
7.765914999999999
100
AcDbArc
 50
152.764043
 51
207.235957
  0
ARC
  5
253
330
A
100
AcDbEntity
  8
0
  6
Continuous
 62
     7
100
AcDbCircle
 10
22931.719562
 20
-15607.841174
 30
0.0
 40
8.736533999999998
100
AcDbArc
 50
332.763637
 51
27.236363
  0
ARC
  5
254
330
A
100
AcDbEntity
  8
0
  6
Continuous
 62
     7
100
AcDbCircle
 10
22946.392346
 20
-15615.393675
 30
0.0
 40
7.765914999999999
100
AcDbArc
 50
152.764043
 51
207.235957
  0
ARC
  5
255
330
A
100
AcDbEntity
  8
0
  6
Continuous
 62
     7
100
AcDbCircle
 10
22931.719567
 20
-15622.946174
 30
0.0
 40
8.736528999999999
100
AcDbArc
 50
332.763627
 51
27.236373
  0
ARC
  5
256
330
A
100
AcDbEntity
  8
0
  6
Continuous
 62
     7
100
AcDbCircle
 10
22946.392346
 20
-15630.498673
 30
0.0
 40
7.765914999999999
100
AcDbArc
 50
152.764043
 51
207.235957
  0
ARC
  5
257
330
A
100
AcDbEntity
  8
0
  6
Continuous
 62
     7
100
AcDbCircle
 10
22931.719561
 20
-15638.051175
 30
0.0
 40
8.736534999999999
100
AcDbArc
 50
332.763633
 51
27.236367
  0
ARC
  5
258
330
A
100
AcDbEntity
  8
0
  6
Continuous
 62
     7
100
AcDbCircle
 10
22946.392341
 20
-15645.603676
 30
0.0
 40
7.765911999999999
100
AcDbArc
 50
152.764029
 51
207.235971
  0
ARC
  5
259
330
A
100
AcDbEntity
  8
0
  6
Continuous
 62
     7
100
AcDbCircle
 10
22931.719567
 20
-15653.156175
 30
0.0
 40
8.736528999999999
100
AcDbArc
 50
332.763627
 51
27.236373
  0
ARC
  5
25A
330
A
100
AcDbEntity
  8
0
  6
Continuous
 62
     7
100
AcDbCircle
 10
22946.39235
 20
-15660.708674
 30
0.0
 40
7.765919
100
AcDbArc
 50
152.764058
 51
207.235942
  0
ARC
  5
25B
330
A
100
AcDbEntity
  8
0
  6
Continuous
 62
     7
100
AcDbCircle
 10
22931.719567
 20
-15668.261174
 30
0.0
 40
8.736528999999999
100
AcDbArc
 50
332.763627
 51
27.236373
  0
ARC
  5
25C
330
A
100
AcDbEntity
  8
0
  6
Continuous
 62
     7
100
AcDbCircle
 10
22946.39235
 20
-15675.813673
 30
0.0
 40
7.765919
100
AcDbArc
 50
152.764058
 51
207.235942
  0
ARC
  5
25D
330
A
100
AcDbEntity
  8
0
  6
Continuous
 62
     7
100
AcDbCircle
 10
22946.392341
 20
-15690.918672
 30
0.0
 40
7.765911999999999
100
AcDbArc
 50
152.764029
 51
207.235971
  0
ARC
  5
25E
330
A
100
AcDbEntity
  8
0
  6
Continuous
 62
     7
100
AcDbCircle
 10
22946.39235
 20
-15706.023678
 30
0.0
 40
7.765919
100
AcDbArc
 50
152.764058
 51
207.235942
  0
ARC
  5
25F
330
A
100
AcDbEntity
  8
0
  6
Continuous
 62
     7
100
AcDbCircle
 10
22946.39235
 20
-15721.128677
 30
0.0
 40
7.765919
100
AcDbArc
 50
152.764058
 51
207.235942
  0
ARC
  5
260
330
A
100
AcDbEntity
  8
0
  6
Continuous
 62
     7
100
AcDbCircle
 10
22946.39235
 20
-15736.233675
 30
0.0
 40
7.765919
100
AcDbArc
 50
152.764058
 51
207.235942
  0
ARC
  5
261
330
A
100
AcDbEntity
  8
0
  6
Continuous
 62
     7
100
AcDbCircle
 10
22946.39235
 20
-15751.338674
 30
0.0
 40
7.765919
100
AcDbArc
 50
152.764058
 51
207.235942
  0
ARC
  5
262
330
A
100
AcDbEntity
  8
0
  6
Continuous
 62
     7
100
AcDbCircle
 10
22931.719567
 20
-15758.891173
 30
0.0
 40
8.736528999999999
100
AcDbArc
 50
332.763627
 51
27.236373
  0
ARC
  5
263
330
A
100
AcDbEntity
  8
0
  6
Continuous
 62
     7
100
AcDbCircle
 10
22946.39235
 20
-15766.443673
 30
0.0
 40
7.765919
100
AcDbArc
 50
152.764058
 51
207.235942
  0
ARC
  5
264
330
A
100
AcDbEntity
  8
0
  6
Continuous
 62
     7
100
AcDbCircle
 10
22931.719567
 20
-15773.996172
 30
0.0
 40
8.736528999999999
100
AcDbArc
 50
332.763627
 51
27.236373
  0
ARC
  5
265
330
A
100
AcDbEntity
  8
0
  6
Continuous
 62
     7
100
AcDbCircle
 10
22946.39235
 20
-15781.548671
 30
0.0
 40
7.765919
100
AcDbArc
 50
152.764058
 51
207.235942
  0
ARC
  5
266
330
A
100
AcDbEntity
  8
0
  6
Continuous
 62
     7
100
AcDbCircle
 10
22931.719567
 20
-15789.101171
 30
0.0
 40
8.736528999999999
100
AcDbArc
 50
332.763627
 51
27.236373
  0
ARC
  5
267
330
A
100
AcDbEntity
  8
0
  6
Continuous
 62
     7
100
AcDbCircle
 10
22931.719567
 20
-15804.20617
 30
0.0
 40
8.736528999999999
100
AcDbArc
 50
332.763627
 51
27.236373
  0
ARC
  5
268
330
A
100
AcDbEntity
  8
0
  6
Continuous
 62
     7
100
AcDbCircle
 10
22946.39235
 20
-15811.758669
 30
0.0
 40
7.765919
100
AcDbArc
 50
152.764058
 51
207.235942
  0
ARC
  5
269
330
A
100
AcDbEntity
  8
0
  6
Continuous
 62
     7
100
AcDbCircle
 10
22931.719567
 20
-15819.311168
 30
0.0
 40
8.736528999999999
100
AcDbArc
 50
332.763627
 51
27.236373
  0
ARC
  5
26A
330
A
100
AcDbEntity
  8
0
  6
Continuous
 62
     7
100
AcDbCircle
 10
22931.71955
 20
-15834.416182
 30
0.0
 40
8.736544999999999
100
AcDbArc
 50
332.763678
 51
27.236322
  0
ARC
  5
26B
330
A
100
AcDbEntity
  8
0
  6
Continuous
 62
     7
100
AcDbCircle
 10
22946.392327
 20
-15841.968674
 30
0.0
 40
7.765894999999999
100
AcDbArc
 50
152.764029
 51
207.235971
  0
ARC
  5
26C
330
A
100
AcDbEntity
  8
0
  6
Continuous
 62
     7
100
AcDbCircle
 10
22946.392373
 20
-15857.073672
 30
0.0
 40
7.765942999999999
100
AcDbArc
 50
152.764087
 51
207.235913
  0
ARC
  5
26D
330
A
100
AcDbEntity
  8
0
  6
Continuous
 62
     7
100
AcDbCircle
 10
22946.392327
 20
-15872.178671
 30
0.0
 40
7.765894999999999
100
AcDbArc
 50
152.764029
 51
207.235971
  0
ARC
  5
26E
330
A
100
AcDbEntity
  8
0
  6
Continuous
 62
     7
100
AcDbCircle
 10
22946.392373
 20
-15887.28367
 30
0.0
 40
7.765942999999999
100
AcDbArc
 50
152.764087
 51
207.235913
  0
ARC
  5
26F
330
A
100
AcDbEntity
  8
0
  6
Continuous
 62
     7
100
AcDbCircle
 10
22946.392293
 20
-15902.388669
 30
0.0
 40
7.765864999999999
100
AcDbArc
 50
152.763913
 51
207.236087
  0
ARC
  5
270
330
A
100
AcDbEntity
  8
0
  6
Continuous
 62
     7
100
AcDbCircle
 10
22946.392373
 20
-15917.493667
 30
0.0
 40
7.765942999999999
100
AcDbArc
 50
152.764087
 51
207.235913
  0
ARC
  5
271
330
A
100
AcDbEntity
  8
0
  6
Continuous
 62
     7
100
AcDbCircle
 10
22931.719584
 20
-15925.046174
 30
0.0
 40
8.736513999999999
100
AcDbArc
 50
332.763576
 51
27.236424
  0
ARC
  5
272
330
A
100
AcDbEntity
  8
0
  6
Continuous
 62
     7
100
AcDbCircle
 10
22946.392373
 20
-15932.598681
 30
0.0
 40
7.765942999999999
100
AcDbArc
 50
152.764087
 51
207.235913
  0
ARC
  5
273
330
A
100
AcDbEntity
  8
0
  6
Continuous
 62
     7
100
AcDbCircle
 10
22946.392293
 20
-15947.70367899999
 30
0.0
 40
7.765864999999999
100
AcDbArc
 50
152.763913
 51
207.236087
  0
ARC
  5
274
330
A
100
AcDbEntity
  8
0
  6
Continuous
 62
     7
100
AcDbCircle
 10
22946.392373
 20
-15962.808678
 30
0.0
 40
7.765942999999999
100
AcDbArc
 50
152.764087
 51
207.235913
  0
ARC
  5
275
330
A
100
AcDbEntity
  8
0
  6
Continuous
 62
     7
100
AcDbCircle
 10
22946.392327
 20
-15977.913677
 30
0.0
 40
7.765894999999999
100
AcDbArc
 50
152.764029
 51
207.235971
  0
ARC
  5
276
330
A
100
AcDbEntity
  8
0
  6
Continuous
 62
     7
100
AcDbCircle
 10
22946.392373
 20
-15993.018676
 30
0.0
 40
7.765942999999999
100
AcDbArc
 50
152.764087
 51
207.235913
  0
ARC
  5
277
330
A
100
AcDbEntity
  8
0
  6
Continuous
 62
     7
100
AcDbCircle
 10
22946.392327
 20
-16008.123674
 30
0.0
 40
7.765894999999999
100
AcDbArc
 50
152.764029
 51
207.235971
  0
ARC
  5
278
330
A
100
AcDbEntity
  8
0
  6
Continuous
 62
     7
100
AcDbCircle
 10
22946.392373
 20
-16023.228673
 30
0.0
 40
7.765942999999999
100
AcDbArc
 50
152.764087
 51
207.235913
  0
ARC
  5
279
330
A
100
AcDbEntity
  8
0
  6
Continuous
 62
     7
100
AcDbCircle
 10
22946.392327
 20
-16038.333672
 30
0.0
 40
7.765894999999999
100
AcDbArc
 50
152.764029
 51
207.235971
  0
ARC
  5
27A
330
A
100
AcDbEntity
  8
0
  6
Continuous
 62
     7
100
AcDbCircle
 10
22944.827262
 20
-16053.015981
 30
0.0
 40
6.19028
100
AcDbArc
 50
149.611318
 51
199.980225
  0
LINE
  5
27B
330
A
100
AcDbEntity
  8
0
  6
Continuous
 62
     7
100
AcDbLine
 10
22939.009545
 20
-16055.131171
 30
0.0
 11
22938.770945
 21
-16055.131171
 31
0.0
  0
ARC
  5
27C
330
A
100
AcDbEntity
  8
0
  6
Continuous
 62
     7
100
AcDbCircle
 10
22945.500188
 20
-16052.991304
 30
0.0
 40
7.061271
100
AcDbArc
 50
149.808872
 51
197.640478
  0
ARC
  5
27D
330
A
100
AcDbEntity
  8
0
  6
Continuous
 62
     7
100
AcDbCircle
 10
22932.492553
 20
-16045.886178
 30
0.0
 40
7.765292999999998
100
AcDbArc
 50
332.76174
 51
27.23826
  0
ARC
  5
27E
330
A
100
AcDbEntity
  8
0
  6
Continuous
 62
     7
100
AcDbCircle
 10
22947.164652
 20
-16038.333686
 30
0.0
 40
8.736544999999999
100
AcDbArc
 50
152.763678
 51
207.236322
  0
ARC
  5
27F
330
A
100
AcDbEntity
  8
0
  6
Continuous
 62
     7
100
AcDbCircle
 10
22932.492507
 20
-16030.78118
 30
0.0
 40
7.765339999999999
100
AcDbArc
 50
332.761798
 51
27.238202
  0
ARC
  5
280
330
A
100
AcDbEntity
  8
0
  6
Continuous
 62
     7
100
AcDbCircle
 10
22947.164618
 20
-16023.228673
 30
0.0
 40
8.736513999999999
100
AcDbArc
 50
152.763576
 51
207.236424
  0
ARC
  5
281
330
A
100
AcDbEntity
  8
0
  6
Continuous
 62
     7
100
AcDbCircle
 10
22932.492587
 20
-16015.676181
 30
0.0
 40
7.765261999999999
100
AcDbArc
 50
332.7616240000001
 51
27.238376
  0
ARC
  5
282
330
A
100
AcDbEntity
  8
0
  6
Continuous
 62
     7
100
AcDbCircle
 10
22947.164732
 20
-16008.123674
 30
0.0
 40
8.736622999999999
100
AcDbArc
 50
152.763833
 51
207.236167
  0
ARC
  5
283
330
A
100
AcDbEntity
  8
0
  6
Continuous
 62
     7
100
AcDbCircle
 10
22932.492587
 20
-16000.571168
 30
0.0
 40
7.765261999999999
100
AcDbArc
 50
332.7616240000001
 51
27.238376
  0
ARC
  5
284
330
A
100
AcDbEntity
  8
0
  6
Continuous
 62
     7
100
AcDbCircle
 10
22947.164618
 20
-15993.018676
 30
0.0
 40
8.736513999999999
100
AcDbArc
 50
152.763576
 51
207.236424
  0
ARC
  5
285
330
A
100
AcDbEntity
  8
0
  6
Continuous
 62
     7
100
AcDbCircle
 10
22932.492507
 20
-15985.466169
 30
0.0
 40
7.765339999999999
100
AcDbArc
 50
332.761798
 51
27.238202
  0
ARC
  5
286
330
A
100
AcDbEntity
  8
0
  6
Continuous
 62
     7
100
AcDbCircle
 10
22947.164652
 20
-15977.913662
 30
0.0
 40
8.736544999999999
100
AcDbArc
 50
152.763678
 51
207.236322
  0
ARC
  5
287
330
A
100
AcDbEntity
  8
0
  6
Continuous
 62
     7
100
AcDbCircle
 10
22932.492553
 20
-15970.36117
 30
0.0
 40
7.765292999999998
100
AcDbArc
 50
332.76174
 51
27.23826
  0
ARC
  5
288
330
A
100
AcDbEntity
  8
0
  6
Continuous
 62
     7
100
AcDbCircle
 10
22947.164618
 20
-15962.808678
 30
0.0
 40
8.736513999999999
100
AcDbArc
 50
152.763576
 51
207.236424
  0
ARC
  5
289
330
A
100
AcDbEntity
  8
0
  6
Continuous
 62
     7
100
AcDbCircle
 10
22932.492507
 20
-15955.256171
 30
0.0
 40
7.765339999999999
100
AcDbArc
 50
332.761798
 51
27.238202
  0
ARC
  5
28A
330
A
100
AcDbEntity
  8
0
  6
Continuous
 62
     7
100
AcDbCircle
 10
22947.164652
 20
-15947.703665
 30
0.0
 40
8.736544999999999
100
AcDbArc
 50
152.763678
 51
207.236322
  0
ARC
  5
28B
330
A
100
AcDbEntity
  8
0
  6
Continuous
 62
     7
100
AcDbCircle
 10
22932.492553
 20
-15940.151173
 30
0.0
 40
7.765292999999998
100
AcDbArc
 50
332.76174
 51
27.23826
  0
ARC
  5
28C
330
A
100
AcDbEntity
  8
0
  6
Continuous
 62
     7
100
AcDbCircle
 10
22947.164618
 20
-15932.598681
 30
0.0
 40
8.736513999999999
100
AcDbArc
 50
152.763576
 51
207.236424
  0
ARC
  5
28D
330
A
100
AcDbEntity
  8
0
  6
Continuous
 62
     7
100
AcDbCircle
 10
22932.492507
 20
-15925.046174
 30
0.0
 40
7.765339999999999
100
AcDbArc
 50
332.761798
 51
27.238202
  0
ARC
  5
28E
330
A
100
AcDbEntity
  8
0
  6
Continuous
 62
     7
100
AcDbCircle
 10
22947.164618
 20
-15917.493667
 30
0.0
 40
8.736513999999999
100
AcDbArc
 50
152.763576
 51
207.236424
  0
ARC
  5
28F
330
A
100
AcDbEntity
  8
0
  6
Continuous
 62
     7
100
AcDbCircle
 10
22932.492553
 20
-15909.941175
 30
0.0
 40
7.765292999999998
100
AcDbArc
 50
332.76174
 51
27.23826
  0
ARC
  5
290
330
A
100
AcDbEntity
  8
0
  6
Continuous
 62
     7
100
AcDbCircle
 10
22947.164652
 20
-15902.388683
 30
0.0
 40
8.736544999999999
100
AcDbArc
 50
152.763678
 51
207.236322
  0
ARC
  5
291
330
A
100
AcDbEntity
  8
0
  6
Continuous
 62
     7
100
AcDbCircle
 10
22932.492507
 20
-15894.836177
 30
0.0
 40
7.765339999999999
100
AcDbArc
 50
332.761798
 51
27.238202
  0
ARC
  5
292
330
A
100
AcDbEntity
  8
0
  6
Continuous
 62
     7
100
AcDbCircle
 10
22947.164618
 20
-15887.28367
 30
0.0
 40
8.736513999999999
100
AcDbArc
 50
152.763576
 51
207.236424
  0
ARC
  5
293
330
A
100
AcDbEntity
  8
0
  6
Continuous
 62
     7
100
AcDbCircle
 10
22932.492553
 20
-15879.731178
 30
0.0
 40
7.765292999999998
100
AcDbArc
 50
332.76174
 51
27.23826
  0
ARC
  5
294
330
A
100
AcDbEntity
  8
0
  6
Continuous
 62
     7
100
AcDbCircle
 10
22947.164652
 20
-15872.178686
 30
0.0
 40
8.736544999999999
100
AcDbArc
 50
152.763678
 51
207.236322
  0
ARC
  5
295
330
A
100
AcDbEntity
  8
0
  6
Continuous
 62
     7
100
AcDbCircle
 10
22932.492507
 20
-15864.626179
 30
0.0
 40
7.765339999999999
100
AcDbArc
 50
332.761798
 51
27.238202
  0
ARC
  5
296
330
A
100
AcDbEntity
  8
0
  6
Continuous
 62
     7
100
AcDbCircle
 10
22947.164618
 20
-15857.073672
 30
0.0
 40
8.736513999999999
100
AcDbArc
 50
152.763576
 51
207.236424
  0
ARC
  5
297
330
A
100
AcDbEntity
  8
0
  6
Continuous
 62
     7
100
AcDbCircle
 10
22932.492587
 20
-15849.52118
 30
0.0
 40
7.765261999999999
100
AcDbArc
 50
332.7616240000001
 51
27.238376
  0
ARC
  5
298
330
A
100
AcDbEntity
  8
0
  6
Continuous
 62
     7
100
AcDbCircle
 10
22947.164732
 20
-15841.968674
 30
0.0
 40
8.736622999999999
100
AcDbArc
 50
152.763833
 51
207.236167
  0
ARC
  5
299
330
A
100
AcDbEntity
  8
0
  6
Continuous
 62
     7
100
AcDbCircle
 10
22932.492587
 20
-15834.416167
 30
0.0
 40
7.765261999999999
100
AcDbArc
 50
332.7616240000001
 51
27.238376
  0
ARC
  5
29A
330
A
100
AcDbEntity
  8
0
  6
Continuous
 62
     7
100
AcDbCircle
 10
22932.49253
 20
-15819.311176
 30
0.0
 40
7.765316999999999
100
AcDbArc
 50
332.761769
 51
27.238231
  0
ARC
  5
29B
330
A
100
AcDbEntity
  8
0
  6
Continuous
 62
     7
100
AcDbCircle
 10
22947.164635
 20
-15811.758676
 30
0.0
 40
8.736528999999999
100
AcDbArc
 50
152.763627
 51
207.236373
  0
ARC
  5
29C
330
A
100
AcDbEntity
  8
0
  6
Continuous
 62
     7
100
AcDbCircle
 10
22932.49253
 20
-15804.206177
 30
0.0
 40
7.765316999999999
100
AcDbArc
 50
332.761769
 51
27.238231
  0
ARC
  5
29D
330
A
100
AcDbEntity
  8
0
  6
Continuous
 62
     7
100
AcDbCircle
 10
22947.164635
 20
-15796.653678
 30
0.0
 40
8.736528999999999
100
AcDbArc
 50
152.763627
 51
207.236373
  0
ARC
  5
29E
330
A
100
AcDbEntity
  8
0
  6
Continuous
 62
     7
100
AcDbCircle
 10
22932.49253
 20
-15789.101178
 30
0.0
 40
7.765316999999999
100
AcDbArc
 50
332.761769
 51
27.238231
  0
ARC
  5
29F
330
A
100
AcDbEntity
  8
0
  6
Continuous
 62
     7
100
AcDbCircle
 10
22947.164635
 20
-15781.548679
 30
0.0
 40
8.736528999999999
100
AcDbArc
 50
152.763627
 51
207.236373
  0
ARC
  5
2A0
330
A
100
AcDbEntity
  8
0
  6
Continuous
 62
     7
100
AcDbCircle
 10
22932.492547
 20
-15773.99618
 30
0.0
 40
7.765300999999999
100
AcDbArc
 50
332.761711
 51
27.238289
  0
ARC
  5
2A1
330
A
100
AcDbEntity
  8
0
  6
Continuous
 62
     7
100
AcDbCircle
 10
22947.164635
 20
-15766.44368
 30
0.0
 40
8.736528999999999
100
AcDbArc
 50
152.763627
 51
207.236373
  0
ARC
  5
2A2
330
A
100
AcDbEntity
  8
0
  6
Continuous
 62
     7
100
AcDbCircle
 10
22932.492547
 20
-15758.891181
 30
0.0
 40
7.765300999999999
100
AcDbArc
 50
332.761711
 51
27.238289
  0
ARC
  5
2A3
330
A
100
AcDbEntity
  8
0
  6
Continuous
 62
     7
100
AcDbCircle
 10
22947.164675
 20
-15751.338674
 30
0.0
 40
8.736568
100
AcDbArc
 50
152.763704
 51
207.236296
  0
ARC
  5
2A4
330
A
100
AcDbEntity
  8
0
  6
Continuous
 62
     7
100
AcDbCircle
 10
22932.492547
 20
-15743.786167
 30
0.0
 40
7.765300999999999
100
AcDbArc
 50
332.761711
 51
27.238289
  0
ARC
  5
2A5
330
A
100
AcDbEntity
  8
0
  6
Continuous
 62
     7
100
AcDbCircle
 10
22947.164635
 20
-15736.233668
 30
0.0
 40
8.736528999999999
100
AcDbArc
 50
152.763627
 51
207.236373
  0
ARC
  5
2A6
330
A
100
AcDbEntity
  8
0
  6
Continuous
 62
     7
100
AcDbCircle
 10
22932.492547
 20
-15728.681169
 30
0.0
 40
7.765300999999999
100
AcDbArc
 50
332.761711
 51
27.238289
  0
ARC
  5
2A7
330
A
100
AcDbEntity
  8
0
  6
Continuous
 62
     7
100
AcDbCircle
 10
22947.164635
 20
-15721.128669
 30
0.0
 40
8.736528999999999
100
AcDbArc
 50
152.763627
 51
207.236373
  0
ARC
  5
2A8
330
A
100
AcDbEntity
  8
0
  6
Continuous
 62
     7
100
AcDbCircle
 10
22932.49253
 20
-15713.57617
 30
0.0
 40
7.765316999999999
100
AcDbArc
 50
332.761769
 51
27.238231
  0
ARC
  5
2A9
330
A
100
AcDbEntity
  8
0
  6
Continuous
 62
     7
100
AcDbCircle
 10
22947.164635
 20
-15706.023671
 30
0.0
 40
8.736528999999999
100
AcDbArc
 50
152.763627
 51
207.236373
  0
ARC
  5
2AA
330
A
100
AcDbEntity
  8
0
  6
Continuous
 62
     7
100
AcDbCircle
 10
22932.492539
 20
-15698.471171
 30
0.0
 40
7.765308999999999
100
AcDbArc
 50
332.76174
 51
27.23826
  0
ARC
  5
2AB
330
A
100
AcDbEntity
  8
0
  6
Continuous
 62
     7
100
AcDbCircle
 10
22947.164635
 20
-15690.918672
 30
0.0
 40
8.736528999999999
100
AcDbArc
 50
152.763627
 51
207.236373
  0
ARC
  5
2AC
330
A
100
AcDbEntity
  8
0
  6
Continuous
 62
     7
100
AcDbCircle
 10
22932.492539
 20
-15683.366172
 30
0.0
 40
7.765308999999999
100
AcDbArc
 50
332.76174
 51
27.23826
  0
ARC
  5
2AD
330
A
100
AcDbEntity
  8
0
  6
Continuous
 62
     7
100
AcDbCircle
 10
22947.164635
 20
-15675.813673
 30
0.0
 40
8.736528999999999
100
AcDbArc
 50
152.763627
 51
207.236373
  0
ARC
  5
2AE
330
A
100
AcDbEntity
  8
0
  6
Continuous
 62
     7
100
AcDbCircle
 10
22932.49253
 20
-15668.261174
 30
0.0
 40
7.765316999999999
100
AcDbArc
 50
332.761769
 51
27.238231
  0
ARC
  5
2AF
330
A
100
AcDbEntity
  8
0
  6
Continuous
 62
     7
100
AcDbCircle
 10
22947.164635
 20
-15660.708674
 30
0.0
 40
8.736528999999999
100
AcDbArc
 50
152.763627
 51
207.236373
  0
ARC
  5
2B0
330
A
100
AcDbEntity
  8
0
  6
Continuous
 62
     7
100
AcDbCircle
 10
22932.49253
 20
-15653.156175
 30
0.0
 40
7.765316999999999
100
AcDbArc
 50
332.761769
 51
27.238231
  0
ARC
  5
2B1
330
A
100
AcDbEntity
  8
0
  6
Continuous
 62
     7
100
AcDbCircle
 10
22947.164635
 20
-15645.603676
 30
0.0
 40
8.736528999999999
100
AcDbArc
 50
152.763627
 51
207.236373
  0
ARC
  5
2B2
330
A
100
AcDbEntity
  8
0
  6
Continuous
 62
     7
100
AcDbCircle
 10
22932.492524
 20
-15638.051175
 30
0.0
 40
7.765322
100
AcDbArc
 50
332.761776
 51
27.238224
  0
ARC
  5
2B3
330
A
100
AcDbEntity
  8
0
  6
Continuous
 62
     7
100
AcDbCircle
 10
22947.164635
 20
-15630.498673
 30
0.0
 40
8.736528999999999
100
AcDbArc
 50
152.763627
 51
207.236373
  0
ARC
  5
2B4
330
A
100
AcDbEntity
  8
0
  6
Continuous
 62
     7
100
AcDbCircle
 10
22932.492539
 20
-15622.946174
 30
0.0
 40
7.765308999999999
100
AcDbArc
 50
332.76174
 51
27.23826
  0
ARC
  5
2B5
330
A
100
AcDbEntity
  8
0
  6
Continuous
 62
     7
100
AcDbCircle
 10
22947.164635
 20
-15615.393675
 30
0.0
 40
8.736528999999999
100
AcDbArc
 50
152.763627
 51
207.236373
  0
ARC
  5
2B6
330
A
100
AcDbEntity
  8
0
  6
Continuous
 62
     7
100
AcDbCircle
 10
22932.492529
 20
-15607.841174
 30
0.0
 40
7.765317999999999
100
AcDbArc
 50
332.761765
 51
27.238235
  0
ARC
  5
2B7
330
A
100
AcDbEntity
  8
0
  6
Continuous
 62
     7
100
AcDbCircle
 10
22947.164635
 20
-15600.288674
 30
0.0
 40
8.736528999999999
100
AcDbArc
 50
152.763627
 51
207.236373
  0
ARC
  5
2B8
330
A
100
AcDbEntity
  8
0
  6
Continuous
 62
     7
100
AcDbCircle
 10
22932.492535
 20
-15592.736175
 30
0.0
 40
7.765311999999999
100
AcDbArc
 50
332.761751
 51
27.238249
  0
ARC
  5
2B9
330
A
100
AcDbEntity
  8
0
  6
Continuous
 62
     7
100
AcDbCircle
 10
22947.164642
 20
-15585.183674
 30
0.0
 40
8.736535999999999
100
AcDbArc
 50
152.7636409999999
 51
207.236359
  0
ARC
  5
2BA
330
A
100
AcDbEntity
  8
0
  6
Continuous
 62
     7
100
AcDbCircle
 10
22932.492536
 20
-15577.631174
 30
0.0
 40
7.765310999999999
100
AcDbArc
 50
332.76175
 51
27.23825
  0
ARC
  5
2BB
330
A
100
AcDbEntity
  8
0
  6
Continuous
 62
     7
100
AcDbCircle
 10
22947.164642
 20
-15570.078674
 30
0.0
 40
8.736535999999999
100
AcDbArc
 50
152.7636409999999
 51
207.236359
  0
ARC
  5
2BC
330
A
100
AcDbEntity
  8
0
  6
Continuous
 62
     7
100
AcDbCircle
 10
22932.492535
 20
-15562.526174
 30
0.0
 40
7.765311999999999
100
AcDbArc
 50
332.761751
 51
27.238249
  0
ARC
  5
2BD
330
A
100
AcDbEntity
  8
0
  6
Continuous
 62
     7
100
AcDbCircle
 10
22947.164635
 20
-15554.973674
 30
0.0
 40
8.736528999999999
100
AcDbArc
 50
152.763627
 51
207.236373
  0
ARC
  5
2BE
330
A
100
AcDbEntity
  8
0
  6
Continuous
 62
     7
100
AcDbCircle
 10
22932.492529
 20
-15547.421174
 30
0.0
 40
7.765317999999999
100
AcDbArc
 50
332.761765
 51
27.238235
  0
ARC
  5
2BF
330
A
100
AcDbEntity
  8
0
  6
Continuous
 62
     7
100
AcDbCircle
 10
22947.164635
 20
-15539.868674
 30
0.0
 40
8.736528999999999
100
AcDbArc
 50
152.763627
 51
207.236373
  0
ARC
  5
2C0
330
A
100
AcDbEntity
  8
0
  6
Continuous
 62
     7
100
AcDbCircle
 10
22932.492539
 20
-15532.316174
 30
0.0
 40
7.765308999999999
100
AcDbArc
 50
332.76174
 51
27.23826
  0
ARC
  5
2C1
330
A
100
AcDbEntity
  8
0
  6
Continuous
 62
     7
100
AcDbCircle
 10
22947.164635
 20
-15524.763675
 30
0.0
 40
8.736528999999999
100
AcDbArc
 50
152.763627
 51
207.236373
  0
ARC
  5
2C2
330
A
100
AcDbEntity
  8
0
  6
Continuous
 62
     7
100
AcDbCircle
 10
22932.492524
 20
-15517.211174
 30
0.0
 40
7.765322
100
AcDbArc
 50
332.761776
 51
27.238224
  0
ARC
  5
2C3
330
A
100
AcDbEntity
  8
0
  6
Continuous
 62
     7
100
AcDbCircle
 10
22947.164635
 20
-15509.658673
 30
0.0
 40
8.736528999999999
100
AcDbArc
 50
152.763627
 51
207.236373
  0
ARC
  5
2C4
330
A
100
AcDbEntity
  8
0
  6
Continuous
 62
     7
100
AcDbCircle
 10
22932.49253
 20
-15502.106173
 30
0.0
 40
7.765316999999999
100
AcDbArc
 50
332.761769
 51
27.238231
  0
ARC
  5
2C5
330
A
100
AcDbEntity
  8
0
  6
Continuous
 62
     7
100
AcDbCircle
 10
22947.164635
 20
-15494.553674
 30
0.0
 40
8.736528999999999
100
AcDbArc
 50
152.763627
 51
207.236373
  0
ARC
  5
2C6
330
A
100
AcDbEntity
  8
0
  6
Continuous
 62
     7
100
AcDbCircle
 10
22932.49253
 20
-15487.001174
 30
0.0
 40
7.765316999999999
100
AcDbArc
 50
332.761769
 51
27.238231
  0
ARC
  5
2C7
330
A
100
AcDbEntity
  8
0
  6
Continuous
 62
     7
100
AcDbCircle
 10
22947.164635
 20
-15479.448675
 30
0.0
 40
8.736528999999999
100
AcDbArc
 50
152.763627
 51
207.236373
  0
ARC
  5
2C8
330
A
100
AcDbEntity
  8
0
  6
Continuous
 62
     7
100
AcDbCircle
 10
22932.492539
 20
-15471.896176
 30
0.0
 40
7.765308999999999
100
AcDbArc
 50
332.76174
 51
27.23826
  0
ARC
  5
2C9
330
A
100
AcDbEntity
  8
0
  6
Continuous
 62
     7
100
AcDbCircle
 10
22947.164635
 20
-15464.343676
 30
0.0
 40
8.736528999999999
100
AcDbArc
 50
152.763627
 51
207.236373
  0
ARC
  5
2CA
330
A
100
AcDbEntity
  8
0
  6
Continuous
 62
     7
100
AcDbCircle
 10
22932.492539
 20
-15456.791177
 30
0.0
 40
7.765308999999999
100
AcDbArc
 50
332.76174
 51
27.23826
  0
ARC
  5
2CB
330
A
100
AcDbEntity
  8
0
  6
Continuous
 62
     7
100
AcDbCircle
 10
22947.164635
 20
-15449.238678
 30
0.0
 40
8.736528999999999
100
AcDbArc
 50
152.763627
 51
207.236373
  0
ARC
  5
2CC
330
A
100
AcDbEntity
  8
0
  6
Continuous
 62
     7
100
AcDbCircle
 10
22932.49253
 20
-15441.686178
 30
0.0
 40
7.765316999999999
100
AcDbArc
 50
332.761769
 51
27.238231
  0
ARC
  5
2CD
330
A
100
AcDbEntity
  8
0
  6
Continuous
 62
     7
100
AcDbCircle
 10
22947.164635
 20
-15434.133679
 30
0.0
 40
8.736528999999999
100
AcDbArc
 50
152.763627
 51
207.236373
  0
ARC
  5
2CE
330
A
100
AcDbEntity
  8
0
  6
Continuous
 62
     7
100
AcDbCircle
 10
22932.492547
 20
-15426.58118
 30
0.0
 40
7.765300999999999
100
AcDbArc
 50
332.761711
 51
27.238289
  0
ARC
  5
2CF
330
A
100
AcDbEntity
  8
0
  6
Continuous
 62
     7
100
AcDbCircle
 10
22947.164635
 20
-15419.02868
 30
0.0
 40
8.736528999999999
100
AcDbArc
 50
152.763627
 51
207.236373
  0
ARC
  5
2D0
330
A
100
AcDbEntity
  8
0
  6
Continuous
 62
     7
100
AcDbCircle
 10
22932.492547
 20
-15411.476181
 30
0.0
 40
7.765300999999999
100
AcDbArc
 50
332.761711
 51
27.238289
  0
ARC
  5
2D1
330
A
100
AcDbEntity
  8
0
  6
Continuous
 62
     7
100
AcDbCircle
 10
22932.492547
 20
-15396.371167
 30
0.0
 40
7.765300999999999
100
AcDbArc
 50
332.761711
 51
27.238289
  0
ARC
  5
2D2
330
A
100
AcDbEntity
  8
0
  6
Continuous
 62
     7
100
AcDbCircle
 10
22947.164635
 20
-15388.818668
 30
0.0
 40
8.736528999999999
100
AcDbArc
 50
152.763627
 51
207.236373
  0
ARC
  5
2D3
330
A
100
AcDbEntity
  8
0
  6
Continuous
 62
     7
100
AcDbCircle
 10
22932.492547
 20
-15381.266169
 30
0.0
 40
7.765300999999999
100
AcDbArc
 50
332.761711
 51
27.238289
  0
ARC
  5
2D4
330
A
100
AcDbEntity
  8
0
  6
Continuous
 62
     7
100
AcDbCircle
 10
22947.164635
 20
-15373.713669
 30
0.0
 40
8.736528999999999
100
AcDbArc
 50
152.763627
 51
207.236373
  0
ARC
  5
2D5
330
A
100
AcDbEntity
  8
0
  6
Continuous
 62
     7
100
AcDbCircle
 10
22932.49253
 20
-15366.16117
 30
0.0
 40
7.765316999999999
100
AcDbArc
 50
332.761769
 51
27.238231
  0
ARC
  5
2D6
330
A
100
AcDbEntity
  8
0
  6
Continuous
 62
     7
100
AcDbCircle
 10
22947.164635
 20
-15358.608671
 30
0.0
 40
8.736528999999999
100
AcDbArc
 50
152.763627
 51
207.236373
  0
ARC
  5
2D7
330
A
100
AcDbEntity
  8
0
  6
Continuous
 62
     7
100
AcDbCircle
 10
22932.49253
 20
-15351.056171
 30
0.0
 40
7.765316999999999
100
AcDbArc
 50
332.761769
 51
27.238231
  0
ARC
  5
2D8
330
A
100
AcDbEntity
  8
0
  6
Continuous
 62
     7
100
AcDbCircle
 10
22947.164635
 20
-15343.503672
 30
0.0
 40
8.736528999999999
100
AcDbArc
 50
152.763627
 51
207.236373
  0
ARC
  5
2D9
330
A
100
AcDbEntity
  8
0
  6
Continuous
 62
     7
100
AcDbCircle
 10
22932.49253
 20
-15335.951173
 30
0.0
 40
7.765316999999999
100
AcDbArc
 50
332.761769
 51
27.238231
  0
ARC
  5
2DA
330
A
100
AcDbEntity
  8
0
  6
Continuous
 62
     7
100
AcDbCircle
 10
22932.492587
 20
-15320.846181
 30
0.0
 40
7.765261999999999
100
AcDbArc
 50
332.7616240000001
 51
27.238376
  0
ARC
  5
2DB
330
A
100
AcDbEntity
  8
0
  6
Continuous
 62
     7
100
AcDbCircle
 10
22947.164732
 20
-15313.293675
 30
0.0
 40
8.736622999999999
100
AcDbArc
 50
152.763833
 51
207.236167
  0
ARC
  5
2DC
330
A
100
AcDbEntity
  8
0
  6
Continuous
 62
     7
100
AcDbCircle
 10
22932.492587
 20
-15305.741168
 30
0.0
 40
7.765261999999999
100
AcDbArc
 50
332.7616240000001
 51
27.238376
  0
ARC
  5
2DD
330
A
100
AcDbEntity
  8
0
  6
Continuous
 62
     7
100
AcDbCircle
 10
22947.164618
 20
-15298.188676
 30
0.0
 40
8.736513999999999
100
AcDbArc
 50
152.763576
 51
207.236424
  0
ARC
  5
2DE
330
A
100
AcDbEntity
  8
0
  6
Continuous
 62
     7
100
AcDbCircle
 10
22932.492507
 20
-15290.636169
 30
0.0
 40
7.765339999999999
100
AcDbArc
 50
332.761798
 51
27.238202
  0
ARC
  5
2DF
330
A
100
AcDbEntity
  8
0
  6
Continuous
 62
     7
100
AcDbCircle
 10
22947.164652
 20
-15283.083662
 30
0.0
 40
8.736544999999999
100
AcDbArc
 50
152.763678
 51
207.236322
  0
ARC
  5
2E0
330
A
100
AcDbEntity
  8
0
  6
Continuous
 62
     7
100
AcDbCircle
 10
22932.492553
 20
-15275.53117
 30
0.0
 40
7.765292999999998
100
AcDbArc
 50
332.76174
 51
27.23826
  0
ARC
  5
2E1
330
A
100
AcDbEntity
  8
0
  6
Continuous
 62
     7
100
AcDbCircle
 10
22947.164618
 20
-15267.978678
 30
0.0
 40
8.736513999999999
100
AcDbArc
 50
152.763576
 51
207.236424
  0
ARC
  5
2E2
330
A
100
AcDbEntity
  8
0
  6
Continuous
 62
     7
100
AcDbCircle
 10
22932.492507
 20
-15260.426172
 30
0.0
 40
7.765339999999999
100
AcDbArc
 50
332.761798
 51
27.238202
  0
ARC
  5
2E3
330
A
100
AcDbEntity
  8
0
  6
Continuous
 62
     7
100
AcDbCircle
 10
22947.164652
 20
-15252.873665
 30
0.0
 40
8.736544999999999
100
AcDbArc
 50
152.763678
 51
207.236322
  0
ARC
  5
2E4
330
A
100
AcDbEntity
  8
0
  6
Continuous
 62
     7
100
AcDbCircle
 10
22932.492553
 20
-15245.321173
 30
0.0
 40
7.765292999999998
100
AcDbArc
 50
332.76174
 51
27.23826
  0
ARC
  5
2E5
330
A
100
AcDbEntity
  8
0
  6
Continuous
 62
     7
100
AcDbCircle
 10
22947.164618
 20
-15237.768681
 30
0.0
 40
8.736513999999999
100
AcDbArc
 50
152.763576
 51
207.236424
  0
ARC
  5
2E6
330
A
100
AcDbEntity
  8
0
  6
Continuous
 62
     7
100
AcDbCircle
 10
22932.492507
 20
-15230.216174
 30
0.0
 40
7.765339999999999
100
AcDbArc
 50
332.761798
 51
27.238202
  0
ARC
  5
2E7
330
A
100
AcDbEntity
  8
0
  6
Continuous
 62
     7
100
AcDbCircle
 10
22947.164618
 20
-15222.663668
 30
0.0
 40
8.736513999999999
100
AcDbArc
 50
152.763576
 51
207.236424
  0
ARC
  5
2E8
330
A
100
AcDbEntity
  8
0
  6
Continuous
 62
     7
100
AcDbCircle
 10
22932.492553
 20
-15215.111176
 30
0.0
 40
7.765292999999998
100
AcDbArc
 50
332.76174
 51
27.23826
  0
ARC
  5
2E9
330
A
100
AcDbEntity
  8
0
  6
Continuous
 62
     7
100
AcDbCircle
 10
22947.164652
 20
-15207.558684
 30
0.0
 40
8.736544999999999
100
AcDbArc
 50
152.763678
 51
207.236322
  0
ARC
  5
2EA
330
A
100
AcDbEntity
  8
0
  6
Continuous
 62
     7
100
AcDbCircle
 10
22932.492507
 20
-15200.006177
 30
0.0
 40
7.765339999999999
100
AcDbArc
 50
332.761798
 51
27.238202
  0
ARC
  5
2EB
330
A
100
AcDbEntity
  8
0
  6
Continuous
 62
     7
100
AcDbCircle
 10
22947.164618
 20
-15192.45367
 30
0.0
 40
8.736513999999999
100
AcDbArc
 50
152.763576
 51
207.236424
  0
ARC
  5
2EC
330
A
100
AcDbEntity
  8
0
  6
Continuous
 62
     7
100
AcDbCircle
 10
22932.492553
 20
-15184.901178
 30
0.0
 40
7.765292999999998
100
AcDbArc
 50
332.76174
 51
27.23826
  0
ARC
  5
2ED
330
A
100
AcDbEntity
  8
0
  6
Continuous
 62
     7
100
AcDbCircle
 10
22947.164652
 20
-15177.348686
 30
0.0
 40
8.736544999999999
100
AcDbArc
 50
152.763678
 51
207.236322
  0
ARC
  5
2EE
330
A
100
AcDbEntity
  8
0
  6
Continuous
 62
     7
100
AcDbCircle
 10
22932.492507
 20
-15169.796179
 30
0.0
 40
7.765339999999999
100
AcDbArc
 50
332.761798
 51
27.238202
  0
ARC
  5
2EF
330
A
100
AcDbEntity
  8
0
  6
Continuous
 62
     7
100
AcDbCircle
 10
22947.164618
 20
-15162.243673
 30
0.0
 40
8.736513999999999
100
AcDbArc
 50
152.763576
 51
207.236424
  0
ARC
  5
2F0
330
A
100
AcDbEntity
  8
0
  6
Continuous
 62
     7
100
AcDbCircle
 10
22932.492587
 20
-15154.691181
 30
0.0
 40
7.765261999999999
100
AcDbArc
 50
332.7616240000001
 51
27.238376
  0
ARC
  5
2F1
330
A
100
AcDbEntity
  8
0
  6
Continuous
 62
     7
100
AcDbCircle
 10
22947.164732
 20
-15147.138674
 30
0.0
 40
8.736622999999999
100
AcDbArc
 50
152.763833
 51
207.236167
  0
ARC
  5
2F2
330
A
100
AcDbEntity
  8
0
  6
Continuous
 62
     7
100
AcDbCircle
 10
22932.492587
 20
-15139.586167
 30
0.0
 40
7.765261999999999
100
AcDbArc
 50
332.7616240000001
 51
27.238376
  0
ARC
  5
2F3
330
A
100
AcDbEntity
  8
0
  6
Continuous
 62
     7
100
AcDbCircle
 10
22947.164618
 20
-15132.033675
 30
0.0
 40
8.736513999999999
100
AcDbArc
 50
152.763576
 51
207.236424
  0
ARC
  5
2F4
330
A
100
AcDbEntity
  8
0
  6
Continuous
 62
     7
100
AcDbCircle
 10
22932.492507
 20
-15124.481169
 30
0.0
 40
7.765339999999999
100
AcDbArc
 50
332.761798
 51
27.238202
  0
ARC
  5
2F5
330
A
100
AcDbEntity
  8
0
  6
Continuous
 62
     7
100
AcDbCircle
 10
22947.164652
 20
-15116.928662
 30
0.0
 40
8.736544999999999
100
AcDbArc
 50
152.763678
 51
207.236322
  0
ARC
  5
2F6
330
A
100
AcDbEntity
  8
0
  6
Continuous
 62
     7
100
AcDbCircle
 10
22932.492553
 20
-15109.37617
 30
0.0
 40
7.765292999999998
100
AcDbArc
 50
332.76174
 51
27.23826
  0
ARC
  5
2F7
330
A
100
AcDbEntity
  8
0
  6
Continuous
 62
     7
100
AcDbCircle
 10
22945.500196
 20
-15102.271042
 30
0.0
 40
7.061278999999998
100
AcDbArc
 50
162.359532
 51
210.19111
  0
LINE
  5
2F8
330
A
100
AcDbEntity
  8
0
  6
Continuous
 62
     7
100
AcDbLine
 10
22939.009545
 20
-15100.131174
 30
0.0
 11
22938.770945
 21
-15100.131174
 31
0.0
  0
ARC
  5
2F9
330
A
100
AcDbEntity
  8
0
  6
Continuous
 62
     7
100
AcDbCircle
 10
22947.164675
 20
-15403.923674
 30
0.0
 40
8.736568
100
AcDbArc
 50
152.763704
 51
207.236296
  0
ARC
  5
2FA
330
A
100
AcDbEntity
  8
0
  6
Continuous
 62
     7
100
AcDbCircle
 10
22947.164618
 20
-15826.863675
 30
0.0
 40
8.736513999999999
100
AcDbArc
 50
152.763576
 51
207.236424
  0
ARC
  5
2FB
330
A
100
AcDbEntity
  8
0
  6
Continuous
 62
     7
100
AcDbCircle
 10
22947.164618
 20
-15328.398673
 30
0.0
 40
8.736513999999999
100
AcDbArc
 50
152.763576
 51
207.236424
  0
LINE
  5
2FC
330
A
100
AcDbEntity
  8
0
  6
Continuous
 62
     1
100
AcDbLine
 10
23952.459426
 20
-15921.047792
 30
0.0
 11
22939.48745
 21
-15921.047792
 31
0.0
  0
ARC
  5
2FD
330
A
100
AcDbEntity
  8
0
  6
Continuous
 62
     7
100
AcDbCircle
 10
23944.691899
 20
-15925.046174
 30
0.0
 40
8.736213000000001
100
AcDbArc
 50
332.762558
 51
27.237442
  0
LINE
  5
2FE
330
A
100
AcDbEntity
  8
0
  6
Continuous
 62
     1
100
AcDbLine
 10
23952.459426
 20
-15929.044556
 30
0.0
 11
22939.48745
 21
-15929.044556
 31
0.0
  0
LINE
  5
2FF
330
A
100
AcDbEntity
  8
0
  6
Continuous
 62
     1
100
AcDbLine
 10
23952.459426
 20
-15286.637792
 30
0.0
 11
22939.48745
 21
-15286.637792
 31
0.0
  0
ARC
  5
300
330
A
100
AcDbEntity
  8
0
  6
Continuous
 62
     7
100
AcDbCircle
 10
23944.691899
 20
-15290.636169
 30
0.0
 40
8.736213000000001
100
AcDbArc
 50
332.762558
 51
27.237442
  0
LINE
  5
301
330
A
100
AcDbEntity
  8
0
  6
Continuous
 62
     1
100
AcDbLine
 10
23952.459426
 20
-15294.634556
 30
0.0
 11
22939.48745
 21
-15294.634556
 31
0.0
  0
LINE
  5
302
330
A
100
AcDbEntity
  8
0
  6
Continuous
 62
     1
100
AcDbLine
 10
23952.459426
 20
-15241.322792
 30
0.0
 11
22939.48745
 21
-15241.322792
 31
0.0
  0
ARC
  5
303
330
A
100
AcDbEntity
  8
0
  6
Continuous
 62
     7
100
AcDbCircle
 10
23944.691864
 20
-15245.321188
 30
0.0
 40
8.736242999999999
100
AcDbArc
 50
332.762661
 51
27.237339
  0
LINE
  5
304
330
A
100
AcDbEntity
  8
0
  6
Continuous
 62
     1
100
AcDbLine
 10
23952.459426
 20
-15249.319556
 30
0.0
 11
22939.48745
 21
-15249.319556
 31
0.0
  0
LINE
  5
305
330
A
100
AcDbEntity
  8
0
  6
Continuous
 62
     1
100
AcDbLine
 10
23199.302012
 20
-15558.527792
 30
0.0
 11
22939.48745
 21
-15558.527792
 31
0.0
  0
LINE
  5
306
330
A
100
AcDbEntity
  8
0
  6
Continuous
 62
     1
100
AcDbLine
 10
23198.725213
 20
-15566.524556
 30
0.0
 11
22939.48745
 21
-15566.524556
 31
0.0
  0
LINE
  5
307
330
A
100
AcDbEntity
  8
0
  6
Continuous
 62
     1
100
AcDbLine
 10
23952.459426
 20
-15150.692792
 30
0.0
 11
22939.48745
 21
-15150.692792
 31
0.0
  0
ARC
  5
308
330
A
100
AcDbEntity
  8
0
  6
Continuous
 62
     7
100
AcDbCircle
 10
23944.691864
 20
-15154.691166
 30
0.0
 40
8.736242999999999
100
AcDbArc
 50
332.762661
 51
27.237339
  0
LINE
  5
309
330
A
100
AcDbEntity
  8
0
  6
Continuous
 62
     1
100
AcDbLine
 10
23952.459426
 20
-15158.689556
 30
0.0
 11
22939.48745
 21
-15158.689556
 31
0.0
  0
LINE
  5
30A
330
A
100
AcDbEntity
  8
0
  6
Continuous
 62
     1
100
AcDbLine
 10
23204.303466
 20
-15528.317793
 30
0.0
 11
22939.48745
 21
-15528.317792
 31
0.0
  0
LINE
  5
30B
330
A
100
AcDbEntity
  8
0
  6
Continuous
 62
     1
100
AcDbLine
 10
23202.535878
 20
-15536.314556
 30
0.0
 11
22939.48745
 21
-15536.314556
 31
0.0
  0
LINE
  5
30C
330
A
100
AcDbEntity
  8
0
  6
Continuous
 62
     1
100
AcDbLine
 10
23208.555738
 20
-15513.21279
 30
0.0
 11
22939.48745
 21
-15513.212792
 31
0.0
  0
LINE
  5
30D
330
A
100
AcDbEntity
  8
0
  6
Continuous
 62
     1
100
AcDbLine
 10
23206.152835
 20
-15521.209557
 30
0.0
 11
22939.48745
 21
-15521.209556
 31
0.0
  0
LINE
  5
30E
330
A
100
AcDbEntity
  8
0
  6
Continuous
 62
     1
100
AcDbLine
 10
23206.152835
 20
-15634.052791
 30
0.0
 11
22939.48745
 21
-15634.052792
 31
0.0
  0
LINE
  5
30F
330
A
100
AcDbEntity
  8
0
  6
Continuous
 62
     1
100
AcDbLine
 10
23208.555738
 20
-15642.049558
 30
0.0
 11
22939.48745
 21
-15642.049556
 31
0.0
  0
LINE
  5
310
330
A
100
AcDbEntity
  8
0
  6
Continuous
 62
     1
100
AcDbLine
 10
23251.856464
 20
-15437.687789
 30
0.0
 11
22939.48745
 21
-15437.687792
 31
0.0
  0
LINE
  5
311
330
A
100
AcDbEntity
  8
0
  6
Continuous
 62
     1
100
AcDbLine
 10
23245.060737
 20
-15445.684553
 30
0.0
 11
22939.48745
 21
-15445.684556
 31
0.0
  0
LINE
  5
312
330
A
100
AcDbEntity
  8
0
  6
Continuous
 62
     1
100
AcDbLine
 10
23952.459426
 20
-15271.532792
 30
0.0
 11
22939.48745
 21
-15271.532792
 31
0.0
  0
ARC
  5
313
330
A
100
AcDbEntity
  8
0
  6
Continuous
 62
     7
100
AcDbCircle
 10
23944.691864
 20
-15275.531185
 30
0.0
 40
8.736242999999999
100
AcDbArc
 50
332.762661
 51
27.237339
  0
LINE
  5
314
330
A
100
AcDbEntity
  8
0
  6
Continuous
 62
     1
100
AcDbLine
 10
23952.459426
 20
-15279.529556
 30
0.0
 11
22939.48745
 21
-15279.529556
 31
0.0
  0
LINE
  5
315
330
A
100
AcDbEntity
  8
0
  6
Continuous
 62
     1
100
AcDbLine
 10
23952.459426
 20
-15256.427792
 30
0.0
 11
22939.48745
 21
-15256.427792
 31
0.0
  0
ARC
  5
316
330
A
100
AcDbEntity
  8
0
  6
Continuous
 62
     7
100
AcDbCircle
 10
23944.691899
 20
-15260.426172
 30
0.0
 40
8.736213000000001
100
AcDbArc
 50
332.762558
 51
27.237442
  0
LINE
  5
317
330
A
100
AcDbEntity
  8
0
  6
Continuous
 62
     1
100
AcDbLine
 10
23952.459426
 20
-15264.424556
 30
0.0
 11
22939.48745
 21
-15264.424556
 31
0.0
  0
LINE
  5
318
330
A
100
AcDbEntity
  8
0
  6
Continuous
 62
     1
100
AcDbLine
 10
23201.236275
 20
-15543.422791
 30
0.0
 11
22939.48745
 21
-15543.422792
 31
0.0
  0
LINE
  5
319
330
A
100
AcDbEntity
  8
0
  6
Continuous
 62
     1
100
AcDbLine
 10
23200.073563
 20
-15551.419556
 30
0.0
 11
22939.48745
 21
-15551.419556
 31
0.0
  0
LINE
  5
31A
330
A
100
AcDbEntity
  8
0
  6
Continuous
 62
     1
100
AcDbLine
 10
23952.459426
 20
-15226.217792
 30
0.0
 11
22939.48745
 21
-15226.217792
 31
0.0
  0
ARC
  5
31B
330
A
100
AcDbEntity
  8
0
  6
Continuous
 62
     7
100
AcDbCircle
 10
23944.691899
 20
-15230.216174
 30
0.0
 40
8.736213000000001
100
AcDbArc
 50
332.762558
 51
27.237442
  0
LINE
  5
31C
330
A
100
AcDbEntity
  8
0
  6
Continuous
 62
     1
100
AcDbLine
 10
23952.459426
 20
-15234.214556
 30
0.0
 11
22939.48745
 21
-15234.214556
 31
0.0
  0
LINE
  5
31D
330
A
100
AcDbEntity
  8
0
  6
Continuous
 62
     1
100
AcDbLine
 10
23210.987882
 20
-15649.157793
 30
0.0
 11
22939.48745
 21
-15649.157792
 31
0.0
  0
LINE
  5
31E
330
A
100
AcDbEntity
  8
0
  6
Continuous
 62
     1
100
AcDbLine
 10
23214.070855
 20
-15657.154557
 30
0.0
 11
22939.48745
 21
-15657.154556
 31
0.0
  0
LINE
  5
31F
330
A
100
AcDbEntity
  8
0
  6
Continuous
 62
     1
100
AcDbLine
 10
23217.133355
 20
-15664.262792
 30
0.0
 11
22939.48745
 21
-15664.262792
 31
0.0
  0
LINE
  5
320
330
A
100
AcDbEntity
  8
0
  6
Continuous
 62
     1
100
AcDbLine
 10
23220.96024
 20
-15672.259555
 30
0.0
 11
22939.48745
 21
-15672.259556
 31
0.0
  0
LINE
  5
321
330
A
100
AcDbEntity
  8
0
  6
Continuous
 62
     1
100
AcDbLine
 10
23239.566719
 20
-15452.792788
 30
0.0
 11
22939.48745
 21
-15452.792792
 31
0.0
  0
LINE
  5
322
330
A
100
AcDbEntity
  8
0
  6
Continuous
 62
     1
100
AcDbLine
 10
23233.937964
 20
-15460.789559
 30
0.0
 11
22939.48745
 21
-15460.789556
 31
0.0
  0
LINE
  5
323
330
A
100
AcDbEntity
  8
0
  6
Continuous
 62
     1
100
AcDbLine
 10
23952.459426
 20
-15180.902792
 30
0.0
 11
22939.48745
 21
-15180.902792
 31
0.0
  0
ARC
  5
324
330
A
100
AcDbEntity
  8
0
  6
Continuous
 62
     7
100
AcDbCircle
 10
23944.691864
 20
-15184.901163
 30
0.0
 40
8.736242999999999
100
AcDbArc
 50
332.762661
 51
27.237339
  0
LINE
  5
325
330
A
100
AcDbEntity
  8
0
  6
Continuous
 62
     1
100
AcDbLine
 10
23952.459426
 20
-15188.899556
 30
0.0
 11
22939.48745
 21
-15188.899556
 31
0.0
  0
LINE
  5
326
330
A
100
AcDbEntity
  8
0
  6
Continuous
 62
     1
100
AcDbLine
 10
23952.459426
 20
-15165.797792
 30
0.0
 11
22939.48745
 21
-15165.797792
 31
0.0
  0
ARC
  5
327
330
A
100
AcDbEntity
  8
0
  6
Continuous
 62
     7
100
AcDbCircle
 10
23944.691899
 20
-15169.796179
 30
0.0
 40
8.736213000000001
100
AcDbArc
 50
332.762558
 51
27.237442
  0
LINE
  5
328
330
A
100
AcDbEntity
  8
0
  6
Continuous
 62
     1
100
AcDbLine
 10
23952.459426
 20
-15173.794556
 30
0.0
 11
22939.48745
 21
-15173.794556
 31
0.0
  0
LINE
  5
329
330
A
100
AcDbEntity
  8
0
  6
Continuous
 62
     1
100
AcDbLine
 10
23952.459426
 20
-15301.742792
 30
0.0
 11
22939.48745
 21
-15301.742792
 31
0.0
  0
ARC
  5
32A
330
A
100
AcDbEntity
  8
0
  6
Continuous
 62
     7
100
AcDbCircle
 10
23944.691864
 20
-15305.741183
 30
0.0
 40
8.736242999999999
100
AcDbArc
 50
332.762661
 51
27.237339
  0
LINE
  5
32B
330
A
100
AcDbEntity
  8
0
  6
Continuous
 62
     1
100
AcDbLine
 10
23952.459426
 20
-15309.739556
 30
0.0
 11
22939.48745
 21
-15309.739556
 31
0.0
  0
LINE
  5
32C
330
A
100
AcDbEntity
  8
0
  6
Continuous
 62
     1
100
AcDbLine
 10
23198.725213
 20
-15588.73779199999
 30
0.0
 11
22939.48745
 21
-15588.73779199999
 31
0.0
  0
LINE
  5
32D
330
A
100
AcDbEntity
  8
0
  6
Continuous
 62
     1
100
AcDbLine
 10
23199.302012
 20
-15596.734556
 30
0.0
 11
22939.48745
 21
-15596.734556
 31
0.0
  0
LINE
  5
32E
330
A
100
AcDbEntity
  8
0
  6
Continuous
 62
     1
100
AcDbLine
 10
23198.469366
 20
-15573.632792
 30
0.0
 11
22939.48745
 21
-15573.632792
 31
0.0
  0
LINE
  5
32F
330
A
100
AcDbEntity
  8
0
  6
Continuous
 62
     1
100
AcDbLine
 10
23198.469366
 20
-15581.629557
 30
0.0
 11
22939.48745
 21
-15581.629556
 31
0.0
  0
LINE
  5
330
330
A
100
AcDbEntity
  8
0
  6
Continuous
 62
     1
100
AcDbLine
 10
23952.459426
 20
-15316.847792
 30
0.0
 11
22939.48745
 21
-15316.847792
 31
0.0
  0
ARC
  5
331
330
A
100
AcDbEntity
  8
0
  6
Continuous
 62
     7
100
AcDbCircle
 10
23944.691864
 20
-15320.846167
 30
0.0
 40
8.736242999999999
100
AcDbArc
 50
332.762661
 51
27.237339
  0
LINE
  5
332
330
A
100
AcDbEntity
  8
0
  6
Continuous
 62
     1
100
AcDbLine
 10
23200.073563
 20
-15603.842792
 30
0.0
 11
22939.48745
 21
-15603.842792
 31
0.0
  0
LINE
  5
333
330
A
100
AcDbEntity
  8
0
  6
Continuous
 62
     1
100
AcDbLine
 10
23201.236275
 20
-15611.839557
 30
0.0
 11
22939.48745
 21
-15611.839556
 31
0.0
  0
LINE
  5
334
330
A
100
AcDbEntity
  8
0
  6
Continuous
 62
     1
100
AcDbLine
 10
23202.535878
 20
-15618.947792
 30
0.0
 11
22939.48745
 21
-15618.947792
 31
0.0
  0
LINE
  5
335
330
A
100
AcDbEntity
  8
0
  6
Continuous
 62
     1
100
AcDbLine
 10
23204.303466
 20
-15626.944556
 30
0.0
 11
22939.48745
 21
-15626.944556
 31
0.0
  0
LINE
  5
336
330
A
100
AcDbEntity
  8
0
  6
Continuous
 62
     1
100
AcDbLine
 10
23295.834637
 20
-15754.892792
 30
0.0
 11
22939.48745
 21
-15754.892792
 31
0.0
  0
LINE
  5
337
330
A
100
AcDbEntity
  8
0
  6
Continuous
 62
     1
100
AcDbLine
 10
23309.542583
 20
-15762.889555
 30
0.0
 11
22939.48745
 21
-15762.889556
 31
0.0
  0
LINE
  5
338
330
A
100
AcDbEntity
  8
0
  6
Continuous
 62
     1
100
AcDbLine
 10
23952.459415
 20
-15815.31278
 30
0.0
 11
22939.48745
 21
-15815.312792
 31
0.0
  0
LINE
  5
339
330
A
100
AcDbEntity
  8
0
  6
Continuous
 62
     1
100
AcDbLine
 10
23214.070855
 20
-15498.107792
 30
0.0
 11
22939.48745
 21
-15498.107792
 31
0.0
  0
LINE
  5
33A
330
A
100
AcDbEntity
  8
0
  6
Continuous
 62
     1
100
AcDbLine
 10
23210.987882
 20
-15506.104555
 30
0.0
 11
22939.48745
 21
-15506.104556
 31
0.0
  0
LINE
  5
33B
330
A
100
AcDbEntity
  8
0
  6
Continuous
 62
     1
100
AcDbLine
 10
23952.459417
 20
-15769.997788
 30
0.0
 11
23492.658054
 21
-15769.99779
 31
0.0
  0
LINE
  5
33C
330
A
100
AcDbEntity
  8
0
  6
Continuous
 62
     1
100
AcDbLine
 10
23952.459421
 20
-15777.994549
 30
0.0
 11
23471.309323
 21
-15777.994552
 31
0.0
  0
LINE
  5
33D
330
A
100
AcDbEntity
  8
0
  6
Continuous
 62
     1
100
AcDbLine
 10
23952.459426
 20
-15120.482792
 30
0.0
 11
22939.48745
 21
-15120.482792
 31
0.0
  0
ARC
  5
33E
330
A
100
AcDbEntity
  8
0
  6
Continuous
 62
     7
100
AcDbCircle
 10
23944.691899
 20
-15124.481169
 30
0.0
 40
8.736213000000001
100
AcDbArc
 50
332.762558
 51
27.237442
  0
LINE
  5
33F
330
A
100
AcDbEntity
  8
0
  6
Continuous
 62
     1
100
AcDbLine
 10
23952.459426
 20
-15128.479556
 30
0.0
 11
22939.48745
 21
-15128.479556
 31
0.0
  0
LINE
  5
340
330
A
100
AcDbEntity
  8
0
  6
Continuous
 62
     1
100
AcDbLine
 10
23952.459426
 20
-15105.377792
 30
0.0
 11
22939.48745
 21
-15105.377792
 31
0.0
  0
ARC
  5
341
330
A
100
AcDbEntity
  8
0
  6
Continuous
 62
     7
100
AcDbCircle
 10
23944.691864
 20
-15109.376185
 30
0.0
 40
8.736242999999999
100
AcDbArc
 50
332.762661
 51
27.237339
  0
LINE
  5
342
330
A
100
AcDbEntity
  8
0
  6
Continuous
 62
     1
100
AcDbLine
 10
23952.459426
 20
-15113.374556
 30
0.0
 11
22939.48745
 21
-15113.374556
 31
0.0
  0
LINE
  5
343
330
A
100
AcDbEntity
  8
0
  6
Continuous
 62
     1
100
AcDbLine
 10
23952.459422
 20
-15808.204543
 30
0.0
 11
22939.48745
 21
-15808.204556
 31
0.0
  0
LINE
  5
344
330
A
100
AcDbEntity
  8
0
  6
Continuous
 62
     1
100
AcDbLine
 10
23220.96024
 20
-15483.002793
 30
0.0
 11
22939.48745
 21
-15483.002792
 31
0.0
  0
LINE
  5
345
330
A
100
AcDbEntity
  8
0
  6
Continuous
 62
     1
100
AcDbLine
 10
23217.133355
 20
-15490.999556
 30
0.0
 11
22939.48745
 21
-15490.999556
 31
0.0
  0
ARC
  5
346
330
A
100
AcDbEntity
  8
0
  6
Continuous
 62
     7
100
AcDbCircle
 10
23944.691864
 20
-15834.416182
 30
0.0
 40
8.736242999999999
100
AcDbArc
 50
332.762661
 51
27.237339
  0
LINE
  5
347
330
A
100
AcDbEntity
  8
0
  6
Continuous
 62
     1
100
AcDbLine
 10
23952.459426
 20
-15838.414556
 30
0.0
 11
22939.48745
 21
-15838.414556
 31
0.0
  0
LINE
  5
348
330
A
100
AcDbEntity
  8
0
  6
Continuous
 62
     1
100
AcDbLine
 10
23266.798743
 20
-15422.582791
 30
0.0
 11
22939.48745
 21
-15422.582792
 31
0.0
  0
LINE
  5
349
330
A
100
AcDbEntity
  8
0
  6
Continuous
 62
     1
100
AcDbLine
 10
23258.512556
 20
-15430.579554
 30
0.0
 11
22939.48745
 21
-15430.579556
 31
0.0
  0
LINE
  5
34A
330
A
100
AcDbEntity
  8
0
  6
Continuous
 62
     1
100
AcDbLine
 10
23952.459426
 20
-15135.587792
 30
0.0
 11
22939.48745
 21
-15135.587792
 31
0.0
  0
ARC
  5
34B
330
A
100
AcDbEntity
  8
0
  6
Continuous
 62
     7
100
AcDbCircle
 10
23944.691864
 20
-15139.586182
 30
0.0
 40
8.736242999999999
100
AcDbArc
 50
332.762661
 51
27.237339
  0
LINE
  5
34C
330
A
100
AcDbEntity
  8
0
  6
Continuous
 62
     1
100
AcDbLine
 10
23952.459426
 20
-15143.584556
 30
0.0
 11
22939.48745
 21
-15143.584556
 31
0.0
  0
LINE
  5
34D
330
A
100
AcDbEntity
  8
0
  6
Continuous
 62
     1
100
AcDbLine
 10
23229.382459
 20
-15467.897794
 30
0.0
 11
22939.48745
 21
-15467.897792
 31
0.0
  0
LINE
  5
34E
330
A
100
AcDbEntity
  8
0
  6
Continuous
 62
     1
100
AcDbLine
 10
23224.720719
 20
-15475.894557
 30
0.0
 11
22939.48745
 21
-15475.894556
 31
0.0
  0
LINE
  5
34F
330
A
100
AcDbEntity
  8
0
  6
Continuous
 62
     1
100
AcDbLine
 10
23952.459416
 20
-15785.102785
 30
0.0
 11
23440.908301
 21
-15785.102788
 31
0.0
  0
LINE
  5
350
330
A
100
AcDbEntity
  8
0
  6
Continuous
 62
     1
100
AcDbLine
 10
23274.99597
 20
-15415.474555
 30
0.0
 11
22939.48745
 21
-15415.474556
 31
0.0
  0
LINE
  5
351
330
A
100
AcDbEntity
  8
0
  6
Continuous
 62
     1
100
AcDbLine
 10
23952.459426
 20
-15747.784556
 30
0.0
 11
23530.472928
 21
-15747.784556
 31
0.0
  0
ARC
  5
352
330
A
100
AcDbEntity
  8
0
  6
Continuous
 62
     7
100
AcDbCircle
 10
23959.364227
 20
-15751.338674
 30
0.0
 40
7.765832
100
AcDbArc
 50
152.763726
 51
207.236274
  0
LINE
  5
353
330
A
100
AcDbEntity
  8
0
  6
Continuous
 62
     1
100
AcDbLine
 10
23952.459426
 20
-15754.892792
 30
0.0
 11
23521.024769
 21
-15754.892792
 31
0.0
  0
ARC
  5
354
330
A
100
AcDbEntity
  8
0
  6
Continuous
 62
     7
100
AcDbCircle
 10
23959.364227
 20
-15781.548671
 30
0.0
 40
7.765832
100
AcDbArc
 50
152.763726
 51
207.236274
  0
ARC
  5
355
330
A
100
AcDbEntity
  8
0
  6
Continuous
 62
     7
100
AcDbCircle
 10
23959.364227
 20
-15373.713677
 30
0.0
 40
7.765832
100
AcDbArc
 50
152.763726
 51
207.236274
  0
LINE
  5
356
330
A
100
AcDbEntity
  8
0
  6
Continuous
 62
     1
100
AcDbLine
 10
23952.459426
 20
-15762.889556
 30
0.0
 11
23507.316823
 21
-15762.889555
 31
0.0
  0
ARC
  5
357
330
A
100
AcDbEntity
  8
0
  6
Continuous
 62
     7
100
AcDbCircle
 10
23959.364227
 20
-15766.443673
 30
0.0
 40
7.765832
100
AcDbArc
 50
152.763726
 51
207.236274
  0
ARC
  5
358
330
A
100
AcDbEntity
  8
0
  6
Continuous
 62
     7
100
AcDbCircle
 10
23959.364227
 20
-15388.818675
 30
0.0
 40
7.765832
100
AcDbArc
 50
152.763726
 51
207.236274
  0
LINE
  5
359
330
A
100
AcDbEntity
  8
0
  6
Continuous
 62
     1
100
AcDbLine
 10
23952.459426
 20
-15392.372792
 30
0.0
 11
23507.316823
 21
-15392.372794
 31
0.0
  0
ARC
  5
35A
330
A
100
AcDbEntity
  8
0
  6
Continuous
 62
     7
100
AcDbCircle
 10
23959.364227
 20
-15343.503679
 30
0.0
 40
7.765832
100
AcDbArc
 50
152.763726
 51
207.236274
  0
ARC
  5
35B
330
A
100
AcDbEntity
  8
0
  6
Continuous
 62
     7
100
AcDbCircle
 10
23959.364227
 20
-15811.758669
 30
0.0
 40
7.765832
100
AcDbArc
 50
152.763726
 51
207.236274
  0
ARC
  5
35C
330
A
100
AcDbEntity
  8
0
  6
Continuous
 62
     7
100
AcDbCircle
 10
23959.36425
 20
-16023.228673
 30
0.0
 40
7.765855999999999
100
AcDbArc
 50
152.763755
 51
207.236245
  0
ARC
  5
35D
330
A
100
AcDbEntity
  8
0
  6
Continuous
 62
     7
100
AcDbCircle
 10
23959.364204
 20
-15977.913677
 30
0.0
 40
7.765807999999999
100
AcDbArc
 50
152.763697
 51
207.236303
  0
ARC
  5
35E
330
A
100
AcDbEntity
  8
0
  6
Continuous
 62
     7
100
AcDbCircle
 10
23959.36425
 20
-15887.28367
 30
0.0
 40
7.765855999999999
100
AcDbArc
 50
152.763755
 51
207.236245
  0
ARC
  5
35F
330
A
100
AcDbEntity
  8
0
  6
Continuous
 62
     7
100
AcDbCircle
 10
23959.36425
 20
-15962.808678
 30
0.0
 40
7.765855999999999
100
AcDbArc
 50
152.763755
 51
207.236245
  0
ARC
  5
360
330
A
100
AcDbEntity
  8
0
  6
Continuous
 62
     7
100
AcDbCircle
 10
23959.36417
 20
-15947.70367899999
 30
0.0
 40
7.765778
100
AcDbArc
 50
152.763581
 51
207.236419
  0
ARC
  5
361
330
A
100
AcDbEntity
  8
0
  6
Continuous
 62
     7
100
AcDbCircle
 10
23959.36417
 20
-15902.388669
 30
0.0
 40
7.765778
100
AcDbArc
 50
152.763581
 51
207.236419
  0
ARC
  5
362
330
A
100
AcDbEntity
  8
0
  6
Continuous
 62
     7
100
AcDbCircle
 10
23959.36425
 20
-15932.598681
 30
0.0
 40
7.765855999999999
100
AcDbArc
 50
152.763755
 51
207.236245
  0
ARC
  5
363
330
A
100
AcDbEntity
  8
0
  6
Continuous
 62
     7
100
AcDbCircle
 10
23959.36425
 20
-15917.493667
 30
0.0
 40
7.765855999999999
100
AcDbArc
 50
152.763755
 51
207.236245
  0
ARC
  5
364
330
A
100
AcDbEntity
  8
0
  6
Continuous
 62
     7
100
AcDbCircle
 10
23959.364204
 20
-16008.123674
 30
0.0
 40
7.765807999999999
100
AcDbArc
 50
152.763697
 51
207.236303
  0
LINE
  5
365
330
A
100
AcDbEntity
  8
0
  6
Continuous
 62
     7
100
AcDbLine
 10
23951.981521
 20
-16055.131171
 30
0.0
 11
22939.009545
 21
-16055.131171
 31
0.0
  0
ARC
  5
366
330
A
100
AcDbEntity
  8
0
  6
Continuous
 62
     7
100
AcDbCircle
 10
23957.799153
 20
-16053.016006
 30
0.0
 40
6.190218999999999
100
AcDbArc
 50
149.610719
 51
199.980185
  0
ARC
  5
367
330
A
100
AcDbEntity
  8
0
  6
Continuous
 62
     7
100
AcDbCircle
 10
23959.36425
 20
-15993.018676
 30
0.0
 40
7.765855999999999
100
AcDbArc
 50
152.763755
 51
207.236245
  0
ARC
  5
368
330
A
100
AcDbEntity
  8
0
  6
Continuous
 62
     7
100
AcDbCircle
 10
23959.364204
 20
-15313.293675
 30
0.0
 40
7.765807999999999
100
AcDbArc
 50
152.763697
 51
207.236303
  0
ARC
  5
369
330
A
100
AcDbEntity
  8
0
  6
Continuous
 62
     7
100
AcDbCircle
 10
23959.364204
 20
-16038.333672
 30
0.0
 40
7.765807999999999
100
AcDbArc
 50
152.763697
 51
207.236303
  0
ARC
  5
36A
330
A
100
AcDbEntity
  8
0
  6
Continuous
 62
     7
100
AcDbCircle
 10
23959.364204
 20
-15283.083677
 30
0.0
 40
7.765807999999999
100
AcDbArc
 50
152.763697
 51
207.236303
  0
ARC
  5
36B
330
A
100
AcDbEntity
  8
0
  6
Continuous
 62
     7
100
AcDbCircle
 10
23959.36425
 20
-15162.243673
 30
0.0
 40
7.765855999999999
100
AcDbArc
 50
152.763755
 51
207.236245
  0
ARC
  5
36C
330
A
100
AcDbEntity
  8
0
  6
Continuous
 62
     7
100
AcDbCircle
 10
23959.36417
 20
-15207.558669
 30
0.0
 40
7.765778
100
AcDbArc
 50
152.763581
 51
207.236419
  0
ARC
  5
36D
330
A
100
AcDbEntity
  8
0
  6
Continuous
 62
     7
100
AcDbCircle
 10
23959.36425
 20
-15132.033675
 30
0.0
 40
7.765855999999999
100
AcDbArc
 50
152.763755
 51
207.236245
  0
ARC
  5
36E
330
A
100
AcDbEntity
  8
0
  6
Continuous
 62
     7
100
AcDbCircle
 10
23959.364204
 20
-15147.138674
 30
0.0
 40
7.765807999999999
100
AcDbArc
 50
152.763697
 51
207.236303
  0
ARC
  5
36F
330
A
100
AcDbEntity
  8
0
  6
Continuous
 62
     7
100
AcDbCircle
 10
23959.36425
 20
-15267.978678
 30
0.0
 40
7.765855999999999
100
AcDbArc
 50
152.763755
 51
207.236245
  0
ARC
  5
370
330
A
100
AcDbEntity
  8
0
  6
Continuous
 62
     7
100
AcDbCircle
 10
23959.364204
 20
-15116.928677
 30
0.0
 40
7.765807999999999
100
AcDbArc
 50
152.763697
 51
207.236303
  0
ARC
  5
371
330
A
100
AcDbEntity
  8
0
  6
Continuous
 62
     7
100
AcDbCircle
 10
23959.364204
 20
-15872.178671
 30
0.0
 40
7.765807999999999
100
AcDbArc
 50
152.763697
 51
207.236303
  0
ARC
  5
372
330
A
100
AcDbEntity
  8
0
  6
Continuous
 62
     7
100
AcDbCircle
 10
23959.364204
 20
-15177.348671
 30
0.0
 40
7.765807999999999
100
AcDbArc
 50
152.763697
 51
207.236303
  0
ARC
  5
373
330
A
100
AcDbEntity
  8
0
  6
Continuous
 62
     7
100
AcDbCircle
 10
23959.364204
 20
-15841.968674
 30
0.0
 40
7.765807999999999
100
AcDbArc
 50
152.763697
 51
207.236303
  0
ARC
  5
374
330
A
100
AcDbEntity
  8
0
  6
Continuous
 62
     7
100
AcDbCircle
 10
23959.36425
 20
-15298.188676
 30
0.0
 40
7.765855999999999
100
AcDbArc
 50
152.763755
 51
207.236245
  0
LINE
  5
375
330
A
100
AcDbEntity
  8
0
  6
Continuous
 62
     1
100
AcDbLine
 10
22939.009545
 20
-15100.131174
 30
0.0
 11
23951.981521
 21
-15100.131174
 31
0.0
  0
ARC
  5
376
330
A
100
AcDbEntity
  8
0
  6
Continuous
 62
     7
100
AcDbCircle
 10
23957.79916
 20
-15102.24634
 30
0.0
 40
6.190226999999999
100
AcDbArc
 50
160.019827
 51
210.389262
  0
ARC
  5
377
330
A
100
AcDbEntity
  8
0
  6
Continuous
 62
     7
100
AcDbCircle
 10
23959.36425
 20
-15857.073672
 30
0.0
 40
7.765855999999999
100
AcDbArc
 50
152.763755
 51
207.236245
  0
ARC
  5
378
330
A
100
AcDbEntity
  8
0
  6
Continuous
 62
     7
100
AcDbCircle
 10
23959.36425
 20
-15192.45367
 30
0.0
 40
7.765855999999999
100
AcDbArc
 50
152.763755
 51
207.236245
  0
ARC
  5
379
330
A
100
AcDbEntity
  8
0
  6
Continuous
 62
     7
100
AcDbCircle
 10
23959.36417
 20
-15252.87368
 30
0.0
 40
7.765778
100
AcDbArc
 50
152.763581
 51
207.236419
  0
ARC
  5
37A
330
A
100
AcDbEntity
  8
0
  6
Continuous
 62
     7
100
AcDbCircle
 10
23959.36425
 20
-15222.663668
 30
0.0
 40
7.765855999999999
100
AcDbArc
 50
152.763755
 51
207.236245
  0
ARC
  5
37B
330
A
100
AcDbEntity
  8
0
  6
Continuous
 62
     7
100
AcDbCircle
 10
23959.36425
 20
-15237.768681
 30
0.0
 40
7.765855999999999
100
AcDbArc
 50
152.763755
 51
207.236245
  0
ARC
  5
37C
330
A
100
AcDbEntity
  8
0
  6
Continuous
 62
     7
100
AcDbCircle
 10
23944.691881
 20
-15819.311168
 30
0.0
 40
8.736228
100
AcDbArc
 50
332.76261
 51
27.23739
  0
ARC
  5
37D
330
A
100
AcDbEntity
  8
0
  6
Continuous
 62
     7
100
AcDbCircle
 10
23944.691881
 20
-15335.95118
 30
0.0
 40
8.736228
100
AcDbArc
 50
332.76261
 51
27.23739
  0
LINE
  5
37E
330
A
100
AcDbEntity
  8
0
  6
Continuous
 62
     1
100
AcDbLine
 10
23952.459426
 20
-15415.474556
 30
0.0
 11
23541.863435
 21
-15415.474555
 31
0.0
  0
ARC
  5
37F
330
A
100
AcDbEntity
  8
0
  6
Continuous
 62
     7
100
AcDbCircle
 10
23959.364227
 20
-15419.028673
 30
0.0
 40
7.765832
100
AcDbArc
 50
152.763726
 51
207.236274
  0
LINE
  5
380
330
A
100
AcDbEntity
  8
0
  6
Continuous
 62
     1
100
AcDbLine
 10
23952.459426
 20
-15422.582792
 30
0.0
 11
23550.060663
 21
-15422.58279
 31
0.0
  0
LINE
  5
381
330
A
100
AcDbEntity
  8
0
  6
Continuous
 62
     1
100
AcDbLine
 10
23952.459426
 20
-15732.679556
 30
0.0
 11
23550.060663
 21
-15732.679558
 31
0.0
  0
ARC
  5
382
330
A
100
AcDbEntity
  8
0
  6
Continuous
 62
     7
100
AcDbCircle
 10
23959.364227
 20
-15736.233675
 30
0.0
 40
7.765832
100
AcDbArc
 50
152.763726
 51
207.236274
  0
LINE
  5
383
330
A
100
AcDbEntity
  8
0
  6
Continuous
 62
     1
100
AcDbLine
 10
23952.459426
 20
-15739.787792
 30
0.0
 11
23544.949473
 21
-15739.787794
 31
0.0
  0
ARC
  5
384
330
A
100
AcDbEntity
  8
0
  6
Continuous
 62
     7
100
AcDbCircle
 10
23944.691881
 20
-15804.20617
 30
0.0
 40
8.736228
100
AcDbArc
 50
332.76261
 51
27.23739
  0
ARC
  5
385
330
A
100
AcDbEntity
  8
0
  6
Continuous
 62
     7
100
AcDbCircle
 10
23944.691881
 20
-15351.056179
 30
0.0
 40
8.736228
100
AcDbArc
 50
332.76261
 51
27.23739
  0
LINE
  5
386
330
A
100
AcDbEntity
  8
0
  6
Continuous
 62
     1
100
AcDbLine
 10
23952.459426
 20
-15430.579556
 30
0.0
 11
23558.346849
 21
-15430.579553
 31
0.0
  0
ARC
  5
387
330
A
100
AcDbEntity
  8
0
  6
Continuous
 62
     7
100
AcDbCircle
 10
23959.364227
 20
-15434.133672
 30
0.0
 40
7.765832
100
AcDbArc
 50
152.763726
 51
207.236274
  0
LINE
  5
388
330
A
100
AcDbEntity
  8
0
  6
Continuous
 62
     1
100
AcDbLine
 10
23952.459426
 20
-15437.687792
 30
0.0
 11
23565.002941
 21
-15437.687789
 31
0.0
  0
LINE
  5
389
330
A
100
AcDbEntity
  8
0
  6
Continuous
 62
     1
100
AcDbLine
 10
23952.459426
 20
-15717.574556
 30
0.0
 11
23565.002941
 21
-15717.57456
 31
0.0
  0
ARC
  5
38A
330
A
100
AcDbEntity
  8
0
  6
Continuous
 62
     7
100
AcDbCircle
 10
23959.364227
 20
-15721.128677
 30
0.0
 40
7.765832
100
AcDbArc
 50
152.763726
 51
207.236274
  0
LINE
  5
38B
330
A
100
AcDbEntity
  8
0
  6
Continuous
 62
     1
100
AcDbLine
 10
23952.459426
 20
-15724.68279199999
 30
0.0
 11
23558.346849
 21
-15724.682795
 31
0.0
  0
LINE
  5
38C
330
A
100
AcDbEntity
  8
0
  6
Continuous
 62
     1
100
AcDbLine
 10
23952.459426
 20
-15445.684556
 30
0.0
 11
23571.798668
 21
-15445.684551
 31
0.0
  0
ARC
  5
38D
330
A
100
AcDbEntity
  8
0
  6
Continuous
 62
     7
100
AcDbCircle
 10
23959.364227
 20
-15449.23867
 30
0.0
 40
7.765832
100
AcDbArc
 50
152.763726
 51
207.236274
  0
LINE
  5
38E
330
A
100
AcDbEntity
  8
0
  6
Continuous
 62
     1
100
AcDbLine
 10
23952.459426
 20
-15452.792792
 30
0.0
 11
23577.292686
 21
-15452.792787
 31
0.0
  0
LINE
  5
38F
330
A
100
AcDbEntity
  8
0
  6
Continuous
 62
     1
100
AcDbLine
 10
23952.459426
 20
-15702.469556
 30
0.0
 11
23577.292686
 21
-15702.469561
 31
0.0
  0
ARC
  5
390
330
A
100
AcDbEntity
  8
0
  6
Continuous
 62
     7
100
AcDbCircle
 10
23959.364227
 20
-15706.023678
 30
0.0
 40
7.765832
100
AcDbArc
 50
152.763726
 51
207.236274
  0
LINE
  5
391
330
A
100
AcDbEntity
  8
0
  6
Continuous
 62
     1
100
AcDbLine
 10
23952.459426
 20
-15709.577792
 30
0.0
 11
23571.798668
 21
-15709.577797
 31
0.0
  0
ARC
  5
392
330
A
100
AcDbEntity
  8
0
  6
Continuous
 62
     7
100
AcDbCircle
 10
23944.691881
 20
-15366.161177
 30
0.0
 40
8.736228
100
AcDbArc
 50
332.76261
 51
27.23739
  0
ARC
  5
393
330
A
100
AcDbEntity
  8
0
  6
Continuous
 62
     7
100
AcDbCircle
 10
23944.691881
 20
-15789.101171
 30
0.0
 40
8.736228
100
AcDbArc
 50
332.76261
 51
27.23739
  0
LINE
  5
394
330
A
100
AcDbEntity
  8
0
  6
Continuous
 62
     1
100
AcDbLine
 10
23952.459426
 20
-15460.789556
 30
0.0
 11
23582.921442
 21
-15460.789559
 31
0.0
  0
ARC
  5
395
330
A
100
AcDbEntity
  8
0
  6
Continuous
 62
     7
100
AcDbCircle
 10
23959.364219
 20
-15464.343676
 30
0.0
 40
7.765824
100
AcDbArc
 50
152.763697
 51
207.236303
  0
LINE
  5
396
330
A
100
AcDbEntity
  8
0
  6
Continuous
 62
     1
100
AcDbLine
 10
23952.459426
 20
-15467.897792
 30
0.0
 11
23587.476947
 21
-15467.897795
 31
0.0
  0
LINE
  5
397
330
A
100
AcDbEntity
  8
0
  6
Continuous
 62
     1
100
AcDbLine
 10
23952.459426
 20
-15687.364556
 30
0.0
 11
23587.476947
 21
-15687.364553
 31
0.0
  0
ARC
  5
398
330
A
100
AcDbEntity
  8
0
  6
Continuous
 62
     7
100
AcDbCircle
 10
23959.364219
 20
-15690.918672
 30
0.0
 40
7.765824
100
AcDbArc
 50
152.763697
 51
207.236303
  0
LINE
  5
399
330
A
100
AcDbEntity
  8
0
  6
Continuous
 62
     1
100
AcDbLine
 10
23952.459426
 20
-15694.472792
 30
0.0
 11
23582.921442
 21
-15694.472789
 31
0.0
  0
ARC
  5
39A
330
A
100
AcDbEntity
  8
0
  6
Continuous
 62
     7
100
AcDbCircle
 10
23944.691881
 20
-15381.266176
 30
0.0
 40
8.736228
100
AcDbArc
 50
332.76261
 51
27.23739
  0
ARC
  5
39B
330
A
100
AcDbEntity
  8
0
  6
Continuous
 62
     7
100
AcDbCircle
 10
23944.691881
 20
-15773.996172
 30
0.0
 40
8.736228
100
AcDbArc
 50
332.76261
 51
27.23739
  0
LINE
  5
39C
330
A
100
AcDbEntity
  8
0
  6
Continuous
 62
     1
100
AcDbLine
 10
23952.459426
 20
-15475.894556
 30
0.0
 11
23592.138687
 21
-15475.894558
 31
0.0
  0
ARC
  5
39D
330
A
100
AcDbEntity
  8
0
  6
Continuous
 62
     7
100
AcDbCircle
 10
23959.364227
 20
-15479.448675
 30
0.0
 40
7.765832
100
AcDbArc
 50
152.763726
 51
207.236274
  0
LINE
  5
39E
330
A
100
AcDbEntity
  8
0
  6
Continuous
 62
     1
100
AcDbLine
 10
23952.459426
 20
-15483.002792
 30
0.0
 11
23595.899166
 21
-15483.002793
 31
0.0
  0
LINE
  5
39F
330
A
100
AcDbEntity
  8
0
  6
Continuous
 62
     1
100
AcDbLine
 10
23952.459426
 20
-15672.259556
 30
0.0
 11
23595.899166
 21
-15672.259555
 31
0.0
  0
ARC
  5
3A0
330
A
100
AcDbEntity
  8
0
  6
Continuous
 62
     7
100
AcDbCircle
 10
23959.364227
 20
-15675.813673
 30
0.0
 40
7.765832
100
AcDbArc
 50
152.763726
 51
207.236274
  0
LINE
  5
3A1
330
A
100
AcDbEntity
  8
0
  6
Continuous
 62
     1
100
AcDbLine
 10
23952.459426
 20
-15679.367792
 30
0.0
 11
23592.138687
 21
-15679.367791
 31
0.0
  0
LINE
  5
3A2
330
A
100
AcDbEntity
  8
0
  6
Continuous
 62
     1
100
AcDbLine
 10
23952.459426
 20
-15490.999556
 30
0.0
 11
23599.726051
 21
-15490.999556
 31
0.0
  0
ARC
  5
3A3
330
A
100
AcDbEntity
  8
0
  6
Continuous
 62
     7
100
AcDbCircle
 10
23959.364227
 20
-15494.553674
 30
0.0
 40
7.765832
100
AcDbArc
 50
152.763726
 51
207.236274
  0
LINE
  5
3A4
330
A
100
AcDbEntity
  8
0
  6
Continuous
 62
     1
100
AcDbLine
 10
23952.459426
 20
-15498.107792
 30
0.0
 11
23602.788551
 21
-15498.107792
 31
0.0
  0
LINE
  5
3A5
330
A
100
AcDbEntity
  8
0
  6
Continuous
 62
     1
100
AcDbLine
 10
23952.459426
 20
-15657.154556
 30
0.0
 11
23602.788551
 21
-15657.154557
 31
0.0
  0
ARC
  5
3A6
330
A
100
AcDbEntity
  8
0
  6
Continuous
 62
     7
100
AcDbCircle
 10
23959.364227
 20
-15660.708674
 30
0.0
 40
7.765832
100
AcDbArc
 50
152.763726
 51
207.236274
  0
LINE
  5
3A7
330
A
100
AcDbEntity
  8
0
  6
Continuous
 62
     1
100
AcDbLine
 10
23952.459426
 20
-15664.262792
 30
0.0
 11
23599.726051
 21
-15664.262792
 31
0.0
  0
ARC
  5
3A8
330
A
100
AcDbEntity
  8
0
  6
Continuous
 62
     7
100
AcDbCircle
 10
23944.691881
 20
-15396.371175
 30
0.0
 40
8.736228
100
AcDbArc
 50
332.76261
 51
27.23739
  0
ARC
  5
3A9
330
A
100
AcDbEntity
  8
0
  6
Continuous
 62
     7
100
AcDbCircle
 10
23944.691881
 20
-15758.891173
 30
0.0
 40
8.736228
100
AcDbArc
 50
332.76261
 51
27.23739
  0
LINE
  5
3AA
330
A
100
AcDbEntity
  8
0
  6
Continuous
 62
     1
100
AcDbLine
 10
23952.459426
 20
-15506.104556
 30
0.0
 11
23605.871524
 21
-15506.104554
 31
0.0
  0
ARC
  5
3AB
330
A
100
AcDbEntity
  8
0
  6
Continuous
 62
     7
100
AcDbCircle
 10
23959.364219
 20
-15509.658673
 30
0.0
 40
7.765824
100
AcDbArc
 50
152.763697
 51
207.236303
  0
LINE
  5
3AC
330
A
100
AcDbEntity
  8
0
  6
Continuous
 62
     1
100
AcDbLine
 10
23952.459426
 20
-15513.212792
 30
0.0
 11
23608.303668
 21
-15513.21279
 31
0.0
  0
LINE
  5
3AD
330
A
100
AcDbEntity
  8
0
  6
Continuous
 62
     1
100
AcDbLine
 10
23952.459426
 20
-15642.049556
 30
0.0
 11
23608.303668
 21
-15642.049558
 31
0.0
  0
ARC
  5
3AE
330
A
100
AcDbEntity
  8
0
  6
Continuous
 62
     7
100
AcDbCircle
 10
23959.364219
 20
-15645.603676
 30
0.0
 40
7.765824
100
AcDbArc
 50
152.763697
 51
207.236303
  0
LINE
  5
3AF
330
A
100
AcDbEntity
  8
0
  6
Continuous
 62
     1
100
AcDbLine
 10
23952.459426
 20
-15649.157792
 30
0.0
 11
23605.871524
 21
-15649.157794
 31
0.0
  0
LINE
  5
3B0
330
A
100
AcDbEntity
  8
0
  6
Continuous
 62
     1
100
AcDbLine
 10
23952.459426
 20
-15521.209556
 30
0.0
 11
23610.706571
 21
-15521.209557
 31
0.0
  0
ARC
  5
3B1
330
A
100
AcDbEntity
  8
0
  6
Continuous
 62
     7
100
AcDbCircle
 10
23959.364223
 20
-15524.763675
 30
0.0
 40
7.765827999999999
100
AcDbArc
 50
152.763711
 51
207.236289
  0
LINE
  5
3B2
330
A
100
AcDbEntity
  8
0
  6
Continuous
 62
     1
100
AcDbLine
 10
23952.459426
 20
-15528.317792
 30
0.0
 11
23612.555939
 21
-15528.317793
 31
0.0
  0
LINE
  5
3B3
330
A
100
AcDbEntity
  8
0
  6
Continuous
 62
     1
100
AcDbLine
 10
23952.459426
 20
-15626.944556
 30
0.0
 11
23612.555939
 21
-15626.944555
 31
0.0
  0
ARC
  5
3B4
330
A
100
AcDbEntity
  8
0
  6
Continuous
 62
     7
100
AcDbCircle
 10
23959.364223
 20
-15630.498673
 30
0.0
 40
7.765827999999999
100
AcDbArc
 50
152.763711
 51
207.236289
  0
LINE
  5
3B5
330
A
100
AcDbEntity
  8
0
  6
Continuous
 62
     1
100
AcDbLine
 10
23952.459426
 20
-15634.052792
 30
0.0
 11
23610.706571
 21
-15634.052791
 31
0.0
  0
ARC
  5
3B6
330
A
100
AcDbEntity
  8
0
  6
Continuous
 62
     7
100
AcDbCircle
 10
23944.691881
 20
-15411.476174
 30
0.0
 40
8.736228
100
AcDbArc
 50
332.76261
 51
27.23739
  0
ARC
  5
3B7
330
A
100
AcDbEntity
  8
0
  6
Continuous
 62
     7
100
AcDbCircle
 10
23944.691881
 20
-15743.786175
 30
0.0
 40
8.736228
100
AcDbArc
 50
332.76261
 51
27.23739
  0
LINE
  5
3B8
330
A
100
AcDbEntity
  8
0
  6
Continuous
 62
     1
100
AcDbLine
 10
23952.459426
 20
-15536.314556
 30
0.0
 11
23614.323528
 21
-15536.314556
 31
0.0
  0
ARC
  5
3B9
330
A
100
AcDbEntity
  8
0
  6
Continuous
 62
     7
100
AcDbCircle
 10
23959.364223
 20
-15539.868674
 30
0.0
 40
7.765827999999999
100
AcDbArc
 50
152.763711
 51
207.236289
  0
LINE
  5
3BA
330
A
100
AcDbEntity
  8
0
  6
Continuous
 62
     1
100
AcDbLine
 10
23952.459426
 20
-15543.422792
 30
0.0
 11
23615.623131
 21
-15543.422791
 31
0.0
  0
LINE
  5
3BB
330
A
100
AcDbEntity
  8
0
  6
Continuous
 62
     1
100
AcDbLine
 10
23952.459426
 20
-15611.839556
 30
0.0
 11
23615.623131
 21
-15611.839557
 31
0.0
  0
ARC
  5
3BC
330
A
100
AcDbEntity
  8
0
  6
Continuous
 62
     7
100
AcDbCircle
 10
23959.364223
 20
-15615.393675
 30
0.0
 40
7.765827999999999
100
AcDbArc
 50
152.763711
 51
207.236289
  0
LINE
  5
3BD
330
A
100
AcDbEntity
  8
0
  6
Continuous
 62
     1
100
AcDbLine
 10
23952.459426
 20
-15618.947792
 30
0.0
 11
23614.323528
 21
-15618.947793
 31
0.0
  0
LINE
  5
3BE
330
A
100
AcDbEntity
  8
0
  6
Continuous
 62
     1
100
AcDbLine
 10
23952.459426
 20
-15551.419556
 30
0.0
 11
23616.785843
 21
-15551.419556
 31
0.0
  0
ARC
  5
3BF
330
A
100
AcDbEntity
  8
0
  6
Continuous
 62
     7
100
AcDbCircle
 10
23959.364223
 20
-15554.973674
 30
0.0
 40
7.765827999999999
100
AcDbArc
 50
152.763711
 51
207.236289
  0
LINE
  5
3C0
330
A
100
AcDbEntity
  8
0
  6
Continuous
 62
     1
100
AcDbLine
 10
23952.459426
 20
-15558.527792
 30
0.0
 11
23617.557393
 21
-15558.527792
 31
0.0
  0
LINE
  5
3C1
330
A
100
AcDbEntity
  8
0
  6
Continuous
 62
     1
100
AcDbLine
 10
23952.459426
 20
-15596.734556
 30
0.0
 11
23617.557393
 21
-15596.734556
 31
0.0
  0
ARC
  5
3C2
330
A
100
AcDbEntity
  8
0
  6
Continuous
 62
     7
100
AcDbCircle
 10
23959.364223
 20
-15600.288674
 30
0.0
 40
7.765827999999999
100
AcDbArc
 50
152.763711
 51
207.236289
  0
LINE
  5
3C3
330
A
100
AcDbEntity
  8
0
  6
Continuous
 62
     1
100
AcDbLine
 10
23952.459426
 20
-15603.842792
 30
0.0
 11
23616.785843
 21
-15603.842792
 31
0.0
  0
LINE
  5
3C4
330
A
100
AcDbEntity
  8
0
  6
Continuous
 62
     1
100
AcDbLine
 10
23952.459426
 20
-15566.524556
 30
0.0
 11
23618.428108
 21
-15566.524556
 31
0.0
  0
ARC
  5
3C5
330
A
100
AcDbEntity
  8
0
  6
Continuous
 62
     7
100
AcDbCircle
 10
23959.364223
 20
-15570.078674
 30
0.0
 40
7.765827999999999
100
AcDbArc
 50
152.76371
 51
207.23629
  0
LINE
  5
3C6
330
A
100
AcDbEntity
  8
0
  6
Continuous
 62
     1
100
AcDbLine
 10
23952.459426
 20
-15573.632792
 30
0.0
 11
23618.428108
 21
-15573.632792
 31
0.0
  0
LINE
  5
3C7
330
A
100
AcDbEntity
  8
0
  6
Continuous
 62
     1
100
AcDbLine
 10
23952.459426
 20
-15581.629556
 30
0.0
 11
23618.428108
 21
-15581.629557
 31
0.0
  0
ARC
  5
3C8
330
A
100
AcDbEntity
  8
0
  6
Continuous
 62
     7
100
AcDbCircle
 10
23959.364223
 20
-15585.183674
 30
0.0
 40
7.765827999999999
100
AcDbArc
 50
152.76371
 51
207.23629
  0
LINE
  5
3C9
330
A
100
AcDbEntity
  8
0
  6
Continuous
 62
     1
100
AcDbLine
 10
23952.459426
 20
-15588.73779199999
 30
0.0
 11
23618.428108
 21
-15588.73779199999
 31
0.0
  0
ARC
  5
3CA
330
A
100
AcDbEntity
  8
0
  6
Continuous
 62
     7
100
AcDbCircle
 10
23944.691881
 20
-15426.581172
 30
0.0
 40
8.736228
100
AcDbArc
 50
332.76261
 51
27.23739
  0
ARC
  5
3CB
330
A
100
AcDbEntity
  8
0
  6
Continuous
 62
     7
100
AcDbCircle
 10
23944.691881
 20
-15728.681176
 30
0.0
 40
8.736228
100
AcDbArc
 50
332.76261
 51
27.23739
  0
ARC
  5
3CC
330
A
100
AcDbEntity
  8
0
  6
Continuous
 62
     7
100
AcDbCircle
 10
23944.691881
 20
-15441.686171
 30
0.0
 40
8.736228
100
AcDbArc
 50
332.76261
 51
27.23739
  0
ARC
  5
3CD
330
A
100
AcDbEntity
  8
0
  6
Continuous
 62
     7
100
AcDbCircle
 10
23944.691881
 20
-15713.576177
 30
0.0
 40
8.736228
100
AcDbArc
 50
332.76261
 51
27.23739
  0
ARC
  5
3CE
330
A
100
AcDbEntity
  8
0
  6
Continuous
 62
     7
100
AcDbCircle
 10
23944.691861
 20
-15456.791173
 30
0.0
 40
8.736247999999999
100
AcDbArc
 50
332.762648
 51
27.237352
  0
ARC
  5
3CF
330
A
100
AcDbEntity
  8
0
  6
Continuous
 62
     7
100
AcDbCircle
 10
23944.691861
 20
-15698.471175
 30
0.0
 40
8.736247999999999
100
AcDbArc
 50
332.762648
 51
27.237352
  0
ARC
  5
3D0
330
A
100
AcDbEntity
  8
0
  6
Continuous
 62
     7
100
AcDbCircle
 10
23944.691881
 20
-15471.896176
 30
0.0
 40
8.736228
100
AcDbArc
 50
332.76261
 51
27.23739
  0
ARC
  5
3D1
330
A
100
AcDbEntity
  8
0
  6
Continuous
 62
     7
100
AcDbCircle
 10
23944.691881
 20
-15683.366172
 30
0.0
 40
8.736228
100
AcDbArc
 50
332.76261
 51
27.23739
  0
ARC
  5
3D2
330
A
100
AcDbEntity
  8
0
  6
Continuous
 62
     7
100
AcDbCircle
 10
23944.691881
 20
-15487.001174
 30
0.0
 40
8.736228
100
AcDbArc
 50
332.76261
 51
27.23739
  0
ARC
  5
3D3
330
A
100
AcDbEntity
  8
0
  6
Continuous
 62
     7
100
AcDbCircle
 10
23944.691881
 20
-15668.261174
 30
0.0
 40
8.736228
100
AcDbArc
 50
332.76261
 51
27.23739
  0
ARC
  5
3D4
330
A
100
AcDbEntity
  8
0
  6
Continuous
 62
     7
100
AcDbCircle
 10
23944.691881
 20
-15502.106173
 30
0.0
 40
8.736228
100
AcDbArc
 50
332.76261
 51
27.23739
  0
ARC
  5
3D5
330
A
100
AcDbEntity
  8
0
  6
Continuous
 62
     7
100
AcDbCircle
 10
23944.691881
 20
-15653.156175
 30
0.0
 40
8.736228
100
AcDbArc
 50
332.76261
 51
27.23739
  0
ARC
  5
3D6
330
A
100
AcDbEntity
  8
0
  6
Continuous
 62
     7
100
AcDbCircle
 10
23944.691876
 20
-15517.211174
 30
0.0
 40
8.736233999999999
100
AcDbArc
 50
332.762616
 51
27.237384
  0
ARC
  5
3D7
330
A
100
AcDbEntity
  8
0
  6
Continuous
 62
     7
100
AcDbCircle
 10
23944.691876
 20
-15638.051175
 30
0.0
 40
8.736233999999999
100
AcDbArc
 50
332.762616
 51
27.237384
  0
ARC
  5
3D8
330
A
100
AcDbEntity
  8
0
  6
Continuous
 62
     7
100
AcDbCircle
 10
23944.691881
 20
-15532.316174
 30
0.0
 40
8.736228
100
AcDbArc
 50
332.76261
 51
27.23739
  0
ARC
  5
3D9
330
A
100
AcDbEntity
  8
0
  6
Continuous
 62
     7
100
AcDbCircle
 10
23944.691881
 20
-15622.946174
 30
0.0
 40
8.736228
100
AcDbArc
 50
332.76261
 51
27.23739
  0
ARC
  5
3DA
330
A
100
AcDbEntity
  8
0
  6
Continuous
 62
     7
100
AcDbCircle
 10
23944.691876
 20
-15547.421174
 30
0.0
 40
8.736233
100
AcDbArc
 50
332.762619
 51
27.237381
  0
ARC
  5
3DB
330
A
100
AcDbEntity
  8
0
  6
Continuous
 62
     7
100
AcDbCircle
 10
23944.691876
 20
-15607.841174
 30
0.0
 40
8.736233
100
AcDbArc
 50
332.762619
 51
27.237381
  0
ARC
  5
3DC
330
A
100
AcDbEntity
  8
0
  6
Continuous
 62
     7
100
AcDbCircle
 10
23944.691879
 20
-15562.526174
 30
0.0
 40
8.736231
100
AcDbArc
 50
332.762615
 51
27.237385
  0
ARC
  5
3DD
330
A
100
AcDbEntity
  8
0
  6
Continuous
 62
     7
100
AcDbCircle
 10
23944.691879
 20
-15592.736174
 30
0.0
 40
8.736231
100
AcDbArc
 50
332.762615
 51
27.237385
  0
ARC
  5
3DE
330
A
100
AcDbEntity
  8
0
  6
Continuous
 62
     7
100
AcDbCircle
 10
23944.691875
 20
-15577.631174
 30
0.0
 40
8.736233999999999
100
AcDbArc
 50
332.762623
 51
27.237377
  0
DIMENSION
  5
3E8
330
A
100
AcDbEntity
  8
0
  6
Continuous
 62
     5
100
AcDbDimension
  2
*D4
 10
22821.331691
 20
-15100.131174
 30
0.0
 11
22808.831691
 21
-15577.631174
 31
0.0
 70
    32
 71
     5
 42
-1.0
  3
DIMSTYLE001
100
AcDbAlignedDimension
 13
22892.737499
 23
-16055.131174
 33
0.0
 14
22892.862499
 24
-15100.131174
 34
0.0
 50
90.0
100
AcDbRotatedDimension
1001
ACAD
1000
DSTYLE
1002
{
1070
    43
1040
1000.0
1070
    73
1070
     0
1070
    74
1070
     0
1070
    77
1070
     1
1070
   277
1070
     2
1070
   172
1070
     1
1070
   174
1070
     1
1070
   179
1070
     0
1070
   287
1070
     3
1070
   289
1070
     3
1070
     5
1000
_ORIGIN
1002
}
  0
DIMENSION
  5
3F2
330
A
100
AcDbEntity
  8
0
  6
Continuous
 62
     5
100
AcDbDimension
  2
*D5
 10
22938.428108
 20
-14995.495744
 30
0.0
 11
23445.928108
 21
-14982.995744
 31
0.0
 70
   160
 71
     5
 42
1015.0
  3
DIMSTYLE001
100
AcDbAlignedDimension
 13
23953.428108
 23
-15053.397729
 33
0.0
 14
22938.428108
 24
-15053.397729
 34
0.0
100
AcDbRotatedDimension
1001
ACAD
1000
DSTYLE
1002
{
1070
    43
1040
1000.0
1070
    73
1070
     0
1070
    74
1070
     0
1070
    77
1070
     1
1070
   277
1070
     2
1070
   172
1070
     1
1070
   174
1070
     1
1070
   179
1070
     0
1070
   279
1070
     2
1070
   287
1070
     5
1070
   289
1070
     3
1070
     5
1000
_ORIGIN
1002
}
  0
DIMENSION
  5
3FC
330
A
100
AcDbEntity
  8
0
  6
Continuous
 62
     5
100
AcDbDimension
  2
*D6
 10
23953.428108
 20
-16215.922193
 30
0.0
 11
23680.928108
 21
-16203.422193
 31
0.0
 70
    32
 71
     5
 42
-1.0
  3
DIMSTYLE001
100
AcDbAlignedDimension
 13
23408.428108
 23
-16111.875389
 33
0.0
 14
23953.428108
 24
-16111.875389
 34
0.0
100
AcDbRotatedDimension
1001
ACAD
1000
DSTYLE
1002
{
1070
    43
1040
1000.0
1070
    73
1070
     0
1070
    74
1070
     0
1070
    77
1070
     1
1070
   277
1070
     2
1070
   172
1070
     1
1070
   174
1070
     1
1070
   179
1070
     0
1070
   287
1070
     3
1070
   289
1070
     3
1070
     5
1000
_ORIGIN
1002
}
  0
DIMENSION
  5
406
330
A
100
AcDbEntity
  8
0
  6
Continuous
 62
     5
100
AcDbDimension
  2
*D7
 10
23408.428108
 20
-16215.922193
 30
0.0
 11
23173.428108
 21
-16203.422193
 31
0.0
 70
    32
 71
     5
 42
-1.0
  3
DIMSTYLE001
100
AcDbAlignedDimension
 13
22938.428108
 23
-16111.875389
 33
0.0
 14
23408.428108
 24
-16111.875389
 34
0.0
100
AcDbRotatedDimension
1001
ACAD
1000
DSTYLE
1002
{
1070
    43
1040
1000.0
1070
    73
1070
     0
1070
    74
1070
     0
1070
    77
1070
     1
1070
   277
1070
     2
1070
   172
1070
     1
1070
   174
1070
     1
1070
   179
1070
     0
1070
   287
1070
     3
1070
   289
1070
     3
1070
     5
1000
_ORIGIN
1002
}
  0
DIMENSION
  5
410
330
A
100
AcDbEntity
  8
0
  6
Continuous
 62
     5
100
AcDbDimension
  2
*D8
 10
23618.428108
 20
-16737.431078
 30
0.0
 11
23408.428108
 21
-16724.931078
 31
0.0
 70
    32
 71
     5
 42
-1.0
  3
DIMSTYLE001
100
AcDbAlignedDimension
 13
23198.428108
 23
-16655.361038
 33
0.0
 14
23618.428108
 24
-16655.361038
 34
0.0
100
AcDbRotatedDimension
1001
ACAD
1000
DSTYLE
1002
{
1070
    43
1040
1000.0
1070
    73
1070
     0
1070
    74
1070
     0
1070
    77
1070
     1
1070
   277
1070
     2
1070
   172
1070
     1
1070
   174
1070
     1
1070
   179
1070
     0
1070
   287
1070
     3
1070
   289
1070
     3
1070
     5
1000
_ORIGIN
1002
}
  0
LINE
  5
411
330
A
100
AcDbEntity
  8
0
  6
Continuous
 62
     1
100
AcDbLine
 10
23952.459426
 20
-15323.956027
 30
0.0
 11
22939.48745
 21
-15323.956027
 31
0.0
  0
LINE
  5
412
330
A
100
AcDbEntity
  8
0
  6
Continuous
 62
     1
100
AcDbLine
 10
23952.459426
 20
-15331.952792
 30
0.0
 11
22939.48745
 21
-15331.952792
 31
0.0
  0
LINE
  5
413
330
A
100
AcDbEntity
  8
0
  6
Continuous
 62
     1
100
AcDbLine
 10
23952.459426
 20
-15339.061027
 30
0.0
 11
22939.48745
 21
-15339.061027
 31
0.0
  0
LINE
  5
414
330
A
100
AcDbEntity
  8
0
  6
Continuous
 62
     1
100
AcDbLine
 10
23952.459426
 20
-15347.057792
 30
0.0
 11
22939.48745
 21
-15347.057792
 31
0.0
  0
LINE
  5
415
330
A
100
AcDbEntity
  8
0
  6
Continuous
 62
     1
100
AcDbLine
 10
23952.459426
 20
-15354.166027
 30
0.0
 11
22939.48745
 21
-15354.166027
 31
0.0
  0
LINE
  5
416
330
A
100
AcDbEntity
  8
0
  6
Continuous
 62
     1
100
AcDbLine
 10
23952.504757
 20
-15361.274262
 30
0.0
 11
22939.532781
 21
-15361.274262
 31
0.0
  0
LINE
  5
417
330
A
100
AcDbEntity
  8
0
  6
Continuous
 62
     1
100
AcDbLine
 10
23952.504757
 20
-15369.271027
 30
0.0
 11
23434.60945
 21
-15369.271027
 31
0.0
  0
LINE
  5
418
330
A
100
AcDbEntity
  8
0
  6
Continuous
 62
     1
100
AcDbLine
 10
23952.504757
 20
-15376.379262
 30
0.0
 11
23468.404681
 21
-15376.379262
 31
0.0
  0
LINE
  5
419
330
A
100
AcDbEntity
  8
0
  6
Continuous
 62
     1
100
AcDbLine
 10
23952.504757
 20
-15384.376027
 30
0.0
 11
23490.598907
 21
-15384.376027
 31
0.0
  0
DIMENSION
  5
423
330
A
100
AcDbEntity
  8
0
  6
Continuous
 62
     5
100
AcDbDimension
  2
*D9
 10
24090.196718
 20
-15577.631174
 30
0.0
 11
24077.696718
 21
-15816.381174
 31
0.0
 70
    32
 71
     5
 42
-1.0
  3
DIMSTYLE002
100
AcDbAlignedDimension
 13
24028.047932
 23
-16055.131174
 33
0.0
 14
24028.047932
 24
-15577.631174
 34
0.0
 50
90.0
100
AcDbRotatedDimension
1001
ACAD
1000
DSTYLE
1002
{
1070
    43
1040
1000.0
1070
    73
1070
     0
1070
    74
1070
     0
1070
    77
1070
     1
1070
   277
1070
     2
1070
   172
1070
     1
1070
   174
1070
     1
1070
   179
1070
     1
1070
   287
1070
     3
1070
   289
1070
     3
1070
     5
1000
_ORIGIN
1002
}
  0
DIMENSION
  5
42D
330
A
100
AcDbEntity
  8
0
  6
Continuous
 62
     5
100
AcDbDimension
  2
*D10
 10
24090.196718
 20
-15100.131174
 30
0.0
 11
24077.696718
 21
-15338.881174
 31
0.0
 70
    32
 71
     5
 42
-1.0
  3
DIMSTYLE002
100
AcDbAlignedDimension
 13
24028.047932
 23
-15577.631174
 33
0.0
 14
24028.047932
 24
-15100.131174
 34
0.0
 50
90.0
100
AcDbRotatedDimension
1001
ACAD
1000
DSTYLE
1002
{
1070
    43
1040
1000.0
1070
    73
1070
     0
1070
    74
1070
     0
1070
    77
1070
     1
1070
   277
1070
     2
1070
   172
1070
     1
1070
   174
1070
     1
1070
   179
1070
     1
1070
   287
1070
     3
1070
   289
1070
     3
1070
     5
1000
_ORIGIN
1002
}
  0
TEXT
  5
42E
330
A
100
AcDbEntity
  8
002
  6
Continuous
 62
     7
100
AcDbText
 10
24256.696013
 20
-16827.380264
 30
0.0
 40
15.0
  1
ＲＢ-290-ＵＰ
 41
1.146740281588429
  7
DRACAD
 72
     5
 11
24415.519542
 21
-16827.380264
 31
0.0
100
AcDbText
  0
LINE
  5
42F
330
A
100
AcDbEntity
  8
0
  6
Continuous
 62
     7
100
AcDbLine
 10
23208.287716
 20
-16542.32258
 30
0.0
 11
23197.710767
 21
-16574.021668
 31
0.0
  0
LINE
  5
430
330
A
100
AcDbEntity
  8
0
  6
Continuous
 62
     7
100
AcDbLine
 10
23543.995922
 20
-16412.32258
 30
0.0
 11
23618.428108
 21
-16574.021668
 31
0.0
  0
DIMENSION
  5
43A
330
A
100
AcDbEntity
  8
0
  6
Continuous
 62
     5
100
AcDbDimension
  2
*D11
 10
22885.137088
 20
-16505.021668
 30
0.0
 11
22872.637088
 21
-16540.021668
 31
0.0
 70
    32
 71
     5
 42
-1.0
  3
DIMSTYLE001
100
AcDbAlignedDimension
 13
22989.183893
 23
-16575.021668
 33
0.0
 14
22989.183893
 24
-16505.021668
 34
0.0
 50
90.0
100
AcDbRotatedDimension
1001
ACAD
1000
DSTYLE
1002
{
1070
    43
1040
1000.0
1070
    73
1070
     0
1070
    74
1070
     0
1070
    77
1070
     1
1070
   277
1070
     2
1070
   172
1070
     1
1070
   174
1070
     1
1070
   179
1070
     0
1070
   287
1070
     3
1070
   289
1070
     3
1070
     5
1000
_ORIGIN
1002
}
  0
DIMENSION
  5
444
330
A
100
AcDbEntity
  8
0
  6
Continuous
 62
     5
100
AcDbDimension
  2
*D12
 10
23745.468034
 20
-16575.021668
 30
0.0
 11
23732.968034
 21
-16475.021668
 31
0.0
 70
    32
 71
     5
 42
-1.0
  3
DIMSTYLE001
100
AcDbAlignedDimension
 13
23699.563016
 23
-16375.021668
 33
0.0
 14
23699.563016
 24
-16575.021668
 34
0.0
 50
270.0
100
AcDbRotatedDimension
1001
ACAD
1000
DSTYLE
1002
{
1070
    43
1040
1000.0
1070
    73
1070
     0
1070
    74
1070
     0
1070
    77
1070
     1
1070
   277
1070
     2
1070
   172
1070
     1
1070
   174
1070
     1
1070
   179
1070
     0
1070
   287
1070
     3
1070
   289
1070
     3
1070
     5
1000
_ORIGIN
1002
}
  0
LINE
  5
445
330
A
100
AcDbEntity
  8
0
  6
Continuous
 62
     7
100
AcDbLine
 10
23198.431298
 20
-16575.021668
 30
0.0
 11
22938.428108
 21
-16575.021668
 31
0.0
  0
LINE
  5
446
330
A
100
AcDbEntity
  8
0
  6
Continuous
 62
     7
100
AcDbLine
 10
23197.710767
 20
-16574.021668
 30
0.0
 11
22938.428108
 21
-16574.021668
 31
0.0
  0
LINE
  5
447
330
A
100
AcDbEntity
  8
0
  6
Continuous
 62
     7
100
AcDbLine
 10
23953.428108
 20
-16575.021668
 30
0.0
 11
23617.787563
 21
-16575.021668
 31
0.0
  0
LINE
  5
448
330
A
100
AcDbEntity
  8
0
  6
Continuous
 62
     7
100
AcDbLine
 10
23953.428108
 20
-16574.021668
 30
0.0
 11
23618.428108
 21
-16574.021668
 31
0.0
  0
LINE
  5
449
330
A
100
AcDbEntity
  8
0
  6
Continuous
 62
     7
100
AcDbLine
 10
23529.551478
 20
-16375.021668
 30
0.0
 11
23193.843271
 21
-16505.021668
 31
0.0
  0
LINE
  5
44A
330
A
100
AcDbEntity
  8
0
  6
Continuous
 62
     7
100
AcDbLine
 10
23193.843271
 20
-16505.021668
 30
0.0
 11
23208.287716
 21
-16542.32258
 31
0.0
  0
LINE
  5
44B
330
A
100
AcDbEntity
  8
0
  6
Continuous
 62
     7
100
AcDbLine
 10
23543.995922
 20
-16412.32258
 30
0.0
 11
23208.287716
 21
-16542.32258
 31
0.0
  0
LINE
  5
44C
330
A
100
AcDbEntity
  8
0
  6
Continuous
 62
     7
100
AcDbLine
 10
23194.775794
 20
-16504.660557
 30
0.0
 11
23209.35032
 21
-16542.297387
 31
0.0
  0
LINE
  5
44D
330
A
100
AcDbEntity
  8
0
  6
Continuous
 62
     7
100
AcDbLine
 10
23209.35032
 20
-16542.297387
 30
0.0
 11
23198.431298
 21
-16575.021668
 31
0.0
  0
LINE
  5
44E
330
A
100
AcDbEntity
  8
0
  6
Continuous
 62
     7
100
AcDbLine
 10
23529.551478
 20
-16375.021668
 30
0.0
 11
23543.995922
 21
-16412.32258
 31
0.0
  0
LINE
  5
44F
330
A
100
AcDbEntity
  8
0
  6
Continuous
 62
     7
100
AcDbLine
 10
23528.618955
 20
-16375.382779
 30
0.0
 11
23543.063399
 21
-16412.683691
 31
0.0
  0
LINE
  5
450
330
A
100
AcDbEntity
  8
0
  6
Continuous
 62
     7
100
AcDbLine
 10
23543.08754
 20
-16412.74072
 30
0.0
 11
23617.787563
 21
-16575.021668
 31
0.0
  0
DIMENSION
  5
45A
330
A
100
AcDbEntity
  8
0
  6
Continuous
 62
     5
100
AcDbDimension
  2
*D13
 10
23496.972984
 20
-16290.891917
 30
0.0
 11
23324.604992
 21
-16344.235382
 31
0.0
 70
    33
 71
     5
 42
-1.0
  3
DIMSTYLE001
100
AcDbAlignedDimension
 13
23182.983773
 23
-16476.978418
 33
0.0
 14
23518.69198
 24
-16346.978418
 34
0.0
1001
ACAD
1000
DSTYLE
1002
{
1070
    43
1040
1000.0
1070
    73
1070
     0
1070
    74
1070
     0
1070
    77
1070
     1
1070
   277
1070
     2
1070
   172
1070
     1
1070
   174
1070
     1
1070
   179
1070
     0
1070
   287
1070
     3
1070
   289
1070
     3
1070
     5
1000
_ORIGIN
1002
}
  0
CIRCLE
  5
45B
330
A
100
AcDbEntity
  8
0
  6
Continuous
 62
     7
100
AcDbCircle
 10
23408.429703
 20
-15577.631174
 30
0.0
 40
209.998405
  0
LINE
  5
45C
330
A
100
AcDbEntity
  8
0
  6
Continuous
 62
     1
100
AcDbLine
 10
23326.260498
 20
-15384.376027
 30
0.0
 11
22939.532781
 21
-15384.376027
 31
0.0
  0
LINE
  5
45D
330
A
100
AcDbEntity
  8
0
  6
Continuous
 62
     1
100
AcDbLine
 10
23348.454724
 20
-15376.379262
 30
0.0
 11
22939.532781
 21
-15376.379262
 31
0.0
  0
LINE
  5
45E
330
A
100
AcDbEntity
  8
0
  6
Continuous
 62
     1
100
AcDbLine
 10
23382.249955
 20
-15369.271027
 30
0.0
 11
22939.532781
 21
-15369.271027
 31
0.0
  0
LINE
  5
45F
330
A
100
AcDbEntity
  8
0
  6
Continuous
 62
     1
100
AcDbLine
 10
23345.550085
 20
-15777.994553
 30
0.0
 11
22939.48745
 21
-15777.994556
 31
0.0
  0
LINE
  5
460
330
A
100
AcDbEntity
  8
0
  6
Continuous
 62
     1
100
AcDbLine
 10
23324.201353
 20
-15769.99779
 30
0.0
 11
22939.48745
 21
-15769.997792
 31
0.0
  0
LINE
  5
461
330
A
100
AcDbEntity
  8
0
  6
Continuous
 62
     1
100
AcDbLine
 10
23375.951108
 20
-15785.102789
 30
0.0
 11
22939.48745
 21
-15785.102792
 31
0.0
  0
ELLIPSE
  5
462
330
A
100
AcDbEntity
  8
0
  6
Continuous
 62
     7
100
AcDbEllipse
 10
23363.991388
 20
-15577.631174
 30
0.0
 11
0.000000000000011
 21
180.0
 31
0.0
210
0.0
220
0.0
230
1.0
 40
0.9197780000000001
 41
0.0
 42
6.283185307179585
  0
ELLIPSE
  5
463
330
A
100
AcDbEntity
  8
0
  6
Continuous
 62
     7
100
AcDbEllipse
 10
23378.435832
 20
-15577.631174
 30
0.0
 11
0.000000000000011
 21
180.0
 31
0.0
210
0.0
220
0.0
230
1.0
 40
0.9197780000000001
 41
3.097955839965016
 42
6.326822120804375
  0
ENDSEC
  0
SECTION
  2
OBJECTS
  0
DICTIONARY
  5
19
330
0
100
AcDbDictionary
281
     1
  3
ACAD_COLOR
350
494
  3
ACAD_GROUP
350
1A
  3
ACAD_LAYOUT
350
4BC
  3
ACAD_MATERIAL
350
46A
  3
ACAD_MLEADERSTYLE
350
4B9
  3
ACAD_MLINESTYLE
350
1B
  3
ACAD_PLOTSETTINGS
350
4BD
  3
ACAD_PLOTSTYLENAME
350
468
  3
ACAD_SCALELIST
350
497
  3
ACAD_TABLESTYLE
350
495
  3
ACAD_VISUALSTYLE
350
483
  3
ACDB_RECOMPOSE_DATA
350
4E2
  3
AcDbVariableDictionary
350
4D9
  3
ASE_INDEX_DICTIONARY
350
4D6
  3
DWGPROPS
350
4E3
  0
DICTIONARY
  5
4CB
330
14
100
AcDbDictionary
280
     1
281
     1
  3
ADSK_XREC_LAYER_RECONCILED
360
4CC
  0
DICTIONARY
  5
4CD
330
27
100
AcDbDictionary
280
     1
281
     1
  3
ADSK_XREC_LAYER_RECONCILED
360
4CE
  0
DICTIONARY
  5
4CF
330
28
100
AcDbDictionary
280
     1
281
     1
  3
ADSK_XREC_LAYER_RECONCILED
360
4D0
  0
DICTIONARY
  5
4D1
330
29
100
AcDbDictionary
280
     1
281
     1
  3
ADSK_XREC_LAYER_RECONCILED
360
4D2
  0
DICTIONARY
  5
4D3
330
2A
100
AcDbDictionary
280
     1
281
     1
  3
ADSK_XREC_LAYER_RECONCILED
360
4D4
  0
DICTIONARY
  5
494
102
{ACAD_REACTORS
330
19
102
}
330
19
100
AcDbDictionary
281
     1
  0
DICTIONARY
  5
1A
102
{ACAD_REACTORS
330
19
102
}
330
19
100
AcDbDictionary
281
     1
  0
DICTIONARY
  5
4BC
102
{ACAD_REACTORS
330
19
102
}
330
19
100
AcDbDictionary
281
     1
  3
Model
350
4BE
  3
レイアウト1
350
4BF
  0
DICTIONARY
  5
46A
102
{ACAD_REACTORS
330
19
102
}
330
19
100
AcDbDictionary
281
     1
  3
ByBlock
350
473
  3
ByLayer
350
46B
  3
Global
350
47B
  0
DICTIONARY
  5
4B9
102
{ACAD_REACTORS
330
19
102
}
330
19
100
AcDbDictionary
281
     1
  3
Standard
350
4BA
  0
DICTIONARY
  5
1B
102
{ACAD_REACTORS
330
19
102
}
330
19
100
AcDbDictionary
281
     1
  3
STANDARD
350
1C
  0
DICTIONARY
  5
4BD
102
{ACAD_REACTORS
330
19
102
}
330
19
100
AcDbDictionary
281
     1
  0
ACDBDICTIONARYWDFLT
  5
468
102
{ACAD_REACTORS
330
19
102
}
330
19
100
AcDbDictionary
281
     1
  3
Normal
350
469
100
AcDbDictionaryWithDefault
340
469
  0
DICTIONARY
  5
497
102
{ACAD_REACTORS
330
19
102
}
330
19
100
AcDbDictionary
281
     1
  3
A0
350
498
  3
A1
350
499
  3
A2
350
49A
  3
A3
350
49B
  3
A4
350
49C
  3
A5
350
49D
  3
A6
350
49E
  3
A7
350
49F
  3
A8
350
4A0
  3
A9
350
4A1
  3
B0
350
4A2
  3
B1
350
4A3
  3
B2
350
4A4
  3
B3
350
4A5
  3
B4
350
4A6
  3
B5
350
4A7
  3
B6
350
4A8
  3
B7
350
4A9
  3
B8
350
4AA
  3
B9
350
4AB
  3
C0
350
4AC
  3
C1
350
4AD
  3
C2
350
4AE
  3
C3
350
4AF
  3
C4
350
4B0
  3
C5
350
4B1
  3
C6
350
4B2
  3
C7
350
4B3
  3
C8
350
4B4
  3
C9
350
4B5
  3
D0
350
4B6
  3
D1
350
4B7
  3
D2
350
4B8
  0
DICTIONARY
  5
495
102
{ACAD_REACTORS
330
19
102
}
330
19
100
AcDbDictionary
281
     1
  3
Standard
350
496
  0
DICTIONARY
  5
483
102
{ACAD_REACTORS
330
19
102
}
330
19
100
AcDbDictionary
281
     1
  3
2dWireframe
350
489
  3
3D Hidden
350
48B
  3
3dWireframe
350
48A
  3
Basic
350
488
  3
Brighten
350
48F
  3
ColorChange
350
493
  3
Conceptual
350
48C
  3
Dim
350
48E
  3
Facepattern
350
492
  3
Flat
350
484
  3
FlatWithEdges
350
485
  3
Gouraud
350
486
  3
GouraudWithEdges
350
487
  3
Linepattern
350
491
  3
Realistic
350
48D
  3
Thicken
350
490
  0
XRECORD
  5
4E2
102
{ACAD_REACTORS
330
19
102
}
330
19
100
AcDbXrecord
280
     1
 90
        1
330
496
  0
DICTIONARY
  5
4D9
102
{ACAD_REACTORS
330
19
102
}
330
19
100
AcDbDictionary
281
     1
  3
CANNOSCALE
350
4DC
  3
CMLEADERSTYLE
350
4DB
  3
CTABLESTYLE
350
4DA
  3
DIMASSOC
350
4DF
  3
INDEXCTL
350
4DE
  3
SORTENTS
350
4DD
  0
DICTIONARY
  5
4D6
102
{ACAD_REACTORS
330
19
102
}
330
19
100
AcDbDictionary
281
     1
  3
ASEBlockHierarchyIndexRecord
350
4D8
1001
DCO15
1040
1714116520.308
  0
XRECORD
  5
4E3
102
{ACAD_REACTORS
330
19
102
}
330
19
100
AcDbXrecord
280
     1
  1
DWGPROPS COOKIE
  2

  3

  4

  6

  7

  8
toshi
  9

300
=
301
=
302
=
303
=
304
=
305
=
306
=
307
=
308
=
309
=
 40
0.0003838310185185
 41
2305814.416979977
 42
2455642.52342949
  1

 90
        0
  0
XRECORD
  5
4CC
102
{ACAD_REACTORS
330
4CB
102
}
330
4CB
100
AcDbXrecord
280
     1
290
     1
  0
XRECORD
  5
4CE
102
{ACAD_REACTORS
330
4CD
102
}
330
4CD
100
AcDbXrecord
280
     1
290
     1
  0
XRECORD
  5
4D0
102
{ACAD_REACTORS
330
4CF
102
}
330
4CF
100
AcDbXrecord
280
     1
290
     1
  0
XRECORD
  5
4D2
102
{ACAD_REACTORS
330
4D1
102
}
330
4D1
100
AcDbXrecord
280
     1
290
     1
  0
XRECORD
  5
4D4
102
{ACAD_REACTORS
330
4D3
102
}
330
4D3
100
AcDbXrecord
280
     1
290
     1
  0
LAYOUT
  5
4BE
102
{ACAD_XDICTIONARY
360
4E8
102
}
102
{ACAD_REACTORS
330
4BC
102
}
330
4BC
100
AcDbPlotSettings
  1

  2
OneNote 2007 に送る
  4

  6

 40
0.0
 41
0.0
 42
0.0
 43
0.0
 44
0.0
 45
0.0
 46
0.0
 47
0.0
 48
0.0
 49
0.0
140
0.0
141
0.0
142
1.0
143
1.0
 70
  1712
 72
     0
 73
     0
 74
     0
  7
hiroya.ctb
 75
     0
147
1.0
148
0.0
149
0.0
100
AcDbLayout
  1
Model
 70
     1
 71
     0
 10
0.0
 20
0.0
 11
12.0
 21
9.0
 12
0.0
 22
0.0
 32
0.0
 14
0.0
 24
0.0
 34
0.0
 15
0.0
 25
0.0
 35
0.0
146
0.0
 13
0.0
 23
0.0
 33
0.0
 16
1.0
 26
0.0
 36
0.0
 17
0.0
 27
1.0
 37
0.0
 76
     0
330
A
331
15
  0
LAYOUT
  5
4BF
102
{ACAD_XDICTIONARY
360
4EA
102
}
102
{ACAD_REACTORS
330
4BC
102
}
330
4BC
100
AcDbPlotSettings
  1

  2
OneNote 2007 に送る
  4

  6

 40
0.0
 41
0.0
 42
0.0
 43
0.0
 44
0.0
 45
0.0
 46
0.0
 47
0.0
 48
0.0
 49
0.0
140
0.0
141
0.0
142
1.0
143
1.0
 70
   688
 72
     0
 73
     0
 74
     5
  7
hiroya.ctb
 75
    16
147
1.0
148
0.0
149
0.0
100
AcDbLayout
  1
レイアウト1
 70
     0
 71
     1
 10
0.0
 20
0.0
 11
12.0
 21
9.0
 12
0.0
 22
0.0
 32
0.0
 14
1.000000000000000E+20
 24
1.000000000000000E+20
 34
1.000000000000000E+20
 15
-1.000000000000000E+20
 25
-1.000000000000000E+20
 35
-1.000000000000000E+20
146
0.0
 13
0.0
 23
0.0
 33
0.0
 16
1.0
 26
0.0
 36
0.0
 17
0.0
 27
1.0
 37
0.0
 76
     0
330
B
  0
MATERIAL
  5
473
102
{ACAD_XDICTIONARY
360
474
102
}
102
{ACAD_REACTORS
330
46A
102
}
330
46A
100
AcDbMaterial
  1
ByBlock
 72
     0
 43
0.0208333333333333
 43
0.0
 43
0.0
 43
0.0
 43
0.0
 43
0.0208333333333333
 43
0.0
 43
0.0
 43
0.0
 43
0.0
 43
1.0
 43
0.0
 43
0.0
 43
0.0
 43
0.0
 43
1.0
 77
     0
 47
0.0208333333333333
 47
0.0
 47
0.0
 47
0.0
 47
0.0
 47
0.0208333333333333
 47
0.0
 47
0.0
 47
0.0
 47
0.0
 47
1.0
 47
0.0
 47
0.0
 47
0.0
 47
0.0
 47
1.0
171
     0
 49
0.0208333333333333
 49
0.0
 49
0.0
 49
0.0
 49
0.0
 49
0.0208333333333333
 49
0.0
 49
0.0
 49
0.0
 49
0.0
 49
1.0
 49
0.0
 49
0.0
 49
0.0
 49
0.0
 49
1.0
175
     0
142
0.0208333333333333
142
0.0
142
0.0
142
0.0
142
0.0
142
0.0208333333333333
142
0.0
142
0.0
142
0.0
142
0.0
142
1.0
142
0.0
142
0.0
142
0.0
142
0.0
142
1.0
179
     0
144
0.0208333333333333
144
0.0
144
0.0
144
0.0
144
0.0
144
0.0208333333333333
144
0.0
144
0.0
144
0.0
144
0.0
144
1.0
144
0.0
144
0.0
144
0.0
144
0.0
144
1.0
147
0.0208333333333333
147
0.0
147
0.0
147
0.0
147
0.0
147
0.0208333333333333
147
0.0
147
0.0
147
0.0
147
0.0
147
1.0
147
0.0
147
0.0
147
0.0
147
0.0
147
1.0
  0
MATERIAL
  5
46B
102
{ACAD_XDICTIONARY
360
46C
102
}
102
{ACAD_REACTORS
330
46A
102
}
330
46A
100
AcDbMaterial
  1
ByLayer
 72
     0
 43
0.0208333333333333
 43
0.0
 43
0.0
 43
0.0
 43
0.0
 43
0.0208333333333333
 43
0.0
 43
0.0
 43
0.0
 43
0.0
 43
1.0
 43
0.0
 43
0.0
 43
0.0
 43
0.0
 43
1.0
 77
     0
 47
0.0208333333333333
 47
0.0
 47
0.0
 47
0.0
 47
0.0
 47
0.0208333333333333
 47
0.0
 47
0.0
 47
0.0
 47
0.0
 47
1.0
 47
0.0
 47
0.0
 47
0.0
 47
0.0
 47
1.0
171
     0
 49
0.0208333333333333
 49
0.0
 49
0.0
 49
0.0
 49
0.0
 49
0.0208333333333333
 49
0.0
 49
0.0
 49
0.0
 49
0.0
 49
1.0
 49
0.0
 49
0.0
 49
0.0
 49
0.0
 49
1.0
175
     0
142
0.0208333333333333
142
0.0
142
0.0
142
0.0
142
0.0
142
0.0208333333333333
142
0.0
142
0.0
142
0.0
142
0.0
142
1.0
142
0.0
142
0.0
142
0.0
142
0.0
142
1.0
179
     0
144
0.0208333333333333
144
0.0
144
0.0
144
0.0
144
0.0
144
0.0208333333333333
144
0.0
144
0.0
144
0.0
144
0.0
144
1.0
144
0.0
144
0.0
144
0.0
144
0.0
144
1.0
147
0.0208333333333333
147
0.0
147
0.0
147
0.0
147
0.0
147
0.0208333333333333
147
0.0
147
0.0
147
0.0
147
0.0
147
1.0
147
0.0
147
0.0
147
0.0
147
0.0
147
1.0
  0
MATERIAL
  5
47B
102
{ACAD_XDICTIONARY
360
47C
102
}
102
{ACAD_REACTORS
330
46A
102
}
330
46A
100
AcDbMaterial
  1
Global
 72
     0
 43
0.0208333333333333
 43
0.0
 43
0.0
 43
0.0
 43
0.0
 43
0.0208333333333333
 43
0.0
 43
0.0
 43
0.0
 43
0.0
 43
1.0
 43
0.0
 43
0.0
 43
0.0
 43
0.0
 43
1.0
 77
     0
 47
0.0208333333333333
 47
0.0
 47
0.0
 47
0.0
 47
0.0
 47
0.0208333333333333
 47
0.0
 47
0.0
 47
0.0
 47
0.0
 47
1.0
 47
0.0
 47
0.0
 47
0.0
 47
0.0
 47
1.0
171
     0
 49
0.0208333333333333
 49
0.0
 49
0.0
 49
0.0
 49
0.0
 49
0.0208333333333333
 49
0.0
 49
0.0
 49
0.0
 49
0.0
 49
1.0
 49
0.0
 49
0.0
 49
0.0
 49
0.0
 49
1.0
175
     0
142
0.0208333333333333
142
0.0
142
0.0
142
0.0
142
0.0
142
0.0208333333333333
142
0.0
142
0.0
142
0.0
142
0.0
142
1.0
142
0.0
142
0.0
142
0.0
142
0.0
142
1.0
179
     0
144
0.0208333333333333
144
0.0
144
0.0
144
0.0
144
0.0
144
0.0208333333333333
144
0.0
144
0.0
144
0.0
144
0.0
144
1.0
144
0.0
144
0.0
144
0.0
144
0.0
144
1.0
147
0.0208333333333333
147
0.0
147
0.0
147
0.0
147
0.0
147
0.0208333333333333
147
0.0
147
0.0
147
0.0
147
0.0
147
1.0
147
0.0
147
0.0
147
0.0
147
0.0
147
1.0
  0
MLEADERSTYLE
  5
4BA
102
{ACAD_REACTORS
330
4B9
102
}
330
4B9
100
AcDbMLeaderStyle
170
     2
171
     1
172
     0
 90
        2
 40
0.0
 41
0.0
173
     1
 91
-1056964608
340
11
 92
       -2
290
     1
 42
0.09
291
     1
 43
0.36
  3
Standard
 44
0.18
300

342
17
174
     1
178
     6
175
     1
176
     0
 93
-1056964608
 45
0.18
292
     0
297
     0
 46
0.18
 94
-1056964608
 47
1.0
 49
1.0
140
1.0
293
     1
141
0.0
294
     1
177
     0
142
1.0
295
     0
296
     0
143
0.125
1001
ACAD_MLEADERVER
1070
     2
  0
MLINESTYLE
  5
1C
102
{ACAD_REACTORS
330
1B
102
}
330
1B
100
AcDbMlineStyle
  2
STANDARD
 70
     0
  3

 62
     0
 51
90.0
 52
90.0
 71
     2
 49
0.5
 62
   256
  6
BYLAYER
 49
-0.5
 62
   256
  6
BYLAYER
  0
ACDBPLACEHOLDER
  5
469
102
{ACAD_REACTORS
330
468
102
}
330
468
  0
SCALE
  5
498
102
{ACAD_REACTORS
330
497
102
}
330
497
100
AcDbScale
 70
     0
300
1:1
140
1.0
141
1.0
290
     1
  0
SCALE
  5
499
102
{ACAD_REACTORS
330
497
102
}
330
497
100
AcDbScale
 70
     0
300
1:2
140
1.0
141
2.0
290
     0
  0
SCALE
  5
49A
102
{ACAD_REACTORS
330
497
102
}
330
497
100
AcDbScale
 70
     0
300
1:4
140
1.0
141
4.0
290
     0
  0
SCALE
  5
49B
102
{ACAD_REACTORS
330
497
102
}
330
497
100
AcDbScale
 70
     0
300
1:5
140
1.0
141
5.0
290
     0
  0
SCALE
  5
49C
102
{ACAD_REACTORS
330
497
102
}
330
497
100
AcDbScale
 70
     0
300
1:8
140
1.0
141
8.0
290
     0
  0
SCALE
  5
49D
102
{ACAD_REACTORS
330
497
102
}
330
497
100
AcDbScale
 70
     0
300
1:10
140
1.0
141
10.0
290
     0
  0
SCALE
  5
49E
102
{ACAD_REACTORS
330
497
102
}
330
497
100
AcDbScale
 70
     0
300
1:16
140
1.0
141
16.0
290
     0
  0
SCALE
  5
49F
102
{ACAD_REACTORS
330
497
102
}
330
497
100
AcDbScale
 70
     0
300
1:20
140
1.0
141
20.0
290
     0
  0
SCALE
  5
4A0
102
{ACAD_REACTORS
330
497
102
}
330
497
100
AcDbScale
 70
     0
300
1:30
140
1.0
141
30.0
290
     0
  0
SCALE
  5
4A1
102
{ACAD_REACTORS
330
497
102
}
330
497
100
AcDbScale
 70
     0
300
1:40
140
1.0
141
40.0
290
     0
  0
SCALE
  5
4A2
102
{ACAD_REACTORS
330
497
102
}
330
497
100
AcDbScale
 70
     0
300
1:50
140
1.0
141
50.0
290
     0
  0
SCALE
  5
4A3
102
{ACAD_REACTORS
330
497
102
}
330
497
100
AcDbScale
 70
     0
300
1:100
140
1.0
141
100.0
290
     0
  0
SCALE
  5
4A4
102
{ACAD_REACTORS
330
497
102
}
330
497
100
AcDbScale
 70
     0
300
2:1
140
2.0
141
1.0
290
     0
  0
SCALE
  5
4A5
102
{ACAD_REACTORS
330
497
102
}
330
497
100
AcDbScale
 70
     0
300
4:1
140
4.0
141
1.0
290
     0
  0
SCALE
  5
4A6
102
{ACAD_REACTORS
330
497
102
}
330
497
100
AcDbScale
 70
     0
300
8:1
140
8.0
141
1.0
290
     0
  0
SCALE
  5
4A7
102
{ACAD_REACTORS
330
497
102
}
330
497
100
AcDbScale
 70
     0
300
10:1
140
10.0
141
1.0
290
     0
  0
SCALE
  5
4A8
102
{ACAD_REACTORS
330
497
102
}
330
497
100
AcDbScale
 70
     0
300
100:1
140
100.0
141
1.0
290
     0
  0
SCALE
  5
4A9
102
{ACAD_REACTORS
330
497
102
}
330
497
100
AcDbScale
 70
     0
300
1/128" = 1'-0"
140
0.0078125
141
12.0
290
     0
  0
SCALE
  5
4AA
102
{ACAD_REACTORS
330
497
102
}
330
497
100
AcDbScale
 70
     0
300
1/64" = 1'-0"
140
0.015625
141
12.0
290
     0
  0
SCALE
  5
4AB
102
{ACAD_REACTORS
330
497
102
}
330
497
100
AcDbScale
 70
     0
300
1/32" = 1'-0"
140
0.03125
141
12.0
290
     0
  0
SCALE
  5
4AC
102
{ACAD_REACTORS
330
497
102
}
330
497
100
AcDbScale
 70
     0
300
1/16" = 1'-0"
140
0.0625
141
12.0
290
     0
  0
SCALE
  5
4AD
102
{ACAD_REACTORS
330
497
102
}
330
497
100
AcDbScale
 70
     0
300
3/32" = 1'-0"
140
0.09375
141
12.0
290
     0
  0
SCALE
  5
4AE
102
{ACAD_REACTORS
330
497
102
}
330
497
100
AcDbScale
 70
     0
300
1/8" = 1'-0"
140
0.125
141
12.0
290
     0
  0
SCALE
  5
4AF
102
{ACAD_REACTORS
330
497
102
}
330
497
100
AcDbScale
 70
     0
300
3/16" = 1'-0"
140
0.1875
141
12.0
290
     0
  0
SCALE
  5
4B0
102
{ACAD_REACTORS
330
497
102
}
330
497
100
AcDbScale
 70
     0
300
1/4" = 1'-0"
140
0.25
141
12.0
290
     0
  0
SCALE
  5
4B1
102
{ACAD_REACTORS
330
497
102
}
330
497
100
AcDbScale
 70
     0
300
3/8" = 1'-0"
140
0.375
141
12.0
290
     0
  0
SCALE
  5
4B2
102
{ACAD_REACTORS
330
497
102
}
330
497
100
AcDbScale
 70
     0
300
1/2" = 1'-0"
140
0.5
141
12.0
290
     0
  0
SCALE
  5
4B3
102
{ACAD_REACTORS
330
497
102
}
330
497
100
AcDbScale
 70
     0
300
3/4" = 1'-0"
140
0.75
141
12.0
290
     0
  0
SCALE
  5
4B4
102
{ACAD_REACTORS
330
497
102
}
330
497
100
AcDbScale
 70
     0
300
1" = 1'-0"
140
1.0
141
12.0
290
     0
  0
SCALE
  5
4B5
102
{ACAD_REACTORS
330
497
102
}
330
497
100
AcDbScale
 70
     0
300
1-1/2" = 1'-0"
140
1.5
141
12.0
290
     0
  0
SCALE
  5
4B6
102
{ACAD_REACTORS
330
497
102
}
330
497
100
AcDbScale
 70
     0
300
3" = 1'-0"
140
3.0
141
12.0
290
     0
  0
SCALE
  5
4B7
102
{ACAD_REACTORS
330
497
102
}
330
497
100
AcDbScale
 70
     0
300
6" = 1'-0"
140
6.0
141
12.0
290
     0
  0
SCALE
  5
4B8
102
{ACAD_REACTORS
330
497
102
}
330
497
100
AcDbScale
 70
     0
300
1'-0" = 1'-0"
140
12.0
141
12.0
290
     0
  0
TABLESTYLE
  5
496
102
{ACAD_XDICTIONARY
360
4E0
102
}
102
{ACAD_REACTORS
330
495
102
}
330
495
100
AcDbTableStyle
  3
Standard
 70
     0
 71
     0
 40
0.06
 41
0.06
280
     0
281
     0
  7
STANDARD
140
0.18
170
     2
 62
     0
 63
     7
283
     0
274
    -2
284
     1
 64
     0
275
    -2
285
     1
 65
     0
276
    -2
286
     1
 66
     0
277
    -2
287
     1
 67
     0
278
    -2
288
     1
 68
     0
279
    -2
289
     1
 69
     0
  7
STANDARD
140
0.25
170
     5
 62
     0
 63
     7
283
     0
274
    -2
284
     1
 64
     0
275
    -2
285
     1
 65
     0
276
    -2
286
     1
 66
     0
277
    -2
287
     1
 67
     0
278
    -2
288
     1
 68
     0
279
    -2
289
     1
 69
     0
  7
STANDARD
140
0.18
170
     5
 62
     0
 63
     7
283
     0
274
    -2
284
     1
 64
     0
275
    -2
285
     1
 65
     0
276
    -2
286
     1
 66
     0
277
    -2
287
     1
 67
     0
278
    -2
288
     1
 68
     0
279
    -2
289
     1
 69
     0
  0
VISUALSTYLE
  5
489
102
{ACAD_REACTORS
330
483
102
}
330
483
100
AcDbVisualStyle
  2
2dWireframe
 70
     4
 71
     0
 72
     2
 73
     0
 90
        0
 40
-0.6
 41
-30.0
 62
     5
 63
     7
 74
     1
 91
        4
 64
     7
 65
   257
 75
     1
175
     1
 42
1.0
 92
        0
 66
   257
 43
1.0
 76
     1
 77
     6
 78
     2
 67
     7
 79
     5
170
     0
171
     0
290
     0
174
     0
 93
        1
 44
0.0
173
     0
291
     0
 45
0.0
1001
ACAD
1000
AcDbSavedByObjectVersion
1070
     0
  0
VISUALSTYLE
  5
48B
102
{ACAD_REACTORS
330
483
102
}
330
483
100
AcDbVisualStyle
  2
3D Hidden
 70
     6
 71
     1
 72
     2
 73
     2
 90
        0
 40
-0.6
 41
-30.0
 62
     5
 63
     7
 74
     2
 91
        2
 64
     7
 65
   257
 75
     2
175
     1
 42
40.0
 92
        0
 66
   257
 43
1.0
 76
     1
 77
     6
 78
     2
 67
     7
 79
     3
170
     0
171
     0
290
     0
174
     0
 93
        1
 44
0.0
173
     0
291
     0
 45
0.0
1001
ACAD
1000
AcDbSavedByObjectVersion
1070
     0
  0
VISUALSTYLE
  5
48A
102
{ACAD_REACTORS
330
483
102
}
330
483
100
AcDbVisualStyle
  2
3dWireframe
 70
     5
 71
     0
 72
     2
 73
     0
 90
        0
 40
-0.6
 41
-30.0
 62
     5
 63
     7
 74
     1
 91
        4
 64
     7
 65
   257
 75
     1
175
     1
 42
1.0
 92
        0
 66
   257
 43
1.0
 76
     1
 77
     6
 78
     2
 67
     7
 79
     5
170
     0
171
     0
290
     0
174
     0
 93
        1
 44
0.0
173
     0
291
     0
 45
0.0
1001
ACAD
1000
AcDbSavedByObjectVersion
1070
     0
  0
VISUALSTYLE
  5
488
102
{ACAD_REACTORS
330
483
102
}
330
483
100
AcDbVisualStyle
  2
Basic
 70
     7
 71
     1
 72
     0
 73
     1
 90
        0
 40
-0.6
 41
-30.0
 62
     5
 63
     7
 74
     0
 91
        4
 64
     7
 65
   257
 75
     1
175
     1
 42
1.0
 92
        8
 66
     7
 43
1.0
 76
     1
 77
     6
 78
     2
 67
     7
 79
     5
170
     0
171
     0
290
     0
174
     0
 93
        1
 44
0.0
173
     0
291
     1
 45
0.0
1001
ACAD
1000
AcDbSavedByObjectVersion
1070
     0
  0
VISUALSTYLE
  5
48F
102
{ACAD_REACTORS
330
483
102
}
330
483
100
AcDbVisualStyle
  2
Brighten
 70
    12
 71
     2
 72
     2
 73
     0
 90
        0
 40
-0.6
 41
-30.0
 62
     5
 63
     7
 74
     1
 91
        4
 64
     7
 65
   257
 75
     1
175
     1
 42
1.0
 92
        8
 66
     7
 43
1.0
 76
     1
 77
     6
 78
     2
 67
     7
 79
     5
170
     0
171
     0
290
     0
174
     0
 93
        1
 44
50.0
173
     0
291
     1
 45
0.0
1001
ACAD
1000
AcDbSavedByObjectVersion
1070
     0
  0
VISUALSTYLE
  5
493
102
{ACAD_REACTORS
330
483
102
}
330
483
100
AcDbVisualStyle
  2
ColorChange
 70
    16
 71
     2
 72
     2
 73
     3
 90
        0
 40
-0.6
 41
-30.0
 62
     5
 63
     8
 74
     1
 91
        4
 64
     7
 65
   257
 75
     1
175
     1
 42
1.0
 92
        8
 66
     8
 43
1.0
 76
     1
 77
     6
 78
     2
 67
     7
 79
     5
170
     0
171
     0
290
     0
174
     0
 93
        1
 44
0.0
173
     0
291
     1
 45
0.0
1001
ACAD
1000
AcDbSavedByObjectVersion
1070
     0
  0
VISUALSTYLE
  5
48C
102
{ACAD_REACTORS
330
483
102
}
330
483
100
AcDbVisualStyle
  2
Conceptual
 70
     9
 71
     3
 72
     2
 73
     0
 90
        0
 40
-0.6
 41
-30.0
 62
     5
 63
     7
 74
     2
 91
        2
 64
     7
 65
   257
 75
     1
175
     1
 42
40.0
 92
        8
 66
     7
 43
1.0
 76
     1
 77
     6
 78
     2
 67
     7
 79
     3
170
     0
171
     0
290
     0
174
     0
 93
        1
 44
0.0
173
     0
291
     0
 45
0.0
1001
ACAD
1000
AcDbSavedByObjectVersion
1070
     0
  0
VISUALSTYLE
  5
48E
102
{ACAD_REACTORS
330
483
102
}
330
483
100
AcDbVisualStyle
  2
Dim
 70
    11
 71
     2
 72
     2
 73
     0
 90
        0
 40
-0.6
 41
-30.0
 62
     5
 63
     7
 74
     1
 91
        4
 64
     7
 65
   257
 75
     1
175
     1
 42
1.0
 92
        8
 66
     7
 43
1.0
 76
     1
 77
     6
 78
     2
 67
     7
 79
     5
170
     0
171
     0
290
     0
174
     0
 93
        1
 44
-50.0
173
     0
291
     1
 45
0.0
1001
ACAD
1000
AcDbSavedByObjectVersion
1070
     0
  0
VISUALSTYLE
  5
492
102
{ACAD_REACTORS
330
483
102
}
330
483
100
AcDbVisualStyle
  2
Facepattern
 70
    15
 71
     2
 72
     2
 73
     0
 90
        0
 40
-0.6
 41
-30.0
 62
     5
 63
     7
 74
     1
 91
        4
 64
     7
 65
   257
 75
     1
175
     1
 42
1.0
 92
        8
 66
     7
 43
1.0
 76
     1
 77
     6
 78
     2
 67
     7
 79
     5
170
     0
171
     0
290
     0
174
     0
 93
        1
 44
0.0
173
     0
291
     1
 45
0.0
1001
ACAD
1000
AcDbSavedByObjectVersion
1070
     0
  0
VISUALSTYLE
  5
484
102
{ACAD_REACTORS
330
483
102
}
330
483
100
AcDbVisualStyle
  2
Flat
 70
     0
 71
     2
 72
     1
 73
     1
 90
        2
 40
-0.6
 41
30.0
 62
     5
 63
     7
 74
     0
 91
        4
 64
     7
 65
   257
 75
     1
175
     1
 42
1.0
 92
        8
 66
     7
 43
1.0
 76
     1
 77
     6
 78
     2
 67
     7
 79
     5
170
     0
171
     0
290
     0
174
     0
 93
       13
 44
0.0
173
     0
291
     1
 45
0.0
1001
ACAD
1000
AcDbSavedByObjectVersion
1070
     0
  0
VISUALSTYLE
  5
485
102
{ACAD_REACTORS
330
483
102
}
330
483
100
AcDbVisualStyle
  2
FlatWithEdges
 70
     1
 71
     2
 72
     1
 73
     1
 90
        2
 40
-0.6
 41
30.0
 62
     5
 63
     7
 74
     1
 91
        4
 64
     7
 65
   257
 75
     1
175
     1
 42
1.0
 92
        0
 66
   257
 43
1.0
 76
     1
 77
     6
 78
     2
 67
     7
 79
     5
170
     0
171
     0
290
     0
174
     0
 93
       13
 44
0.0
173
     0
291
     1
 45
0.0
1001
ACAD
1000
AcDbSavedByObjectVersion
1070
     0
  0
VISUALSTYLE
  5
486
102
{ACAD_REACTORS
330
483
102
}
330
483
100
AcDbVisualStyle
  2
Gouraud
 70
     2
 71
     2
 72
     2
 73
     1
 90
        2
 40
-0.6
 41
30.0
 62
     5
 63
     7
 74
     0
 91
        4
 64
     7
 65
   257
 75
     1
175
     1
 42
1.0
 92
        0
 66
     7
 43
1.0
 76
     1
 77
     6
 78
     2
 67
     7
 79
     5
170
     0
171
     0
290
     0
174
     0
 93
       13
 44
0.0
173
     0
291
     1
 45
0.0
1001
ACAD
1000
AcDbSavedByObjectVersion
1070
     0
  0
VISUALSTYLE
  5
487
102
{ACAD_REACTORS
330
483
102
}
330
483
100
AcDbVisualStyle
  2
GouraudWithEdges
 70
     3
 71
     2
 72
     2
 73
     1
 90
        2
 40
-0.6
 41
30.0
 62
     5
 63
     7
 74
     1
 91
        4
 64
     7
 65
   257
 75
     1
175
     1
 42
1.0
 92
        0
 66
   257
 43
1.0
 76
     1
 77
     6
 78
     2
 67
     7
 79
     5
170
     0
171
     0
290
     0
174
     0
 93
       13
 44
0.0
173
     0
291
     1
 45
0.0
1001
ACAD
1000
AcDbSavedByObjectVersion
1070
     0
  0
VISUALSTYLE
  5
491
102
{ACAD_REACTORS
330
483
102
}
330
483
100
AcDbVisualStyle
  2
Linepattern
 70
    14
 71
     2
 72
     2
 73
     0
 90
        0
 40
-0.6
 41
-30.0
 62
     5
 63
     7
 74
     1
 91
        4
 64
     7
 65
   257
 75
     7
175
     7
 42
1.0
 92
        8
 66
     7
 43
1.0
 76
     1
 77
     6
 78
     2
 67
     7
 79
     5
170
     0
171
     0
290
     0
174
     0
 93
        1
 44
0.0
173
     0
291
     1
 45
0.0
1001
ACAD
1000
AcDbSavedByObjectVersion
1070
     0
  0
VISUALSTYLE
  5
48D
102
{ACAD_REACTORS
330
483
102
}
330
483
100
AcDbVisualStyle
  2
Realistic
 70
     8
 71
     2
 72
     2
 73
     0
 90
        0
 40
-0.6
 41
-30.0
 62
     5
 63
     7
 74
     1
 91
        0
 64
     7
 65
   257
 75
     1
175
     1
 42
1.0
 92
        8
 66
     8
 43
1.0
 76
     1
 77
     6
 78
     2
 67
     7
 79
     5
170
     0
171
     0
290
     0
174
     0
 93
       13
 44
0.0
173
     0
291
     0
 45
0.0
1001
ACAD
1000
AcDbSavedByObjectVersion
1070
     0
  0
VISUALSTYLE
  5
490
102
{ACAD_REACTORS
330
483
102
}
330
483
100
AcDbVisualStyle
  2
Thicken
 70
    13
 71
     2
 72
     2
 73
     0
 90
        0
 40
-0.6
 41
-30.0
 62
     5
 63
     7
 74
     1
 91
        4
 64
     7
 65
   257
 75
     1
175
     1
 42
1.0
 92
       12
 66
     7
 43
1.0
 76
     1
 77
     6
 78
     2
 67
     7
 79
     5
170
     0
171
     0
290
     0
174
     0
 93
        1
 44
0.0
173
     0
291
     1
 45
0.0
1001
ACAD
1000
AcDbSavedByObjectVersion
1070
     0
  0
DICTIONARYVAR
  5
4DC
102
{ACAD_REACTORS
330
4D9
102
}
330
4D9
100
DictionaryVariables
280
     0
  1
1:1
  0
DICTIONARYVAR
  5
4DB
102
{ACAD_REACTORS
330
4D9
102
}
330
4D9
100
DictionaryVariables
280
     0
  1
STANDARD
  0
DICTIONARYVAR
  5
4DA
102
{ACAD_REACTORS
330
4D9
102
}
330
4D9
100
DictionaryVariables
280
     0
  1
STANDARD
  0
DICTIONARYVAR
  5
4DF
102
{ACAD_REACTORS
330
4D9
102
}
330
4D9
100
DictionaryVariables
280
     0
  1
1
  0
DICTIONARYVAR
  5
4DE
102
{ACAD_REACTORS
330
4D9
102
}
330
4D9
100
DictionaryVariables
280
     0
  1
0
  0
DICTIONARYVAR
  5
4DD
102
{ACAD_REACTORS
330
4D9
102
}
330
4D9
100
DictionaryVariables
280
     0
  1
127
  0
XRECORD
  5
4D8
102
{ACAD_REACTORS
330
4D6
102
}
330
4D6
100
AcDbXrecord
280
     1
330
1B6
330
193
330
196
330
3E4
330
3E5
330
4C6
330
4C7
330
3F8
330
3F9
330
402
330
403
330
40C
330
40D
330
41F
330
420
330
429
330
42A
330
436
330
437
330
440
330
441
330
456
330
457
  0
DICTIONARY
  5
4E8
330
4BE
100
AcDbDictionary
280
     1
281
     1
  3
ACAD_XREC_ROUNDTRIP
360
4E9
  0
DICTIONARY
  5
4EA
330
4BF
100
AcDbDictionary
280
     1
281
     1
  3
ACAD_XREC_ROUNDTRIP
360
4EB
  0
DICTIONARY
  5
474
330
473
100
AcDbDictionary
280
     1
281
     1
  3
ACAD_XREC_ROUNDTRIP
360
4E5
  3
BUMPTILE
360
476
  3
DIFFUSETILE
360
475
  3
OPACITYTILE
360
479
  3
REFLECTIONTILE
360
478
  3
REFRACTIONTILE
360
47A
  3
SPECULARTILE
360
477
  0
DICTIONARY
  5
46C
330
46B
100
AcDbDictionary
280
     1
281
     1
  3
ACAD_XREC_ROUNDTRIP
360
4E4
  3
BUMPTILE
360
46E
  3
DIFFUSETILE
360
46D
  3
OPACITYTILE
360
471
  3
REFLECTIONTILE
360
470
  3
REFRACTIONTILE
360
472
  3
SPECULARTILE
360
46F
  0
DICTIONARY
  5
47C
330
47B
100
AcDbDictionary
280
     1
281
     1
  3
ACAD_XREC_ROUNDTRIP
360
4E6
  3
BUMPTILE
360
47E
  3
DIFFUSETILE
360
47D
  3
OPACITYTILE
360
481
  3
REFLECTIONTILE
360
480
  3
REFRACTIONTILE
360
482
  3
SPECULARTILE
360
47F
  0
DICTIONARY
  5
4E0
330
496
100
AcDbDictionary
280
     1
281
     1
  3
ACAD_ROUNDTRIP_2008_TABLESTYLE_CELLSTYLEMAP
360
4E1
  3
ACAD_XREC_ROUNDTRIP
360
4E7
  0
XRECORD
  5
4E9
102
{ACAD_REACTORS
330
4E8
102
}
330
4E8
100
AcDbXrecord
280
     1
102
SHADEPLOT
 70
     0
102
SHADEPLOTRESLEVEL
 70
     2
102
SHADEPLOTCUSTOMDPI
 70
   300
  0
XRECORD
  5
4EB
102
{ACAD_REACTORS
330
4EA
102
}
330
4EA
100
AcDbXrecord
280
     1
102
SHADEPLOT
 70
     0
102
SHADEPLOTRESLEVEL
 70
     2
102
SHADEPLOTCUSTOMDPI
 70
   300
  0
XRECORD
  5
4E5
102
{ACAD_REACTORS
330
474
102
}
330
474
100
AcDbXrecord
280
     1
102
MATERIAL
148
0.0
149
0.0
149
0.0
 93
        0
 94
      127
282
     0
 72
     0
 77
     0
171
     0
175
     0
179
     0
273
     0
  0
XRECORD
  5
476
102
{ACAD_REACTORS
330
474
102
}
330
474
100
AcDbXrecord
280
     1
270
     1
271
     1
  0
XRECORD
  5
475
102
{ACAD_REACTORS
330
474
102
}
330
474
100
AcDbXrecord
280
     1
270
     1
271
     1
  0
XRECORD
  5
479
102
{ACAD_REACTORS
330
474
102
}
330
474
100
AcDbXrecord
280
     1
270
     1
271
     1
  0
XRECORD
  5
478
102
{ACAD_REACTORS
330
474
102
}
330
474
100
AcDbXrecord
280
     1
270
     1
271
     1
  0
XRECORD
  5
47A
102
{ACAD_REACTORS
330
474
102
}
330
474
100
AcDbXrecord
280
     1
270
     1
271
     1
  0
XRECORD
  5
477
102
{ACAD_REACTORS
330
474
102
}
330
474
100
AcDbXrecord
280
     1
270
     1
271
     1
  0
XRECORD
  5
4E4
102
{ACAD_REACTORS
330
46C
102
}
330
46C
100
AcDbXrecord
280
     1
102
MATERIAL
148
0.0
149
0.0
149
0.0
 93
        0
 94
      127
282
     0
 72
     0
 77
     0
171
     0
175
     0
179
     0
273
     0
  0
XRECORD
  5
46E
102
{ACAD_REACTORS
330
46C
102
}
330
46C
100
AcDbXrecord
280
     1
270
     1
271
     1
  0
XRECORD
  5
46D
102
{ACAD_REACTORS
330
46C
102
}
330
46C
100
AcDbXrecord
280
     1
270
     1
271
     1
  0
XRECORD
  5
471
102
{ACAD_REACTORS
330
46C
102
}
330
46C
100
AcDbXrecord
280
     1
270
     1
271
     1
  0
XRECORD
  5
470
102
{ACAD_REACTORS
330
46C
102
}
330
46C
100
AcDbXrecord
280
     1
270
     1
271
     1
  0
XRECORD
  5
472
102
{ACAD_REACTORS
330
46C
102
}
330
46C
100
AcDbXrecord
280
     1
270
     1
271
     1
  0
XRECORD
  5
46F
102
{ACAD_REACTORS
330
46C
102
}
330
46C
100
AcDbXrecord
280
     1
270
     1
271
     1
  0
XRECORD
  5
4E6
102
{ACAD_REACTORS
330
47C
102
}
330
47C
100
AcDbXrecord
280
     1
102
MATERIAL
148
0.0
149
0.0
149
0.0
 93
        0
 94
      127
282
     0
 72
     0
 77
     0
171
     0
175
     0
179
     0
273
     0
  0
XRECORD
  5
47E
102
{ACAD_REACTORS
330
47C
102
}
330
47C
100
AcDbXrecord
280
     1
270
     1
271
     1
  0
XRECORD
  5
47D
102
{ACAD_REACTORS
330
47C
102
}
330
47C
100
AcDbXrecord
280
     1
270
     1
271
     1
  0
XRECORD
  5
481
102
{ACAD_REACTORS
330
47C
102
}
330
47C
100
AcDbXrecord
280
     1
270
     1
271
     1
  0
XRECORD
  5
480
102
{ACAD_REACTORS
330
47C
102
}
330
47C
100
AcDbXrecord
280
     1
270
     1
271
     1
  0
XRECORD
  5
482
102
{ACAD_REACTORS
330
47C
102
}
330
47C
100
AcDbXrecord
280
     1
270
     1
271
     1
  0
XRECORD
  5
47F
102
{ACAD_REACTORS
330
47C
102
}
330
47C
100
AcDbXrecord
280
     1
270
     1
271
     1
  0
CELLSTYLEMAP
  5
4E1
102
{ACAD_REACTORS
330
4E0
102
}
330
4E0
100
AcDbCellStyleMap
 90
        3
300
CELLSTYLE
  1
TABLEFORMAT_BEGIN
 90
        5
170
     1
 91
        0
 92
    32768
 62
   257
 93
        1
300
CONTENTFORMAT
  1
CONTENTFORMAT_BEGIN
 90
        0
 91
        0
 92
      512
 93
        0
300

 40
0.0
140
1.0
 94
        5
 62
     0
340
17
144
0.25
309
CONTENTFORMAT_END
171
     0
 94
        0
309
TABLEFORMAT_END
  1
CELLSTYLE_BEGIN
 90
        1
 91
        1
300
_TITLE
309
CELLSTYLE_END
300
CELLSTYLE
  1
TABLEFORMAT_BEGIN
 90
        5
170
     1
 91
        0
 92
        0
 62
   257
 93
        1
300
CONTENTFORMAT
  1
CONTENTFORMAT_BEGIN
 90
        0
 91
        0
 92
      512
 93
        0
300

 40
0.0
140
1.0
 94
        5
 62
     0
340
17
144
0.18
309
CONTENTFORMAT_END
171
     0
 94
        0
309
TABLEFORMAT_END
  1
CELLSTYLE_BEGIN
 90
        2
 91
        1
300
_HEADER
309
CELLSTYLE_END
300
CELLSTYLE
  1
TABLEFORMAT_BEGIN
 90
        5
170
     1
 91
        0
 92
        0
 62
   257
 93
        1
300
CONTENTFORMAT
  1
CONTENTFORMAT_BEGIN
 90
        0
 91
        0
 92
      512
 93
        0
300

 40
0.0
140
1.0
 94
        2
 62
     0
340
17
144
0.18
309
CONTENTFORMAT_END
171
     0
 94
        0
309
TABLEFORMAT_END
  1
CELLSTYLE_BEGIN
 90
        3
 91
        2
300
_DATA
309
CELLSTYLE_END
  0
XRECORD
  5
4E7
102
{ACAD_REACTORS
330
4E0
102
}
330
4E0
100
AcDbXrecord
280
     1
102
ACAD_ROUNDTRIP_PRE2007_TABLESTYLE
 90
      512
 91
        0
  1

 92
      512
 93
        0
  2

 94
      512
 95
        0
  3

  0
ENDSEC
  0
EOF
