  0
SECTION
  2
HEADER
  9
$ACADVER
  1
AC1014
  9
$ACADMAINTVER
 70
     0
  9
$DWGCODEPAGE
  3
ANSI_932
  9
$INSBASE
 10
0.0
 20
0.0
 30
0.0
  9
$EXTMIN
 10
2002.202784
 20
-20877.910282
 30
0.0
  9
$EXTMAX
 10
4895.452784
 20
-18868.610282
 30
0.0
  9
$LIMMIN
 10
-26251.172216
 20
-40873.260282
  9
$LIMMAX
 10
33148.827784
 20
1126.739718
  9
$ORTHOMODE
 70
     0
  9
$REGENMODE
 70
     1
  9
$FILLMODE
 70
     1
  9
$QTEXTMODE
 70
     0
  9
$MIRRTEXT
 70
     1
  9
$DRAGMODE
 70
     2
  9
$LTSCALE
 40
100.0
  9
$OSMODE
 70
     0
  9
$ATTMODE
 70
     1
  9
$TEXTSIZE
 40
0.2
  9
$TRACEWID
 40
0.05
  9
$TEXTSTYLE
  7
STANDARD
  9
$CLAYER
  8
0
  9
$CELTYPE
  6
CONTINUOUS
  9
$CECOLOR
 62
   256
  9
$CELTSCALE
 40
1.0
  9
$DELOBJ
 70
     1
  9
$DISPSILH
 70
     0
  9
$DIMSCALE
 40
1.0
  9
$DIMASZ
 40
0.18
  9
$DIMEXO
 40
0.0625
  9
$DIMDLI
 40
0.38
  9
$DIMRND
 40
0.0
  9
$DIMDLE
 40
0.0
  9
$DIMEXE
 40
0.18
  9
$DIMTP
 40
0.0
  9
$DIMTM
 40
0.0
  9
$DIMTXT
 40
0.18
  9
$DIMCEN
 40
0.09
  9
$DIMTSZ
 40
0.0
  9
$DIMTOL
 70
     0
  9
$DIMLIM
 70
     0
  9
$DIMTIH
 70
     1
  9
$DIMTOH
 70
     1
  9
$DIMSE1
 70
     0
  9
$DIMSE2
 70
     0
  9
$DIMTAD
 70
     0
  9
$DIMZIN
 70
     0
  9
$DIMBLK
  1

  9
$DIMASO
 70
     1
  9
$DIMSHO
 70
     1
  9
$DIMPOST
  1

  9
$DIMAPOST
  1

  9
$DIMALT
 70
     0
  9
$DIMALTD
 70
     2
  9
$DIMALTF
 40
25.4
  9
$DIMLFAC
 40
1.0
  9
$DIMTOFL
 70
     0
  9
$DIMTVP
 40
0.0
  9
$DIMTIX
 70
     0
  9
$DIMSOXD
 70
     0
  9
$DIMSAH
 70
     0
  9
$DIMBLK1
  1

  9
$DIMBLK2
  1

  9
$DIMSTYLE
  2
STANDARD
  9
$DIMCLRD
 70
     0
  9
$DIMCLRE
 70
     0
  9
$DIMCLRT
 70
     0
  9
$DIMTFAC
 40
1.0
  9
$DIMGAP
 40
0.09
  9
$DIMJUST
 70
     0
  9
$DIMSD1
 70
     0
  9
$DIMSD2
 70
     0
  9
$DIMTOLJ
 70
     1
  9
$DIMTZIN
 70
     0
  9
$DIMALTZ
 70
     0
  9
$DIMALTTZ
 70
     0
  9
$DIMFIT
 70
     3
  9
$DIMUPT
 70
     0
  9
$DIMUNIT
 70
     2
  9
$DIMDEC
 70
     4
  9
$DIMTDEC
 70
     4
  9
$DIMALTU
 70
     2
  9
$DIMALTTD
 70
     2
  9
$DIMTXSTY
  7
STANDARD
  9
$DIMAUNIT
 70
     0
  9
$LUNITS
 70
     2
  9
$LUPREC
 70
     4
  9
$SKETCHINC
 40
0.1
  9
$FILLETRAD
 40
0.0
  9
$AUNITS
 70
     0
  9
$AUPREC
 70
     0
  9
$MENU
  1
acad
  9
$ELEVATION
 40
0.0
  9
$PELEVATION
 40
0.0
  9
$THICKNESS
 40
0.0
  9
$LIMCHECK
 70
     0
  9
$BLIPMODE
 70
     1
  9
$CHAMFERA
 40
0.0
  9
$CHAMFERB
 40
0.0
  9
$CHAMFERC
 40
0.0
  9
$CHAMFERD
 40
0.0
  9
$SKPOLY
 70
     0
  9
$TDCREATE
 40
0.000000000
  9
$TDUPDATE
 40
0.000000000
  9
$TDINDWG
 40
0.0000000000
  9
$TDUSRTIMER
 40
0.0000000000
  9
$USRTIMER
 70
     1
  9
$ANGBASE
 50
0.0
  9
$ANGDIR
 70
     0
  9
$PDMODE
 70
     0
  9
$PDSIZE
 40
0.0
  9
$PLINEWID
 40
0.0
  9
$COORDS
 70
     0
  9
$SPLFRAME
 70
     0
  9
$SPLINETYPE
 70
     6
  9
$SPLINESEGS
 70
     8
  9
$ATTDIA
 70
     0
  9
$ATTREQ
 70
     1
  9
$HANDLING
 70
     1
  9
$HANDSEED
  5
B8D
  9
$SURFTAB1
 70
     6
  9
$SURFTAB2
 70
     6
  9
$SURFTYPE
 70
     6
  9
$SURFU
 70
     6
  9
$SURFV
 70
     6
  9
$UCSNAME
  2

  9
$UCSORG
 10
0.0
 20
0.0
 30
0.0
  9
$UCSXDIR
 10
1.0
 20
0.0
 30
0.0
  9
$UCSYDIR
 10
0.0
 20
1.0
 30
0.0
  9
$PUCSNAME
  2

  9
$PUCSORG
 10
0.0
 20
0.0
 30
0.0
  9
$PUCSXDIR
 10
1.0
 20
0.0
 30
0.0
  9
$PUCSYDIR
 10
0.0
 20
1.0
 30
0.0
  9
$USERI1
 70
     0
  9
$USERI2
 70
     0
  9
$USERI3
 70
     0
  9
$USERI4
 70
     0
  9
$USERI5
 70
     0
  9
$USERR1
 40
0.0
  9
$USERR2
 40
0.0
  9
$USERR3
 40
0.0
  9
$USERR4
 40
0.0
  9
$USERR5
 40
0.0
  9
$WORLDVIEW
 70
     1
  9
$SHADEDGE
 70
     3
  9
$SHADEDIF
 70
    70
  9
$TILEMODE
 70
     1
  9
$MAXACTVP
 70
    16
  9
$PINSBASE
 10
0.0
 20
0.0
 30
0.0
  9
$PLIMCHECK
 70
     0
  9
$PEXTMIN
 10
1.000000E+20
 20
1.000000E+20
 30
1.000000E+20
  9
$PEXTMAX
 10
-1.000000E+20
 20
-1.000000E+20
 30
-1.000000E+20
  9
$PLIMMIN
 10
0.0
 20
0.0
  9
$PLIMMAX
 10
12.0
 20
9.0
  9
$UNITMODE
 70
     0
  9
$VISRETAIN
 70
     0
  9
$PLINEGEN
 70
     1
  9
$PSLTSCALE
 70
     0
  9
$TREEDEPTH
 70
  3020
  9
$PICKSTYLE
 70
     1
  9
$CMLSTYLE
  2
STANDARD
  9
$CMLJUST
 70
     0
  9
$CMLSCALE
 40
1.0
  9
$PROXYGRAPHICS
 70
     0
  9
$MEASUREMENT
 70
     0
  0
ENDSEC
  0
SECTION
  2
CLASSES
  0
CLASS
  1
LWPOLYLINE
  2
AcDbPolyline
  3
"AutoCAD"
 90
        0
280
     0
281
     1
  0
CLASS
  1
IMAGE
  2
AcDbRasterImage
  3
ISM
 90
      127
280
     0
281
     1
  0
CLASS
  1
OLE2FRAME
  2
AcDbOle2Frame
  3
""
 90
        0
280
     0
281
     1
  0
CLASS
  1
HATCH
  2
AcDbHatch
  3
"ACAD_SEDONA"
 90
        0
280
     0
281
     1
  0
CLASS
  1
DICTIONARYVAR
  2
AcDbDictionaryVar
  3
"AutoCAD"
 90
        0
280
     0
281
     0
  0
CLASS
  1
RASTERVARIABLES
  2
AcDbRasterVariables
  3
ISM
 90
        0
280
     0
281
     0
  0
CLASS
  1
IMAGEDEF
  2
AcDbRasterImageDef
  3
ISM
 90
        0
280
     0
281
     0
  0
CLASS
  1
IMAGEDEF_REACTOR
  2
AcDbRasterImageDefReactor
  3
ISM
 90
        1
280
     0
281
     0
  0
CLASS
  1
IDBUFFER
  2
AcDbIdBuffer
  3
"Acad"
 90
        0
280
     0
281
     0
  0
CLASS
  1
SPATIAL_FILTER
  2
AcDbSpatialFilter
  3
"Acad"
 90
        0
280
     0
281
     0
  0
CLASS
  1
XRECORD
  2
AcDbXrecord
  3
"<Built In>"
 90
        0
280
     0
281
     0
  0
CLASS
  1
SORTENTSTABLE
  2
AcDbSortentsTable
  3
"AutoCAD"
 90
        0
280
     0
281
     0
  0
CLASS
  1
LAYER_INDEX
  2
AcDbLayerIndex
  3
"Acad"
 90
        0
280
     0
281
     0
  0
CLASS
  1
SPATIAL_INDEX
  2
AcDbSpatialIndex
  3
"Acad"
 90
        0
280
     0
281
     0
  0
CLASS
  1
OBJECT_PTR
  2
CAseDLPNTableRecord
  3
"ASE-LPNTableRecord"
 90
        1
280
     0
281
     0
  0
CLASS
  1
LAYOUT
  2
AcDbLayout
  3
"AutoCAD 2000"
 90
        0
280
     0
281
     0
  0
CLASS
  1
PLOTSETTINGS
  2
AcDbPlotSettings
  3
"AutoCAD 2000"
 90
        0
280
     0
281
     0
  0
CLASS
  1
ACDBDICTIONARYWDFLT
  2
AcDbDictionaryWithDefault
  3
"AutoCAD 2000"
 90
        0
280
     0
281
     0
  0
CLASS
  1
ACDBPLACEHOLDER
  2
AcDbPlaceHolder
  3
"AutoCAD 2000"
 90
        0
280
     0
281
     0
  0
CLASS
  1
VBA_PROJECT
  2
AcDbVbaProject
  3
"acadvba"
 90
        0
280
     0
281
     0
  0
CLASS
  1
WIPEOUT
  2
AcDbWipeout
  3
WipeOut|AutoCAD Express Tool|expresstools@autodesk.com
 90
      127
280
     0
281
     1
  0
CLASS
  1
WIPEOUTVARIABLES
  2
AcDbWipeoutVariables
  3
WipeOut|AutoCAD Express Tool|expresstools@autodesk.com
 90
        0
280
     0
281
     0
  0
CLASS
  1
RTEXT
  2
RText
  3
RText|AutoCAD Express Tool|expresstools@autodesk.com
 90
        0
280
     0
281
     1
  0
CLASS
  1
ARCALIGNEDTEXT
  2
AcDbArcAlignedText
  3
ATEXT|AutoCAD Express Tool|expresstools@autodesk.com
 90
        0
280
     0
281
     1
  0
ENDSEC
  0
SECTION
  2
TABLES
  0
TABLE
  2
VPORT
  5
7
100
AcDbSymbolTable
 70
     1
  0
VPORT
  5
15
100
AcDbSymbolTableRecord
100
AcDbViewportTableRecord
  2
*ACTIVE
 70
     0
 10
0.0
 20
0.0
 11
1.0
 21
1.0
 12
3448.827784
 22
-19873.260282
 13
0.0
 23
0.0
 14
1000.0
 24
1000.0
 15
1000.0
 25
1000.0
 16
0.0
 26
0.0
 36
1.0
 17
0.0
 27
0.0
 37
0.0
 40
42000.0
 41
1.414286
 42
50.0
 43
0.0
 44
0.0
 50
0.0
 51
0.0
 71
     0
 72
   100
 73
     1
 74
     1
 75
     0
 76
     0
 77
     0
 78
     0
  0
ENDTAB
  0
TABLE
  2
LTYPE
  5
4
100
AcDbSymbolTable
 70
     8
  0
LTYPE
  5
11
100
AcDbSymbolTableRecord
100
AcDbLinetypeTableRecord
  2
BYBLOCK
 70
    64
  3

 72
    65
 73
     0
 40
0.0
  0
LTYPE
  5
12
100
AcDbSymbolTableRecord
100
AcDbLinetypeTableRecord
  2
BYLAYER
 70
    64
  3

 72
    65
 73
     0
 40
0.0
  0
LTYPE
  5
13
100
AcDbSymbolTableRecord
100
AcDbLinetypeTableRecord
  2
CONTINUOUS
 70
    64
  3
Solid line
 72
    65
 73
     0
 40
0.0
  0
LTYPE
  5
12B
100
AcDbSymbolTableRecord
100
AcDbLinetypeTableRecord
  2
HIDDEN
 70
    64
  3
__ __ __ __ __ __ __ __ __ __ __ __ __ __ __ __
 72
    65
 73
     5
 40
8.0
 49
1.0
 74
     0
 49
-2.0
 74
     0
 49
2.0
 74
     0
 49
-2.0
 74
     0
 49
1.0
 74
     0
  0
LTYPE
  5
12C
100
AcDbSymbolTableRecord
100
AcDbLinetypeTableRecord
  2
DOT
 70
    64
  3
. . . . . . . . . . . . . . . . . . . . . . . .
 72
    65
 73
     3
 40
1.6
 49
0.4
 74
     0
 49
-0.8
 74
     0
 49
0.4
 74
     0
  0
LTYPE
  5
12D
100
AcDbSymbolTableRecord
100
AcDbLinetypeTableRecord
  2
CENTER
 70
    64
  3
____ _ ____ _ ____ _ ____ _ ____ _ ____ _ ____ 
 72
    65
 73
     5
 40
12.0
 49
5.0
 74
     0
 49
-0.8
 74
     0
 49
0.4
 74
     0
 49
-0.8
 74
     0
 49
5.0
 74
     0
  0
LTYPE
  5
12E
100
AcDbSymbolTableRecord
100
AcDbLinetypeTableRecord
  2
DIVIDE
 70
    64
  3
____ . . ____ . . ____ . . ____ . . ____ . . __
 72
    65
 73
     7
 40
13.2
 49
5.0
 74
     0
 49
-0.8
 74
     0
 49
0.4
 74
     0
 49
-0.8
 74
     0
 49
0.4
 74
     0
 49
-0.8
 74
     0
 49
5.0
 74
     0
  0
LTYPE
  5
12F
100
AcDbSymbolTableRecord
100
AcDbLinetypeTableRecord
  2
STYLE_07
 70
     0
  3
Solid Line
 72
    65
 73
     6
 40
7.48
 49
2.5
 74
     0
 49
-0.83
 74
     0
 49
2.5
 74
     0
 49
-0.83
 74
     0
 49
0.27
 74
     0
 49
-0.55
 74
     0
  0
ENDTAB
  0
TABLE
  2
LAYER
  5
2
100
AcDbSymbolTable
 70
     5
  0
LAYER
  5
14
100
AcDbSymbolTableRecord
100
AcDbLayerTableRecord
  2
0
 70
     0
 62
     7
  6
CONTINUOUS
  0
LAYER
  5
27
100
AcDbSymbolTableRecord
100
AcDbLayerTableRecord
  2
001
 70
     0
 62
     7
  6
CONTINUOUS
  0
LAYER
  5
28
100
AcDbSymbolTableRecord
100
AcDbLayerTableRecord
  2
002
 70
     0
 62
     7
  6
CONTINUOUS
  0
LAYER
  5
29
100
AcDbSymbolTableRecord
100
AcDbLayerTableRecord
  2
003
 70
     0
 62
     7
  6
CONTINUOUS
  0
LAYER
  5
2A
100
AcDbSymbolTableRecord
100
AcDbLayerTableRecord
  2
004
 70
     0
 62
     7
  6
CONTINUOUS
  0
ENDTAB
  0
TABLE
  2
STYLE
  5
3
100
AcDbSymbolTable
 70
     3
  0
STYLE
  5
17
100
AcDbSymbolTableRecord
100
AcDbTextStyleTableRecord
  2
STANDARD
 70
     0
 40
0.0
 41
1.0
 50
0.0
 71
     0
 42
0.0
  3
txt
  4

  0
STYLE
  5
127
100
AcDbSymbolTableRecord
100
AcDbTextStyleTableRecord
  2
DRACAD
 70
     0
 40
0.0
 41
1.0
 50
0.0
 71
     0
 42
0.0
  3
txt
  4
extfont
  0
STYLE
  5
128
100
AcDbSymbolTableRecord
100
AcDbTextStyleTableRecord
  2
TATEDRACAD
 70
     4
 40
0.0
 41
1.0
 50
0.0
 71
     0
 42
0.0
  3
txt
  4
extfont
  0
ENDTAB
  0
TABLE
  2
VIEW
  5
5
100
AcDbSymbolTable
 70
     0
  0
ENDTAB
  0
TABLE
  2
UCS
  5
6
100
AcDbSymbolTable
 70
     0
  0
ENDTAB
  0
TABLE
  2
APPID
  5
8
100
AcDbSymbolTable
 70
     1
  0
APPID
  5
16
100
AcDbSymbolTableRecord
100
AcDbRegAppTableRecord
  2
ACAD
 70
     0
  0
ENDTAB
  0
TABLE
  2
DIMSTYLE
  5
9
100
AcDbSymbolTable
 70
     2
  0
DIMSTYLE
105
18
100
AcDbSymbolTableRecord
100
AcDbDimStyleTableRecord
  2
STANDARD
 70
     0
  3

  4

  5

  6

  7

 40
1.0
 41
0.18
 42
0.0625
 43
0.38
 44
0.18
 45
0.0
 46
0.0
 47
0.0
 48
0.0
 71
     0
 72
     0
 73
     1
 74
     1
 75
     0
 76
     0
 77
     0
 78
     0
140
0.18
141
0.09
142
0.0
143
25.4
144
1.0
145
0.0
146
1.0
147
0.09
170
     0
171
     2
172
     0
173
     0
174
     0
175
     0
176
     0
177
     0
178
     0
270
     2
271
     4
272
     4
273
     2
274
     2
275
     0
280
     0
281
     0
282
     0
283
     1
284
     0
285
     0
286
     0
287
     0
288
     0
340
17
  0
DIMSTYLE
105
14F
100
AcDbSymbolTableRecord
100
AcDbDimStyleTableRecord
  2
DIMSTYLE001
 70
     0
  3

  4

  5
_ORIGIN
  6

  7

 40
1.0
 41
10.0
 42
0.0
 43
1000.0
 44
0.0
 45
0.0
 46
0.0
 47
0.0
 48
0.0
 71
     0
 72
     0
 73
     0
 74
     0
 75
     0
 76
     0
 77
     1
 78
     0
140
25.0
141
0.09
142
0.0
143
25.4
144
1.0
145
0.0
146
1.0
147
0.0
170
     0
171
     2
172
     1
173
     0
174
     1
175
     0
176
     0
177
     0
178
     0
270
     2
271
     0
272
     4
273
     2
274
     2
275
     0
280
     0
281
     0
282
     0
283
     1
284
     0
285
     0
286
     0
287
     3
288
     0
340
127
  0
ENDTAB
  0
TABLE
  2
BLOCK_RECORD
  5
1
100
AcDbSymbolTable
 70
    12
  0
BLOCK_RECORD
  5
A
100
AcDbSymbolTableRecord
100
AcDbBlockTableRecord
  2
*MODEL_SPACE
  0
BLOCK_RECORD
  5
B
100
AcDbSymbolTableRecord
100
AcDbBlockTableRecord
  2
*PAPER_SPACE
  0
BLOCK_RECORD
  5
14A
100
AcDbSymbolTableRecord
100
AcDbBlockTableRecord
  2
_ORIGIN
  0
BLOCK_RECORD
  5
150
100
AcDbSymbolTableRecord
100
AcDbBlockTableRecord
  2
1
  0
BLOCK_RECORD
  5
151
100
AcDbSymbolTableRecord
100
AcDbBlockTableRecord
  2
2
  0
BLOCK_RECORD
  5
152
100
AcDbSymbolTableRecord
100
AcDbBlockTableRecord
  2
3
  0
BLOCK_RECORD
  5
B1A
100
AcDbSymbolTableRecord
100
AcDbBlockTableRecord
  2
*D4
  0
BLOCK_RECORD
  5
B24
100
AcDbSymbolTableRecord
100
AcDbBlockTableRecord
  2
*D5
  0
BLOCK_RECORD
  5
B2E
100
AcDbSymbolTableRecord
100
AcDbBlockTableRecord
  2
*D6
  0
BLOCK_RECORD
  5
B38
100
AcDbSymbolTableRecord
100
AcDbBlockTableRecord
  2
*D7
  0
BLOCK_RECORD
  5
B45
100
AcDbSymbolTableRecord
100
AcDbBlockTableRecord
  2
*D8
  0
BLOCK_RECORD
  5
B6D
100
AcDbSymbolTableRecord
100
AcDbBlockTableRecord
  2
*D9
  0
BLOCK_RECORD
  5
B77
100
AcDbSymbolTableRecord
100
AcDbBlockTableRecord
  2
*D10
  0
BLOCK_RECORD
  5
B83
100
AcDbSymbolTableRecord
100
AcDbBlockTableRecord
  2
*D11
  0
ENDTAB
  0
ENDSEC
  0
SECTION
  2
BLOCKS
  0
BLOCK
  5
D
100
AcDbEntity
  8
0
100
AcDbBlockBegin
  2
*MODEL_SPACE
 70
     0
 10
0.0
 20
0.0
 30
0.0
  3
*MODEL_SPACE
  1

  0
ENDBLK
  5
E
100
AcDbEntity
  8
0
100
AcDbBlockEnd
  0
BLOCK
  5
F
100
AcDbEntity
 67
     1
  8
0
100
AcDbBlockBegin
  2
*PAPER_SPACE
 70
     0
 10
0.0
 20
0.0
 30
0.0
  3
*PAPER_SPACE
  1

  0
ENDBLK
  5
10
100
AcDbEntity
 67
     1
  8
0
100
AcDbBlockEnd
  0
BLOCK
  5
14B
100
AcDbEntity
  8
0
100
AcDbBlockBegin
  2
_ORIGIN
 70
     0
 10
0.0
 20
0.0
 30
0.0
  3
_ORIGIN
  1

  0
CIRCLE
  5
14C
100
AcDbEntity
  8
0
  6
ByBlock
 62
     0
100
AcDbCircle
 10
0.0
 20
0.0
 30
0.0
 40
0.5
  0
LINE
  5
14D
100
AcDbEntity
  8
0
  6
ByBlock
 62
     0
100
AcDbLine
 10
0.0
 20
0.0
 30
0.0
 11
-1.0
 21
0.0
 31
0.0
  0
ENDBLK
  5
14E
100
AcDbEntity
  8
0
100
AcDbBlockEnd
  0
BLOCK
  5
153
100
AcDbEntity
  8
0
100
AcDbBlockBegin
  2
1
 70
     0
 10
0.0
 20
0.0
 30
0.0
  3
1
  1

  0
ARC
  5
154
100
AcDbEntity
  8
004
  6
CONTINUOUS
 62
     7
100
AcDbCircle
 10
133.068018
 20
-9.500511
 30
0.0
 40
134.969188
100
AcDbArc
 50
45.663628
 51
224.512358
  0
LINE
  5
155
100
AcDbEntity
  8
004
  6
CONTINUOUS
 62
     7
100
AcDbLine
 10
-120.089883
 20
249.590778
 30
0.0
 11
386.225919
 21
249.590778
 31
0.0
  0
LINE
  5
156
100
AcDbEntity
  8
004
  6
CONTINUOUS
 62
     7
100
AcDbLine
 10
-120.089883
 20
-268.591801
 30
0.0
 11
-120.089883
 21
249.590778
 31
0.0
  0
ARC
  5
157
100
AcDbEntity
  8
004
  6
CONTINUOUS
 62
     7
100
AcDbCircle
 10
133.068018
 20
-9.500511
 30
0.0
 40
134.969188
100
AcDbArc
 50
224.512358
 51
225.663628
  0
LINE
  5
158
100
AcDbEntity
  8
004
  6
CONTINUOUS
 62
     7
100
AcDbLine
 10
-120.089883
 20
239.590778
 30
0.0
 11
376.454927
 21
239.590778
 31
0.0
  0
LINE
  5
159
100
AcDbEntity
  8
004
  6
CONTINUOUS
 62
     7
100
AcDbLine
 10
-120.089883
 20
229.590778
 30
0.0
 11
366.683934
 21
229.590778
 31
0.0
  0
LINE
  5
15A
100
AcDbEntity
  8
004
  6
CONTINUOUS
 62
     7
100
AcDbLine
 10
-120.089883
 20
219.590778
 30
0.0
 11
356.912942
 21
219.590778
 31
0.0
  0
LINE
  5
15B
100
AcDbEntity
  8
004
  6
CONTINUOUS
 62
     7
100
AcDbLine
 10
-120.089883
 20
209.590778
 30
0.0
 11
347.14195
 21
209.590778
 31
0.0
  0
LINE
  5
15C
100
AcDbEntity
  8
004
  6
CONTINUOUS
 62
     7
100
AcDbLine
 10
-120.089883
 20
199.590778
 30
0.0
 11
337.370957
 21
199.590778
 31
0.0
  0
LINE
  5
15D
100
AcDbEntity
  8
004
  6
CONTINUOUS
 62
     7
100
AcDbLine
 10
-120.089883
 20
189.590778
 30
0.0
 11
327.599965
 21
189.590778
 31
0.0
  0
LINE
  5
15E
100
AcDbEntity
  8
004
  6
CONTINUOUS
 62
     7
100
AcDbLine
 10
-120.089883
 20
179.590778
 30
0.0
 11
317.828973
 21
179.590778
 31
0.0
  0
LINE
  5
15F
100
AcDbEntity
  8
004
  6
CONTINUOUS
 62
     7
100
AcDbLine
 10
-120.089883
 20
169.590778
 30
0.0
 11
308.05798
 21
169.590778
 31
0.0
  0
LINE
  5
160
100
AcDbEntity
  8
004
  6
CONTINUOUS
 62
     7
100
AcDbLine
 10
-120.089883
 20
159.590778
 30
0.0
 11
298.286988
 21
159.590778
 31
0.0
  0
LINE
  5
161
100
AcDbEntity
  8
004
  6
CONTINUOUS
 62
     7
100
AcDbLine
 10
-120.089883
 20
149.590778
 30
0.0
 11
288.515995
 21
149.590778
 31
0.0
  0
LINE
  5
162
100
AcDbEntity
  8
004
  6
CONTINUOUS
 62
     7
100
AcDbLine
 10
-120.089883
 20
139.590778
 30
0.0
 11
278.745003
 21
139.590778
 31
0.0
  0
LINE
  5
163
100
AcDbEntity
  8
004
  6
CONTINUOUS
 62
     7
100
AcDbLine
 10
-120.089883
 20
129.590778
 30
0.0
 11
268.974011
 21
129.590778
 31
0.0
  0
LINE
  5
164
100
AcDbEntity
  8
004
  6
CONTINUOUS
 62
     7
100
AcDbLine
 10
386.225919
 20
249.590778
 30
0.0
 11
227.393864
 21
87.036097
 31
0.0
  0
LINE
  5
165
100
AcDbEntity
  8
004
  6
CONTINUOUS
 62
     7
100
AcDbLine
 10
-120.089883
 20
-110.409222
 30
0.0
 11
34.470194
 21
-110.409222
 31
0.0
  0
LINE
  5
166
100
AcDbEntity
  8
004
  6
CONTINUOUS
 62
     7
100
AcDbLine
 10
-120.089883
 20
-120.409222
 30
0.0
 11
24.699202
 21
-120.409222
 31
0.0
  0
LINE
  5
167
100
AcDbEntity
  8
004
  6
CONTINUOUS
 62
     7
100
AcDbLine
 10
-120.089883
 20
-130.409222
 30
0.0
 11
14.928209
 21
-130.409222
 31
0.0
  0
LINE
  5
168
100
AcDbEntity
  8
004
  6
CONTINUOUS
 62
     7
100
AcDbLine
 10
-120.089883
 20
-140.409222
 30
0.0
 11
5.157217
 21
-140.409222
 31
0.0
  0
LINE
  5
169
100
AcDbEntity
  8
004
  6
CONTINUOUS
 62
     7
100
AcDbLine
 10
-120.089883
 20
-150.409222
 30
0.0
 11
-4.613776
 21
-150.409222
 31
0.0
  0
LINE
  5
16A
100
AcDbEntity
  8
004
  6
CONTINUOUS
 62
     7
100
AcDbLine
 10
-120.089883
 20
-160.409222
 30
0.0
 11
-14.384768
 21
-160.409222
 31
0.0
  0
LINE
  5
16B
100
AcDbEntity
  8
004
  6
CONTINUOUS
 62
     7
100
AcDbLine
 10
-120.089883
 20
-170.409222
 30
0.0
 11
-24.15576
 21
-170.409222
 31
0.0
  0
LINE
  5
16C
100
AcDbEntity
  8
004
  6
CONTINUOUS
 62
     7
100
AcDbLine
 10
-120.089883
 20
-180.409222
 30
0.0
 11
-33.926753
 21
-180.409222
 31
0.0
  0
LINE
  5
16D
100
AcDbEntity
  8
004
  6
CONTINUOUS
 62
     7
100
AcDbLine
 10
-120.089883
 20
-190.409222
 30
0.0
 11
-43.697745
 21
-190.409222
 31
0.0
  0
LINE
  5
16E
100
AcDbEntity
  8
004
  6
CONTINUOUS
 62
     7
100
AcDbLine
 10
-120.089883
 20
-200.409222
 30
0.0
 11
-53.468737
 21
-200.409222
 31
0.0
  0
LINE
  5
16F
100
AcDbEntity
  8
004
  6
CONTINUOUS
 62
     7
100
AcDbLine
 10
-120.089883
 20
-210.409222
 30
0.0
 11
-63.23973
 21
-210.409222
 31
0.0
  0
LINE
  5
170
100
AcDbEntity
  8
004
  6
CONTINUOUS
 62
     7
100
AcDbLine
 10
-120.089883
 20
-220.409222
 30
0.0
 11
-73.010722
 21
-220.409222
 31
0.0
  0
LINE
  5
171
100
AcDbEntity
  8
004
  6
CONTINUOUS
 62
     7
100
AcDbLine
 10
-120.089883
 20
-230.409222
 30
0.0
 11
-82.781714
 21
-230.409222
 31
0.0
  0
LINE
  5
172
100
AcDbEntity
  8
004
  6
CONTINUOUS
 62
     7
100
AcDbLine
 10
-120.089883
 20
-240.409222
 30
0.0
 11
-92.552707
 21
-240.409222
 31
0.0
  0
LINE
  5
173
100
AcDbEntity
  8
004
  6
CONTINUOUS
 62
     7
100
AcDbLine
 10
-120.089883
 20
-250.409222
 30
0.0
 11
-102.323699
 21
-250.409222
 31
0.0
  0
LINE
  5
174
100
AcDbEntity
  8
004
  6
CONTINUOUS
 62
     7
100
AcDbLine
 10
-120.089883
 20
-260.409222
 30
0.0
 11
-112.094692
 21
-260.409222
 31
0.0
  0
LINE
  5
175
100
AcDbEntity
  8
004
  6
CONTINUOUS
 62
     7
100
AcDbLine
 10
38.761214
 20
-106.017631
 30
0.0
 11
-120.089883
 21
-268.591801
 31
0.0
  0
LINE
  5
176
100
AcDbEntity
  8
004
  6
CONTINUOUS
 62
     7
100
AcDbLine
 10
-120.089883
 20
-100.409222
 30
0.0
 11
33.306863
 21
-100.409222
 31
0.0
  0
LINE
  5
177
100
AcDbEntity
  8
004
  6
CONTINUOUS
 62
     7
100
AcDbLine
 10
-120.089883
 20
-90.409222
 30
0.0
 11
25.038104
 21
-90.409222
 31
0.0
  0
LINE
  5
178
100
AcDbEntity
  8
004
  6
CONTINUOUS
 62
     7
100
AcDbLine
 10
-120.089883
 20
-80.409222
 30
0.0
 11
18.226229
 21
-80.409222
 31
0.0
  0
LINE
  5
179
100
AcDbEntity
  8
004
  6
CONTINUOUS
 62
     7
100
AcDbLine
 10
-120.089883
 20
-70.409222
 30
0.0
 11
12.623795
 21
-70.409222
 31
0.0
  0
LINE
  5
17A
100
AcDbEntity
  8
004
  6
CONTINUOUS
 62
     7
100
AcDbLine
 10
-120.089883
 20
-60.409222
 30
0.0
 11
8.068078
 21
-60.409222
 31
0.0
  0
LINE
  5
17B
100
AcDbEntity
  8
004
  6
CONTINUOUS
 62
     7
100
AcDbLine
 10
-120.089883
 20
-50.409222
 30
0.0
 11
4.447805
 21
-50.409222
 31
0.0
  0
LINE
  5
17C
100
AcDbEntity
  8
004
  6
CONTINUOUS
 62
     7
100
AcDbLine
 10
-120.089883
 20
-40.409222
 30
0.0
 11
1.685624
 21
-40.409222
 31
0.0
  0
LINE
  5
17D
100
AcDbEntity
  8
004
  6
CONTINUOUS
 62
     7
100
AcDbLine
 10
-120.089883
 20
-30.409222
 30
0.0
 11
-0.271802
 21
-30.409222
 31
0.0
  0
LINE
  5
17E
100
AcDbEntity
  8
004
  6
CONTINUOUS
 62
     7
100
AcDbLine
 10
-120.089883
 20
-20.409222
 30
0.0
 11
-1.459607
 21
-20.409222
 31
0.0
  0
LINE
  5
17F
100
AcDbEntity
  8
004
  6
CONTINUOUS
 62
     7
100
AcDbLine
 10
-120.089883
 20
-10.409222
 30
0.0
 11
-1.898111
 21
-10.409222
 31
0.0
  0
LINE
  5
180
100
AcDbEntity
  8
004
  6
CONTINUOUS
 62
     7
100
AcDbLine
 10
-120.089883
 20
-0.409222
 30
0.0
 11
-1.594635
 21
-0.409222
 31
0.0
  0
LINE
  5
181
100
AcDbEntity
  8
004
  6
CONTINUOUS
 62
     7
100
AcDbLine
 10
-120.089883
 20
9.590778
 30
0.0
 11
-0.544124
 21
9.590778
 31
0.0
  0
LINE
  5
182
100
AcDbEntity
  8
004
  6
CONTINUOUS
 62
     7
100
AcDbLine
 10
-120.089883
 20
19.590778
 30
0.0
 11
1.271286
 21
19.590778
 31
0.0
  0
LINE
  5
183
100
AcDbEntity
  8
004
  6
CONTINUOUS
 62
     7
100
AcDbLine
 10
-120.089883
 20
29.590778
 30
0.0
 11
3.883836
 21
29.590778
 31
0.0
  0
LINE
  5
184
100
AcDbEntity
  8
004
  6
CONTINUOUS
 62
     7
100
AcDbLine
 10
-120.089883
 20
39.590778
 30
0.0
 11
7.343211
 21
39.590778
 31
0.0
  0
LINE
  5
185
100
AcDbEntity
  8
004
  6
CONTINUOUS
 62
     7
100
AcDbLine
 10
-120.089883
 20
49.590778
 30
0.0
 11
11.721814
 21
49.590778
 31
0.0
  0
LINE
  5
186
100
AcDbEntity
  8
004
  6
CONTINUOUS
 62
     7
100
AcDbLine
 10
-120.089883
 20
59.590778
 30
0.0
 11
17.12374
 21
59.590778
 31
0.0
  0
LINE
  5
187
100
AcDbEntity
  8
004
  6
CONTINUOUS
 62
     7
100
AcDbLine
 10
-120.089883
 20
69.590778
 30
0.0
 11
23.70052
 21
69.590778
 31
0.0
  0
LINE
  5
188
100
AcDbEntity
  8
004
  6
CONTINUOUS
 62
     7
100
AcDbLine
 10
-120.089883
 20
79.590778
 30
0.0
 11
31.680524
 21
79.590778
 31
0.0
  0
LINE
  5
189
100
AcDbEntity
  8
004
  6
CONTINUOUS
 62
     7
100
AcDbLine
 10
-120.089883
 20
89.590778
 30
0.0
 11
41.429608
 21
89.590778
 31
0.0
  0
LINE
  5
18A
100
AcDbEntity
  8
004
  6
CONTINUOUS
 62
     7
100
AcDbLine
 10
-120.089883
 20
99.590778
 30
0.0
 11
53.596184
 21
99.590778
 31
0.0
  0
LINE
  5
18B
100
AcDbEntity
  8
004
  6
CONTINUOUS
 62
     7
100
AcDbLine
 10
-120.089883
 20
109.590778
 30
0.0
 11
69.554661
 21
109.590778
 31
0.0
  0
LINE
  5
18C
100
AcDbEntity
  8
004
  6
CONTINUOUS
 62
     7
100
AcDbLine
 10
-120.089883
 20
119.590778
 30
0.0
 11
93.671054
 21
119.590778
 31
0.0
  0
LINE
  5
18D
100
AcDbEntity
  8
004
  6
CONTINUOUS
 62
     7
100
AcDbLine
 10
172.464982
 20
119.590778
 30
0.0
 11
259.203018
 21
119.590778
 31
0.0
  0
LINE
  5
18E
100
AcDbEntity
  8
004
  6
CONTINUOUS
 62
     7
100
AcDbLine
 10
196.581375
 20
109.590778
 30
0.0
 11
249.432026
 21
109.590778
 31
0.0
  0
LINE
  5
18F
100
AcDbEntity
  8
004
  6
CONTINUOUS
 62
     7
100
AcDbLine
 10
212.539852
 20
99.590778
 30
0.0
 11
239.661034
 21
99.590778
 31
0.0
  0
ENDBLK
  5
190
100
AcDbEntity
  8
0
100
AcDbBlockEnd
  0
BLOCK
  5
191
100
AcDbEntity
  8
0
100
AcDbBlockBegin
  2
2
 70
     0
 10
0.0
 20
0.0
 30
0.0
  3
2
  1

  0
INSERT
  5
192
100
AcDbEntity
  8
004
  6
CONTINUOUS
 62
     7
100
AcDbBlockReference
  2
1
 10
-26.613604
 20
1.900102
 30
0.0
 41
0.2
 42
0.2
  0
ENDBLK
  5
193
100
AcDbEntity
  8
0
100
AcDbBlockEnd
  0
BLOCK
  5
194
100
AcDbEntity
  8
0
100
AcDbBlockBegin
  2
3
 70
     0
 10
0.0
 20
0.0
 30
0.0
  3
3
  1

  0
INSERT
  5
195
100
AcDbEntity
  8
003
  6
CONTINUOUS
 62
     7
100
AcDbBlockReference
  2
2
 10
187.309635
 20
61.739262
 30
0.0
  0
ENDBLK
  5
196
100
AcDbEntity
  8
0
100
AcDbBlockEnd
  0
BLOCK
  5
B1B
100
AcDbEntity
  8
0
100
AcDbBlockBegin
  2
*D4
 70
     1
 10
0.0
 20
0.0
 30
0.0
  3
*D4
  1

  0
LINE
  5
B1C
100
AcDbEntity
  8
0
  6
ByBlock
 62
     0
100
AcDbLine
 10
3081.022477
 20
-19461.005634
 30
0.0
 11
2959.059388
 21
-19461.005634
 31
0.0
  0
LINE
  5
B1D
100
AcDbEntity
  8
0
  6
ByBlock
 62
     0
100
AcDbLine
 10
3081.034833
 20
-19638.515778
 30
0.0
 11
2959.059388
 21
-19638.515778
 31
0.0
  0
LINE
  5
B1E
100
AcDbEntity
  8
0
  6
ByBlock
 62
     0
100
AcDbLine
 10
2959.059388
 20
-19461.005634
 30
0.0
 11
2959.059388
 21
-19638.515778
 31
0.0
  0
INSERT
  5
B1F
100
AcDbEntity
  8
0
  6
ByBlock
 62
     0
100
AcDbBlockReference
  2
_ORIGIN
 10
2959.059388
 20
-19461.005634
 30
0.0
 41
10.0
 42
10.0
 43
10.0
 50
90.0
  0
INSERT
  5
B20
100
AcDbEntity
  8
0
  6
ByBlock
 62
     0
100
AcDbBlockReference
  2
_ORIGIN
 10
2959.059388
 20
-19638.515778
 30
0.0
 41
10.0
 42
10.0
 43
10.0
 50
270.0
  0
MTEXT
  5
B21
100
AcDbEntity
  8
0
  6
ByBlock
 62
     0
100
AcDbMText
 10
2946.559388
 20
-19549.760706
 30
0.0
 40
25.0
 41
0.0
 71
     5
 72
     1
  1
{\A1;178}
  7
DRACAD
 11
0.0
 21
1.0
 31
0.0
  0
ENDBLK
  5
B22
100
AcDbEntity
  8
0
100
AcDbBlockEnd
  0
BLOCK
  5
B25
100
AcDbEntity
  8
0
100
AcDbBlockBegin
  2
*D5
 70
     1
 10
0.0
 20
0.0
 30
0.0
  3
*D5
  1

  0
LINE
  5
B26
100
AcDbEntity
  8
0
  6
ByBlock
 62
     0
100
AcDbLine
 10
3142.718388
 20
-19230.783478
 30
0.0
 11
3142.718388
 21
-19077.75785
 31
0.0
  0
LINE
  5
B27
100
AcDbEntity
  8
0
  6
ByBlock
 62
     0
100
AcDbLine
 10
3702.271606
 20
-19230.203167
 30
0.0
 11
3702.271606
 21
-19077.75785
 31
0.0
  0
LINE
  5
B28
100
AcDbEntity
  8
0
  6
ByBlock
 62
     0
100
AcDbLine
 10
3142.718388
 20
-19077.75785
 30
0.0
 11
3702.271606
 21
-19077.75785
 31
0.0
  0
INSERT
  5
B29
100
AcDbEntity
  8
0
  6
ByBlock
 62
     0
100
AcDbBlockReference
  2
_ORIGIN
 10
3142.718388
 20
-19077.75785
 30
0.0
 41
10.0
 42
10.0
 43
10.0
 50
180.0
  0
INSERT
  5
B2A
100
AcDbEntity
  8
0
  6
ByBlock
 62
     0
100
AcDbBlockReference
  2
_ORIGIN
 10
3702.271606
 20
-19077.75785
 30
0.0
 41
10.0
 42
10.0
 43
10.0
  0
MTEXT
  5
B2B
100
AcDbEntity
  8
0
  6
ByBlock
 62
     0
100
AcDbMText
 10
3422.494997
 20
-19065.25785
 30
0.0
 40
25.0
 41
0.0
 71
     5
 72
     1
  1
{\A1;560}
  7
DRACAD
  0
ENDBLK
  5
B2C
100
AcDbEntity
  8
0
100
AcDbBlockEnd
  0
BLOCK
  5
B2F
100
AcDbEntity
  8
0
100
AcDbBlockBegin
  2
*D6
 70
     1
 10
0.0
 20
0.0
 30
0.0
  3
*D6
  1

  0
LINE
  5
B30
100
AcDbEntity
  8
0
  6
ByBlock
 62
     0
100
AcDbLine
 10
3142.718388
 20
-19230.783478
 30
0.0
 11
3142.718388
 21
-19077.75785
 31
0.0
  0
LINE
  5
B31
100
AcDbEntity
  8
0
  6
ByBlock
 62
     0
100
AcDbLine
 10
3702.271606
 20
-19230.203167
 30
0.0
 11
3702.271606
 21
-19077.75785
 31
0.0
  0
LINE
  5
B32
100
AcDbEntity
  8
0
  6
ByBlock
 62
     0
100
AcDbLine
 10
3142.718388
 20
-19077.75785
 30
0.0
 11
3702.271606
 21
-19077.75785
 31
0.0
  0
INSERT
  5
B33
100
AcDbEntity
  8
0
  6
ByBlock
 62
     0
100
AcDbBlockReference
  2
_ORIGIN
 10
3142.718388
 20
-19077.75785
 30
0.0
 41
10.0
 42
10.0
 43
10.0
 50
180.0
  0
INSERT
  5
B34
100
AcDbEntity
  8
0
  6
ByBlock
 62
     0
100
AcDbBlockReference
  2
_ORIGIN
 10
3702.271606
 20
-19077.75785
 30
0.0
 41
10.0
 42
10.0
 43
10.0
  0
MTEXT
  5
B35
100
AcDbEntity
  8
0
  6
ByBlock
 62
     0
100
AcDbMText
 10
3422.494997
 20
-19065.25785
 30
0.0
 40
25.0
 41
0.0
 71
     5
 72
     1
  1
{\A1;560}
  7
DRACAD
  0
ENDBLK
  5
B36
100
AcDbEntity
  8
0
100
AcDbBlockEnd
  0
BLOCK
  5
B39
100
AcDbEntity
  8
0
100
AcDbBlockBegin
  2
*D7
 70
     1
 10
0.0
 20
0.0
 30
0.0
  3
*D7
  1

  0
LINE
  5
B3A
100
AcDbEntity
  8
0
  6
ByBlock
 62
     0
100
AcDbLine
 10
3714.350589
 20
-19269.736875
 30
0.0
 11
3882.384683
 21
-19269.736875
 31
0.0
  0
LINE
  5
B3B
100
AcDbEntity
  8
0
  6
ByBlock
 62
     0
100
AcDbLine
 10
3714.350589
 20
-19829.746618
 30
0.0
 11
3882.384683
 21
-19829.746618
 31
0.0
  0
LINE
  5
B3C
100
AcDbEntity
  8
0
  6
ByBlock
 62
     0
100
AcDbLine
 10
3882.384683
 20
-19269.736875
 30
0.0
 11
3882.384683
 21
-19829.746618
 31
0.0
  0
INSERT
  5
B3D
100
AcDbEntity
  8
0
  6
ByBlock
 62
     0
100
AcDbBlockReference
  2
_ORIGIN
 10
3882.384683
 20
-19269.736875
 30
0.0
 41
10.0
 42
10.0
 43
10.0
 50
90.0
  0
INSERT
  5
B3E
100
AcDbEntity
  8
0
  6
ByBlock
 62
     0
100
AcDbBlockReference
  2
_ORIGIN
 10
3882.384683
 20
-19829.746618
 30
0.0
 41
10.0
 42
10.0
 43
10.0
 50
270.0
  0
MTEXT
  5
B3F
100
AcDbEntity
  8
0
  6
ByBlock
 62
     0
100
AcDbMText
 10
3869.884683
 20
-19549.741747
 30
0.0
 40
25.0
 41
0.0
 71
     5
 72
     1
  1
{\A1;560}
  7
DRACAD
 11
0.0
 21
1.0
 31
0.0
  0
ENDBLK
  5
B40
100
AcDbEntity
  8
0
100
AcDbBlockEnd
  0
BLOCK
  5
B46
100
AcDbEntity
  8
0
100
AcDbBlockBegin
  2
*D8
 70
     1
 10
0.0
 20
0.0
 30
0.0
  3
*D8
  1

  0
LINE
  5
B47
100
AcDbEntity
  8
0
  6
ByBlock
 62
     0
100
AcDbLine
 10
3292.723274
 20
-20291.594748
 30
0.0
 11
3292.723274
 21
-20236.790538
 31
0.0
  0
LINE
  5
B48
100
AcDbEntity
  8
0
  6
ByBlock
 62
     0
100
AcDbLine
 10
3552.723274
 20
-20291.594748
 30
0.0
 11
3552.723274
 21
-20236.790538
 31
0.0
  0
LINE
  5
B49
100
AcDbEntity
  8
0
  6
ByBlock
 62
     0
100
AcDbLine
 10
3292.723274
 20
-20236.790538
 30
0.0
 11
3552.723274
 21
-20236.790538
 31
0.0
  0
INSERT
  5
B4A
100
AcDbEntity
  8
0
  6
ByBlock
 62
     0
100
AcDbBlockReference
  2
_ORIGIN
 10
3292.723274
 20
-20236.790538
 30
0.0
 41
10.0
 42
10.0
 43
10.0
 50
180.0
  0
INSERT
  5
B4B
100
AcDbEntity
  8
0
  6
ByBlock
 62
     0
100
AcDbBlockReference
  2
_ORIGIN
 10
3552.723274
 20
-20236.790538
 30
0.0
 41
10.0
 42
10.0
 43
10.0
  0
MTEXT
  5
B4C
100
AcDbEntity
  8
0
  6
ByBlock
 62
     0
100
AcDbMText
 10
3422.723274
 20
-20224.290538
 30
0.0
 40
25.0
 41
0.0
 71
     5
 72
     1
  1
{\A1;260}
  7
DRACAD
  0
ENDBLK
  5
B4D
100
AcDbEntity
  8
0
100
AcDbBlockEnd
  0
BLOCK
  5
B6E
100
AcDbEntity
  8
0
100
AcDbBlockBegin
  2
*D9
 70
     1
 10
0.0
 20
0.0
 30
0.0
  3
*D9
  1

  0
LINE
  5
B6F
100
AcDbEntity
  8
0
  6
ByBlock
 62
     0
100
AcDbLine
 10
3142.718388
 20
-20551.276345
 30
0.0
 11
3142.718388
 21
-20704.301973
 31
0.0
  0
LINE
  5
B70
100
AcDbEntity
  8
0
  6
ByBlock
 62
     0
100
AcDbLine
 10
3702.271606
 20
-20551.856655
 30
0.0
 11
3702.271606
 21
-20704.301973
 31
0.0
  0
LINE
  5
B71
100
AcDbEntity
  8
0
  6
ByBlock
 62
     0
100
AcDbLine
 10
3142.718388
 20
-20704.301973
 30
0.0
 11
3702.271606
 21
-20704.301973
 31
0.0
  0
INSERT
  5
B72
100
AcDbEntity
  8
0
  6
ByBlock
 62
     0
100
AcDbBlockReference
  2
_ORIGIN
 10
3142.718388
 20
-20704.301973
 30
0.0
 41
10.0
 42
10.0
 43
10.0
 50
180.0
  0
INSERT
  5
B73
100
AcDbEntity
  8
0
  6
ByBlock
 62
     0
100
AcDbBlockReference
  2
_ORIGIN
 10
3702.271606
 20
-20704.301973
 30
0.0
 41
10.0
 42
10.0
 43
10.0
  0
MTEXT
  5
B74
100
AcDbEntity
  8
0
  6
ByBlock
 62
     0
100
AcDbMText
 10
3422.494997
 20
-20691.801973
 30
0.0
 40
25.0
 41
0.0
 71
     5
 72
     1
  1
{\A1;560}
  7
DRACAD
  0
ENDBLK
  5
B75
100
AcDbEntity
  8
0
100
AcDbBlockEnd
  0
BLOCK
  5
B78
100
AcDbEntity
  8
0
100
AcDbBlockBegin
  2
*D10
 70
     1
 10
0.0
 20
0.0
 30
0.0
  3
*D10
  1

  0
LINE
  5
B79
100
AcDbEntity
  8
0
  6
ByBlock
 62
     0
100
AcDbLine
 10
3142.718388
 20
-20551.276345
 30
0.0
 11
3142.718388
 21
-20704.301973
 31
0.0
  0
LINE
  5
B7A
100
AcDbEntity
  8
0
  6
ByBlock
 62
     0
100
AcDbLine
 10
3702.271606
 20
-20551.856655
 30
0.0
 11
3702.271606
 21
-20704.301973
 31
0.0
  0
LINE
  5
B7B
100
AcDbEntity
  8
0
  6
ByBlock
 62
     0
100
AcDbLine
 10
3142.718388
 20
-20704.301973
 30
0.0
 11
3702.271606
 21
-20704.301973
 31
0.0
  0
INSERT
  5
B7C
100
AcDbEntity
  8
0
  6
ByBlock
 62
     0
100
AcDbBlockReference
  2
_ORIGIN
 10
3142.718388
 20
-20704.301973
 30
0.0
 41
10.0
 42
10.0
 43
10.0
 50
180.0
  0
INSERT
  5
B7D
100
AcDbEntity
  8
0
  6
ByBlock
 62
     0
100
AcDbBlockReference
  2
_ORIGIN
 10
3702.271606
 20
-20704.301973
 30
0.0
 41
10.0
 42
10.0
 43
10.0
  0
MTEXT
  5
B7E
100
AcDbEntity
  8
0
  6
ByBlock
 62
     0
100
AcDbMText
 10
3422.494997
 20
-20691.801973
 30
0.0
 40
25.0
 41
0.0
 71
     5
 72
     1
  1
{\A1;560}
  7
DRACAD
  0
ENDBLK
  5
B7F
100
AcDbEntity
  8
0
100
AcDbBlockEnd
  0
BLOCK
  5
B84
100
AcDbEntity
  8
0
100
AcDbBlockBegin
  2
*D11
 70
     1
 10
0.0
 20
0.0
 30
0.0
  3
*D11
  1

  0
LINE
  5
B85
100
AcDbEntity
  8
0
  6
ByBlock
 62
     0
100
AcDbLine
 10
3143.706021
 20
-20324.896449
 30
0.0
 11
3021.742932
 21
-20324.896449
 31
0.0
  0
LINE
  5
B86
100
AcDbEntity
  8
0
  6
ByBlock
 62
     0
100
AcDbLine
 10
3143.718376
 20
-20477.078267
 30
0.0
 11
3021.742932
 21
-20477.078267
 31
0.0
  0
LINE
  5
B87
100
AcDbEntity
  8
0
  6
ByBlock
 62
     0
100
AcDbLine
 10
3021.742932
 20
-20324.896449
 30
0.0
 11
3021.742932
 21
-20477.078267
 31
0.0
  0
INSERT
  5
B88
100
AcDbEntity
  8
0
  6
ByBlock
 62
     0
100
AcDbBlockReference
  2
_ORIGIN
 10
3021.742932
 20
-20324.896449
 30
0.0
 41
10.0
 42
10.0
 43
10.0
 50
90.0
  0
INSERT
  5
B89
100
AcDbEntity
  8
0
  6
ByBlock
 62
     0
100
AcDbBlockReference
  2
_ORIGIN
 10
3021.742932
 20
-20477.078267
 30
0.0
 41
10.0
 42
10.0
 43
10.0
 50
270.0
  0
MTEXT
  5
B8A
100
AcDbEntity
  8
0
  6
ByBlock
 62
     0
100
AcDbMText
 10
3009.242932
 20
-20400.987358
 30
0.0
 40
25.0
 41
0.0
 71
     5
 72
     1
  1
{\A1;152}
  7
DRACAD
 11
0.0
 21
1.0
 31
0.0
  0
ENDBLK
  5
B8B
100
AcDbEntity
  8
0
100
AcDbBlockEnd
  0
ENDSEC
  0
SECTION
  2
ENTITIES
  0
LINE
  5
197
100
AcDbEntity
  8
0
  6
CONTINUOUS
 62
     7
100
AcDbLine
 10
3554.157618
 20
-20346.201903
 30
0.0
 11
3554.157618
 21
-20331.154201
 31
0.0
  0
LINE
  5
198
100
AcDbEntity
  8
0
  6
CONTINUOUS
 62
     7
100
AcDbLine
 10
3291.288895
 20
-20331.16278
 30
0.0
 11
3291.288891
 21
-20346.201903
 31
0.0
  0
LINE
  5
199
100
AcDbEntity
  8
0
  6
CONTINUOUS
 62
     7
100
AcDbLine
 10
3290.578709
 20
-20331.155668
 30
0.0
 11
3290.578709
 21
-20346.201903
 31
0.0
  0
LINE
  5
19A
100
AcDbEntity
  8
0
  6
CONTINUOUS
 62
     7
100
AcDbLine
 10
3554.8678
 20
-20346.201903
 30
0.0
 11
3554.867804
 21
-20331.155668
 31
0.0
  0
LINE
  5
19B
100
AcDbEntity
  8
0
  6
CONTINUOUS
 62
     7
100
AcDbLine
 10
3254.689163
 20
-20476.368085
 30
0.0
 11
3143.718376
 21
-20476.368085
 31
0.0
  0
ARC
  5
19C
100
AcDbEntity
  8
0
  6
CONTINUOUS
 62
     7
100
AcDbCircle
 10
3254.689163
 20
-20463.686267
 30
0.0
 40
12.681818
100
AcDbArc
 50
270.0
 51
348.925156
  0
LINE
  5
19D
100
AcDbEntity
  8
0
  6
CONTINUOUS
 62
     7
100
AcDbLine
 10
3290.550368
 20
-20346.494231
 30
0.0
 11
3267.134809
 21
-20466.122331
 31
0.0
  0
ARC
  5
19E
100
AcDbEntity
  8
0
  6
CONTINUOUS
 62
     7
100
AcDbCircle
 10
3289.056891
 20
-20346.201903
 30
0.0
 40
1.521818
100
AcDbArc
 50
348.925156
 51
360.0
  0
ARC
  5
19F
100
AcDbEntity
  8
0
  6
CONTINUOUS
 62
     7
100
AcDbCircle
 10
3289.056891
 20
-20346.201903
 30
0.0
 40
2.232
100
AcDbArc
 50
348.925156
 51
360.0
  0
LINE
  5
1A0
100
AcDbEntity
  8
0
  6
CONTINUOUS
 62
     7
100
AcDbLine
 10
3291.247324
 20
-20346.630651
 30
0.0
 11
3267.831765
 21
-20466.258751
 31
0.0
  0
ARC
  5
1A1
100
AcDbEntity
  8
0
  6
CONTINUOUS
 62
     7
100
AcDbCircle
 10
3254.689163
 20
-20463.686267
 30
0.0
 40
13.392
100
AcDbArc
 50
270.0
 51
348.925156
  0
LINE
  5
1A2
100
AcDbEntity
  8
0
  6
CONTINUOUS
 62
     7
100
AcDbLine
 10
3254.689163
 20
-20477.078267
 30
0.0
 11
3143.718376
 21
-20477.078267
 31
0.0
  0
LINE
  5
1A3
100
AcDbEntity
  8
0
  6
CONTINUOUS
 62
     7
100
AcDbLine
 10
3143.718376
 20
-20477.078267
 30
0.0
 11
3143.718376
 21
-20476.368085
 31
0.0
  0
ARC
  5
1A4
100
AcDbEntity
  8
0
  6
CONTINUOUS
 62
     7
100
AcDbCircle
 10
3590.757345
 20
-20463.686267
 30
0.0
 40
13.392
100
AcDbArc
 50
191.074844
 51
270.0
  0
ARC
  5
1A5
100
AcDbEntity
  8
0
  6
CONTINUOUS
 62
     7
100
AcDbCircle
 10
3590.757345
 20
-20463.686267
 30
0.0
 40
12.681818
100
AcDbArc
 50
191.074844
 51
270.0
  0
LINE
  5
1A6
100
AcDbEntity
  8
0
  6
CONTINUOUS
 62
     7
100
AcDbLine
 10
3578.311699
 20
-20466.122331
 30
0.0
 11
3554.89614
 21
-20346.494231
 31
0.0
  0
LINE
  5
1A7
100
AcDbEntity
  8
0
  6
CONTINUOUS
 62
     7
100
AcDbLine
 10
3577.614743
 20
-20466.258751
 30
0.0
 11
3554.199184
 21
-20346.630651
 31
0.0
  0
ARC
  5
1A8
100
AcDbEntity
  8
0
  6
CONTINUOUS
 62
     7
100
AcDbCircle
 10
3297.6298
 20
-20331.155668
 30
0.0
 40
6.340909
100
AcDbArc
 50
120.797141
 51
180.064264
  0
ARC
  5
1A9
100
AcDbEntity
  8
0
  6
CONTINUOUS
 62
     7
100
AcDbCircle
 10
3297.6298
 20
-20331.155668
 30
0.0
 40
7.051091
100
AcDbArc
 50
117.414965
 51
180.0
  0
LINE
  5
1AA
100
AcDbEntity
  8
0
  6
CONTINUOUS
 62
     7
100
AcDbLine
 10
3294.383254
 20
-20325.70892
 30
0.0
 11
3294.383254
 21
-20324.896449
 31
0.0
  0
ARC
  5
1AB
100
AcDbEntity
  8
0
  6
CONTINUOUS
 62
     7
100
AcDbCircle
 10
3556.389618
 20
-20346.201903
 30
0.0
 40
1.521818
100
AcDbArc
 50
180.0
 51
191.074844
  0
ARC
  5
1AC
100
AcDbEntity
  8
0
  6
CONTINUOUS
 62
     7
100
AcDbCircle
 10
3547.816709
 20
-20331.155668
 30
0.0
 40
7.051091
100
AcDbArc
 50
0.0
 51
62.585035
  0
ARC
  5
1AD
100
AcDbEntity
  8
0
  6
CONTINUOUS
 62
     7
100
AcDbCircle
 10
3556.389618
 20
-20346.201903
 30
0.0
 40
2.232
100
AcDbArc
 50
180.0
 51
191.074844
  0
ARC
  5
1AE
100
AcDbEntity
  8
0
  6
CONTINUOUS
 62
     7
100
AcDbCircle
 10
3547.816709
 20
-20331.155668
 30
0.0
 40
6.340909
100
AcDbArc
 50
0.0
 51
59.202859
  0
LINE
  5
1AF
100
AcDbEntity
  8
0
  6
CONTINUOUS
 62
     7
100
AcDbLine
 10
3551.063254
 20
-20324.896449
 30
0.0
 11
3551.063254
 21
-20325.70892
 31
0.0
  0
LINE
  5
1B0
100
AcDbEntity
  8
0
  6
CONTINUOUS
 62
     7
100
AcDbLine
 10
3701.728134
 20
-20476.368085
 30
0.0
 11
3701.728134
 21
-20477.078267
 31
0.0
  0
LINE
  5
1B1
100
AcDbEntity
  8
0
  6
CONTINUOUS
 62
     7
100
AcDbLine
 10
3701.728134
 20
-20476.368085
 30
0.0
 11
3590.757345
 21
-20476.368085
 31
0.0
  0
LINE
  5
1B2
100
AcDbEntity
  8
0
  6
CONTINUOUS
 62
     7
100
AcDbLine
 10
3701.728134
 20
-20477.078267
 30
0.0
 11
3590.757345
 21
-20477.078267
 31
0.0
  0
CIRCLE
  5
1B3
100
AcDbEntity
  8
0
  6
CONTINUOUS
 62
     7
100
AcDbCircle
 10
3168.172917
 20
-19638.832654
 30
0.0
 40
3.563634
  0
POLYLINE
  5
1B4
100
AcDbEntity
  8
0
  6
CONTINUOUS
 62
     7
100
AcDb2dPolyline
 66
     1
 10
0.0
 20
0.0
 30
0.0
 70
   128
  0
VERTEX
  5
1B5
100
AcDbEntity
  8
0
  6
CONTINUOUS
 62
     7
100
AcDbVertex
100
AcDb2dVertex
 10
3168.269893
 20
-19638.074417
 30
0.0
  0
VERTEX
  5
1B6
100
AcDbEntity
  8
0
  6
CONTINUOUS
 62
     7
100
AcDbVertex
100
AcDb2dVertex
 10
3168.458977
 20
-19637.943438
 30
0.0
  0
VERTEX
  5
1B7
100
AcDbEntity
  8
0
  6
CONTINUOUS
 62
     7
100
AcDbVertex
100
AcDb2dVertex
 10
3168.647642
 20
-19637.812751
 30
0.0
  0
VERTEX
  5
1B8
100
AcDbEntity
  8
0
  6
CONTINUOUS
 62
     7
100
AcDbVertex
100
AcDb2dVertex
 10
3168.83574
 20
-19637.682451
 30
0.0
  0
VERTEX
  5
1B9
100
AcDbEntity
  8
0
  6
CONTINUOUS
 62
     7
100
AcDbVertex
100
AcDb2dVertex
 10
3169.023151
 20
-19637.552637
 30
0.0
  0
VERTEX
  5
1BA
100
AcDbEntity
  8
0
  6
CONTINUOUS
 62
     7
100
AcDbVertex
100
AcDb2dVertex
 10
3169.209726
 20
-19637.423398
 30
0.0
  0
VERTEX
  5
1BB
100
AcDbEntity
  8
0
  6
CONTINUOUS
 62
     7
100
AcDbVertex
100
AcDb2dVertex
 10
3169.395316
 20
-19637.294824
 30
0.0
  0
VERTEX
  5
1BC
100
AcDbEntity
  8
0
  6
CONTINUOUS
 62
     7
100
AcDbVertex
100
AcDb2dVertex
 10
3169.57983
 20
-19637.167003
 30
0.0
  0
VERTEX
  5
1BD
100
AcDbEntity
  8
0
  6
CONTINUOUS
 62
     7
100
AcDbVertex
100
AcDb2dVertex
 10
3169.763149
 20
-19637.040027
 30
0.0
  0
SEQEND
  5
1BE
100
AcDbEntity
  8
0
  6
CONTINUOUS
 62
     7
  0
POLYLINE
  5
1BF
100
AcDbEntity
  8
0
  6
CONTINUOUS
 62
     7
100
AcDb2dPolyline
 66
     1
 10
0.0
 20
0.0
 30
0.0
 70
   128
  0
VERTEX
  5
1C0
100
AcDbEntity
  8
0
  6
CONTINUOUS
 62
     7
100
AcDbVertex
100
AcDb2dVertex
 10
3168.269893
 20
-19638.074417
 30
0.0
  0
VERTEX
  5
1C1
100
AcDbEntity
  8
0
  6
CONTINUOUS
 62
     7
100
AcDbVertex
100
AcDb2dVertex
 10
3168.119874
 20
-19637.900057
 30
0.0
  0
VERTEX
  5
1C2
100
AcDbEntity
  8
0
  6
CONTINUOUS
 62
     7
100
AcDbVertex
100
AcDb2dVertex
 10
3167.970184
 20
-19637.726094
 30
0.0
  0
VERTEX
  5
1C3
100
AcDbEntity
  8
0
  6
CONTINUOUS
 62
     7
100
AcDbVertex
100
AcDb2dVertex
 10
3167.820942
 20
-19637.552645
 30
0.0
  0
VERTEX
  5
1C4
100
AcDbEntity
  8
0
  6
CONTINUOUS
 62
     7
100
AcDbVertex
100
AcDb2dVertex
 10
3167.672238
 20
-19637.379846
 30
0.0
  0
VERTEX
  5
1C5
100
AcDbEntity
  8
0
  6
CONTINUOUS
 62
     7
100
AcDbVertex
100
AcDb2dVertex
 10
3167.524191
 20
-19637.207808
 30
0.0
  0
VERTEX
  5
1C6
100
AcDbEntity
  8
0
  6
CONTINUOUS
 62
     7
100
AcDbVertex
100
AcDb2dVertex
 10
3167.37692
 20
-19637.036652
 30
0.0
  0
VERTEX
  5
1C7
100
AcDbEntity
  8
0
  6
CONTINUOUS
 62
     7
100
AcDbVertex
100
AcDb2dVertex
 10
3167.230515
 20
-19636.866511
 30
0.0
  0
VERTEX
  5
1C8
100
AcDbEntity
  8
0
  6
CONTINUOUS
 62
     7
100
AcDbVertex
100
AcDb2dVertex
 10
3167.085096
 20
-19636.69749
 30
0.0
  0
SEQEND
  5
1C9
100
AcDbEntity
  8
0
  6
CONTINUOUS
 62
     7
  0
POLYLINE
  5
1CA
100
AcDbEntity
  8
0
  6
CONTINUOUS
 62
     7
100
AcDb2dPolyline
 66
     1
 10
0.0
 20
0.0
 30
0.0
 70
   128
  0
VERTEX
  5
1CB
100
AcDbEntity
  8
0
  6
CONTINUOUS
 62
     7
100
AcDbVertex
100
AcDb2dVertex
 10
3167.085096
 20
-19636.69749
 30
0.0
  0
VERTEX
  5
1CC
100
AcDbEntity
  8
0
  6
CONTINUOUS
 62
     7
100
AcDbVertex
100
AcDb2dVertex
 10
3166.99705
 20
-19636.765563
 30
0.0
  0
VERTEX
  5
1CD
100
AcDbEntity
  8
0
  6
CONTINUOUS
 62
     7
100
AcDbVertex
100
AcDb2dVertex
 10
3166.908944
 20
-19636.83368
 30
0.0
  0
VERTEX
  5
1CE
100
AcDbEntity
  8
0
  6
CONTINUOUS
 62
     7
100
AcDbVertex
100
AcDb2dVertex
 10
3166.820839
 20
-19636.901813
 30
0.0
  0
VERTEX
  5
1CF
100
AcDbEntity
  8
0
  6
CONTINUOUS
 62
     7
100
AcDbVertex
100
AcDb2dVertex
 10
3166.732703
 20
-19636.96996
 30
0.0
  0
VERTEX
  5
1D0
100
AcDbEntity
  8
0
  6
CONTINUOUS
 62
     7
100
AcDbVertex
100
AcDb2dVertex
 10
3166.644538
 20
-19637.038115
 30
0.0
  0
VERTEX
  5
1D1
100
AcDbEntity
  8
0
  6
CONTINUOUS
 62
     7
100
AcDbVertex
100
AcDb2dVertex
 10
3166.556432
 20
-19637.106248
 30
0.0
  0
VERTEX
  5
1D2
100
AcDbEntity
  8
0
  6
CONTINUOUS
 62
     7
100
AcDbVertex
100
AcDb2dVertex
 10
3166.468327
 20
-19637.174366
 30
0.0
  0
VERTEX
  5
1D3
100
AcDbEntity
  8
0
  6
CONTINUOUS
 62
     7
100
AcDbVertex
100
AcDb2dVertex
 10
3166.380281
 20
-19637.242438
 30
0.0
  0
SEQEND
  5
1D4
100
AcDbEntity
  8
0
  6
CONTINUOUS
 62
     7
  0
POLYLINE
  5
1D5
100
AcDbEntity
  8
0
  6
CONTINUOUS
 62
     7
100
AcDb2dPolyline
 66
     1
 10
0.0
 20
0.0
 30
0.0
 70
   128
  0
VERTEX
  5
1D6
100
AcDbEntity
  8
0
  6
CONTINUOUS
 62
     7
100
AcDbVertex
100
AcDb2dVertex
 10
3166.380281
 20
-19637.242438
 30
0.0
  0
VERTEX
  5
1D7
100
AcDbEntity
  8
0
  6
CONTINUOUS
 62
     7
100
AcDbVertex
100
AcDb2dVertex
 10
3166.5056
 20
-19637.423346
 30
0.0
  0
VERTEX
  5
1D8
100
AcDbEntity
  8
0
  6
CONTINUOUS
 62
     7
100
AcDbVertex
100
AcDb2dVertex
 10
3166.631755
 20
-19637.605449
 30
0.0
  0
VERTEX
  5
1D9
100
AcDbEntity
  8
0
  6
CONTINUOUS
 62
     7
100
AcDbVertex
100
AcDb2dVertex
 10
3166.758627
 20
-19637.788611
 30
0.0
  0
VERTEX
  5
1DA
100
AcDbEntity
  8
0
  6
CONTINUOUS
 62
     7
100
AcDbVertex
100
AcDb2dVertex
 10
3166.886156
 20
-19637.972722
 30
0.0
  0
VERTEX
  5
1DB
100
AcDbEntity
  8
0
  6
CONTINUOUS
 62
     7
100
AcDbVertex
100
AcDb2dVertex
 10
3167.014253
 20
-19638.15764
 30
0.0
  0
VERTEX
  5
1DC
100
AcDbEntity
  8
0
  6
CONTINUOUS
 62
     7
100
AcDbVertex
100
AcDb2dVertex
 10
3167.142828
 20
-19638.343251
 30
0.0
  0
VERTEX
  5
1DD
100
AcDbEntity
  8
0
  6
CONTINUOUS
 62
     7
100
AcDbVertex
100
AcDb2dVertex
 10
3167.27179
 20
-19638.529423
 30
0.0
  0
VERTEX
  5
1DE
100
AcDbEntity
  8
0
  6
CONTINUOUS
 62
     7
100
AcDbVertex
100
AcDb2dVertex
 10
3167.401052
 20
-19638.71602
 30
0.0
  0
SEQEND
  5
1DF
100
AcDbEntity
  8
0
  6
CONTINUOUS
 62
     7
  0
POLYLINE
  5
1E0
100
AcDbEntity
  8
0
  6
CONTINUOUS
 62
     7
100
AcDb2dPolyline
 66
     1
 10
0.0
 20
0.0
 30
0.0
 70
   128
  0
VERTEX
  5
1E1
100
AcDbEntity
  8
0
  6
CONTINUOUS
 62
     7
100
AcDbVertex
100
AcDb2dVertex
 10
3167.401052
 20
-19638.71602
 30
0.0
  0
VERTEX
  5
1E2
100
AcDbEntity
  8
0
  6
CONTINUOUS
 62
     7
100
AcDbVertex
100
AcDb2dVertex
 10
3167.228424
 20
-19638.868533
 30
0.0
  0
VERTEX
  5
1E3
100
AcDbEntity
  8
0
  6
CONTINUOUS
 62
     7
100
AcDbVertex
100
AcDb2dVertex
 10
3167.056215
 20
-19639.020694
 30
0.0
  0
VERTEX
  5
1E4
100
AcDbEntity
  8
0
  6
CONTINUOUS
 62
     7
100
AcDbVertex
100
AcDb2dVertex
 10
3166.884484
 20
-19639.172415
 30
0.0
  0
VERTEX
  5
1E5
100
AcDbEntity
  8
0
  6
CONTINUOUS
 62
     7
100
AcDbVertex
100
AcDb2dVertex
 10
3166.71338
 20
-19639.323568
 30
0.0
  0
VERTEX
  5
1E6
100
AcDbEntity
  8
0
  6
CONTINUOUS
 62
     7
100
AcDbVertex
100
AcDb2dVertex
 10
3166.543052
 20
-19639.474065
 30
0.0
  0
VERTEX
  5
1E7
100
AcDbEntity
  8
0
  6
CONTINUOUS
 62
     7
100
AcDbVertex
100
AcDb2dVertex
 10
3166.373591
 20
-19639.623785
 30
0.0
  0
VERTEX
  5
1E8
100
AcDbEntity
  8
0
  6
CONTINUOUS
 62
     7
100
AcDbVertex
100
AcDb2dVertex
 10
3166.205115
 20
-19639.772624
 30
0.0
  0
VERTEX
  5
1E9
100
AcDbEntity
  8
0
  6
CONTINUOUS
 62
     7
100
AcDbVertex
100
AcDb2dVertex
 10
3166.037744
 20
-19639.920484
 30
0.0
  0
SEQEND
  5
1EA
100
AcDbEntity
  8
0
  6
CONTINUOUS
 62
     7
  0
POLYLINE
  5
1EB
100
AcDbEntity
  8
0
  6
CONTINUOUS
 62
     7
100
AcDb2dPolyline
 66
     1
 10
0.0
 20
0.0
 30
0.0
 70
   128
  0
VERTEX
  5
1EC
100
AcDbEntity
  8
0
  6
CONTINUOUS
 62
     7
100
AcDbVertex
100
AcDb2dVertex
 10
3166.037744
 20
-19639.920484
 30
0.0
  0
VERTEX
  5
1ED
100
AcDbEntity
  8
0
  6
CONTINUOUS
 62
     7
100
AcDbVertex
100
AcDb2dVertex
 10
3166.105809
 20
-19640.00853
 30
0.0
  0
VERTEX
  5
1EE
100
AcDbEntity
  8
0
  6
CONTINUOUS
 62
     7
100
AcDbVertex
100
AcDb2dVertex
 10
3166.173934
 20
-19640.096621
 30
0.0
  0
VERTEX
  5
1EF
100
AcDbEntity
  8
0
  6
CONTINUOUS
 62
     7
100
AcDbVertex
100
AcDb2dVertex
 10
3166.242059
 20
-19640.184749
 30
0.0
  0
VERTEX
  5
1F0
100
AcDbEntity
  8
0
  6
CONTINUOUS
 62
     7
100
AcDbVertex
100
AcDb2dVertex
 10
3166.310214
 20
-19640.272884
 30
0.0
  0
VERTEX
  5
1F1
100
AcDbEntity
  8
0
  6
CONTINUOUS
 62
     7
100
AcDbVertex
100
AcDb2dVertex
 10
3166.378369
 20
-19640.361027
 30
0.0
  0
VERTEX
  5
1F2
100
AcDbEntity
  8
0
  6
CONTINUOUS
 62
     7
100
AcDbVertex
100
AcDb2dVertex
 10
3166.446494
 20
-19640.449148
 30
0.0
  0
VERTEX
  5
1F3
100
AcDbEntity
  8
0
  6
CONTINUOUS
 62
     7
100
AcDbVertex
100
AcDb2dVertex
 10
3166.514619
 20
-19640.537239
 30
0.0
  0
VERTEX
  5
1F4
100
AcDbEntity
  8
0
  6
CONTINUOUS
 62
     7
100
AcDbVertex
100
AcDb2dVertex
 10
3166.582685
 20
-19640.625285
 30
0.0
  0
SEQEND
  5
1F5
100
AcDbEntity
  8
0
  6
CONTINUOUS
 62
     7
  0
POLYLINE
  5
1F6
100
AcDbEntity
  8
0
  6
CONTINUOUS
 62
     7
100
AcDb2dPolyline
 66
     1
 10
0.0
 20
0.0
 30
0.0
 70
   128
  0
VERTEX
  5
1F7
100
AcDbEntity
  8
0
  6
CONTINUOUS
 62
     7
100
AcDbVertex
100
AcDb2dVertex
 10
3166.582685
 20
-19640.625285
 30
0.0
  0
VERTEX
  5
1F8
100
AcDbEntity
  8
0
  6
CONTINUOUS
 62
     7
100
AcDbVertex
100
AcDb2dVertex
 10
3166.767916
 20
-19640.500533
 30
0.0
  0
VERTEX
  5
1F9
100
AcDbEntity
  8
0
  6
CONTINUOUS
 62
     7
100
AcDbVertex
100
AcDb2dVertex
 10
3166.954371
 20
-19640.374945
 30
0.0
  0
VERTEX
  5
1FA
100
AcDbEntity
  8
0
  6
CONTINUOUS
 62
     7
100
AcDbVertex
100
AcDb2dVertex
 10
3167.141932
 20
-19640.248618
 30
0.0
  0
VERTEX
  5
1FB
100
AcDbEntity
  8
0
  6
CONTINUOUS
 62
     7
100
AcDbVertex
100
AcDb2dVertex
 10
3167.330448
 20
-19640.121641
 30
0.0
  0
VERTEX
  5
1FC
100
AcDbEntity
  8
0
  6
CONTINUOUS
 62
     7
100
AcDbVertex
100
AcDb2dVertex
 10
3167.5198
 20
-19639.994105
 30
0.0
  0
VERTEX
  5
1FD
100
AcDbEntity
  8
0
  6
CONTINUOUS
 62
     7
100
AcDbVertex
100
AcDb2dVertex
 10
3167.70987
 20
-19639.86609
 30
0.0
  0
VERTEX
  5
1FE
100
AcDbEntity
  8
0
  6
CONTINUOUS
 62
     7
100
AcDbVertex
100
AcDb2dVertex
 10
3167.900476
 20
-19639.737702
 30
0.0
  0
VERTEX
  5
1FF
100
AcDbEntity
  8
0
  6
CONTINUOUS
 62
     7
100
AcDbVertex
100
AcDb2dVertex
 10
3168.091531
 20
-19639.609023
 30
0.0
  0
SEQEND
  5
200
100
AcDbEntity
  8
0
  6
CONTINUOUS
 62
     7
  0
POLYLINE
  5
201
100
AcDbEntity
  8
0
  6
CONTINUOUS
 62
     7
100
AcDb2dPolyline
 66
     1
 10
0.0
 20
0.0
 30
0.0
 70
   128
  0
VERTEX
  5
202
100
AcDbEntity
  8
0
  6
CONTINUOUS
 62
     7
100
AcDbVertex
100
AcDb2dVertex
 10
3169.260738
 20
-19640.967829
 30
0.0
  0
VERTEX
  5
203
100
AcDbEntity
  8
0
  6
CONTINUOUS
 62
     7
100
AcDbVertex
100
AcDb2dVertex
 10
3169.1172
 20
-19640.801011
 30
0.0
  0
VERTEX
  5
204
100
AcDbEntity
  8
0
  6
CONTINUOUS
 62
     7
100
AcDbVertex
100
AcDb2dVertex
 10
3168.972707
 20
-19640.633095
 30
0.0
  0
VERTEX
  5
205
100
AcDbEntity
  8
0
  6
CONTINUOUS
 62
     7
100
AcDbVertex
100
AcDb2dVertex
 10
3168.827378
 20
-19640.464193
 30
0.0
  0
VERTEX
  5
206
100
AcDbEntity
  8
0
  6
CONTINUOUS
 62
     7
100
AcDbVertex
100
AcDb2dVertex
 10
3168.681302
 20
-19640.294425
 30
0.0
  0
VERTEX
  5
207
100
AcDbEntity
  8
0
  6
CONTINUOUS
 62
     7
100
AcDbVertex
100
AcDb2dVertex
 10
3168.534568
 20
-19640.123904
 30
0.0
  0
VERTEX
  5
208
100
AcDbEntity
  8
0
  6
CONTINUOUS
 62
     7
100
AcDbVertex
100
AcDb2dVertex
 10
3168.387297
 20
-19639.952755
 30
0.0
  0
VERTEX
  5
209
100
AcDbEntity
  8
0
  6
CONTINUOUS
 62
     7
100
AcDbVertex
100
AcDb2dVertex
 10
3168.239579
 20
-19639.781091
 30
0.0
  0
VERTEX
  5
20A
100
AcDbEntity
  8
0
  6
CONTINUOUS
 62
     7
100
AcDbVertex
100
AcDb2dVertex
 10
3168.091531
 20
-19639.609023
 30
0.0
  0
SEQEND
  5
20B
100
AcDbEntity
  8
0
  6
CONTINUOUS
 62
     7
  0
POLYLINE
  5
20C
100
AcDbEntity
  8
0
  6
CONTINUOUS
 62
     7
100
AcDb2dPolyline
 66
     1
 10
0.0
 20
0.0
 30
0.0
 70
   128
  0
VERTEX
  5
20D
100
AcDbEntity
  8
0
  6
CONTINUOUS
 62
     7
100
AcDbVertex
100
AcDb2dVertex
 10
3169.965553
 20
-19640.422881
 30
0.0
  0
VERTEX
  5
20E
100
AcDbEntity
  8
0
  6
CONTINUOUS
 62
     7
100
AcDbVertex
100
AcDb2dVertex
 10
3169.877507
 20
-19640.490953
 30
0.0
  0
VERTEX
  5
20F
100
AcDbEntity
  8
0
  6
CONTINUOUS
 62
     7
100
AcDbVertex
100
AcDb2dVertex
 10
3169.789402
 20
-19640.559071
 30
0.0
  0
VERTEX
  5
210
100
AcDbEntity
  8
0
  6
CONTINUOUS
 62
     7
100
AcDbVertex
100
AcDb2dVertex
 10
3169.701296
 20
-19640.627204
 30
0.0
  0
VERTEX
  5
211
100
AcDbEntity
  8
0
  6
CONTINUOUS
 62
     7
100
AcDbVertex
100
AcDb2dVertex
 10
3169.613131
 20
-19640.695351
 30
0.0
  0
VERTEX
  5
212
100
AcDbEntity
  8
0
  6
CONTINUOUS
 62
     7
100
AcDbVertex
100
AcDb2dVertex
 10
3169.524995
 20
-19640.763506
 30
0.0
  0
VERTEX
  5
213
100
AcDbEntity
  8
0
  6
CONTINUOUS
 62
     7
100
AcDbVertex
100
AcDb2dVertex
 10
3169.43689
 20
-19640.831638
 30
0.0
  0
VERTEX
  5
214
100
AcDbEntity
  8
0
  6
CONTINUOUS
 62
     7
100
AcDbVertex
100
AcDb2dVertex
 10
3169.348784
 20
-19640.899749
 30
0.0
  0
VERTEX
  5
215
100
AcDbEntity
  8
0
  6
CONTINUOUS
 62
     7
100
AcDbVertex
100
AcDb2dVertex
 10
3169.260738
 20
-19640.967829
 30
0.0
  0
SEQEND
  5
216
100
AcDbEntity
  8
0
  6
CONTINUOUS
 62
     7
  0
POLYLINE
  5
217
100
AcDbEntity
  8
0
  6
CONTINUOUS
 62
     7
100
AcDb2dPolyline
 66
     1
 10
0.0
 20
0.0
 30
0.0
 70
   128
  0
VERTEX
  5
218
100
AcDbEntity
  8
0
  6
CONTINUOUS
 62
     7
100
AcDbVertex
100
AcDb2dVertex
 10
3168.931163
 20
-19638.929647
 30
0.0
  0
VERTEX
  5
219
100
AcDbEntity
  8
0
  6
CONTINUOUS
 62
     7
100
AcDbVertex
100
AcDb2dVertex
 10
3169.062127
 20
-19639.11873
 30
0.0
  0
VERTEX
  5
21A
100
AcDbEntity
  8
0
  6
CONTINUOUS
 62
     7
100
AcDbVertex
100
AcDb2dVertex
 10
3169.192822
 20
-19639.307388
 30
0.0
  0
VERTEX
  5
21B
100
AcDbEntity
  8
0
  6
CONTINUOUS
 62
     7
100
AcDbVertex
100
AcDb2dVertex
 10
3169.323129
 20
-19639.495486
 30
0.0
  0
VERTEX
  5
21C
100
AcDbEntity
  8
0
  6
CONTINUOUS
 62
     7
100
AcDbVertex
100
AcDb2dVertex
 10
3169.452928
 20
-19639.682883
 30
0.0
  0
VERTEX
  5
21D
100
AcDbEntity
  8
0
  6
CONTINUOUS
 62
     7
100
AcDbVertex
100
AcDb2dVertex
 10
3169.582189
 20
-19639.869458
 30
0.0
  0
VERTEX
  5
21E
100
AcDbEntity
  8
0
  6
CONTINUOUS
 62
     7
100
AcDbVertex
100
AcDb2dVertex
 10
3169.710764
 20
-19640.055062
 30
0.0
  0
VERTEX
  5
21F
100
AcDbEntity
  8
0
  6
CONTINUOUS
 62
     7
100
AcDbVertex
100
AcDb2dVertex
 10
3169.838562
 20
-19640.239583
 30
0.0
  0
VERTEX
  5
220
100
AcDbEntity
  8
0
  6
CONTINUOUS
 62
     7
100
AcDbVertex
100
AcDb2dVertex
 10
3169.965553
 20
-19640.422881
 30
0.0
  0
SEQEND
  5
221
100
AcDbEntity
  8
0
  6
CONTINUOUS
 62
     7
  0
POLYLINE
  5
222
100
AcDbEntity
  8
0
  6
CONTINUOUS
 62
     7
100
AcDb2dPolyline
 66
     1
 10
0.0
 20
0.0
 30
0.0
 70
   128
  0
VERTEX
  5
223
100
AcDbEntity
  8
0
  6
CONTINUOUS
 62
     7
100
AcDbVertex
100
AcDb2dVertex
 10
3169.763149
 20
-19637.040027
 30
0.0
  0
VERTEX
  5
224
100
AcDbEntity
  8
0
  6
CONTINUOUS
 62
     7
100
AcDbVertex
100
AcDb2dVertex
 10
3169.831215
 20
-19637.128073
 30
0.0
  0
VERTEX
  5
225
100
AcDbEntity
  8
0
  6
CONTINUOUS
 62
     7
100
AcDbVertex
100
AcDb2dVertex
 10
3169.89934
 20
-19637.216171
 30
0.0
  0
VERTEX
  5
226
100
AcDbEntity
  8
0
  6
CONTINUOUS
 62
     7
100
AcDbVertex
100
AcDb2dVertex
 10
3169.967465
 20
-19637.304292
 30
0.0
  0
VERTEX
  5
227
100
AcDbEntity
  8
0
  6
CONTINUOUS
 62
     7
100
AcDbVertex
100
AcDb2dVertex
 10
3170.03562
 20
-19637.392434
 30
0.0
  0
VERTEX
  5
228
100
AcDbEntity
  8
0
  6
CONTINUOUS
 62
     7
100
AcDbVertex
100
AcDb2dVertex
 10
3170.103775
 20
-19637.48057
 30
0.0
  0
VERTEX
  5
229
100
AcDbEntity
  8
0
  6
CONTINUOUS
 62
     7
100
AcDbVertex
100
AcDb2dVertex
 10
3170.1719
 20
-19637.568698
 30
0.0
  0
VERTEX
  5
22A
100
AcDbEntity
  8
0
  6
CONTINUOUS
 62
     7
100
AcDbVertex
100
AcDb2dVertex
 10
3170.239995
 20
-19637.656789
 30
0.0
  0
VERTEX
  5
22B
100
AcDbEntity
  8
0
  6
CONTINUOUS
 62
     7
100
AcDbVertex
100
AcDb2dVertex
 10
3170.30809
 20
-19637.744835
 30
0.0
  0
SEQEND
  5
22C
100
AcDbEntity
  8
0
  6
CONTINUOUS
 62
     7
  0
POLYLINE
  5
22D
100
AcDbEntity
  8
0
  6
CONTINUOUS
 62
     7
100
AcDb2dPolyline
 66
     1
 10
0.0
 20
0.0
 30
0.0
 70
   128
  0
VERTEX
  5
22E
100
AcDbEntity
  8
0
  6
CONTINUOUS
 62
     7
100
AcDbVertex
100
AcDb2dVertex
 10
3170.30809
 20
-19637.744835
 30
0.0
  0
VERTEX
  5
22F
100
AcDbEntity
  8
0
  6
CONTINUOUS
 62
     7
100
AcDbVertex
100
AcDb2dVertex
 10
3170.139077
 20
-19637.890269
 30
0.0
  0
VERTEX
  5
230
100
AcDbEntity
  8
0
  6
CONTINUOUS
 62
     7
100
AcDbVertex
100
AcDb2dVertex
 10
3169.968928
 20
-19638.036673
 30
0.0
  0
VERTEX
  5
231
100
AcDbEntity
  8
0
  6
CONTINUOUS
 62
     7
100
AcDbVertex
100
AcDb2dVertex
 10
3169.797764
 20
-19638.183944
 30
0.0
  0
VERTEX
  5
232
100
AcDbEntity
  8
0
  6
CONTINUOUS
 62
     7
100
AcDbVertex
100
AcDb2dVertex
 10
3169.625734
 20
-19638.331984
 30
0.0
  0
VERTEX
  5
233
100
AcDbEntity
  8
0
  6
CONTINUOUS
 62
     7
100
AcDbVertex
100
AcDb2dVertex
 10
3169.452928
 20
-19638.480674
 30
0.0
  0
VERTEX
  5
234
100
AcDbEntity
  8
0
  6
CONTINUOUS
 62
     7
100
AcDbVertex
100
AcDb2dVertex
 10
3169.279494
 20
-19638.629916
 30
0.0
  0
VERTEX
  5
235
100
AcDbEntity
  8
0
  6
CONTINUOUS
 62
     7
100
AcDbVertex
100
AcDb2dVertex
 10
3169.105523
 20
-19638.779613
 30
0.0
  0
VERTEX
  5
236
100
AcDbEntity
  8
0
  6
CONTINUOUS
 62
     7
100
AcDbVertex
100
AcDb2dVertex
 10
3168.931163
 20
-19638.929647
 30
0.0
  0
SEQEND
  5
237
100
AcDbEntity
  8
0
  6
CONTINUOUS
 62
     7
  0
LINE
  5
238
100
AcDbEntity
  8
0
  6
CONTINUOUS
 62
     7
100
AcDbLine
 10
3169.288096
 20
-19640.697964
 30
0.0
 11
3169.260738
 21
-19640.967829
 31
0.0
  0
LINE
  5
239
100
AcDbEntity
  8
0
  6
CONTINUOUS
 62
     7
100
AcDbLine
 10
3169.697473
 20
-19640.381434
 30
0.0
 11
3169.288096
 21
-19640.697964
 31
0.0
  0
LINE
  5
23A
100
AcDbEntity
  8
0
  6
CONTINUOUS
 62
     7
100
AcDbLine
 10
3169.697473
 20
-19640.381434
 30
0.0
 11
3169.965553
 21
-19640.422881
 31
0.0
  0
LINE
  5
23B
100
AcDbEntity
  8
0
  6
CONTINUOUS
 62
     7
100
AcDbLine
 10
3169.288096
 20
-19640.697964
 30
0.0
 11
3168.857722
 21
-19640.1978
 31
0.0
  0
LINE
  5
23C
100
AcDbEntity
  8
0
  6
CONTINUOUS
 62
     7
100
AcDbLine
 10
3168.345783
 20
-19639.602841
 30
0.0
 11
3168.31069
 21
-19639.863708
 31
0.0
  0
LINE
  5
23D
100
AcDbEntity
  8
0
  6
CONTINUOUS
 62
     7
100
AcDbLine
 10
3168.857722
 20
-19640.1978
 30
0.0
 11
3168.345783
 21
-19639.602841
 31
0.0
  0
LINE
  5
23E
100
AcDbEntity
  8
0
  6
CONTINUOUS
 62
     7
100
AcDbLine
 10
3169.321755
 20
-19639.839016
 30
0.0
 11
3169.697473
 21
-19640.381434
 31
0.0
  0
LINE
  5
23F
100
AcDbEntity
  8
0
  6
CONTINUOUS
 62
     7
100
AcDbLine
 10
3168.862381
 20
-19639.175909
 30
0.0
 11
3169.321755
 21
-19639.839016
 31
0.0
  0
LINE
  5
240
100
AcDbEntity
  8
0
  6
CONTINUOUS
 62
     7
100
AcDbLine
 10
3169.125025
 20
-19639.209501
 30
0.0
 11
3168.862381
 21
-19639.175909
 31
0.0
  0
LINE
  5
241
100
AcDbEntity
  8
0
  6
CONTINUOUS
 62
     7
100
AcDbLine
 10
3167.488112
 20
-19637.467518
 30
0.0
 11
3167.057738
 21
-19636.967355
 31
0.0
  0
LINE
  5
242
100
AcDbEntity
  8
0
  6
CONTINUOUS
 62
     7
100
AcDbLine
 10
3167.057738
 20
-19636.967355
 30
0.0
 11
3167.085096
 21
-19636.69749
 31
0.0
  0
LINE
  5
243
100
AcDbEntity
  8
0
  6
CONTINUOUS
 62
     7
100
AcDbLine
 10
3168.014267
 20
-19638.078987
 30
0.0
 11
3168.047837
 21
-19637.816357
 31
0.0
  0
LINE
  5
244
100
AcDbEntity
  8
0
  6
CONTINUOUS
 62
     7
100
AcDbLine
 10
3168.014267
 20
-19638.078987
 30
0.0
 11
3167.488112
 21
-19637.467518
 31
0.0
  0
LINE
  5
245
100
AcDbEntity
  8
0
  6
CONTINUOUS
 62
     7
100
AcDbLine
 10
3166.306123
 20
-19639.945923
 30
0.0
 11
3166.037744
 21
-19639.920484
 31
0.0
  0
LINE
  5
246
100
AcDbEntity
  8
0
  6
CONTINUOUS
 62
     7
100
AcDbLine
 10
3166.306123
 20
-19639.945923
 30
0.0
 11
3166.625632
 21
-19640.359146
 31
0.0
  0
LINE
  5
247
100
AcDbEntity
  8
0
  6
CONTINUOUS
 62
     7
100
AcDbLine
 10
3166.625632
 20
-19640.359146
 30
0.0
 11
3166.582685
 21
-19640.625285
 31
0.0
  0
LINE
  5
248
100
AcDbEntity
  8
0
  6
CONTINUOUS
 62
     7
100
AcDbLine
 10
3170.038218
 20
-19637.717477
 30
0.0
 11
3169.538047
 21
-19638.147851
 31
0.0
  0
LINE
  5
249
100
AcDbEntity
  8
0
  6
CONTINUOUS
 62
     7
100
AcDbLine
 10
3170.038218
 20
-19637.717477
 30
0.0
 11
3170.30809
 21
-19637.744835
 31
0.0
  0
LINE
  5
24A
100
AcDbEntity
  8
0
  6
CONTINUOUS
 62
     7
100
AcDbLine
 10
3168.926594
 20
-19638.673998
 30
0.0
 11
3169.189208
 21
-19638.70759
 31
0.0
  0
LINE
  5
24B
100
AcDbEntity
  8
0
  6
CONTINUOUS
 62
     7
100
AcDbLine
 10
3169.538047
 20
-19638.147851
 30
0.0
 11
3168.926594
 21
-19638.673998
 31
0.0
  0
LINE
  5
24C
100
AcDbEntity
  8
0
  6
CONTINUOUS
 62
     7
100
AcDbLine
 10
3167.057738
 20
-19636.967355
 30
0.0
 11
3166.648361
 21
-19637.283885
 31
0.0
  0
LINE
  5
24D
100
AcDbEntity
  8
0
  6
CONTINUOUS
 62
     7
100
AcDbLine
 10
3166.648361
 20
-19637.283885
 30
0.0
 11
3166.380281
 21
-19637.242438
 31
0.0
  0
LINE
  5
24E
100
AcDbEntity
  8
0
  6
CONTINUOUS
 62
     7
100
AcDbLine
 10
3167.410579
 20
-19638.970168
 30
0.0
 11
3167.149249
 21
-19638.93848
 31
0.0
  0
LINE
  5
24F
100
AcDbEntity
  8
0
  6
CONTINUOUS
 62
     7
100
AcDbLine
 10
3167.209728
 20
-19638.439817
 30
0.0
 11
3167.471029
 21
-19638.471505
 31
0.0
  0
ARC
  5
250
100
AcDbEntity
  8
0
  6
CONTINUOUS
 62
     7
100
AcDbCircle
 10
3167.161561
 20
-19638.686986
 30
0.0
 40
0.377097
100
AcDbArc
 50
311.326983
 51
34.849333
  0
CIRCLE
  5
251
100
AcDbEntity
  8
0
  6
CONTINUOUS
 62
     7
100
AcDbCircle
 10
3168.172926
 20
-19638.832666
 30
0.0
 40
5.409094
  0
ARC
  5
252
100
AcDbEntity
  8
0
  6
CONTINUOUS
 62
     7
100
AcDbCircle
 10
3169.171842
 20
-19638.960438
 30
0.0
 40
0.377086
100
AcDbArc
 50
130.569999
 51
214.848801
  0
LINE
  5
253
100
AcDbEntity
  8
0
  6
CONTINUOUS
 62
     7
100
AcDbLine
 10
3166.80268
 20
-19639.507216
 30
0.0
 11
3166.306123
 21
-19639.945923
 31
0.0
  0
LINE
  5
254
100
AcDbEntity
  8
0
  6
CONTINUOUS
 62
     7
100
AcDbLine
 10
3167.410579
 20
-19638.970168
 30
0.0
 11
3166.80268
 21
-19639.507216
 31
0.0
  0
LINE
  5
255
100
AcDbEntity
  8
0
  6
CONTINUOUS
 62
     7
100
AcDbLine
 10
3166.648361
 20
-19637.283885
 30
0.0
 11
3167.024079
 21
-19637.826295
 31
0.0
  0
LINE
  5
256
100
AcDbEntity
  8
0
  6
CONTINUOUS
 62
     7
100
AcDbLine
 10
3167.024079
 20
-19637.826295
 30
0.0
 11
3167.471029
 21
-19638.471505
 31
0.0
  0
LINE
  5
257
100
AcDbEntity
  8
0
  6
CONTINUOUS
 62
     7
100
AcDbLine
 10
3166.625632
 20
-19640.359146
 30
0.0
 11
3167.175203
 21
-19639.98899
 31
0.0
  0
LINE
  5
258
100
AcDbEntity
  8
0
  6
CONTINUOUS
 62
     7
100
AcDbLine
 10
3167.175203
 20
-19639.98899
 30
0.0
 11
3167.847942
 21
-19639.535858
 31
0.0
  0
LINE
  5
259
100
AcDbEntity
  8
0
  6
CONTINUOUS
 62
     7
100
AcDbLine
 10
3167.812849
 20
-19639.796726
 30
0.0
 11
3167.847942
 21
-19639.535858
 31
0.0
  0
ARC
  5
25A
100
AcDbEntity
  8
0
  6
CONTINUOUS
 62
     7
100
AcDbCircle
 10
3168.059356
 20
-19639.848114
 30
0.0
 40
0.377094
100
AcDbArc
 50
40.574034
 51
124.100148
  0
LINE
  5
25B
100
AcDbEntity
  8
0
  6
CONTINUOUS
 62
     7
100
AcDbLine
 10
3169.721695
 20
-19637.308092
 30
0.0
 11
3169.763149
 21
-19637.040027
 31
0.0
  0
LINE
  5
25C
100
AcDbEntity
  8
0
  6
CONTINUOUS
 62
     7
100
AcDbLine
 10
3169.179263
 20
-19637.683833
 30
0.0
 11
3169.721695
 21
-19637.308092
 31
0.0
  0
LINE
  5
25D
100
AcDbEntity
  8
0
  6
CONTINUOUS
 62
     7
100
AcDbLine
 10
3168.516171
 20
-19638.143184
 30
0.0
 11
3169.179263
 21
-19637.683833
 31
0.0
  0
LINE
  5
25E
100
AcDbEntity
  8
0
  6
CONTINUOUS
 62
     7
100
AcDbLine
 10
3168.54977
 20
-19637.880555
 30
0.0
 11
3168.516171
 21
-19638.143184
 31
0.0
  0
ARC
  5
25F
100
AcDbEntity
  8
0
  6
CONTINUOUS
 62
     7
100
AcDbCircle
 10
3168.300691
 20
-19637.833759
 30
0.0
 40
0.377061
100
AcDbArc
 50
220.569104
 51
304.852835
  0
LINE
  5
260
100
AcDbEntity
  8
0
  6
CONTINUOUS
 62
     7
100
AcDbLine
 10
3169.721695
 20
-19637.308092
 30
0.0
 11
3170.038218
 21
-19637.717477
 31
0.0
  0
ARC
  5
261
100
AcDbEntity
  8
0
  6
CONTINUOUS
 62
     7
100
AcDbCircle
 10
3168.172442
 20
-19638.832024
 30
0.0
 40
1.528055
100
AcDbArc
 50
296.64526
 51
318.776169
  0
ARC
  5
262
100
AcDbEntity
  8
0
  6
CONTINUOUS
 62
     7
100
AcDbCircle
 10
3168.172602
 20
-19638.832859
 30
0.0
 40
1.526907
100
AcDbArc
 50
206.209159
 51
229.215503
  0
ARC
  5
263
100
AcDbEntity
  8
0
  6
CONTINUOUS
 62
     7
100
AcDbCircle
 10
3168.173268
 20
-19638.833156
 30
0.0
 40
1.527876
100
AcDbArc
 50
116.643454
 51
138.776821
  0
ARC
  5
264
100
AcDbEntity
  8
0
  6
CONTINUOUS
 62
     7
100
AcDbCircle
 10
3168.173475
 20
-19638.832236
 30
0.0
 40
1.526578
100
AcDbArc
 50
26.635536
 51
48.787678
  0
CIRCLE
  5
265
100
AcDbEntity
  8
0
  6
CONTINUOUS
 62
     7
100
AcDbCircle
 10
3333.632358
 20
-19295.191396
 30
0.0
 40
3.563641
  0
POLYLINE
  5
266
100
AcDbEntity
  8
0
  6
CONTINUOUS
 62
     7
100
AcDb2dPolyline
 66
     1
 10
0.0
 20
0.0
 30
0.0
 70
   128
  0
VERTEX
  5
267
100
AcDbEntity
  8
0
  6
CONTINUOUS
 62
     7
100
AcDbVertex
100
AcDb2dVertex
 10
3334.3906
 20
-19295.288392
 30
0.0
  0
VERTEX
  5
268
100
AcDbEntity
  8
0
  6
CONTINUOUS
 62
     7
100
AcDbVertex
100
AcDb2dVertex
 10
3334.521586
 20
-19295.477476
 30
0.0
  0
VERTEX
  5
269
100
AcDbEntity
  8
0
  6
CONTINUOUS
 62
     7
100
AcDbVertex
100
AcDb2dVertex
 10
3334.652274
 20
-19295.666141
 30
0.0
  0
VERTEX
  5
26A
100
AcDbEntity
  8
0
  6
CONTINUOUS
 62
     7
100
AcDbVertex
100
AcDb2dVertex
 10
3334.782573
 20
-19295.854209
 30
0.0
  0
VERTEX
  5
26B
100
AcDbEntity
  8
0
  6
CONTINUOUS
 62
     7
100
AcDbVertex
100
AcDb2dVertex
 10
3334.912387
 20
-19296.041621
 30
0.0
  0
VERTEX
  5
26C
100
AcDbEntity
  8
0
  6
CONTINUOUS
 62
     7
100
AcDbVertex
100
AcDb2dVertex
 10
3335.041626
 20
-19296.228195
 30
0.0
  0
VERTEX
  5
26D
100
AcDbEntity
  8
0
  6
CONTINUOUS
 62
     7
100
AcDbVertex
100
AcDb2dVertex
 10
3335.170201
 20
-19296.413815
 30
0.0
  0
VERTEX
  5
26E
100
AcDbEntity
  8
0
  6
CONTINUOUS
 62
     7
100
AcDbVertex
100
AcDb2dVertex
 10
3335.298021
 20
-19296.598329
 30
0.0
  0
VERTEX
  5
26F
100
AcDbEntity
  8
0
  6
CONTINUOUS
 62
     7
100
AcDbVertex
100
AcDb2dVertex
 10
3335.42499
 20
-19296.781618
 30
0.0
  0
SEQEND
  5
270
100
AcDbEntity
  8
0
  6
CONTINUOUS
 62
     7
  0
POLYLINE
  5
271
100
AcDbEntity
  8
0
  6
CONTINUOUS
 62
     7
100
AcDb2dPolyline
 66
     1
 10
0.0
 20
0.0
 30
0.0
 70
   128
  0
VERTEX
  5
272
100
AcDbEntity
  8
0
  6
CONTINUOUS
 62
     7
100
AcDbVertex
100
AcDb2dVertex
 10
3334.3906
 20
-19295.288392
 30
0.0
  0
VERTEX
  5
273
100
AcDbEntity
  8
0
  6
CONTINUOUS
 62
     7
100
AcDbVertex
100
AcDb2dVertex
 10
3334.56496
 20
-19295.138343
 30
0.0
  0
VERTEX
  5
274
100
AcDbEntity
  8
0
  6
CONTINUOUS
 62
     7
100
AcDbVertex
100
AcDb2dVertex
 10
3334.738923
 20
-19294.988653
 30
0.0
  0
VERTEX
  5
275
100
AcDbEntity
  8
0
  6
CONTINUOUS
 62
     7
100
AcDbVertex
100
AcDb2dVertex
 10
3334.912372
 20
-19294.839411
 30
0.0
  0
VERTEX
  5
276
100
AcDbEntity
  8
0
  6
CONTINUOUS
 62
     7
100
AcDbVertex
100
AcDb2dVertex
 10
3335.085171
 20
-19294.690707
 30
0.0
  0
VERTEX
  5
277
100
AcDbEntity
  8
0
  6
CONTINUOUS
 62
     7
100
AcDbVertex
100
AcDb2dVertex
 10
3335.257216
 20
-19294.54269
 30
0.0
  0
VERTEX
  5
278
100
AcDbEntity
  8
0
  6
CONTINUOUS
 62
     7
100
AcDbVertex
100
AcDb2dVertex
 10
3335.428365
 20
-19294.395419
 30
0.0
  0
VERTEX
  5
279
100
AcDbEntity
  8
0
  6
CONTINUOUS
 62
     7
100
AcDbVertex
100
AcDb2dVertex
 10
3335.598514
 20
-19294.249014
 30
0.0
  0
VERTEX
  5
27A
100
AcDbEntity
  8
0
  6
CONTINUOUS
 62
     7
100
AcDbVertex
100
AcDb2dVertex
 10
3335.767534
 20
-19294.103565
 30
0.0
  0
SEQEND
  5
27B
100
AcDbEntity
  8
0
  6
CONTINUOUS
 62
     7
  0
POLYLINE
  5
27C
100
AcDbEntity
  8
0
  6
CONTINUOUS
 62
     7
100
AcDb2dPolyline
 66
     1
 10
0.0
 20
0.0
 30
0.0
 70
   128
  0
VERTEX
  5
27D
100
AcDbEntity
  8
0
  6
CONTINUOUS
 62
     7
100
AcDbVertex
100
AcDb2dVertex
 10
3335.767534
 20
-19294.103565
 30
0.0
  0
VERTEX
  5
27E
100
AcDbEntity
  8
0
  6
CONTINUOUS
 62
     7
100
AcDbVertex
100
AcDb2dVertex
 10
3335.699454
 20
-19294.015519
 30
0.0
  0
VERTEX
  5
27F
100
AcDbEntity
  8
0
  6
CONTINUOUS
 62
     7
100
AcDbVertex
100
AcDb2dVertex
 10
3335.631344
 20
-19293.927443
 30
0.0
  0
VERTEX
  5
280
100
AcDbEntity
  8
0
  6
CONTINUOUS
 62
     7
100
AcDbVertex
100
AcDb2dVertex
 10
3335.563204
 20
-19293.839308
 30
0.0
  0
VERTEX
  5
281
100
AcDbEntity
  8
0
  6
CONTINUOUS
 62
     7
100
AcDbVertex
100
AcDb2dVertex
 10
3335.495057
 20
-19293.751172
 30
0.0
  0
VERTEX
  5
282
100
AcDbEntity
  8
0
  6
CONTINUOUS
 62
     7
100
AcDbVertex
100
AcDb2dVertex
 10
3335.426909
 20
-19293.663037
 30
0.0
  0
VERTEX
  5
283
100
AcDbEntity
  8
0
  6
CONTINUOUS
 62
     7
100
AcDbVertex
100
AcDb2dVertex
 10
3335.358769
 20
-19293.574901
 30
0.0
  0
VERTEX
  5
284
100
AcDbEntity
  8
0
  6
CONTINUOUS
 62
     7
100
AcDbVertex
100
AcDb2dVertex
 10
3335.290659
 20
-19293.486825
 30
0.0
  0
VERTEX
  5
285
100
AcDbEntity
  8
0
  6
CONTINUOUS
 62
     7
100
AcDbVertex
100
AcDb2dVertex
 10
3335.222579
 20
-19293.39878
 30
0.0
  0
SEQEND
  5
286
100
AcDbEntity
  8
0
  6
CONTINUOUS
 62
     7
  0
POLYLINE
  5
287
100
AcDbEntity
  8
0
  6
CONTINUOUS
 62
     7
100
AcDb2dPolyline
 66
     1
 10
0.0
 20
0.0
 30
0.0
 70
   128
  0
VERTEX
  5
288
100
AcDbEntity
  8
0
  6
CONTINUOUS
 62
     7
100
AcDbVertex
100
AcDb2dVertex
 10
3335.222579
 20
-19293.39878
 30
0.0
  0
VERTEX
  5
289
100
AcDbEntity
  8
0
  6
CONTINUOUS
 62
     7
100
AcDbVertex
100
AcDb2dVertex
 10
3335.041671
 20
-19293.524099
 30
0.0
  0
VERTEX
  5
28A
100
AcDbEntity
  8
0
  6
CONTINUOUS
 62
     7
100
AcDbVertex
100
AcDb2dVertex
 10
3334.859576
 20
-19293.650224
 30
0.0
  0
VERTEX
  5
28B
100
AcDbEntity
  8
0
  6
CONTINUOUS
 62
     7
100
AcDbVertex
100
AcDb2dVertex
 10
3334.676406
 20
-19293.777126
 30
0.0
  0
VERTEX
  5
28C
100
AcDbEntity
  8
0
  6
CONTINUOUS
 62
     7
100
AcDbVertex
100
AcDb2dVertex
 10
3334.492302
 20
-19293.904655
 30
0.0
  0
VERTEX
  5
28D
100
AcDbEntity
  8
0
  6
CONTINUOUS
 62
     7
100
AcDbVertex
100
AcDb2dVertex
 10
3334.307378
 20
-19294.032752
 30
0.0
  0
VERTEX
  5
28E
100
AcDbEntity
  8
0
  6
CONTINUOUS
 62
     7
100
AcDbVertex
100
AcDb2dVertex
 10
3334.121766
 20
-19294.161327
 30
0.0
  0
VERTEX
  5
28F
100
AcDbEntity
  8
0
  6
CONTINUOUS
 62
     7
100
AcDbVertex
100
AcDb2dVertex
 10
3333.935602
 20
-19294.290289
 30
0.0
  0
VERTEX
  5
290
100
AcDbEntity
  8
0
  6
CONTINUOUS
 62
     7
100
AcDbVertex
100
AcDb2dVertex
 10
3333.749004
 20
-19294.419551
 30
0.0
  0
SEQEND
  5
291
100
AcDbEntity
  8
0
  6
CONTINUOUS
 62
     7
  0
POLYLINE
  5
292
100
AcDbEntity
  8
0
  6
CONTINUOUS
 62
     7
100
AcDb2dPolyline
 66
     1
 10
0.0
 20
0.0
 30
0.0
 70
   128
  0
VERTEX
  5
293
100
AcDbEntity
  8
0
  6
CONTINUOUS
 62
     7
100
AcDbVertex
100
AcDb2dVertex
 10
3333.749004
 20
-19294.419551
 30
0.0
  0
VERTEX
  5
294
100
AcDbEntity
  8
0
  6
CONTINUOUS
 62
     7
100
AcDbVertex
100
AcDb2dVertex
 10
3333.596492
 20
-19294.246923
 30
0.0
  0
VERTEX
  5
295
100
AcDbEntity
  8
0
  6
CONTINUOUS
 62
     7
100
AcDbVertex
100
AcDb2dVertex
 10
3333.444323
 20
-19294.074684
 30
0.0
  0
VERTEX
  5
296
100
AcDbEntity
  8
0
  6
CONTINUOUS
 62
     7
100
AcDbVertex
100
AcDb2dVertex
 10
3333.292609
 20
-19293.902953
 30
0.0
  0
VERTEX
  5
297
100
AcDbEntity
  8
0
  6
CONTINUOUS
 62
     7
100
AcDbVertex
100
AcDb2dVertex
 10
3333.141449
 20
-19293.731849
 30
0.0
  0
VERTEX
  5
298
100
AcDbEntity
  8
0
  6
CONTINUOUS
 62
     7
100
AcDbVertex
100
AcDb2dVertex
 10
3332.99096
 20
-19293.561521
 30
0.0
  0
VERTEX
  5
299
100
AcDbEntity
  8
0
  6
CONTINUOUS
 62
     7
100
AcDbVertex
100
AcDb2dVertex
 10
3332.84124
 20
-19293.39206
 30
0.0
  0
VERTEX
  5
29A
100
AcDbEntity
  8
0
  6
CONTINUOUS
 62
     7
100
AcDbVertex
100
AcDb2dVertex
 10
3332.692393
 20
-19293.223584
 30
0.0
  0
VERTEX
  5
29B
100
AcDbEntity
  8
0
  6
CONTINUOUS
 62
     7
100
AcDbVertex
100
AcDb2dVertex
 10
3332.544533
 20
-19293.056213
 30
0.0
  0
SEQEND
  5
29C
100
AcDbEntity
  8
0
  6
CONTINUOUS
 62
     7
  0
POLYLINE
  5
29D
100
AcDbEntity
  8
0
  6
CONTINUOUS
 62
     7
100
AcDb2dPolyline
 66
     1
 10
0.0
 20
0.0
 30
0.0
 70
   128
  0
VERTEX
  5
29E
100
AcDbEntity
  8
0
  6
CONTINUOUS
 62
     7
100
AcDbVertex
100
AcDb2dVertex
 10
3332.544533
 20
-19293.056213
 30
0.0
  0
VERTEX
  5
29F
100
AcDbEntity
  8
0
  6
CONTINUOUS
 62
     7
100
AcDbVertex
100
AcDb2dVertex
 10
3332.456487
 20
-19293.124308
 30
0.0
  0
VERTEX
  5
2A0
100
AcDbEntity
  8
0
  6
CONTINUOUS
 62
     7
100
AcDbVertex
100
AcDb2dVertex
 10
3332.368396
 20
-19293.192403
 30
0.0
  0
VERTEX
  5
2A1
100
AcDbEntity
  8
0
  6
CONTINUOUS
 62
     7
100
AcDbVertex
100
AcDb2dVertex
 10
3332.280276
 20
-19293.260558
 30
0.0
  0
VERTEX
  5
2A2
100
AcDbEntity
  8
0
  6
CONTINUOUS
 62
     7
100
AcDbVertex
100
AcDb2dVertex
 10
3332.192133
 20
-19293.328713
 30
0.0
  0
VERTEX
  5
2A3
100
AcDbEntity
  8
0
  6
CONTINUOUS
 62
     7
100
AcDbVertex
100
AcDb2dVertex
 10
3332.103997
 20
-19293.396838
 30
0.0
  0
VERTEX
  5
2A4
100
AcDbEntity
  8
0
  6
CONTINUOUS
 62
     7
100
AcDbVertex
100
AcDb2dVertex
 10
3332.015869
 20
-19293.464993
 30
0.0
  0
VERTEX
  5
2A5
100
AcDbEntity
  8
0
  6
CONTINUOUS
 62
     7
100
AcDbVertex
100
AcDb2dVertex
 10
3331.927778
 20
-19293.533088
 30
0.0
  0
VERTEX
  5
2A6
100
AcDbEntity
  8
0
  6
CONTINUOUS
 62
     7
100
AcDbVertex
100
AcDb2dVertex
 10
3331.839732
 20
-19293.601184
 30
0.0
  0
SEQEND
  5
2A7
100
AcDbEntity
  8
0
  6
CONTINUOUS
 62
     7
  0
POLYLINE
  5
2A8
100
AcDbEntity
  8
0
  6
CONTINUOUS
 62
     7
100
AcDb2dPolyline
 66
     1
 10
0.0
 20
0.0
 30
0.0
 70
   128
  0
VERTEX
  5
2A9
100
AcDbEntity
  8
0
  6
CONTINUOUS
 62
     7
100
AcDbVertex
100
AcDb2dVertex
 10
3331.839732
 20
-19293.601184
 30
0.0
  0
VERTEX
  5
2AA
100
AcDbEntity
  8
0
  6
CONTINUOUS
 62
     7
100
AcDbVertex
100
AcDb2dVertex
 10
3331.964491
 20
-19293.786385
 30
0.0
  0
VERTEX
  5
2AB
100
AcDbEntity
  8
0
  6
CONTINUOUS
 62
     7
100
AcDbVertex
100
AcDb2dVertex
 10
3332.090072
 20
-19293.97284
 30
0.0
  0
VERTEX
  5
2AC
100
AcDbEntity
  8
0
  6
CONTINUOUS
 62
     7
100
AcDbVertex
100
AcDb2dVertex
 10
3332.216399
 20
-19294.160401
 30
0.0
  0
VERTEX
  5
2AD
100
AcDbEntity
  8
0
  6
CONTINUOUS
 62
     7
100
AcDbVertex
100
AcDb2dVertex
 10
3332.343376
 20
-19294.348917
 30
0.0
  0
VERTEX
  5
2AE
100
AcDbEntity
  8
0
  6
CONTINUOUS
 62
     7
100
AcDbVertex
100
AcDb2dVertex
 10
3332.47092
 20
-19294.538269
 30
0.0
  0
VERTEX
  5
2AF
100
AcDbEntity
  8
0
  6
CONTINUOUS
 62
     7
100
AcDbVertex
100
AcDb2dVertex
 10
3332.598927
 20
-19294.728339
 30
0.0
  0
VERTEX
  5
2B0
100
AcDbEntity
  8
0
  6
CONTINUOUS
 62
     7
100
AcDbVertex
100
AcDb2dVertex
 10
3332.727315
 20
-19294.918945
 30
0.0
  0
VERTEX
  5
2B1
100
AcDbEntity
  8
0
  6
CONTINUOUS
 62
     7
100
AcDbVertex
100
AcDb2dVertex
 10
3332.856001
 20
-19295.11
 30
0.0
  0
SEQEND
  5
2B2
100
AcDbEntity
  8
0
  6
CONTINUOUS
 62
     7
  0
POLYLINE
  5
2B3
100
AcDbEntity
  8
0
  6
CONTINUOUS
 62
     7
100
AcDb2dPolyline
 66
     1
 10
0.0
 20
0.0
 30
0.0
 70
   128
  0
VERTEX
  5
2B4
100
AcDbEntity
  8
0
  6
CONTINUOUS
 62
     7
100
AcDbVertex
100
AcDb2dVertex
 10
3331.497188
 20
-19296.279207
 30
0.0
  0
VERTEX
  5
2B5
100
AcDbEntity
  8
0
  6
CONTINUOUS
 62
     7
100
AcDbVertex
100
AcDb2dVertex
 10
3331.664006
 20
-19296.13567
 30
0.0
  0
VERTEX
  5
2B6
100
AcDbEntity
  8
0
  6
CONTINUOUS
 62
     7
100
AcDbVertex
100
AcDb2dVertex
 10
3331.831922
 20
-19295.991206
 30
0.0
  0
VERTEX
  5
2B7
100
AcDbEntity
  8
0
  6
CONTINUOUS
 62
     7
100
AcDbVertex
100
AcDb2dVertex
 10
3332.000824
 20
-19295.845847
 30
0.0
  0
VERTEX
  5
2B8
100
AcDbEntity
  8
0
  6
CONTINUOUS
 62
     7
100
AcDbVertex
100
AcDb2dVertex
 10
3332.170592
 20
-19295.699771
 30
0.0
  0
VERTEX
  5
2B9
100
AcDbEntity
  8
0
  6
CONTINUOUS
 62
     7
100
AcDbVertex
100
AcDb2dVertex
 10
3332.341113
 20
-19295.553037
 30
0.0
  0
VERTEX
  5
2BA
100
AcDbEntity
  8
0
  6
CONTINUOUS
 62
     7
100
AcDbVertex
100
AcDb2dVertex
 10
3332.512262
 20
-19295.405767
 30
0.0
  0
VERTEX
  5
2BB
100
AcDbEntity
  8
0
  6
CONTINUOUS
 62
     7
100
AcDbVertex
100
AcDb2dVertex
 10
3332.683934
 20
-19295.258078
 30
0.0
  0
VERTEX
  5
2BC
100
AcDbEntity
  8
0
  6
CONTINUOUS
 62
     7
100
AcDbVertex
100
AcDb2dVertex
 10
3332.856001
 20
-19295.11
 30
0.0
  0
SEQEND
  5
2BD
100
AcDbEntity
  8
0
  6
CONTINUOUS
 62
     7
  0
POLYLINE
  5
2BE
100
AcDbEntity
  8
0
  6
CONTINUOUS
 62
     7
100
AcDb2dPolyline
 66
     1
 10
0.0
 20
0.0
 30
0.0
 70
   128
  0
VERTEX
  5
2BF
100
AcDbEntity
  8
0
  6
CONTINUOUS
 62
     7
100
AcDbVertex
100
AcDb2dVertex
 10
3332.042144
 20
-19296.984022
 30
0.0
  0
VERTEX
  5
2C0
100
AcDbEntity
  8
0
  6
CONTINUOUS
 62
     7
100
AcDbVertex
100
AcDb2dVertex
 10
3331.974064
 20
-19296.895977
 30
0.0
  0
VERTEX
  5
2C1
100
AcDbEntity
  8
0
  6
CONTINUOUS
 62
     7
100
AcDbVertex
100
AcDb2dVertex
 10
3331.905954
 20
-19296.807901
 30
0.0
  0
VERTEX
  5
2C2
100
AcDbEntity
  8
0
  6
CONTINUOUS
 62
     7
100
AcDbVertex
100
AcDb2dVertex
 10
3331.837813
 20
-19296.719765
 30
0.0
  0
VERTEX
  5
2C3
100
AcDbEntity
  8
0
  6
CONTINUOUS
 62
     7
100
AcDbVertex
100
AcDb2dVertex
 10
3331.769666
 20
-19296.63163
 30
0.0
  0
VERTEX
  5
2C4
100
AcDbEntity
  8
0
  6
CONTINUOUS
 62
     7
100
AcDbVertex
100
AcDb2dVertex
 10
3331.701519
 20
-19296.543494
 30
0.0
  0
VERTEX
  5
2C5
100
AcDbEntity
  8
0
  6
CONTINUOUS
 62
     7
100
AcDbVertex
100
AcDb2dVertex
 10
3331.633379
 20
-19296.455359
 30
0.0
  0
VERTEX
  5
2C6
100
AcDbEntity
  8
0
  6
CONTINUOUS
 62
     7
100
AcDbVertex
100
AcDb2dVertex
 10
3331.565268
 20
-19296.367253
 30
0.0
  0
VERTEX
  5
2C7
100
AcDbEntity
  8
0
  6
CONTINUOUS
 62
     7
100
AcDbVertex
100
AcDb2dVertex
 10
3331.497188
 20
-19296.279207
 30
0.0
  0
SEQEND
  5
2C8
100
AcDbEntity
  8
0
  6
CONTINUOUS
 62
     7
  0
POLYLINE
  5
2C9
100
AcDbEntity
  8
0
  6
CONTINUOUS
 62
     7
100
AcDb2dPolyline
 66
     1
 10
0.0
 20
0.0
 30
0.0
 70
   128
  0
VERTEX
  5
2CA
100
AcDbEntity
  8
0
  6
CONTINUOUS
 62
     7
100
AcDbVertex
100
AcDb2dVertex
 10
3335.42499
 20
-19296.781618
 30
0.0
  0
VERTEX
  5
2CB
100
AcDbEntity
  8
0
  6
CONTINUOUS
 62
     7
100
AcDbVertex
100
AcDb2dVertex
 10
3335.336944
 20
-19296.849684
 30
0.0
  0
VERTEX
  5
2CC
100
AcDbEntity
  8
0
  6
CONTINUOUS
 62
     7
100
AcDbVertex
100
AcDb2dVertex
 10
3335.248854
 20
-19296.917809
 30
0.0
  0
VERTEX
  5
2CD
100
AcDbEntity
  8
0
  6
CONTINUOUS
 62
     7
100
AcDbVertex
100
AcDb2dVertex
 10
3335.160726
 20
-19296.985934
 30
0.0
  0
VERTEX
  5
2CE
100
AcDbEntity
  8
0
  6
CONTINUOUS
 62
     7
100
AcDbVertex
100
AcDb2dVertex
 10
3335.07259
 20
-19297.054089
 30
0.0
  0
VERTEX
  5
2CF
100
AcDbEntity
  8
0
  6
CONTINUOUS
 62
     7
100
AcDbVertex
100
AcDb2dVertex
 10
3334.984447
 20
-19297.122244
 30
0.0
  0
VERTEX
  5
2D0
100
AcDbEntity
  8
0
  6
CONTINUOUS
 62
     7
100
AcDbVertex
100
AcDb2dVertex
 10
3334.896326
 20
-19297.190369
 30
0.0
  0
VERTEX
  5
2D1
100
AcDbEntity
  8
0
  6
CONTINUOUS
 62
     7
100
AcDbVertex
100
AcDb2dVertex
 10
3334.808228
 20
-19297.258494
 30
0.0
  0
VERTEX
  5
2D2
100
AcDbEntity
  8
0
  6
CONTINUOUS
 62
     7
100
AcDbVertex
100
AcDb2dVertex
 10
3334.72019
 20
-19297.326559
 30
0.0
  0
SEQEND
  5
2D3
100
AcDbEntity
  8
0
  6
CONTINUOUS
 62
     7
  0
POLYLINE
  5
2D4
100
AcDbEntity
  8
0
  6
CONTINUOUS
 62
     7
100
AcDb2dPolyline
 66
     1
 10
0.0
 20
0.0
 30
0.0
 70
   128
  0
VERTEX
  5
2D5
100
AcDbEntity
  8
0
  6
CONTINUOUS
 62
     7
100
AcDbVertex
100
AcDb2dVertex
 10
3334.72019
 20
-19297.326559
 30
0.0
  0
VERTEX
  5
2D6
100
AcDbEntity
  8
0
  6
CONTINUOUS
 62
     7
100
AcDbVertex
100
AcDb2dVertex
 10
3334.574748
 20
-19297.157546
 30
0.0
  0
VERTEX
  5
2D7
100
AcDbEntity
  8
0
  6
CONTINUOUS
 62
     7
100
AcDbVertex
100
AcDb2dVertex
 10
3334.428344
 20
-19296.987397
 30
0.0
  0
VERTEX
  5
2D8
100
AcDbEntity
  8
0
  6
CONTINUOUS
 62
     7
100
AcDbVertex
100
AcDb2dVertex
 10
3334.281073
 20
-19296.816233
 30
0.0
  0
VERTEX
  5
2D9
100
AcDbEntity
  8
0
  6
CONTINUOUS
 62
     7
100
AcDbVertex
100
AcDb2dVertex
 10
3334.13304
 20
-19296.644203
 30
0.0
  0
VERTEX
  5
2DA
100
AcDbEntity
  8
0
  6
CONTINUOUS
 62
     7
100
AcDbVertex
100
AcDb2dVertex
 10
3333.984343
 20
-19296.471397
 30
0.0
  0
VERTEX
  5
2DB
100
AcDbEntity
  8
0
  6
CONTINUOUS
 62
     7
100
AcDbVertex
100
AcDb2dVertex
 10
3333.835101
 20
-19296.297963
 30
0.0
  0
VERTEX
  5
2DC
100
AcDbEntity
  8
0
  6
CONTINUOUS
 62
     7
100
AcDbVertex
100
AcDb2dVertex
 10
3333.685411
 20
-19296.123992
 30
0.0
  0
VERTEX
  5
2DD
100
AcDbEntity
  8
0
  6
CONTINUOUS
 62
     7
100
AcDbVertex
100
AcDb2dVertex
 10
3333.535378
 20
-19295.949632
 30
0.0
  0
SEQEND
  5
2DE
100
AcDbEntity
  8
0
  6
CONTINUOUS
 62
     7
  0
POLYLINE
  5
2DF
100
AcDbEntity
  8
0
  6
CONTINUOUS
 62
     7
100
AcDb2dPolyline
 66
     1
 10
0.0
 20
0.0
 30
0.0
 70
   128
  0
VERTEX
  5
2E0
100
AcDbEntity
  8
0
  6
CONTINUOUS
 62
     7
100
AcDbVertex
100
AcDb2dVertex
 10
3333.535378
 20
-19295.949632
 30
0.0
  0
VERTEX
  5
2E1
100
AcDbEntity
  8
0
  6
CONTINUOUS
 62
     7
100
AcDbVertex
100
AcDb2dVertex
 10
3333.346287
 20
-19296.080626
 30
0.0
  0
VERTEX
  5
2E2
100
AcDbEntity
  8
0
  6
CONTINUOUS
 62
     7
100
AcDbVertex
100
AcDb2dVertex
 10
3333.157629
 20
-19296.211321
 30
0.0
  0
VERTEX
  5
2E3
100
AcDbEntity
  8
0
  6
CONTINUOUS
 62
     7
100
AcDbVertex
100
AcDb2dVertex
 10
3332.969531
 20
-19296.341598
 30
0.0
  0
VERTEX
  5
2E4
100
AcDbEntity
  8
0
  6
CONTINUOUS
 62
     7
100
AcDbVertex
100
AcDb2dVertex
 10
3332.782134
 20
-19296.471427
 30
0.0
  0
VERTEX
  5
2E5
100
AcDbEntity
  8
0
  6
CONTINUOUS
 62
     7
100
AcDbVertex
100
AcDb2dVertex
 10
3332.595567
 20
-19296.600658
 30
0.0
  0
VERTEX
  5
2E6
100
AcDbEntity
  8
0
  6
CONTINUOUS
 62
     7
100
AcDbVertex
100
AcDb2dVertex
 10
3332.409955
 20
-19296.729233
 30
0.0
  0
VERTEX
  5
2E7
100
AcDbEntity
  8
0
  6
CONTINUOUS
 62
     7
100
AcDbVertex
100
AcDb2dVertex
 10
3332.225434
 20
-19296.857061
 30
0.0
  0
VERTEX
  5
2E8
100
AcDbEntity
  8
0
  6
CONTINUOUS
 62
     7
100
AcDbVertex
100
AcDb2dVertex
 10
3332.042144
 20
-19296.984022
 30
0.0
  0
SEQEND
  5
2E9
100
AcDbEntity
  8
0
  6
CONTINUOUS
 62
     7
  0
LINE
  5
2EA
100
AcDbEntity
  8
0
  6
CONTINUOUS
 62
     7
100
AcDbLine
 10
3331.76706
 20
-19296.306595
 30
0.0
 11
3332.267224
 21
-19295.876191
 31
0.0
  0
LINE
  5
2EB
100
AcDbEntity
  8
0
  6
CONTINUOUS
 62
     7
100
AcDbLine
 10
3331.76706
 20
-19296.306595
 30
0.0
 11
3331.497188
 21
-19296.279207
 31
0.0
  0
LINE
  5
2EC
100
AcDbEntity
  8
0
  6
CONTINUOUS
 62
     7
100
AcDbLine
 10
3332.862176
 20
-19295.364252
 30
0.0
 11
3332.601309
 21
-19295.329159
 31
0.0
  0
LINE
  5
2ED
100
AcDbEntity
  8
0
  6
CONTINUOUS
 62
     7
100
AcDbLine
 10
3332.267224
 20
-19295.876191
 30
0.0
 11
3332.862176
 21
-19295.364252
 31
0.0
  0
LINE
  5
2EE
100
AcDbEntity
  8
0
  6
CONTINUOUS
 62
     7
100
AcDbLine
 10
3332.083591
 20
-19296.715972
 30
0.0
 11
3332.042144
 21
-19296.984022
 31
0.0
  0
LINE
  5
2EF
100
AcDbEntity
  8
0
  6
CONTINUOUS
 62
     7
100
AcDbLine
 10
3332.626001
 20
-19296.340224
 30
0.0
 11
3332.083591
 21
-19296.715972
 31
0.0
  0
LINE
  5
2F0
100
AcDbEntity
  8
0
  6
CONTINUOUS
 62
     7
100
AcDbLine
 10
3333.289108
 20
-19295.88088
 30
0.0
 11
3332.626001
 21
-19296.340224
 31
0.0
  0
LINE
  5
2F1
100
AcDbEntity
  8
0
  6
CONTINUOUS
 62
     7
100
AcDbLine
 10
3333.255523
 20
-19296.143495
 30
0.0
 11
3333.289108
 21
-19295.88088
 31
0.0
  0
LINE
  5
2F2
100
AcDbEntity
  8
0
  6
CONTINUOUS
 62
     7
100
AcDbLine
 10
3332.083591
 20
-19296.715972
 30
0.0
 11
3331.76706
 21
-19296.306595
 31
0.0
  0
LINE
  5
2F3
100
AcDbEntity
  8
0
  6
CONTINUOUS
 62
     7
100
AcDbLine
 10
3333.791019
 20
-19295.945063
 30
0.0
 11
3333.757427
 21
-19296.207707
 31
0.0
  0
ARC
  5
2F4
100
AcDbEntity
  8
0
  6
CONTINUOUS
 62
     7
100
AcDbCircle
 10
3333.5046
 20
-19296.190292
 30
0.0
 40
0.377058
100
AcDbArc
 50
40.56987
 51
124.855639
  0
CIRCLE
  5
2F5
100
AcDbEntity
  8
0
  6
CONTINUOUS
 62
     7
100
AcDbCircle
 10
3333.632355
 20
-19295.191394
 30
0.0
 40
5.409091
  0
LINE
  5
2F6
100
AcDbEntity
  8
0
  6
CONTINUOUS
 62
     7
100
AcDbLine
 10
3332.668299
 20
-19294.831318
 30
0.0
 11
3332.929166
 21
-19294.86644
 31
0.0
  0
ARC
  5
2F7
100
AcDbEntity
  8
0
  6
CONTINUOUS
 62
     7
100
AcDbCircle
 10
3332.616915
 20
-19295.077834
 30
0.0
 40
0.377078
100
AcDbArc
 50
310.573561
 51
34.098025
  0
LINE
  5
2F8
100
AcDbEntity
  8
0
  6
CONTINUOUS
 62
     7
100
AcDbLine
 10
3333.494849
 20
-19294.429048
 30
0.0
 11
3333.526537
 21
-19294.167748
 31
0.0
  0
LINE
  5
2F9
100
AcDbEntity
  8
0
  6
CONTINUOUS
 62
     7
100
AcDbLine
 10
3334.0252
 20
-19294.228227
 30
0.0
 11
3333.993512
 21
-19294.489528
 31
0.0
  0
ARC
  5
2FA
100
AcDbEntity
  8
0
  6
CONTINUOUS
 62
     7
100
AcDbCircle
 10
3333.778051
 20
-19294.18002
 30
0.0
 40
0.377119
100
AcDbArc
 50
221.326178
 51
304.843374
  0
LINE
  5
2FB
100
AcDbEntity
  8
0
  6
CONTINUOUS
 62
     7
100
AcDbLine
 10
3334.747547
 20
-19297.056687
 30
0.0
 11
3334.317166
 21
-19296.556546
 31
0.0
  0
LINE
  5
2FC
100
AcDbEntity
  8
0
  6
CONTINUOUS
 62
     7
100
AcDbLine
 10
3334.747547
 20
-19297.056687
 30
0.0
 11
3334.72019
 21
-19297.326559
 31
0.0
  0
LINE
  5
2FD
100
AcDbEntity
  8
0
  6
CONTINUOUS
 62
     7
100
AcDbLine
 10
3334.317166
 20
-19296.556546
 30
0.0
 11
3333.791019
 21
-19295.945063
 31
0.0
  0
LINE
  5
2FE
100
AcDbEntity
  8
0
  6
CONTINUOUS
 62
     7
100
AcDbLine
 10
3335.156925
 20
-19296.740164
 30
0.0
 11
3335.42499
 21
-19296.781618
 31
0.0
  0
LINE
  5
2FF
100
AcDbEntity
  8
0
  6
CONTINUOUS
 62
     7
100
AcDbLine
 10
3334.781184
 20
-19296.197762
 30
0.0
 11
3335.156925
 21
-19296.740164
 31
0.0
  0
LINE
  5
300
100
AcDbEntity
  8
0
  6
CONTINUOUS
 62
     7
100
AcDbLine
 10
3334.32184
 20
-19295.53464
 30
0.0
 11
3334.781184
 21
-19296.197762
 31
0.0
  0
LINE
  5
301
100
AcDbEntity
  8
0
  6
CONTINUOUS
 62
     7
100
AcDbLine
 10
3334.584462
 20
-19295.568239
 30
0.0
 11
3334.32184
 21
-19295.53464
 31
0.0
  0
LINE
  5
302
100
AcDbEntity
  8
0
  6
CONTINUOUS
 62
     7
100
AcDbLine
 10
3334.386038
 20
-19295.032736
 30
0.0
 11
3334.64866
 21
-19295.066336
 31
0.0
  0
ARC
  5
303
100
AcDbEntity
  8
0
  6
CONTINUOUS
 62
     7
100
AcDbCircle
 10
3334.631256
 20
-19295.319159
 30
0.0
 40
0.377055
100
AcDbArc
 50
130.568191
 51
214.853748
  0
LINE
  5
304
100
AcDbEntity
  8
0
  6
CONTINUOUS
 62
     7
100
AcDbLine
 10
3334.997499
 20
-19294.506581
 30
0.0
 11
3335.497662
 21
-19294.076207
 31
0.0
  0
LINE
  5
305
100
AcDbEntity
  8
0
  6
CONTINUOUS
 62
     7
100
AcDbLine
 10
3335.497662
 20
-19294.076207
 30
0.0
 11
3335.767534
 21
-19294.103565
 31
0.0
  0
LINE
  5
306
100
AcDbEntity
  8
0
  6
CONTINUOUS
 62
     7
100
AcDbLine
 10
3334.386038
 20
-19295.032736
 30
0.0
 11
3334.997499
 21
-19294.506581
 31
0.0
  0
LINE
  5
307
100
AcDbEntity
  8
0
  6
CONTINUOUS
 62
     7
100
AcDbLine
 10
3332.105879
 20
-19293.644102
 30
0.0
 11
3331.839732
 21
-19293.601184
 31
0.0
  0
LINE
  5
308
100
AcDbEntity
  8
0
  6
CONTINUOUS
 62
     7
100
AcDbLine
 10
3332.105879
 20
-19293.644102
 30
0.0
 11
3332.476027
 21
-19294.193672
 31
0.0
  0
LINE
  5
309
100
AcDbEntity
  8
0
  6
CONTINUOUS
 62
     7
100
AcDbLine
 10
3332.476027
 20
-19294.193672
 30
0.0
 11
3332.929166
 21
-19294.86644
 31
0.0
  0
LINE
  5
30A
100
AcDbEntity
  8
0
  6
CONTINUOUS
 62
     7
100
AcDbLine
 10
3335.181132
 20
-19293.66683
 30
0.0
 11
3335.222579
 21
-19293.39878
 31
0.0
  0
LINE
  5
30B
100
AcDbEntity
  8
0
  6
CONTINUOUS
 62
     7
100
AcDbLine
 10
3335.181132
 20
-19293.66683
 30
0.0
 11
3334.638722
 21
-19294.042578
 31
0.0
  0
LINE
  5
30C
100
AcDbEntity
  8
0
  6
CONTINUOUS
 62
     7
100
AcDbLine
 10
3334.638722
 20
-19294.042578
 30
0.0
 11
3333.993512
 21
-19294.489528
 31
0.0
  0
LINE
  5
30D
100
AcDbEntity
  8
0
  6
CONTINUOUS
 62
     7
100
AcDbLine
 10
3332.957801
 20
-19293.821179
 30
0.0
 11
3332.519102
 21
-19293.324592
 31
0.0
  0
LINE
  5
30E
100
AcDbEntity
  8
0
  6
CONTINUOUS
 62
     7
100
AcDbLine
 10
3332.519102
 20
-19293.324592
 30
0.0
 11
3332.544533
 21
-19293.056213
 31
0.0
  0
LINE
  5
30F
100
AcDbEntity
  8
0
  6
CONTINUOUS
 62
     7
100
AcDbLine
 10
3333.494849
 20
-19294.429048
 30
0.0
 11
3332.957801
 21
-19293.821179
 31
0.0
  0
LINE
  5
310
100
AcDbEntity
  8
0
  6
CONTINUOUS
 62
     7
100
AcDbLine
 10
3335.497662
 20
-19294.076207
 30
0.0
 11
3335.181132
 21
-19293.66683
 31
0.0
  0
LINE
  5
311
100
AcDbEntity
  8
0
  6
CONTINUOUS
 62
     7
100
AcDbLine
 10
3332.519102
 20
-19293.324592
 30
0.0
 11
3332.105879
 21
-19293.644102
 31
0.0
  0
LINE
  5
312
100
AcDbEntity
  8
0
  6
CONTINUOUS
 62
     7
100
AcDbLine
 10
3335.156925
 20
-19296.740164
 30
0.0
 11
3334.747547
 21
-19297.056687
 31
0.0
  0
ARC
  5
313
100
AcDbEntity
  8
0
  6
CONTINUOUS
 62
     7
100
AcDbCircle
 10
3333.632084
 20
-19295.191635
 30
0.0
 40
1.526912
100
AcDbArc
 50
206.636383
 51
228.783892
  0
ARC
  5
314
100
AcDbEntity
  8
0
  6
CONTINUOUS
 62
     7
100
AcDbCircle
 10
3333.632416
 20
-19295.191516
 30
0.0
 40
1.527393
100
AcDbArc
 50
116.210995
 51
139.209222
  0
ARC
  5
315
100
AcDbEntity
  8
0
  6
CONTINUOUS
 62
     7
100
AcDbCircle
 10
3333.632375
 20
-19295.191414
 30
0.0
 40
1.527272
100
AcDbArc
 50
26.64126
 51
48.782584
  0
ARC
  5
316
100
AcDbEntity
  8
0
  6
CONTINUOUS
 62
     7
100
AcDbCircle
 10
3333.632154
 20
-19295.191164
 30
0.0
 40
1.527583
100
AcDbArc
 50
296.642914
 51
318.7803
  0
CIRCLE
  5
317
100
AcDbEntity
  8
0
  6
CONTINUOUS
 62
     7
100
AcDbCircle
 10
3168.160517
 20
-19460.686278
 30
0.0
 40
3.563632
  0
POLYLINE
  5
318
100
AcDbEntity
  8
0
  6
CONTINUOUS
 62
     7
100
AcDb2dPolyline
 66
     1
 10
0.0
 20
0.0
 30
0.0
 70
   128
  0
VERTEX
  5
319
100
AcDbEntity
  8
0
  6
CONTINUOUS
 62
     7
100
AcDbVertex
100
AcDb2dVertex
 10
3168.709107
 20
-19460.153929
 30
0.0
  0
VERTEX
  5
31A
100
AcDbEntity
  8
0
  6
CONTINUOUS
 62
     7
100
AcDbVertex
100
AcDb2dVertex
 10
3168.9386
 20
-19460.169415
 30
0.0
  0
VERTEX
  5
31B
100
AcDbEntity
  8
0
  6
CONTINUOUS
 62
     7
100
AcDbVertex
100
AcDb2dVertex
 10
3169.167585
 20
-19460.184871
 30
0.0
  0
VERTEX
  5
31C
100
AcDbEntity
  8
0
  6
CONTINUOUS
 62
     7
100
AcDbVertex
100
AcDb2dVertex
 10
3169.395883
 20
-19460.200275
 30
0.0
  0
VERTEX
  5
31D
100
AcDbEntity
  8
0
  6
CONTINUOUS
 62
     7
100
AcDbVertex
100
AcDb2dVertex
 10
3169.623345
 20
-19460.215626
 30
0.0
  0
VERTEX
  5
31E
100
AcDbEntity
  8
0
  6
CONTINUOUS
 62
     7
100
AcDbVertex
100
AcDb2dVertex
 10
3169.849791
 20
-19460.230902
 30
0.0
  0
VERTEX
  5
31F
100
AcDbEntity
  8
0
  6
CONTINUOUS
 62
     7
100
AcDbVertex
100
AcDb2dVertex
 10
3170.075073
 20
-19460.246104
 30
0.0
  0
VERTEX
  5
320
100
AcDbEntity
  8
0
  6
CONTINUOUS
 62
     7
100
AcDbVertex
100
AcDb2dVertex
 10
3170.299011
 20
-19460.261217
 30
0.0
  0
VERTEX
  5
321
100
AcDbEntity
  8
0
  6
CONTINUOUS
 62
     7
100
AcDbVertex
100
AcDb2dVertex
 10
3170.521485
 20
-19460.276232
 30
0.0
  0
SEQEND
  5
322
100
AcDbEntity
  8
0
  6
CONTINUOUS
 62
     7
  0
POLYLINE
  5
323
100
AcDbEntity
  8
0
  6
CONTINUOUS
 62
     7
100
AcDb2dPolyline
 66
     1
 10
0.0
 20
0.0
 30
0.0
 70
   128
  0
VERTEX
  5
324
100
AcDbEntity
  8
0
  6
CONTINUOUS
 62
     7
100
AcDbVertex
100
AcDb2dVertex
 10
3168.709107
 20
-19460.153929
 30
0.0
  0
VERTEX
  5
325
100
AcDbEntity
  8
0
  6
CONTINUOUS
 62
     7
100
AcDbVertex
100
AcDb2dVertex
 10
3168.700506
 20
-19459.924063
 30
0.0
  0
VERTEX
  5
326
100
AcDbEntity
  8
0
  6
CONTINUOUS
 62
     7
100
AcDbVertex
100
AcDb2dVertex
 10
3168.691934
 20
-19459.69472
 30
0.0
  0
VERTEX
  5
327
100
AcDbEntity
  8
0
  6
CONTINUOUS
 62
     7
100
AcDbVertex
100
AcDb2dVertex
 10
3168.683392
 20
-19459.466063
 30
0.0
  0
VERTEX
  5
328
100
AcDbEntity
  8
0
  6
CONTINUOUS
 62
     7
100
AcDbVertex
100
AcDb2dVertex
 10
3168.67488
 20
-19459.238258
 30
0.0
  0
VERTEX
  5
329
100
AcDbEntity
  8
0
  6
CONTINUOUS
 62
     7
100
AcDbVertex
100
AcDb2dVertex
 10
3168.666398
 20
-19459.011453
 30
0.0
  0
VERTEX
  5
32A
100
AcDbEntity
  8
0
  6
CONTINUOUS
 62
     7
100
AcDbVertex
100
AcDb2dVertex
 10
3168.657976
 20
-19458.78582
 30
0.0
  0
VERTEX
  5
32B
100
AcDbEntity
  8
0
  6
CONTINUOUS
 62
     7
100
AcDbVertex
100
AcDb2dVertex
 10
3168.649613
 20
-19458.561509
 30
0.0
  0
VERTEX
  5
32C
100
AcDbEntity
  8
0
  6
CONTINUOUS
 62
     7
100
AcDbVertex
100
AcDb2dVertex
 10
3168.641281
 20
-19458.338684
 30
0.0
  0
SEQEND
  5
32D
100
AcDbEntity
  8
0
  6
CONTINUOUS
 62
     7
  0
POLYLINE
  5
32E
100
AcDbEntity
  8
0
  6
CONTINUOUS
 62
     7
100
AcDb2dPolyline
 66
     1
 10
0.0
 20
0.0
 30
0.0
 70
   128
  0
VERTEX
  5
32F
100
AcDbEntity
  8
0
  6
CONTINUOUS
 62
     7
100
AcDbVertex
100
AcDb2dVertex
 10
3168.641281
 20
-19458.338684
 30
0.0
  0
VERTEX
  5
330
100
AcDbEntity
  8
0
  6
CONTINUOUS
 62
     7
100
AcDbVertex
100
AcDb2dVertex
 10
3168.529999
 20
-19458.337012
 30
0.0
  0
VERTEX
  5
331
100
AcDbEntity
  8
0
  6
CONTINUOUS
 62
     7
100
AcDbVertex
100
AcDb2dVertex
 10
3168.418657
 20
-19458.335347
 30
0.0
  0
VERTEX
  5
332
100
AcDbEntity
  8
0
  6
CONTINUOUS
 62
     7
100
AcDbVertex
100
AcDb2dVertex
 10
3168.307286
 20
-19458.333674
 30
0.0
  0
VERTEX
  5
333
100
AcDbEntity
  8
0
  6
CONTINUOUS
 62
     7
100
AcDbVertex
100
AcDb2dVertex
 10
3168.195884
 20
-19458.331994
 30
0.0
  0
VERTEX
  5
334
100
AcDbEntity
  8
0
  6
CONTINUOUS
 62
     7
100
AcDbVertex
100
AcDb2dVertex
 10
3168.084483
 20
-19458.330322
 30
0.0
  0
VERTEX
  5
335
100
AcDbEntity
  8
0
  6
CONTINUOUS
 62
     7
100
AcDbVertex
100
AcDb2dVertex
 10
3167.973081
 20
-19458.328649
 30
0.0
  0
VERTEX
  5
336
100
AcDbEntity
  8
0
  6
CONTINUOUS
 62
     7
100
AcDbVertex
100
AcDb2dVertex
 10
3167.86174
 20
-19458.326977
 30
0.0
  0
VERTEX
  5
337
100
AcDbEntity
  8
0
  6
CONTINUOUS
 62
     7
100
AcDbVertex
100
AcDb2dVertex
 10
3167.750458
 20
-19458.325312
 30
0.0
  0
SEQEND
  5
338
100
AcDbEntity
  8
0
  6
CONTINUOUS
 62
     7
  0
POLYLINE
  5
339
100
AcDbEntity
  8
0
  6
CONTINUOUS
 62
     7
100
AcDb2dPolyline
 66
     1
 10
0.0
 20
0.0
 30
0.0
 70
   128
  0
VERTEX
  5
33A
100
AcDbEntity
  8
0
  6
CONTINUOUS
 62
     7
100
AcDbVertex
100
AcDb2dVertex
 10
3167.750458
 20
-19458.325312
 30
0.0
  0
VERTEX
  5
33B
100
AcDbEntity
  8
0
  6
CONTINUOUS
 62
     7
100
AcDbVertex
100
AcDb2dVertex
 10
3167.735644
 20
-19458.544881
 30
0.0
  0
VERTEX
  5
33C
100
AcDbEntity
  8
0
  6
CONTINUOUS
 62
     7
100
AcDbVertex
100
AcDb2dVertex
 10
3167.720741
 20
-19458.7659
 30
0.0
  0
VERTEX
  5
33D
100
AcDbEntity
  8
0
  6
CONTINUOUS
 62
     7
100
AcDbVertex
100
AcDb2dVertex
 10
3167.705748
 20
-19458.988217
 30
0.0
  0
VERTEX
  5
33E
100
AcDbEntity
  8
0
  6
CONTINUOUS
 62
     7
100
AcDbVertex
100
AcDb2dVertex
 10
3167.690665
 20
-19459.211677
 30
0.0
  0
VERTEX
  5
33F
100
AcDbEntity
  8
0
  6
CONTINUOUS
 62
     7
100
AcDbVertex
100
AcDb2dVertex
 10
3167.675523
 20
-19459.436122
 30
0.0
  0
VERTEX
  5
340
100
AcDbEntity
  8
0
  6
CONTINUOUS
 62
     7
100
AcDbVertex
100
AcDb2dVertex
 10
3167.660321
 20
-19459.661404
 30
0.0
  0
VERTEX
  5
341
100
AcDbEntity
  8
0
  6
CONTINUOUS
 62
     7
100
AcDbVertex
100
AcDb2dVertex
 10
3167.64506
 20
-19459.887358
 30
0.0
  0
VERTEX
  5
342
100
AcDbEntity
  8
0
  6
CONTINUOUS
 62
     7
100
AcDbVertex
100
AcDb2dVertex
 10
3167.629768
 20
-19460.113841
 30
0.0
  0
SEQEND
  5
343
100
AcDbEntity
  8
0
  6
CONTINUOUS
 62
     7
  0
POLYLINE
  5
344
100
AcDbEntity
  8
0
  6
CONTINUOUS
 62
     7
100
AcDb2dPolyline
 66
     1
 10
0.0
 20
0.0
 30
0.0
 70
   128
  0
VERTEX
  5
345
100
AcDbEntity
  8
0
  6
CONTINUOUS
 62
     7
100
AcDbVertex
100
AcDb2dVertex
 10
3167.629768
 20
-19460.113841
 30
0.0
  0
VERTEX
  5
346
100
AcDbEntity
  8
0
  6
CONTINUOUS
 62
     7
100
AcDbVertex
100
AcDb2dVertex
 10
3167.399738
 20
-19460.125452
 30
0.0
  0
VERTEX
  5
347
100
AcDbEntity
  8
0
  6
CONTINUOUS
 62
     7
100
AcDbVertex
100
AcDb2dVertex
 10
3167.170185
 20
-19460.137033
 30
0.0
  0
VERTEX
  5
348
100
AcDbEntity
  8
0
  6
CONTINUOUS
 62
     7
100
AcDbVertex
100
AcDb2dVertex
 10
3166.941349
 20
-19460.148576
 30
0.0
  0
VERTEX
  5
349
100
AcDbEntity
  8
0
  6
CONTINUOUS
 62
     7
100
AcDbVertex
100
AcDb2dVertex
 10
3166.71332
 20
-19460.160082
 30
0.0
  0
VERTEX
  5
34A
100
AcDbEntity
  8
0
  6
CONTINUOUS
 62
     7
100
AcDbVertex
100
AcDb2dVertex
 10
3166.486336
 20
-19460.171536
 30
0.0
  0
VERTEX
  5
34B
100
AcDbEntity
  8
0
  6
CONTINUOUS
 62
     7
100
AcDbVertex
100
AcDb2dVertex
 10
3166.260487
 20
-19460.182937
 30
0.0
  0
VERTEX
  5
34C
100
AcDbEntity
  8
0
  6
CONTINUOUS
 62
     7
100
AcDbVertex
100
AcDb2dVertex
 10
3166.035952
 20
-19460.194264
 30
0.0
  0
VERTEX
  5
34D
100
AcDbEntity
  8
0
  6
CONTINUOUS
 62
     7
100
AcDbVertex
100
AcDb2dVertex
 10
3165.81294
 20
-19460.205516
 30
0.0
  0
SEQEND
  5
34E
100
AcDbEntity
  8
0
  6
CONTINUOUS
 62
     7
  0
POLYLINE
  5
34F
100
AcDbEntity
  8
0
  6
CONTINUOUS
 62
     7
100
AcDb2dPolyline
 66
     1
 10
0.0
 20
0.0
 30
0.0
 70
   128
  0
VERTEX
  5
350
100
AcDbEntity
  8
0
  6
CONTINUOUS
 62
     7
100
AcDbVertex
100
AcDb2dVertex
 10
3165.81294
 20
-19460.205516
 30
0.0
  0
VERTEX
  5
351
100
AcDbEntity
  8
0
  6
CONTINUOUS
 62
     7
100
AcDbVertex
100
AcDb2dVertex
 10
3165.811267
 20
-19460.316798
 30
0.0
  0
VERTEX
  5
352
100
AcDbEntity
  8
0
  6
CONTINUOUS
 62
     7
100
AcDbVertex
100
AcDb2dVertex
 10
3165.809595
 20
-19460.42814
 30
0.0
  0
VERTEX
  5
353
100
AcDbEntity
  8
0
  6
CONTINUOUS
 62
     7
100
AcDbVertex
100
AcDb2dVertex
 10
3165.807922
 20
-19460.539519
 30
0.0
  0
VERTEX
  5
354
100
AcDbEntity
  8
0
  6
CONTINUOUS
 62
     7
100
AcDbVertex
100
AcDb2dVertex
 10
3165.80625
 20
-19460.65092
 30
0.0
  0
VERTEX
  5
355
100
AcDbEntity
  8
0
  6
CONTINUOUS
 62
     7
100
AcDbVertex
100
AcDb2dVertex
 10
3165.804577
 20
-19460.762321
 30
0.0
  0
VERTEX
  5
356
100
AcDbEntity
  8
0
  6
CONTINUOUS
 62
     7
100
AcDbVertex
100
AcDb2dVertex
 10
3165.802905
 20
-19460.8737
 30
0.0
  0
VERTEX
  5
357
100
AcDbEntity
  8
0
  6
CONTINUOUS
 62
     7
100
AcDbVertex
100
AcDb2dVertex
 10
3165.801232
 20
-19460.985042
 30
0.0
  0
VERTEX
  5
358
100
AcDbEntity
  8
0
  6
CONTINUOUS
 62
     7
100
AcDbVertex
100
AcDb2dVertex
 10
3165.79956
 20
-19461.096324
 30
0.0
  0
SEQEND
  5
359
100
AcDbEntity
  8
0
  6
CONTINUOUS
 62
     7
  0
POLYLINE
  5
35A
100
AcDbEntity
  8
0
  6
CONTINUOUS
 62
     7
100
AcDb2dPolyline
 66
     1
 10
0.0
 20
0.0
 30
0.0
 70
   128
  0
VERTEX
  5
35B
100
AcDbEntity
  8
0
  6
CONTINUOUS
 62
     7
100
AcDbVertex
100
AcDb2dVertex
 10
3165.79956
 20
-19461.096324
 30
0.0
  0
VERTEX
  5
35C
100
AcDbEntity
  8
0
  6
CONTINUOUS
 62
     7
100
AcDbVertex
100
AcDb2dVertex
 10
3166.022154
 20
-19461.114274
 30
0.0
  0
VERTEX
  5
35D
100
AcDbEntity
  8
0
  6
CONTINUOUS
 62
     7
100
AcDbVertex
100
AcDb2dVertex
 10
3166.246211
 20
-19461.132335
 30
0.0
  0
VERTEX
  5
35E
100
AcDbEntity
  8
0
  6
CONTINUOUS
 62
     7
100
AcDbVertex
100
AcDb2dVertex
 10
3166.471612
 20
-19461.150509
 30
0.0
  0
VERTEX
  5
35F
100
AcDbEntity
  8
0
  6
CONTINUOUS
 62
     7
100
AcDbVertex
100
AcDb2dVertex
 10
3166.698178
 20
-19461.168772
 30
0.0
  0
VERTEX
  5
360
100
AcDbEntity
  8
0
  6
CONTINUOUS
 62
     7
100
AcDbVertex
100
AcDb2dVertex
 10
3166.925759
 20
-19461.187125
 30
0.0
  0
VERTEX
  5
361
100
AcDbEntity
  8
0
  6
CONTINUOUS
 62
     7
100
AcDbVertex
100
AcDb2dVertex
 10
3167.154147
 20
-19461.205538
 30
0.0
  0
VERTEX
  5
362
100
AcDbEntity
  8
0
  6
CONTINUOUS
 62
     7
100
AcDbVertex
100
AcDb2dVertex
 10
3167.383222
 20
-19461.22401
 30
0.0
  0
VERTEX
  5
363
100
AcDbEntity
  8
0
  6
CONTINUOUS
 62
     7
100
AcDbVertex
100
AcDb2dVertex
 10
3167.612834
 20
-19461.24252
 30
0.0
  0
SEQEND
  5
364
100
AcDbEntity
  8
0
  6
CONTINUOUS
 62
     7
  0
POLYLINE
  5
365
100
AcDbEntity
  8
0
  6
CONTINUOUS
 62
     7
100
AcDb2dPolyline
 66
     1
 10
0.0
 20
0.0
 30
0.0
 70
   128
  0
VERTEX
  5
366
100
AcDbEntity
  8
0
  6
CONTINUOUS
 62
     7
100
AcDbVertex
100
AcDb2dVertex
 10
3167.679764
 20
-19463.033872
 30
0.0
  0
VERTEX
  5
367
100
AcDbEntity
  8
0
  6
CONTINUOUS
 62
     7
100
AcDbVertex
100
AcDb2dVertex
 10
3167.671551
 20
-19462.813951
 30
0.0
  0
VERTEX
  5
368
100
AcDbEntity
  8
0
  6
CONTINUOUS
 62
     7
100
AcDbVertex
100
AcDb2dVertex
 10
3167.663278
 20
-19462.592582
 30
0.0
  0
VERTEX
  5
369
100
AcDbEntity
  8
0
  6
CONTINUOUS
 62
     7
100
AcDbVertex
100
AcDb2dVertex
 10
3167.654945
 20
-19462.369913
 30
0.0
  0
VERTEX
  5
36A
100
AcDbEntity
  8
0
  6
CONTINUOUS
 62
     7
100
AcDbVertex
100
AcDb2dVertex
 10
3167.646583
 20
-19462.146103
 30
0.0
  0
VERTEX
  5
36B
100
AcDbEntity
  8
0
  6
CONTINUOUS
 62
     7
100
AcDbVertex
100
AcDb2dVertex
 10
3167.63819
 20
-19461.921306
 30
0.0
  0
VERTEX
  5
36C
100
AcDbEntity
  8
0
  6
CONTINUOUS
 62
     7
100
AcDbVertex
100
AcDb2dVertex
 10
3167.629768
 20
-19461.695674
 30
0.0
  0
VERTEX
  5
36D
100
AcDbEntity
  8
0
  6
CONTINUOUS
 62
     7
100
AcDbVertex
100
AcDb2dVertex
 10
3167.621316
 20
-19461.469354
 30
0.0
  0
VERTEX
  5
36E
100
AcDbEntity
  8
0
  6
CONTINUOUS
 62
     7
100
AcDbVertex
100
AcDb2dVertex
 10
3167.612834
 20
-19461.24252
 30
0.0
  0
SEQEND
  5
36F
100
AcDbEntity
  8
0
  6
CONTINUOUS
 62
     7
  0
POLYLINE
  5
370
100
AcDbEntity
  8
0
  6
CONTINUOUS
 62
     7
100
AcDb2dPolyline
 66
     1
 10
0.0
 20
0.0
 30
0.0
 70
   128
  0
VERTEX
  5
371
100
AcDbEntity
  8
0
  6
CONTINUOUS
 62
     7
100
AcDbVertex
100
AcDb2dVertex
 10
3168.570557
 20
-19463.047244
 30
0.0
  0
VERTEX
  5
372
100
AcDbEntity
  8
0
  6
CONTINUOUS
 62
     7
100
AcDbVertex
100
AcDb2dVertex
 10
3168.459275
 20
-19463.045572
 30
0.0
  0
VERTEX
  5
373
100
AcDbEntity
  8
0
  6
CONTINUOUS
 62
     7
100
AcDbVertex
100
AcDb2dVertex
 10
3168.347934
 20
-19463.043907
 30
0.0
  0
VERTEX
  5
374
100
AcDbEntity
  8
0
  6
CONTINUOUS
 62
     7
100
AcDbVertex
100
AcDb2dVertex
 10
3168.236562
 20
-19463.042227
 30
0.0
  0
VERTEX
  5
375
100
AcDbEntity
  8
0
  6
CONTINUOUS
 62
     7
100
AcDbVertex
100
AcDb2dVertex
 10
3168.125161
 20
-19463.040554
 30
0.0
  0
VERTEX
  5
376
100
AcDbEntity
  8
0
  6
CONTINUOUS
 62
     7
100
AcDbVertex
100
AcDb2dVertex
 10
3168.013759
 20
-19463.038882
 30
0.0
  0
VERTEX
  5
377
100
AcDbEntity
  8
0
  6
CONTINUOUS
 62
     7
100
AcDbVertex
100
AcDb2dVertex
 10
3167.902388
 20
-19463.037209
 30
0.0
  0
VERTEX
  5
378
100
AcDbEntity
  8
0
  6
CONTINUOUS
 62
     7
100
AcDbVertex
100
AcDb2dVertex
 10
3167.791046
 20
-19463.035537
 30
0.0
  0
VERTEX
  5
379
100
AcDbEntity
  8
0
  6
CONTINUOUS
 62
     7
100
AcDbVertex
100
AcDb2dVertex
 10
3167.679764
 20
-19463.033872
 30
0.0
  0
SEQEND
  5
37A
100
AcDbEntity
  8
0
  6
CONTINUOUS
 62
     7
  0
POLYLINE
  5
37B
100
AcDbEntity
  8
0
  6
CONTINUOUS
 62
     7
100
AcDb2dPolyline
 66
     1
 10
0.0
 20
0.0
 30
0.0
 70
   128
  0
VERTEX
  5
37C
100
AcDbEntity
  8
0
  6
CONTINUOUS
 62
     7
100
AcDbVertex
100
AcDb2dVertex
 10
3170.521485
 20
-19460.276232
 30
0.0
  0
VERTEX
  5
37D
100
AcDbEntity
  8
0
  6
CONTINUOUS
 62
     7
100
AcDbVertex
100
AcDb2dVertex
 10
3170.519813
 20
-19460.387514
 30
0.0
  0
VERTEX
  5
37E
100
AcDbEntity
  8
0
  6
CONTINUOUS
 62
     7
100
AcDbVertex
100
AcDb2dVertex
 10
3170.51814
 20
-19460.498856
 30
0.0
  0
VERTEX
  5
37F
100
AcDbEntity
  8
0
  6
CONTINUOUS
 62
     7
100
AcDbVertex
100
AcDb2dVertex
 10
3170.516468
 20
-19460.610235
 30
0.0
  0
VERTEX
  5
380
100
AcDbEntity
  8
0
  6
CONTINUOUS
 62
     7
100
AcDbVertex
100
AcDb2dVertex
 10
3170.514795
 20
-19460.721636
 30
0.0
  0
VERTEX
  5
381
100
AcDbEntity
  8
0
  6
CONTINUOUS
 62
     7
100
AcDbVertex
100
AcDb2dVertex
 10
3170.513122
 20
-19460.833037
 30
0.0
  0
VERTEX
  5
382
100
AcDbEntity
  8
0
  6
CONTINUOUS
 62
     7
100
AcDbVertex
100
AcDb2dVertex
 10
3170.51145
 20
-19460.944416
 30
0.0
  0
VERTEX
  5
383
100
AcDbEntity
  8
0
  6
CONTINUOUS
 62
     7
100
AcDbVertex
100
AcDb2dVertex
 10
3170.509777
 20
-19461.055758
 30
0.0
  0
VERTEX
  5
384
100
AcDbEntity
  8
0
  6
CONTINUOUS
 62
     7
100
AcDbVertex
100
AcDb2dVertex
 10
3170.508105
 20
-19461.16704
 30
0.0
  0
SEQEND
  5
385
100
AcDbEntity
  8
0
  6
CONTINUOUS
 62
     7
  0
POLYLINE
  5
386
100
AcDbEntity
  8
0
  6
CONTINUOUS
 62
     7
100
AcDb2dPolyline
 66
     1
 10
0.0
 20
0.0
 30
0.0
 70
   128
  0
VERTEX
  5
387
100
AcDbEntity
  8
0
  6
CONTINUOUS
 62
     7
100
AcDbVertex
100
AcDb2dVertex
 10
3170.508105
 20
-19461.16704
 30
0.0
  0
VERTEX
  5
388
100
AcDbEntity
  8
0
  6
CONTINUOUS
 62
     7
100
AcDbVertex
100
AcDb2dVertex
 10
3170.285272
 20
-19461.175365
 30
0.0
  0
VERTEX
  5
389
100
AcDbEntity
  8
0
  6
CONTINUOUS
 62
     7
100
AcDbVertex
100
AcDb2dVertex
 10
3170.060976
 20
-19461.183743
 30
0.0
  0
VERTEX
  5
38A
100
AcDbEntity
  8
0
  6
CONTINUOUS
 62
     7
100
AcDbVertex
100
AcDb2dVertex
 10
3169.835336
 20
-19461.192172
 30
0.0
  0
VERTEX
  5
38B
100
AcDbEntity
  8
0
  6
CONTINUOUS
 62
     7
100
AcDbVertex
100
AcDb2dVertex
 10
3169.608531
 20
-19461.200647
 30
0.0
  0
VERTEX
  5
38C
100
AcDbEntity
  8
0
  6
CONTINUOUS
 62
     7
100
AcDbVertex
100
AcDb2dVertex
 10
3169.380741
 20
-19461.209159
 30
0.0
  0
VERTEX
  5
38D
100
AcDbEntity
  8
0
  6
CONTINUOUS
 62
     7
100
AcDbVertex
100
AcDb2dVertex
 10
3169.152084
 20
-19461.217701
 30
0.0
  0
VERTEX
  5
38E
100
AcDbEntity
  8
0
  6
CONTINUOUS
 62
     7
100
AcDbVertex
100
AcDb2dVertex
 10
3168.922741
 20
-19461.226272
 30
0.0
  0
VERTEX
  5
38F
100
AcDbEntity
  8
0
  6
CONTINUOUS
 62
     7
100
AcDbVertex
100
AcDb2dVertex
 10
3168.69286
 20
-19461.234859
 30
0.0
  0
SEQEND
  5
390
100
AcDbEntity
  8
0
  6
CONTINUOUS
 62
     7
  0
POLYLINE
  5
391
100
AcDbEntity
  8
0
  6
CONTINUOUS
 62
     7
100
AcDb2dPolyline
 66
     1
 10
0.0
 20
0.0
 30
0.0
 70
   128
  0
VERTEX
  5
392
100
AcDbEntity
  8
0
  6
CONTINUOUS
 62
     7
100
AcDbVertex
100
AcDb2dVertex
 10
3168.69286
 20
-19461.234859
 30
0.0
  0
VERTEX
  5
393
100
AcDbEntity
  8
0
  6
CONTINUOUS
 62
     7
100
AcDbVertex
100
AcDb2dVertex
 10
3168.677389
 20
-19461.464359
 30
0.0
  0
VERTEX
  5
394
100
AcDbEntity
  8
0
  6
CONTINUOUS
 62
     7
100
AcDbVertex
100
AcDb2dVertex
 10
3168.661918
 20
-19461.693344
 30
0.0
  0
VERTEX
  5
395
100
AcDbEntity
  8
0
  6
CONTINUOUS
 62
     7
100
AcDbVertex
100
AcDb2dVertex
 10
3168.646507
 20
-19461.921642
 30
0.0
  0
VERTEX
  5
396
100
AcDbEntity
  8
0
  6
CONTINUOUS
 62
     7
100
AcDbVertex
100
AcDb2dVertex
 10
3168.631156
 20
-19462.149089
 30
0.0
  0
VERTEX
  5
397
100
AcDbEntity
  8
0
  6
CONTINUOUS
 62
     7
100
AcDbVertex
100
AcDb2dVertex
 10
3168.615894
 20
-19462.375536
 30
0.0
  0
VERTEX
  5
398
100
AcDbEntity
  8
0
  6
CONTINUOUS
 62
     7
100
AcDbVertex
100
AcDb2dVertex
 10
3168.600692
 20
-19462.600817
 30
0.0
  0
VERTEX
  5
399
100
AcDbEntity
  8
0
  6
CONTINUOUS
 62
     7
100
AcDbVertex
100
AcDb2dVertex
 10
3168.58558
 20
-19462.824778
 30
0.0
  0
VERTEX
  5
39A
100
AcDbEntity
  8
0
  6
CONTINUOUS
 62
     7
100
AcDbVertex
100
AcDb2dVertex
 10
3168.570557
 20
-19463.047244
 30
0.0
  0
SEQEND
  5
39B
100
AcDbEntity
  8
0
  6
CONTINUOUS
 62
     7
  0
LINE
  5
39C
100
AcDbEntity
  8
0
  6
CONTINUOUS
 62
     7
100
AcDbLine
 10
3167.869415
 20
-19462.839935
 30
0.0
 11
3167.679764
 21
-19463.033872
 31
0.0
  0
LINE
  5
39D
100
AcDbEntity
  8
0
  6
CONTINUOUS
 62
     7
100
AcDbLine
 10
3168.38682
 20
-19462.847707
 30
0.0
 11
3167.869415
 21
-19462.839935
 31
0.0
  0
LINE
  5
39E
100
AcDbEntity
  8
0
  6
CONTINUOUS
 62
     7
100
AcDbLine
 10
3168.38682
 20
-19462.847707
 30
0.0
 11
3168.570557
 21
-19463.047244
 31
0.0
  0
LINE
  5
39F
100
AcDbEntity
  8
0
  6
CONTINUOUS
 62
     7
100
AcDbLine
 10
3167.869415
 20
-19462.839935
 30
0.0
 11
3167.844776
 21
-19462.180554
 31
0.0
  0
LINE
  5
3A0
100
AcDbEntity
  8
0
  6
CONTINUOUS
 62
     7
100
AcDbLine
 10
3167.815477
 20
-19461.396212
 30
0.0
 11
3167.625378
 21
-19461.578277
 31
0.0
  0
LINE
  5
3A1
100
AcDbEntity
  8
0
  6
CONTINUOUS
 62
     7
100
AcDbLine
 10
3167.844776
 20
-19462.180554
 30
0.0
 11
3167.815477
 21
-19461.396212
 31
0.0
  0
LINE
  5
3A2
100
AcDbEntity
  8
0
  6
CONTINUOUS
 62
     7
100
AcDbLine
 10
3168.431261
 20
-19462.189364
 30
0.0
 11
3168.38682
 21
-19462.847707
 31
0.0
  0
LINE
  5
3A3
100
AcDbEntity
  8
0
  6
CONTINUOUS
 62
     7
100
AcDbLine
 10
3168.485558
 20
-19461.384526
 30
0.0
 11
3168.431261
 21
-19462.189364
 31
0.0
  0
LINE
  5
3A4
100
AcDbEntity
  8
0
  6
CONTINUOUS
 62
     7
100
AcDbLine
 10
3168.669952
 20
-19461.574529
 30
0.0
 11
3168.485558
 21
-19461.384526
 31
0.0
  0
CIRCLE
  5
3A5
100
AcDbEntity
  8
0
  6
CONTINUOUS
 62
     7
100
AcDbCircle
 10
3168.160522
 20
-19460.686271
 30
0.0
 40
5.40909
  0
LINE
  5
3A6
100
AcDbEntity
  8
0
  6
CONTINUOUS
 62
     7
100
AcDbLine
 10
3168.476269
 20
-19459.192002
 30
0.0
 11
3168.45163
 21
-19458.532621
 31
0.0
  0
LINE
  5
3A7
100
AcDbEntity
  8
0
  6
CONTINUOUS
 62
     7
100
AcDbLine
 10
3168.45163
 20
-19458.532621
 30
0.0
 11
3168.641281
 21
-19458.338684
 31
0.0
  0
LINE
  5
3A8
100
AcDbEntity
  8
0
  6
CONTINUOUS
 62
     7
100
AcDbLine
 10
3168.506374
 20
-19459.998109
 30
0.0
 11
3168.696384
 21
-19459.813722
 31
0.0
  0
LINE
  5
3A9
100
AcDbEntity
  8
0
  6
CONTINUOUS
 62
     7
100
AcDbLine
 10
3168.506374
 20
-19459.998109
 30
0.0
 11
3168.476269
 21
-19459.192002
 31
0.0
  0
LINE
  5
3AA
100
AcDbEntity
  8
0
  6
CONTINUOUS
 62
     7
100
AcDbLine
 10
3167.277913
 20
-19461.215513
 30
0.0
 11
3167.468012
 21
-19461.033448
 31
0.0
  0
ARC
  5
3AB
100
AcDbEntity
  8
0
  6
CONTINUOUS
 62
     7
100
AcDbCircle
 10
3167.438589
 20
-19461.409417
 30
0.0
 40
0.377119
100
AcDbArc
 50
2.006761
 51
85.525205
  0
LINE
  5
3AC
100
AcDbEntity
  8
0
  6
CONTINUOUS
 62
     7
100
AcDbLine
 10
3168.45163
 20
-19458.532621
 30
0.0
 11
3167.934195
 21
-19458.524849
 31
0.0
  0
LINE
  5
3AD
100
AcDbEntity
  8
0
  6
CONTINUOUS
 62
     7
100
AcDbLine
 10
3167.934195
 20
-19458.524849
 30
0.0
 11
3167.750458
 21
-19458.325312
 31
0.0
  0
LINE
  5
3AE
100
AcDbEntity
  8
0
  6
CONTINUOUS
 62
     7
100
AcDbLine
 10
3170.321948
 20
-19460.45997
 30
0.0
 11
3170.521485
 21
-19460.276232
 31
0.0
  0
LINE
  5
3AF
100
AcDbEntity
  8
0
  6
CONTINUOUS
 62
     7
100
AcDbLine
 10
3169.663605
 20
-19460.415543
 30
0.0
 11
3170.321948
 21
-19460.45997
 31
0.0
  0
LINE
  5
3B0
100
AcDbEntity
  8
0
  6
CONTINUOUS
 62
     7
100
AcDbLine
 10
3168.858767
 20
-19460.361239
 30
0.0
 11
3169.663605
 21
-19460.415543
 31
0.0
  0
LINE
  5
3B1
100
AcDbEntity
  8
0
  6
CONTINUOUS
 62
     7
100
AcDbLine
 10
3169.048777
 20
-19460.176852
 30
0.0
 11
3168.858767
 21
-19460.361239
 31
0.0
  0
LINE
  5
3B2
100
AcDbEntity
  8
0
  6
CONTINUOUS
 62
     7
100
AcDbLine
 10
3167.478764
 20
-19460.31847
 30
0.0
 11
3167.29422
 21
-19460.130776
 31
0.0
  0
LINE
  5
3B3
100
AcDbEntity
  8
0
  6
CONTINUOUS
 62
     7
100
AcDbLine
 10
3167.652407
 20
-19459.778607
 30
0.0
 11
3167.836951
 21
-19459.966302
 31
0.0
  0
ARC
  5
3B4
100
AcDbEntity
  8
0
  6
CONTINUOUS
 62
     7
100
AcDbCircle
 10
3167.460629
 20
-19459.941787
 30
0.0
 40
0.37712
100
AcDbArc
 50
272.756342
 51
356.272873
  0
LINE
  5
3B5
100
AcDbEntity
  8
0
  6
CONTINUOUS
 62
     7
100
AcDbLine
 10
3168.848672
 20
-19461.032141
 30
0.0
 11
3169.033067
 21
-19461.222143
 31
0.0
  0
ARC
  5
3B6
100
AcDbEntity
  8
0
  6
CONTINUOUS
 62
     7
100
AcDbCircle
 10
3168.861851
 20
-19461.408999
 30
0.0
 40
0.377088
100
AcDbArc
 50
92.00282
 51
176.27892
  0
LINE
  5
3B7
100
AcDbEntity
  8
0
  6
CONTINUOUS
 62
     7
100
AcDbLine
 10
3167.934195
 20
-19458.524849
 30
0.0
 11
3167.889784
 21
-19459.183192
 31
0.0
  0
LINE
  5
3B8
100
AcDbEntity
  8
0
  6
CONTINUOUS
 62
     7
100
AcDbLine
 10
3167.889784
 20
-19459.183192
 30
0.0
 11
3167.836951
 21
-19459.966302
 31
0.0
  0
ARC
  5
3B9
100
AcDbEntity
  8
0
  6
CONTINUOUS
 62
     7
100
AcDbCircle
 10
3168.883222
 20
-19459.984956
 30
0.0
 40
0.377077
100
AcDbArc
 50
181.99906
 51
266.281538
  0
LINE
  5
3BA
100
AcDbEntity
  8
0
  6
CONTINUOUS
 62
     7
100
AcDbLine
 10
3165.999037
 20
-19460.915013
 30
0.0
 11
3165.79956
 21
-19461.096324
 31
0.0
  0
LINE
  5
3BB
100
AcDbEntity
  8
0
  6
CONTINUOUS
 62
     7
100
AcDbLine
 10
3165.999037
 20
-19460.915013
 30
0.0
 11
3166.659501
 21
-19460.968265
 31
0.0
  0
LINE
  5
3BC
100
AcDbEntity
  8
0
  6
CONTINUOUS
 62
     7
100
AcDbLine
 10
3166.659501
 20
-19460.968265
 30
0.0
 11
3167.468012
 21
-19461.033448
 31
0.0
  0
LINE
  5
3BD
100
AcDbEntity
  8
0
  6
CONTINUOUS
 62
     7
100
AcDbLine
 10
3166.66864
 20
-19460.359343
 30
0.0
 11
3166.006892
 21
-19460.392741
 31
0.0
  0
LINE
  5
3BE
100
AcDbEntity
  8
0
  6
CONTINUOUS
 62
     7
100
AcDbLine
 10
3166.006892
 20
-19460.392741
 30
0.0
 11
3165.81294
 21
-19460.205516
 31
0.0
  0
LINE
  5
3BF
100
AcDbEntity
  8
0
  6
CONTINUOUS
 62
     7
100
AcDbLine
 10
3167.478764
 20
-19460.31847
 30
0.0
 11
3166.66864
 21
-19460.359343
 31
0.0
  0
LINE
  5
3C0
100
AcDbEntity
  8
0
  6
CONTINUOUS
 62
     7
100
AcDbLine
 10
3170.314183
 20
-19460.977389
 30
0.0
 11
3169.654794
 21
-19461.002021
 31
0.0
  0
LINE
  5
3C1
100
AcDbEntity
  8
0
  6
CONTINUOUS
 62
     7
100
AcDbLine
 10
3170.314183
 20
-19460.977389
 30
0.0
 11
3170.508105
 21
-19461.16704
 31
0.0
  0
LINE
  5
3C2
100
AcDbEntity
  8
0
  6
CONTINUOUS
 62
     7
100
AcDbLine
 10
3169.654794
 20
-19461.002021
 30
0.0
 11
3168.848672
 21
-19461.032141
 31
0.0
  0
LINE
  5
3C3
100
AcDbEntity
  8
0
  6
CONTINUOUS
 62
     7
100
AcDbLine
 10
3166.006892
 20
-19460.392741
 30
0.0
 11
3165.999037
 21
-19460.915013
 31
0.0
  0
LINE
  5
3C4
100
AcDbEntity
  8
0
  6
CONTINUOUS
 62
     7
100
AcDbLine
 10
3170.321948
 20
-19460.45997
 30
0.0
 11
3170.314183
 21
-19460.977389
 31
0.0
  0
ARC
  5
3C5
100
AcDbEntity
  8
0
  6
CONTINUOUS
 62
     7
100
AcDbCircle
 10
3168.160534
 20
-19460.686192
 30
0.0
 40
1.527357
100
AcDbArc
 50
258.068921
 51
280.209738
  0
ARC
  5
3C6
100
AcDbEntity
  8
0
  6
CONTINUOUS
 62
     7
100
AcDbCircle
 10
3168.161281
 20
-19460.686275
 30
0.0
 40
1.528025
100
AcDbArc
 50
167.645638
 51
190.634627
  0
ARC
  5
3C7
100
AcDbEntity
  8
0
  6
CONTINUOUS
 62
     7
100
AcDbCircle
 10
3168.160511
 20
-19460.686363
 30
0.0
 40
1.527357
100
AcDbArc
 50
78.068921
 51
100.209738
  0
ARC
  5
3C8
100
AcDbEntity
  8
0
  6
CONTINUOUS
 62
     7
100
AcDbCircle
 10
3168.160469
 20
-19460.686267
 30
0.0
 40
1.527321
100
AcDbArc
 50
348.068792
 51
10.209845
  0
CIRCLE
  5
3C9
100
AcDbEntity
  8
0
  6
CONTINUOUS
 62
     7
100
AcDbCircle
 10
3677.273628
 20
-19460.650836
 30
0.0
 40
3.56364
  0
POLYLINE
  5
3CA
100
AcDbEntity
  8
0
  6
CONTINUOUS
 62
     7
100
AcDb2dPolyline
 66
     1
 10
0.0
 20
0.0
 30
0.0
 70
   128
  0
VERTEX
  5
3CB
100
AcDbEntity
  8
0
  6
CONTINUOUS
 62
     7
100
AcDbVertex
100
AcDb2dVertex
 10
3677.176633
 20
-19461.409077
 30
0.0
  0
VERTEX
  5
3CC
100
AcDbEntity
  8
0
  6
CONTINUOUS
 62
     7
100
AcDbVertex
100
AcDb2dVertex
 10
3676.987549
 20
-19461.540063
 30
0.0
  0
VERTEX
  5
3CD
100
AcDbEntity
  8
0
  6
CONTINUOUS
 62
     7
100
AcDbVertex
100
AcDb2dVertex
 10
3676.798883
 20
-19461.67075
 30
0.0
  0
VERTEX
  5
3CE
100
AcDbEntity
  8
0
  6
CONTINUOUS
 62
     7
100
AcDbVertex
100
AcDb2dVertex
 10
3676.610785
 20
-19461.80105
 30
0.0
  0
VERTEX
  5
3CF
100
AcDbEntity
  8
0
  6
CONTINUOUS
 62
     7
100
AcDbVertex
100
AcDb2dVertex
 10
3676.423404
 20
-19461.930864
 30
0.0
  0
VERTEX
  5
3D0
100
AcDbEntity
  8
0
  6
CONTINUOUS
 62
     7
100
AcDbVertex
100
AcDb2dVertex
 10
3676.236829
 20
-19462.060103
 30
0.0
  0
VERTEX
  5
3D1
100
AcDbEntity
  8
0
  6
CONTINUOUS
 62
     7
100
AcDbVertex
100
AcDb2dVertex
 10
3676.05121
 20
-19462.188677
 30
0.0
  0
VERTEX
  5
3D2
100
AcDbEntity
  8
0
  6
CONTINUOUS
 62
     7
100
AcDbVertex
100
AcDb2dVertex
 10
3675.866696
 20
-19462.316498
 30
0.0
  0
VERTEX
  5
3D3
100
AcDbEntity
  8
0
  6
CONTINUOUS
 62
     7
100
AcDbVertex
100
AcDb2dVertex
 10
3675.683406
 20
-19462.443467
 30
0.0
  0
SEQEND
  5
3D4
100
AcDbEntity
  8
0
  6
CONTINUOUS
 62
     7
  0
POLYLINE
  5
3D5
100
AcDbEntity
  8
0
  6
CONTINUOUS
 62
     7
100
AcDb2dPolyline
 66
     1
 10
0.0
 20
0.0
 30
0.0
 70
   128
  0
VERTEX
  5
3D6
100
AcDbEntity
  8
0
  6
CONTINUOUS
 62
     7
100
AcDbVertex
100
AcDb2dVertex
 10
3677.176633
 20
-19461.409077
 30
0.0
  0
VERTEX
  5
3D7
100
AcDbEntity
  8
0
  6
CONTINUOUS
 62
     7
100
AcDbVertex
100
AcDb2dVertex
 10
3677.326681
 20
-19461.583444
 30
0.0
  0
VERTEX
  5
3D8
100
AcDbEntity
  8
0
  6
CONTINUOUS
 62
     7
100
AcDbVertex
100
AcDb2dVertex
 10
3677.476371
 20
-19461.757407
 30
0.0
  0
VERTEX
  5
3D9
100
AcDbEntity
  8
0
  6
CONTINUOUS
 62
     7
100
AcDbVertex
100
AcDb2dVertex
 10
3677.625613
 20
-19461.930849
 30
0.0
  0
VERTEX
  5
3DA
100
AcDbEntity
  8
0
  6
CONTINUOUS
 62
     7
100
AcDbVertex
100
AcDb2dVertex
 10
3677.774288
 20
-19462.103655
 30
0.0
  0
VERTEX
  5
3DB
100
AcDbEntity
  8
0
  6
CONTINUOUS
 62
     7
100
AcDbVertex
100
AcDb2dVertex
 10
3677.922335
 20
-19462.275693
 30
0.0
  0
VERTEX
  5
3DC
100
AcDbEntity
  8
0
  6
CONTINUOUS
 62
     7
100
AcDbVertex
100
AcDb2dVertex
 10
3678.069606
 20
-19462.446842
 30
0.0
  0
VERTEX
  5
3DD
100
AcDbEntity
  8
0
  6
CONTINUOUS
 62
     7
100
AcDbVertex
100
AcDb2dVertex
 10
3678.21601
 20
-19462.61699
 30
0.0
  0
VERTEX
  5
3DE
100
AcDbEntity
  8
0
  6
CONTINUOUS
 62
     7
100
AcDbVertex
100
AcDb2dVertex
 10
3678.361459
 20
-19462.786011
 30
0.0
  0
SEQEND
  5
3DF
100
AcDbEntity
  8
0
  6
CONTINUOUS
 62
     7
  0
POLYLINE
  5
3E0
100
AcDbEntity
  8
0
  6
CONTINUOUS
 62
     7
100
AcDb2dPolyline
 66
     1
 10
0.0
 20
0.0
 30
0.0
 70
   128
  0
VERTEX
  5
3E1
100
AcDbEntity
  8
0
  6
CONTINUOUS
 62
     7
100
AcDbVertex
100
AcDb2dVertex
 10
3678.361459
 20
-19462.786011
 30
0.0
  0
VERTEX
  5
3E2
100
AcDbEntity
  8
0
  6
CONTINUOUS
 62
     7
100
AcDbVertex
100
AcDb2dVertex
 10
3678.449505
 20
-19462.717931
 30
0.0
  0
VERTEX
  5
3E3
100
AcDbEntity
  8
0
  6
CONTINUOUS
 62
     7
100
AcDbVertex
100
AcDb2dVertex
 10
3678.537581
 20
-19462.649821
 30
0.0
  0
VERTEX
  5
3E4
100
AcDbEntity
  8
0
  6
CONTINUOUS
 62
     7
100
AcDbVertex
100
AcDb2dVertex
 10
3678.625717
 20
-19462.581681
 30
0.0
  0
VERTEX
  5
3E5
100
AcDbEntity
  8
0
  6
CONTINUOUS
 62
     7
100
AcDbVertex
100
AcDb2dVertex
 10
3678.713852
 20
-19462.513533
 30
0.0
  0
VERTEX
  5
3E6
100
AcDbEntity
  8
0
  6
CONTINUOUS
 62
     7
100
AcDbVertex
100
AcDb2dVertex
 10
3678.801988
 20
-19462.445386
 30
0.0
  0
VERTEX
  5
3E7
100
AcDbEntity
  8
0
  6
CONTINUOUS
 62
     7
100
AcDbVertex
100
AcDb2dVertex
 10
3678.890123
 20
-19462.377246
 30
0.0
  0
VERTEX
  5
3E8
100
AcDbEntity
  8
0
  6
CONTINUOUS
 62
     7
100
AcDbVertex
100
AcDb2dVertex
 10
3678.978199
 20
-19462.309135
 30
0.0
  0
VERTEX
  5
3E9
100
AcDbEntity
  8
0
  6
CONTINUOUS
 62
     7
100
AcDbVertex
100
AcDb2dVertex
 10
3679.066245
 20
-19462.241063
 30
0.0
  0
SEQEND
  5
3EA
100
AcDbEntity
  8
0
  6
CONTINUOUS
 62
     7
  0
POLYLINE
  5
3EB
100
AcDbEntity
  8
0
  6
CONTINUOUS
 62
     7
100
AcDb2dPolyline
 66
     1
 10
0.0
 20
0.0
 30
0.0
 70
   128
  0
VERTEX
  5
3EC
100
AcDbEntity
  8
0
  6
CONTINUOUS
 62
     7
100
AcDbVertex
100
AcDb2dVertex
 10
3679.066245
 20
-19462.241063
 30
0.0
  0
VERTEX
  5
3ED
100
AcDbEntity
  8
0
  6
CONTINUOUS
 62
     7
100
AcDbVertex
100
AcDb2dVertex
 10
3678.940926
 20
-19462.060155
 30
0.0
  0
VERTEX
  5
3EE
100
AcDbEntity
  8
0
  6
CONTINUOUS
 62
     7
100
AcDbVertex
100
AcDb2dVertex
 10
3678.8148
 20
-19461.878052
 30
0.0
  0
VERTEX
  5
3EF
100
AcDbEntity
  8
0
  6
CONTINUOUS
 62
     7
100
AcDbVertex
100
AcDb2dVertex
 10
3678.687898
 20
-19461.694882
 30
0.0
  0
VERTEX
  5
3F0
100
AcDbEntity
  8
0
  6
CONTINUOUS
 62
     7
100
AcDbVertex
100
AcDb2dVertex
 10
3678.560369
 20
-19461.510779
 30
0.0
  0
VERTEX
  5
3F1
100
AcDbEntity
  8
0
  6
CONTINUOUS
 62
     7
100
AcDbVertex
100
AcDb2dVertex
 10
3678.432272
 20
-19461.325854
 30
0.0
  0
VERTEX
  5
3F2
100
AcDbEntity
  8
0
  6
CONTINUOUS
 62
     7
100
AcDbVertex
100
AcDb2dVertex
 10
3678.303698
 20
-19461.14025
 30
0.0
  0
VERTEX
  5
3F3
100
AcDbEntity
  8
0
  6
CONTINUOUS
 62
     7
100
AcDbVertex
100
AcDb2dVertex
 10
3678.174735
 20
-19460.954078
 30
0.0
  0
VERTEX
  5
3F4
100
AcDbEntity
  8
0
  6
CONTINUOUS
 62
     7
100
AcDbVertex
100
AcDb2dVertex
 10
3678.045474
 20
-19460.767481
 30
0.0
  0
SEQEND
  5
3F5
100
AcDbEntity
  8
0
  6
CONTINUOUS
 62
     7
  0
POLYLINE
  5
3F6
100
AcDbEntity
  8
0
  6
CONTINUOUS
 62
     7
100
AcDb2dPolyline
 66
     1
 10
0.0
 20
0.0
 30
0.0
 70
   128
  0
VERTEX
  5
3F7
100
AcDbEntity
  8
0
  6
CONTINUOUS
 62
     7
100
AcDbVertex
100
AcDb2dVertex
 10
3678.045474
 20
-19460.767481
 30
0.0
  0
VERTEX
  5
3F8
100
AcDbEntity
  8
0
  6
CONTINUOUS
 62
     7
100
AcDbVertex
100
AcDb2dVertex
 10
3678.218101
 20
-19460.614968
 30
0.0
  0
VERTEX
  5
3F9
100
AcDbEntity
  8
0
  6
CONTINUOUS
 62
     7
100
AcDbVertex
100
AcDb2dVertex
 10
3678.39034
 20
-19460.462799
 30
0.0
  0
VERTEX
  5
3FA
100
AcDbEntity
  8
0
  6
CONTINUOUS
 62
     7
100
AcDbVertex
100
AcDb2dVertex
 10
3678.562072
 20
-19460.311086
 30
0.0
  0
VERTEX
  5
3FB
100
AcDbEntity
  8
0
  6
CONTINUOUS
 62
     7
100
AcDbVertex
100
AcDb2dVertex
 10
3678.733146
 20
-19460.159925
 30
0.0
  0
VERTEX
  5
3FC
100
AcDbEntity
  8
0
  6
CONTINUOUS
 62
     7
100
AcDbVertex
100
AcDb2dVertex
 10
3678.903503
 20
-19460.009436
 30
0.0
  0
VERTEX
  5
3FD
100
AcDbEntity
  8
0
  6
CONTINUOUS
 62
     7
100
AcDbVertex
100
AcDb2dVertex
 10
3679.072965
 20
-19459.859716
 30
0.0
  0
VERTEX
  5
3FE
100
AcDbEntity
  8
0
  6
CONTINUOUS
 62
     7
100
AcDbVertex
100
AcDb2dVertex
 10
3679.241441
 20
-19459.710878
 30
0.0
  0
VERTEX
  5
3FF
100
AcDbEntity
  8
0
  6
CONTINUOUS
 62
     7
100
AcDbVertex
100
AcDb2dVertex
 10
3679.408782
 20
-19459.563017
 30
0.0
  0
SEQEND
  5
400
100
AcDbEntity
  8
0
  6
CONTINUOUS
 62
     7
  0
POLYLINE
  5
401
100
AcDbEntity
  8
0
  6
CONTINUOUS
 62
     7
100
AcDb2dPolyline
 66
     1
 10
0.0
 20
0.0
 30
0.0
 70
   128
  0
VERTEX
  5
402
100
AcDbEntity
  8
0
  6
CONTINUOUS
 62
     7
100
AcDbVertex
100
AcDb2dVertex
 10
3679.408782
 20
-19459.563017
 30
0.0
  0
VERTEX
  5
403
100
AcDbEntity
  8
0
  6
CONTINUOUS
 62
     7
100
AcDbVertex
100
AcDb2dVertex
 10
3679.340716
 20
-19459.474971
 30
0.0
  0
VERTEX
  5
404
100
AcDbEntity
  8
0
  6
CONTINUOUS
 62
     7
100
AcDbVertex
100
AcDb2dVertex
 10
3679.272591
 20
-19459.38688
 30
0.0
  0
VERTEX
  5
405
100
AcDbEntity
  8
0
  6
CONTINUOUS
 62
     7
100
AcDbVertex
100
AcDb2dVertex
 10
3679.204466
 20
-19459.298752
 30
0.0
  0
VERTEX
  5
406
100
AcDbEntity
  8
0
  6
CONTINUOUS
 62
     7
100
AcDbVertex
100
AcDb2dVertex
 10
3679.136311
 20
-19459.210617
 30
0.0
  0
VERTEX
  5
407
100
AcDbEntity
  8
0
  6
CONTINUOUS
 62
     7
100
AcDbVertex
100
AcDb2dVertex
 10
3679.068156
 20
-19459.122474
 30
0.0
  0
VERTEX
  5
408
100
AcDbEntity
  8
0
  6
CONTINUOUS
 62
     7
100
AcDbVertex
100
AcDb2dVertex
 10
3679.000031
 20
-19459.034353
 30
0.0
  0
VERTEX
  5
409
100
AcDbEntity
  8
0
  6
CONTINUOUS
 62
     7
100
AcDbVertex
100
AcDb2dVertex
 10
3678.931906
 20
-19458.946255
 30
0.0
  0
VERTEX
  5
40A
100
AcDbEntity
  8
0
  6
CONTINUOUS
 62
     7
100
AcDbVertex
100
AcDb2dVertex
 10
3678.863841
 20
-19458.858209
 30
0.0
  0
SEQEND
  5
40B
100
AcDbEntity
  8
0
  6
CONTINUOUS
 62
     7
  0
POLYLINE
  5
40C
100
AcDbEntity
  8
0
  6
CONTINUOUS
 62
     7
100
AcDb2dPolyline
 66
     1
 10
0.0
 20
0.0
 30
0.0
 70
   128
  0
VERTEX
  5
40D
100
AcDbEntity
  8
0
  6
CONTINUOUS
 62
     7
100
AcDbVertex
100
AcDb2dVertex
 10
3678.863841
 20
-19458.858209
 30
0.0
  0
VERTEX
  5
40E
100
AcDbEntity
  8
0
  6
CONTINUOUS
 62
     7
100
AcDbVertex
100
AcDb2dVertex
 10
3678.67861
 20
-19458.982968
 30
0.0
  0
VERTEX
  5
40F
100
AcDbEntity
  8
0
  6
CONTINUOUS
 62
     7
100
AcDbVertex
100
AcDb2dVertex
 10
3678.492154
 20
-19459.108556
 30
0.0
  0
VERTEX
  5
410
100
AcDbEntity
  8
0
  6
CONTINUOUS
 62
     7
100
AcDbVertex
100
AcDb2dVertex
 10
3678.304624
 20
-19459.234876
 30
0.0
  0
VERTEX
  5
411
100
AcDbEntity
  8
0
  6
CONTINUOUS
 62
     7
100
AcDbVertex
100
AcDb2dVertex
 10
3678.116078
 20
-19459.36186
 30
0.0
  0
VERTEX
  5
412
100
AcDbEntity
  8
0
  6
CONTINUOUS
 62
     7
100
AcDbVertex
100
AcDb2dVertex
 10
3677.926725
 20
-19459.489396
 30
0.0
  0
VERTEX
  5
413
100
AcDbEntity
  8
0
  6
CONTINUOUS
 62
     7
100
AcDbVertex
100
AcDb2dVertex
 10
3677.736686
 20
-19459.617403
 30
0.0
  0
VERTEX
  5
414
100
AcDbEntity
  8
0
  6
CONTINUOUS
 62
     7
100
AcDbVertex
100
AcDb2dVertex
 10
3677.546049
 20
-19459.745799
 30
0.0
  0
VERTEX
  5
415
100
AcDbEntity
  8
0
  6
CONTINUOUS
 62
     7
100
AcDbVertex
100
AcDb2dVertex
 10
3677.355024
 20
-19459.874478
 30
0.0
  0
SEQEND
  5
416
100
AcDbEntity
  8
0
  6
CONTINUOUS
 62
     7
  0
POLYLINE
  5
417
100
AcDbEntity
  8
0
  6
CONTINUOUS
 62
     7
100
AcDb2dPolyline
 66
     1
 10
0.0
 20
0.0
 30
0.0
 70
   128
  0
VERTEX
  5
418
100
AcDbEntity
  8
0
  6
CONTINUOUS
 62
     7
100
AcDbVertex
100
AcDb2dVertex
 10
3676.185788
 20
-19458.515672
 30
0.0
  0
VERTEX
  5
419
100
AcDbEntity
  8
0
  6
CONTINUOUS
 62
     7
100
AcDbVertex
100
AcDb2dVertex
 10
3676.329355
 20
-19458.68249
 30
0.0
  0
VERTEX
  5
41A
100
AcDbEntity
  8
0
  6
CONTINUOUS
 62
     7
100
AcDbVertex
100
AcDb2dVertex
 10
3676.473818
 20
-19458.850406
 30
0.0
  0
VERTEX
  5
41B
100
AcDbEntity
  8
0
  6
CONTINUOUS
 62
     7
100
AcDbVertex
100
AcDb2dVertex
 10
3676.619148
 20
-19459.019308
 30
0.0
  0
VERTEX
  5
41C
100
AcDbEntity
  8
0
  6
CONTINUOUS
 62
     7
100
AcDbVertex
100
AcDb2dVertex
 10
3676.765254
 20
-19459.189076
 30
0.0
  0
VERTEX
  5
41D
100
AcDbEntity
  8
0
  6
CONTINUOUS
 62
     7
100
AcDbVertex
100
AcDb2dVertex
 10
3676.911957
 20
-19459.35959
 30
0.0
  0
VERTEX
  5
41E
100
AcDbEntity
  8
0
  6
CONTINUOUS
 62
     7
100
AcDbVertex
100
AcDb2dVertex
 10
3677.059228
 20
-19459.530746
 30
0.0
  0
VERTEX
  5
41F
100
AcDbEntity
  8
0
  6
CONTINUOUS
 62
     7
100
AcDbVertex
100
AcDb2dVertex
 10
3677.206947
 20
-19459.70241
 30
0.0
  0
VERTEX
  5
420
100
AcDbEntity
  8
0
  6
CONTINUOUS
 62
     7
100
AcDbVertex
100
AcDb2dVertex
 10
3677.355024
 20
-19459.874478
 30
0.0
  0
SEQEND
  5
421
100
AcDbEntity
  8
0
  6
CONTINUOUS
 62
     7
  0
POLYLINE
  5
422
100
AcDbEntity
  8
0
  6
CONTINUOUS
 62
     7
100
AcDb2dPolyline
 66
     1
 10
0.0
 20
0.0
 30
0.0
 70
   128
  0
VERTEX
  5
423
100
AcDbEntity
  8
0
  6
CONTINUOUS
 62
     7
100
AcDbVertex
100
AcDb2dVertex
 10
3675.481002
 20
-19459.06062
 30
0.0
  0
VERTEX
  5
424
100
AcDbEntity
  8
0
  6
CONTINUOUS
 62
     7
100
AcDbVertex
100
AcDb2dVertex
 10
3675.569048
 20
-19458.992548
 30
0.0
  0
VERTEX
  5
425
100
AcDbEntity
  8
0
  6
CONTINUOUS
 62
     7
100
AcDbVertex
100
AcDb2dVertex
 10
3675.657124
 20
-19458.92443
 30
0.0
  0
VERTEX
  5
426
100
AcDbEntity
  8
0
  6
CONTINUOUS
 62
     7
100
AcDbVertex
100
AcDb2dVertex
 10
3675.745259
 20
-19458.856298
 30
0.0
  0
VERTEX
  5
427
100
AcDbEntity
  8
0
  6
CONTINUOUS
 62
     7
100
AcDbVertex
100
AcDb2dVertex
 10
3675.833395
 20
-19458.788143
 30
0.0
  0
VERTEX
  5
428
100
AcDbEntity
  8
0
  6
CONTINUOUS
 62
     7
100
AcDbVertex
100
AcDb2dVertex
 10
3675.92153
 20
-19458.719995
 30
0.0
  0
VERTEX
  5
429
100
AcDbEntity
  8
0
  6
CONTINUOUS
 62
     7
100
AcDbVertex
100
AcDb2dVertex
 10
3676.009666
 20
-19458.651863
 30
0.0
  0
VERTEX
  5
42A
100
AcDbEntity
  8
0
  6
CONTINUOUS
 62
     7
100
AcDbVertex
100
AcDb2dVertex
 10
3676.097742
 20
-19458.583745
 30
0.0
  0
VERTEX
  5
42B
100
AcDbEntity
  8
0
  6
CONTINUOUS
 62
     7
100
AcDbVertex
100
AcDb2dVertex
 10
3676.185788
 20
-19458.515672
 30
0.0
  0
SEQEND
  5
42C
100
AcDbEntity
  8
0
  6
CONTINUOUS
 62
     7
  0
POLYLINE
  5
42D
100
AcDbEntity
  8
0
  6
CONTINUOUS
 62
     7
100
AcDb2dPolyline
 66
     1
 10
0.0
 20
0.0
 30
0.0
 70
   128
  0
VERTEX
  5
42E
100
AcDbEntity
  8
0
  6
CONTINUOUS
 62
     7
100
AcDbVertex
100
AcDb2dVertex
 10
3676.515392
 20
-19460.553854
 30
0.0
  0
VERTEX
  5
42F
100
AcDbEntity
  8
0
  6
CONTINUOUS
 62
     7
100
AcDbVertex
100
AcDb2dVertex
 10
3676.384399
 20
-19460.364763
 30
0.0
  0
VERTEX
  5
430
100
AcDbEntity
  8
0
  6
CONTINUOUS
 62
     7
100
AcDbVertex
100
AcDb2dVertex
 10
3676.253704
 20
-19460.176105
 30
0.0
  0
VERTEX
  5
431
100
AcDbEntity
  8
0
  6
CONTINUOUS
 62
     7
100
AcDbVertex
100
AcDb2dVertex
 10
3676.123427
 20
-19459.988015
 30
0.0
  0
VERTEX
  5
432
100
AcDbEntity
  8
0
  6
CONTINUOUS
 62
     7
100
AcDbVertex
100
AcDb2dVertex
 10
3675.993598
 20
-19459.800611
 30
0.0
  0
VERTEX
  5
433
100
AcDbEntity
  8
0
  6
CONTINUOUS
 62
     7
100
AcDbVertex
100
AcDb2dVertex
 10
3675.864366
 20
-19459.614043
 30
0.0
  0
VERTEX
  5
434
100
AcDbEntity
  8
0
  6
CONTINUOUS
 62
     7
100
AcDbVertex
100
AcDb2dVertex
 10
3675.735792
 20
-19459.428432
 30
0.0
  0
VERTEX
  5
435
100
AcDbEntity
  8
0
  6
CONTINUOUS
 62
     7
100
AcDbVertex
100
AcDb2dVertex
 10
3675.607964
 20
-19459.243918
 30
0.0
  0
VERTEX
  5
436
100
AcDbEntity
  8
0
  6
CONTINUOUS
 62
     7
100
AcDbVertex
100
AcDb2dVertex
 10
3675.481002
 20
-19459.06062
 30
0.0
  0
SEQEND
  5
437
100
AcDbEntity
  8
0
  6
CONTINUOUS
 62
     7
  0
POLYLINE
  5
438
100
AcDbEntity
  8
0
  6
CONTINUOUS
 62
     7
100
AcDb2dPolyline
 66
     1
 10
0.0
 20
0.0
 30
0.0
 70
   128
  0
VERTEX
  5
439
100
AcDbEntity
  8
0
  6
CONTINUOUS
 62
     7
100
AcDbVertex
100
AcDb2dVertex
 10
3675.138465
 20
-19461.738666
 30
0.0
  0
VERTEX
  5
43A
100
AcDbEntity
  8
0
  6
CONTINUOUS
 62
     7
100
AcDbVertex
100
AcDb2dVertex
 10
3675.307479
 20
-19461.593232
 30
0.0
  0
VERTEX
  5
43B
100
AcDbEntity
  8
0
  6
CONTINUOUS
 62
     7
100
AcDbVertex
100
AcDb2dVertex
 10
3675.477627
 20
-19461.446828
 30
0.0
  0
VERTEX
  5
43C
100
AcDbEntity
  8
0
  6
CONTINUOUS
 62
     7
100
AcDbVertex
100
AcDb2dVertex
 10
3675.648761
 20
-19461.299549
 30
0.0
  0
VERTEX
  5
43D
100
AcDbEntity
  8
0
  6
CONTINUOUS
 62
     7
100
AcDbVertex
100
AcDb2dVertex
 10
3675.820821
 20
-19461.151517
 30
0.0
  0
VERTEX
  5
43E
100
AcDbEntity
  8
0
  6
CONTINUOUS
 62
     7
100
AcDbVertex
100
AcDb2dVertex
 10
3675.993628
 20
-19461.002827
 30
0.0
  0
VERTEX
  5
43F
100
AcDbEntity
  8
0
  6
CONTINUOUS
 62
     7
100
AcDbVertex
100
AcDb2dVertex
 10
3676.167061
 20
-19460.853578
 30
0.0
  0
VERTEX
  5
440
100
AcDbEntity
  8
0
  6
CONTINUOUS
 62
     7
100
AcDbVertex
100
AcDb2dVertex
 10
3676.341033
 20
-19460.703888
 30
0.0
  0
VERTEX
  5
441
100
AcDbEntity
  8
0
  6
CONTINUOUS
 62
     7
100
AcDbVertex
100
AcDb2dVertex
 10
3676.515392
 20
-19460.553854
 30
0.0
  0
SEQEND
  5
442
100
AcDbEntity
  8
0
  6
CONTINUOUS
 62
     7
  0
POLYLINE
  5
443
100
AcDbEntity
  8
0
  6
CONTINUOUS
 62
     7
100
AcDb2dPolyline
 66
     1
 10
0.0
 20
0.0
 30
0.0
 70
   128
  0
VERTEX
  5
444
100
AcDbEntity
  8
0
  6
CONTINUOUS
 62
     7
100
AcDbVertex
100
AcDb2dVertex
 10
3675.683406
 20
-19462.443467
 30
0.0
  0
VERTEX
  5
445
100
AcDbEntity
  8
0
  6
CONTINUOUS
 62
     7
100
AcDbVertex
100
AcDb2dVertex
 10
3675.615341
 20
-19462.355421
 30
0.0
  0
VERTEX
  5
446
100
AcDbEntity
  8
0
  6
CONTINUOUS
 62
     7
100
AcDbVertex
100
AcDb2dVertex
 10
3675.547216
 20
-19462.26733
 30
0.0
  0
VERTEX
  5
447
100
AcDbEntity
  8
0
  6
CONTINUOUS
 62
     7
100
AcDbVertex
100
AcDb2dVertex
 10
3675.479091
 20
-19462.17921
 30
0.0
  0
VERTEX
  5
448
100
AcDbEntity
  8
0
  6
CONTINUOUS
 62
     7
100
AcDbVertex
100
AcDb2dVertex
 10
3675.410936
 20
-19462.091067
 30
0.0
  0
VERTEX
  5
449
100
AcDbEntity
  8
0
  6
CONTINUOUS
 62
     7
100
AcDbVertex
100
AcDb2dVertex
 10
3675.342781
 20
-19462.002931
 30
0.0
  0
VERTEX
  5
44A
100
AcDbEntity
  8
0
  6
CONTINUOUS
 62
     7
100
AcDbVertex
100
AcDb2dVertex
 10
3675.274656
 20
-19461.914803
 30
0.0
  0
VERTEX
  5
44B
100
AcDbEntity
  8
0
  6
CONTINUOUS
 62
     7
100
AcDbVertex
100
AcDb2dVertex
 10
3675.206531
 20
-19461.826712
 30
0.0
  0
VERTEX
  5
44C
100
AcDbEntity
  8
0
  6
CONTINUOUS
 62
     7
100
AcDbVertex
100
AcDb2dVertex
 10
3675.138465
 20
-19461.738666
 30
0.0
  0
SEQEND
  5
44D
100
AcDbEntity
  8
0
  6
CONTINUOUS
 62
     7
  0
LINE
  5
44E
100
AcDbEntity
  8
0
  6
CONTINUOUS
 62
     7
100
AcDbLine
 10
3675.749052
 20
-19459.102067
 30
0.0
 11
3675.481002
 21
-19459.06062
 31
0.0
  0
LINE
  5
44F
100
AcDbEntity
  8
0
  6
CONTINUOUS
 62
     7
100
AcDbLine
 10
3676.1248
 20
-19459.644477
 30
0.0
 11
3675.749052
 21
-19459.102067
 31
0.0
  0
LINE
  5
450
100
AcDbEntity
  8
0
  6
CONTINUOUS
 62
     7
100
AcDbLine
 10
3676.584145
 20
-19460.307592
 30
0.0
 11
3676.1248
 21
-19459.644477
 31
0.0
  0
LINE
  5
451
100
AcDbEntity
  8
0
  6
CONTINUOUS
 62
     7
100
AcDbLine
 10
3676.32153
 20
-19460.274
 30
0.0
 11
3676.584145
 21
-19460.307592
 31
0.0
  0
LINE
  5
452
100
AcDbEntity
  8
0
  6
CONTINUOUS
 62
     7
100
AcDbLine
 10
3676.15843
 20
-19458.785537
 30
0.0
 11
3676.185788
 21
-19458.515672
 31
0.0
  0
LINE
  5
453
100
AcDbEntity
  8
0
  6
CONTINUOUS
 62
     7
100
AcDbLine
 10
3675.749052
 20
-19459.102067
 30
0.0
 11
3676.15843
 21
-19458.785537
 31
0.0
  0
LINE
  5
454
100
AcDbEntity
  8
0
  6
CONTINUOUS
 62
     7
100
AcDbLine
 10
3676.15843
 20
-19458.785537
 30
0.0
 11
3676.588804
 21
-19459.285701
 31
0.0
  0
LINE
  5
455
100
AcDbEntity
  8
0
  6
CONTINUOUS
 62
     7
100
AcDbLine
 10
3677.100772
 20
-19459.88066
 30
0.0
 11
3677.135865
 21
-19459.619793
 31
0.0
  0
LINE
  5
456
100
AcDbEntity
  8
0
  6
CONTINUOUS
 62
     7
100
AcDbLine
 10
3676.588804
 20
-19459.285701
 30
0.0
 11
3677.100772
 21
-19459.88066
 31
0.0
  0
LINE
  5
457
100
AcDbEntity
  8
0
  6
CONTINUOUS
 62
     7
100
AcDbLine
 10
3678.798195
 20
-19462.199616
 30
0.0
 11
3679.066245
 21
-19462.241063
 31
0.0
  0
LINE
  5
458
100
AcDbEntity
  8
0
  6
CONTINUOUS
 62
     7
100
AcDbLine
 10
3678.798195
 20
-19462.199616
 30
0.0
 11
3678.422446
 21
-19461.657198
 31
0.0
  0
LINE
  5
459
100
AcDbEntity
  8
0
  6
CONTINUOUS
 62
     7
100
AcDbLine
 10
3678.422446
 20
-19461.657198
 30
0.0
 11
3677.975497
 21
-19461.011989
 31
0.0
  0
LINE
  5
45A
100
AcDbEntity
  8
0
  6
CONTINUOUS
 62
     7
100
AcDbLine
 10
3678.236797
 20
-19461.043677
 30
0.0
 11
3677.975497
 21
-19461.011989
 31
0.0
  0
LINE
  5
45B
100
AcDbEntity
  8
0
  6
CONTINUOUS
 62
     7
100
AcDbLine
 10
3679.140403
 20
-19459.537578
 30
0.0
 11
3679.408782
 21
-19459.563017
 31
0.0
  0
LINE
  5
45C
100
AcDbEntity
  8
0
  6
CONTINUOUS
 62
     7
100
AcDbLine
 10
3679.140403
 20
-19459.537578
 30
0.0
 11
3678.820923
 21
-19459.124355
 31
0.0
  0
LINE
  5
45D
100
AcDbEntity
  8
0
  6
CONTINUOUS
 62
     7
100
AcDbLine
 10
3678.820923
 20
-19459.124355
 30
0.0
 11
3678.863841
 21
-19458.858209
 31
0.0
  0
LINE
  5
45E
100
AcDbEntity
  8
0
  6
CONTINUOUS
 62
     7
100
AcDbLine
 10
3676.519962
 20
-19460.809503
 30
0.0
 11
3676.257317
 21
-19460.775911
 31
0.0
  0
ARC
  5
45F
100
AcDbEntity
  8
0
  6
CONTINUOUS
 62
     7
100
AcDbCircle
 10
3676.274686
 20
-19460.523078
 30
0.0
 40
0.377093
100
AcDbArc
 50
310.574654
 51
34.850855
  0
CIRCLE
  5
460
100
AcDbEntity
  8
0
  6
CONTINUOUS
 62
     7
100
AcDbCircle
 10
3677.273631
 20
-19460.650847
 30
0.0
 40
5.409085
  0
LINE
  5
461
100
AcDbEntity
  8
0
  6
CONTINUOUS
 62
     7
100
AcDbLine
 10
3678.388817
 20
-19462.516146
 30
0.0
 11
3678.361459
 21
-19462.786011
 31
0.0
  0
LINE
  5
462
100
AcDbEntity
  8
0
  6
CONTINUOUS
 62
     7
100
AcDbLine
 10
3678.388817
 20
-19462.516146
 30
0.0
 11
3678.798195
 21
-19462.199616
 31
0.0
  0
LINE
  5
463
100
AcDbEntity
  8
0
  6
CONTINUOUS
 62
     7
100
AcDbLine
 10
3675.408307
 20
-19461.766024
 30
0.0
 11
3675.908479
 21
-19461.33565
 31
0.0
  0
LINE
  5
464
100
AcDbEntity
  8
0
  6
CONTINUOUS
 62
     7
100
AcDbLine
 10
3675.408307
 20
-19461.766024
 30
0.0
 11
3675.138465
 21
-19461.738666
 31
0.0
  0
LINE
  5
465
100
AcDbEntity
  8
0
  6
CONTINUOUS
 62
     7
100
AcDbLine
 10
3675.908479
 20
-19461.33565
 30
0.0
 11
3676.519962
 21
-19460.809503
 31
0.0
  0
LINE
  5
466
100
AcDbEntity
  8
0
  6
CONTINUOUS
 62
     7
100
AcDbLine
 10
3678.643846
 20
-19459.976277
 30
0.0
 11
3679.140403
 21
-19459.537578
 31
0.0
  0
LINE
  5
467
100
AcDbEntity
  8
0
  6
CONTINUOUS
 62
     7
100
AcDbLine
 10
3678.035976
 20
-19460.513333
 30
0.0
 11
3678.297277
 21
-19460.545021
 31
0.0
  0
LINE
  5
468
100
AcDbEntity
  8
0
  6
CONTINUOUS
 62
     7
100
AcDbLine
 10
3678.035976
 20
-19460.513333
 30
0.0
 11
3678.643846
 21
-19459.976277
 31
0.0
  0
LINE
  5
469
100
AcDbEntity
  8
0
  6
CONTINUOUS
 62
     7
100
AcDbLine
 10
3678.820923
 20
-19459.124355
 30
0.0
 11
3678.271353
 21
-19459.494511
 31
0.0
  0
LINE
  5
46A
100
AcDbEntity
  8
0
  6
CONTINUOUS
 62
     7
100
AcDbLine
 10
3678.271353
 20
-19459.494511
 30
0.0
 11
3677.598584
 21
-19459.947643
 31
0.0
  0
LINE
  5
46B
100
AcDbEntity
  8
0
  6
CONTINUOUS
 62
     7
100
AcDbLine
 10
3677.633677
 20
-19459.686775
 30
0.0
 11
3677.598584
 21
-19459.947643
 31
0.0
  0
ARC
  5
46C
100
AcDbEntity
  8
0
  6
CONTINUOUS
 62
     7
100
AcDbCircle
 10
3677.38718
 20
-19459.635439
 30
0.0
 40
0.377045
100
AcDbArc
 50
220.570022
 51
304.103252
  0
LINE
  5
46D
100
AcDbEntity
  8
0
  6
CONTINUOUS
 62
     7
100
AcDbLine
 10
3677.432288
 20
-19461.404514
 30
0.0
 11
3677.398689
 21
-19461.667137
 31
0.0
  0
LINE
  5
46E
100
AcDbEntity
  8
0
  6
CONTINUOUS
 62
     7
100
AcDbLine
 10
3676.896785
 20
-19461.602939
 30
0.0
 11
3676.930385
 21
-19461.340317
 31
0.0
  0
ARC
  5
46F
100
AcDbEntity
  8
0
  6
CONTINUOUS
 62
     7
100
AcDbCircle
 10
3677.145863
 20
-19461.649754
 30
0.0
 40
0.37707
100
AcDbArc
 50
40.570328
 51
124.851611
  0
LINE
  5
470
100
AcDbEntity
  8
0
  6
CONTINUOUS
 62
     7
100
AcDbLine
 10
3675.724861
 20
-19462.175402
 30
0.0
 11
3675.683406
 21
-19462.443467
 31
0.0
  0
LINE
  5
471
100
AcDbEntity
  8
0
  6
CONTINUOUS
 62
     7
100
AcDbLine
 10
3676.267263
 20
-19461.799668
 30
0.0
 11
3675.724861
 21
-19462.175402
 31
0.0
  0
LINE
  5
472
100
AcDbEntity
  8
0
  6
CONTINUOUS
 62
     7
100
AcDbLine
 10
3676.930385
 20
-19461.340317
 30
0.0
 11
3676.267263
 21
-19461.799668
 31
0.0
  0
LINE
  5
473
100
AcDbEntity
  8
0
  6
CONTINUOUS
 62
     7
100
AcDbLine
 10
3677.958443
 20
-19462.015975
 30
0.0
 11
3678.388817
 21
-19462.516146
 31
0.0
  0
LINE
  5
474
100
AcDbEntity
  8
0
  6
CONTINUOUS
 62
     7
100
AcDbLine
 10
3677.432288
 20
-19461.404514
 30
0.0
 11
3677.958443
 21
-19462.015975
 31
0.0
  0
ARC
  5
475
100
AcDbEntity
  8
0
  6
CONTINUOUS
 62
     7
100
AcDbCircle
 10
3678.284955
 20
-19460.796526
 30
0.0
 40
0.377079
100
AcDbArc
 50
131.321445
 51
214.847903
  0
LINE
  5
476
100
AcDbEntity
  8
0
  6
CONTINUOUS
 62
     7
100
AcDbLine
 10
3675.724861
 20
-19462.175402
 30
0.0
 11
3675.408307
 21
-19461.766024
 31
0.0
  0
ARC
  5
477
100
AcDbEntity
  8
0
  6
CONTINUOUS
 62
     7
100
AcDbCircle
 10
3677.273637
 20
-19460.650824
 30
0.0
 40
1.527272
100
AcDbArc
 50
116.64126
 51
138.782584
  0
ARC
  5
478
100
AcDbEntity
  8
0
  6
CONTINUOUS
 62
     7
100
AcDbCircle
 10
3677.273449
 20
-19460.650957
 30
0.0
 40
1.527475
100
AcDbArc
 50
26.212164
 51
49.208911
  0
ARC
  5
479
100
AcDbEntity
  8
0
  6
CONTINUOUS
 62
     7
100
AcDbCircle
 10
3677.27361
 20
-19460.650851
 30
0.0
 40
1.527272
100
AcDbArc
 50
296.64126
 51
318.782584
  0
ARC
  5
47A
100
AcDbEntity
  8
0
  6
CONTINUOUS
 62
     7
100
AcDbCircle
 10
3677.274055
 20
-19460.650488
 30
0.0
 40
1.527824
100
AcDbArc
 50
206.644682
 51
228.778532
  0
CIRCLE
  5
47B
100
AcDbEntity
  8
0
  6
CONTINUOUS
 62
     7
100
AcDbCircle
 10
3677.286028
 20
-19638.797224
 30
0.0
 40
3.563639
  0
POLYLINE
  5
47C
100
AcDbEntity
  8
0
  6
CONTINUOUS
 62
     7
100
AcDb2dPolyline
 66
     1
 10
0.0
 20
0.0
 30
0.0
 70
   128
  0
VERTEX
  5
47D
100
AcDbEntity
  8
0
  6
CONTINUOUS
 62
     7
100
AcDbVertex
100
AcDb2dVertex
 10
3676.737448
 20
-19639.329564
 30
0.0
  0
VERTEX
  5
47E
100
AcDbEntity
  8
0
  6
CONTINUOUS
 62
     7
100
AcDbVertex
100
AcDb2dVertex
 10
3676.507926
 20
-19639.314078
 30
0.0
  0
VERTEX
  5
47F
100
AcDbEntity
  8
0
  6
CONTINUOUS
 62
     7
100
AcDbVertex
100
AcDb2dVertex
 10
3676.27897
 20
-19639.29863
 30
0.0
  0
VERTEX
  5
480
100
AcDbEntity
  8
0
  6
CONTINUOUS
 62
     7
100
AcDbVertex
100
AcDb2dVertex
 10
3676.050672
 20
-19639.283227
 30
0.0
  0
VERTEX
  5
481
100
AcDbEntity
  8
0
  6
CONTINUOUS
 62
     7
100
AcDbVertex
100
AcDb2dVertex
 10
3675.82321
 20
-19639.267875
 30
0.0
  0
VERTEX
  5
482
100
AcDbEntity
  8
0
  6
CONTINUOUS
 62
     7
100
AcDbVertex
100
AcDb2dVertex
 10
3675.596764
 20
-19639.252599
 30
0.0
  0
VERTEX
  5
483
100
AcDbEntity
  8
0
  6
CONTINUOUS
 62
     7
100
AcDbVertex
100
AcDb2dVertex
 10
3675.371482
 20
-19639.237397
 30
0.0
  0
VERTEX
  5
484
100
AcDbEntity
  8
0
  6
CONTINUOUS
 62
     7
100
AcDbVertex
100
AcDb2dVertex
 10
3675.147515
 20
-19639.222284
 30
0.0
  0
VERTEX
  5
485
100
AcDbEntity
  8
0
  6
CONTINUOUS
 62
     7
100
AcDbVertex
100
AcDb2dVertex
 10
3674.92504
 20
-19639.207269
 30
0.0
  0
SEQEND
  5
486
100
AcDbEntity
  8
0
  6
CONTINUOUS
 62
     7
  0
POLYLINE
  5
487
100
AcDbEntity
  8
0
  6
CONTINUOUS
 62
     7
100
AcDb2dPolyline
 66
     1
 10
0.0
 20
0.0
 30
0.0
 70
   128
  0
VERTEX
  5
488
100
AcDbEntity
  8
0
  6
CONTINUOUS
 62
     7
100
AcDbVertex
100
AcDb2dVertex
 10
3676.737448
 20
-19639.329564
 30
0.0
  0
VERTEX
  5
489
100
AcDbEntity
  8
0
  6
CONTINUOUS
 62
     7
100
AcDbVertex
100
AcDb2dVertex
 10
3676.74602
 20
-19639.55943
 30
0.0
  0
VERTEX
  5
48A
100
AcDbEntity
  8
0
  6
CONTINUOUS
 62
     7
100
AcDbVertex
100
AcDb2dVertex
 10
3676.754592
 20
-19639.788774
 30
0.0
  0
VERTEX
  5
48B
100
AcDbEntity
  8
0
  6
CONTINUOUS
 62
     7
100
AcDbVertex
100
AcDb2dVertex
 10
3676.763133
 20
-19640.01743
 30
0.0
  0
VERTEX
  5
48C
100
AcDbEntity
  8
0
  6
CONTINUOUS
 62
     7
100
AcDbVertex
100
AcDb2dVertex
 10
3676.771645
 20
-19640.245243
 30
0.0
  0
VERTEX
  5
48D
100
AcDbEntity
  8
0
  6
CONTINUOUS
 62
     7
100
AcDbVertex
100
AcDb2dVertex
 10
3676.780127
 20
-19640.472048
 30
0.0
  0
VERTEX
  5
48E
100
AcDbEntity
  8
0
  6
CONTINUOUS
 62
     7
100
AcDbVertex
100
AcDb2dVertex
 10
3676.78855
 20
-19640.697681
 30
0.0
  0
VERTEX
  5
48F
100
AcDbEntity
  8
0
  6
CONTINUOUS
 62
     7
100
AcDbVertex
100
AcDb2dVertex
 10
3676.796942
 20
-19640.921992
 30
0.0
  0
VERTEX
  5
490
100
AcDbEntity
  8
0
  6
CONTINUOUS
 62
     7
100
AcDbVertex
100
AcDb2dVertex
 10
3676.805275
 20
-19641.144809
 30
0.0
  0
SEQEND
  5
491
100
AcDbEntity
  8
0
  6
CONTINUOUS
 62
     7
  0
POLYLINE
  5
492
100
AcDbEntity
  8
0
  6
CONTINUOUS
 62
     7
100
AcDb2dPolyline
 66
     1
 10
0.0
 20
0.0
 30
0.0
 70
   128
  0
VERTEX
  5
493
100
AcDbEntity
  8
0
  6
CONTINUOUS
 62
     7
100
AcDbVertex
100
AcDb2dVertex
 10
3676.805275
 20
-19641.144809
 30
0.0
  0
VERTEX
  5
494
100
AcDbEntity
  8
0
  6
CONTINUOUS
 62
     7
100
AcDbVertex
100
AcDb2dVertex
 10
3676.916557
 20
-19641.146482
 30
0.0
  0
VERTEX
  5
495
100
AcDbEntity
  8
0
  6
CONTINUOUS
 62
     7
100
AcDbVertex
100
AcDb2dVertex
 10
3677.027898
 20
-19641.148154
 30
0.0
  0
VERTEX
  5
496
100
AcDbEntity
  8
0
  6
CONTINUOUS
 62
     7
100
AcDbVertex
100
AcDb2dVertex
 10
3677.13927
 20
-19641.149827
 30
0.0
  0
VERTEX
  5
497
100
AcDbEntity
  8
0
  6
CONTINUOUS
 62
     7
100
AcDbVertex
100
AcDb2dVertex
 10
3677.250671
 20
-19641.151499
 30
0.0
  0
VERTEX
  5
498
100
AcDbEntity
  8
0
  6
CONTINUOUS
 62
     7
100
AcDbVertex
100
AcDb2dVertex
 10
3677.362073
 20
-19641.153172
 30
0.0
  0
VERTEX
  5
499
100
AcDbEntity
  8
0
  6
CONTINUOUS
 62
     7
100
AcDbVertex
100
AcDb2dVertex
 10
3677.473444
 20
-19641.154844
 30
0.0
  0
VERTEX
  5
49A
100
AcDbEntity
  8
0
  6
CONTINUOUS
 62
     7
100
AcDbVertex
100
AcDb2dVertex
 10
3677.584786
 20
-19641.156517
 30
0.0
  0
VERTEX
  5
49B
100
AcDbEntity
  8
0
  6
CONTINUOUS
 62
     7
100
AcDbVertex
100
AcDb2dVertex
 10
3677.696068
 20
-19641.158189
 30
0.0
  0
SEQEND
  5
49C
100
AcDbEntity
  8
0
  6
CONTINUOUS
 62
     7
  0
POLYLINE
  5
49D
100
AcDbEntity
  8
0
  6
CONTINUOUS
 62
     7
100
AcDb2dPolyline
 66
     1
 10
0.0
 20
0.0
 30
0.0
 70
   128
  0
VERTEX
  5
49E
100
AcDbEntity
  8
0
  6
CONTINUOUS
 62
     7
100
AcDbVertex
100
AcDb2dVertex
 10
3677.696068
 20
-19641.158189
 30
0.0
  0
VERTEX
  5
49F
100
AcDbEntity
  8
0
  6
CONTINUOUS
 62
     7
100
AcDbVertex
100
AcDb2dVertex
 10
3677.710881
 20
-19640.93862
 30
0.0
  0
VERTEX
  5
4A0
100
AcDbEntity
  8
0
  6
CONTINUOUS
 62
     7
100
AcDbVertex
100
AcDb2dVertex
 10
3677.725815
 20
-19640.717594
 30
0.0
  0
VERTEX
  5
4A1
100
AcDbEntity
  8
0
  6
CONTINUOUS
 62
     7
100
AcDbVertex
100
AcDb2dVertex
 10
3677.740807
 20
-19640.495284
 30
0.0
  0
VERTEX
  5
4A2
100
AcDbEntity
  8
0
  6
CONTINUOUS
 62
     7
100
AcDbVertex
100
AcDb2dVertex
 10
3677.75589
 20
-19640.271824
 30
0.0
  0
VERTEX
  5
4A3
100
AcDbEntity
  8
0
  6
CONTINUOUS
 62
     7
100
AcDbVertex
100
AcDb2dVertex
 10
3677.771032
 20
-19640.047379
 30
0.0
  0
VERTEX
  5
4A4
100
AcDbEntity
  8
0
  6
CONTINUOUS
 62
     7
100
AcDbVertex
100
AcDb2dVertex
 10
3677.786234
 20
-19639.822097
 30
0.0
  0
VERTEX
  5
4A5
100
AcDbEntity
  8
0
  6
CONTINUOUS
 62
     7
100
AcDbVertex
100
AcDb2dVertex
 10
3677.801466
 20
-19639.596136
 30
0.0
  0
VERTEX
  5
4A6
100
AcDbEntity
  8
0
  6
CONTINUOUS
 62
     7
100
AcDbVertex
100
AcDb2dVertex
 10
3677.816757
 20
-19639.36966
 30
0.0
  0
SEQEND
  5
4A7
100
AcDbEntity
  8
0
  6
CONTINUOUS
 62
     7
  0
POLYLINE
  5
4A8
100
AcDbEntity
  8
0
  6
CONTINUOUS
 62
     7
100
AcDb2dPolyline
 66
     1
 10
0.0
 20
0.0
 30
0.0
 70
   128
  0
VERTEX
  5
4A9
100
AcDbEntity
  8
0
  6
CONTINUOUS
 62
     7
100
AcDbVertex
100
AcDb2dVertex
 10
3677.816757
 20
-19639.36966
 30
0.0
  0
VERTEX
  5
4AA
100
AcDbEntity
  8
0
  6
CONTINUOUS
 62
     7
100
AcDbVertex
100
AcDb2dVertex
 10
3678.046818
 20
-19639.358049
 30
0.0
  0
VERTEX
  5
4AB
100
AcDbEntity
  8
0
  6
CONTINUOUS
 62
     7
100
AcDbVertex
100
AcDb2dVertex
 10
3678.27634
 20
-19639.346468
 30
0.0
  0
VERTEX
  5
4AC
100
AcDbEntity
  8
0
  6
CONTINUOUS
 62
     7
100
AcDbVertex
100
AcDb2dVertex
 10
3678.505206
 20
-19639.334918
 30
0.0
  0
VERTEX
  5
4AD
100
AcDbEntity
  8
0
  6
CONTINUOUS
 62
     7
100
AcDbVertex
100
AcDb2dVertex
 10
3678.733206
 20
-19639.323412
 30
0.0
  0
VERTEX
  5
4AE
100
AcDbEntity
  8
0
  6
CONTINUOUS
 62
     7
100
AcDbVertex
100
AcDb2dVertex
 10
3678.960219
 20
-19639.311958
 30
0.0
  0
VERTEX
  5
4AF
100
AcDbEntity
  8
0
  6
CONTINUOUS
 62
     7
100
AcDbVertex
100
AcDb2dVertex
 10
3679.186069
 20
-19639.300564
 30
0.0
  0
VERTEX
  5
4B0
100
AcDbEntity
  8
0
  6
CONTINUOUS
 62
     7
100
AcDbVertex
100
AcDb2dVertex
 10
3679.410574
 20
-19639.289237
 30
0.0
  0
VERTEX
  5
4B1
100
AcDbEntity
  8
0
  6
CONTINUOUS
 62
     7
100
AcDbVertex
100
AcDb2dVertex
 10
3679.633615
 20
-19639.277985
 30
0.0
  0
SEQEND
  5
4B2
100
AcDbEntity
  8
0
  6
CONTINUOUS
 62
     7
  0
POLYLINE
  5
4B3
100
AcDbEntity
  8
0
  6
CONTINUOUS
 62
     7
100
AcDb2dPolyline
 66
     1
 10
0.0
 20
0.0
 30
0.0
 70
   128
  0
VERTEX
  5
4B4
100
AcDbEntity
  8
0
  6
CONTINUOUS
 62
     7
100
AcDbVertex
100
AcDb2dVertex
 10
3679.633615
 20
-19639.277985
 30
0.0
  0
VERTEX
  5
4B5
100
AcDbEntity
  8
0
  6
CONTINUOUS
 62
     7
100
AcDbVertex
100
AcDb2dVertex
 10
3679.635288
 20
-19639.166703
 30
0.0
  0
VERTEX
  5
4B6
100
AcDbEntity
  8
0
  6
CONTINUOUS
 62
     7
100
AcDbVertex
100
AcDb2dVertex
 10
3679.63696
 20
-19639.055361
 30
0.0
  0
VERTEX
  5
4B7
100
AcDbEntity
  8
0
  6
CONTINUOUS
 62
     7
100
AcDbVertex
100
AcDb2dVertex
 10
3679.638633
 20
-19638.943975
 30
0.0
  0
VERTEX
  5
4B8
100
AcDbEntity
  8
0
  6
CONTINUOUS
 62
     7
100
AcDbVertex
100
AcDb2dVertex
 10
3679.640305
 20
-19638.832581
 30
0.0
  0
VERTEX
  5
4B9
100
AcDbEntity
  8
0
  6
CONTINUOUS
 62
     7
100
AcDbVertex
100
AcDb2dVertex
 10
3679.641978
 20
-19638.72118
 30
0.0
  0
VERTEX
  5
4BA
100
AcDbEntity
  8
0
  6
CONTINUOUS
 62
     7
100
AcDbVertex
100
AcDb2dVertex
 10
3679.64365
 20
-19638.609801
 30
0.0
  0
VERTEX
  5
4BB
100
AcDbEntity
  8
0
  6
CONTINUOUS
 62
     7
100
AcDbVertex
100
AcDb2dVertex
 10
3679.645323
 20
-19638.498459
 30
0.0
  0
VERTEX
  5
4BC
100
AcDbEntity
  8
0
  6
CONTINUOUS
 62
     7
100
AcDbVertex
100
AcDb2dVertex
 10
3679.646996
 20
-19638.387177
 30
0.0
  0
SEQEND
  5
4BD
100
AcDbEntity
  8
0
  6
CONTINUOUS
 62
     7
  0
POLYLINE
  5
4BE
100
AcDbEntity
  8
0
  6
CONTINUOUS
 62
     7
100
AcDb2dPolyline
 66
     1
 10
0.0
 20
0.0
 30
0.0
 70
   128
  0
VERTEX
  5
4BF
100
AcDbEntity
  8
0
  6
CONTINUOUS
 62
     7
100
AcDbVertex
100
AcDb2dVertex
 10
3679.646996
 20
-19638.387177
 30
0.0
  0
VERTEX
  5
4C0
100
AcDbEntity
  8
0
  6
CONTINUOUS
 62
     7
100
AcDbVertex
100
AcDb2dVertex
 10
3679.424402
 20
-19638.369227
 30
0.0
  0
VERTEX
  5
4C1
100
AcDbEntity
  8
0
  6
CONTINUOUS
 62
     7
100
AcDbVertex
100
AcDb2dVertex
 10
3679.200315
 20
-19638.351158
 30
0.0
  0
VERTEX
  5
4C2
100
AcDbEntity
  8
0
  6
CONTINUOUS
 62
     7
100
AcDbVertex
100
AcDb2dVertex
 10
3678.974914
 20
-19638.332992
 30
0.0
  0
VERTEX
  5
4C3
100
AcDbEntity
  8
0
  6
CONTINUOUS
 62
     7
100
AcDbVertex
100
AcDb2dVertex
 10
3678.748348
 20
-19638.314721
 30
0.0
  0
VERTEX
  5
4C4
100
AcDbEntity
  8
0
  6
CONTINUOUS
 62
     7
100
AcDbVertex
100
AcDb2dVertex
 10
3678.520796
 20
-19638.296376
 30
0.0
  0
VERTEX
  5
4C5
100
AcDbEntity
  8
0
  6
CONTINUOUS
 62
     7
100
AcDbVertex
100
AcDb2dVertex
 10
3678.292379
 20
-19638.277963
 30
0.0
  0
VERTEX
  5
4C6
100
AcDbEntity
  8
0
  6
CONTINUOUS
 62
     7
100
AcDbVertex
100
AcDb2dVertex
 10
3678.063304
 20
-19638.259491
 30
0.0
  0
VERTEX
  5
4C7
100
AcDbEntity
  8
0
  6
CONTINUOUS
 62
     7
100
AcDbVertex
100
AcDb2dVertex
 10
3677.833722
 20
-19638.240981
 30
0.0
  0
SEQEND
  5
4C8
100
AcDbEntity
  8
0
  6
CONTINUOUS
 62
     7
  0
POLYLINE
  5
4C9
100
AcDbEntity
  8
0
  6
CONTINUOUS
 62
     7
100
AcDb2dPolyline
 66
     1
 10
0.0
 20
0.0
 30
0.0
 70
   128
  0
VERTEX
  5
4CA
100
AcDbEntity
  8
0
  6
CONTINUOUS
 62
     7
100
AcDbVertex
100
AcDb2dVertex
 10
3677.766791
 20
-19636.449629
 30
0.0
  0
VERTEX
  5
4CB
100
AcDbEntity
  8
0
  6
CONTINUOUS
 62
     7
100
AcDbVertex
100
AcDb2dVertex
 10
3677.775004
 20
-19636.66955
 30
0.0
  0
VERTEX
  5
4CC
100
AcDbEntity
  8
0
  6
CONTINUOUS
 62
     7
100
AcDbVertex
100
AcDb2dVertex
 10
3677.783277
 20
-19636.890919
 30
0.0
  0
VERTEX
  5
4CD
100
AcDbEntity
  8
0
  6
CONTINUOUS
 62
     7
100
AcDbVertex
100
AcDb2dVertex
 10
3677.79158
 20
-19637.113588
 30
0.0
  0
VERTEX
  5
4CE
100
AcDbEntity
  8
0
  6
CONTINUOUS
 62
     7
100
AcDbVertex
100
AcDb2dVertex
 10
3677.799943
 20
-19637.337398
 30
0.0
  0
VERTEX
  5
4CF
100
AcDbEntity
  8
0
  6
CONTINUOUS
 62
     7
100
AcDbVertex
100
AcDb2dVertex
 10
3677.808365
 20
-19637.562195
 30
0.0
  0
VERTEX
  5
4D0
100
AcDbEntity
  8
0
  6
CONTINUOUS
 62
     7
100
AcDbVertex
100
AcDb2dVertex
 10
3677.816787
 20
-19637.787827
 30
0.0
  0
VERTEX
  5
4D1
100
AcDbEntity
  8
0
  6
CONTINUOUS
 62
     7
100
AcDbVertex
100
AcDb2dVertex
 10
3677.82524
 20
-19638.014147
 30
0.0
  0
VERTEX
  5
4D2
100
AcDbEntity
  8
0
  6
CONTINUOUS
 62
     7
100
AcDbVertex
100
AcDb2dVertex
 10
3677.833722
 20
-19638.240981
 30
0.0
  0
SEQEND
  5
4D3
100
AcDbEntity
  8
0
  6
CONTINUOUS
 62
     7
  0
POLYLINE
  5
4D4
100
AcDbEntity
  8
0
  6
CONTINUOUS
 62
     7
100
AcDb2dPolyline
 66
     1
 10
0.0
 20
0.0
 30
0.0
 70
   128
  0
VERTEX
  5
4D5
100
AcDbEntity
  8
0
  6
CONTINUOUS
 62
     7
100
AcDbVertex
100
AcDb2dVertex
 10
3676.875968
 20
-19636.436249
 30
0.0
  0
VERTEX
  5
4D6
100
AcDbEntity
  8
0
  6
CONTINUOUS
 62
     7
100
AcDbVertex
100
AcDb2dVertex
 10
3676.98725
 20
-19636.437922
 30
0.0
  0
VERTEX
  5
4D7
100
AcDbEntity
  8
0
  6
CONTINUOUS
 62
     7
100
AcDbVertex
100
AcDb2dVertex
 10
3677.098592
 20
-19636.439594
 30
0.0
  0
VERTEX
  5
4D8
100
AcDbEntity
  8
0
  6
CONTINUOUS
 62
     7
100
AcDbVertex
100
AcDb2dVertex
 10
3677.209993
 20
-19636.441267
 30
0.0
  0
VERTEX
  5
4D9
100
AcDbEntity
  8
0
  6
CONTINUOUS
 62
     7
100
AcDbVertex
100
AcDb2dVertex
 10
3677.321395
 20
-19636.442939
 30
0.0
  0
VERTEX
  5
4DA
100
AcDbEntity
  8
0
  6
CONTINUOUS
 62
     7
100
AcDbVertex
100
AcDb2dVertex
 10
3677.432766
 20
-19636.444612
 30
0.0
  0
VERTEX
  5
4DB
100
AcDbEntity
  8
0
  6
CONTINUOUS
 62
     7
100
AcDbVertex
100
AcDb2dVertex
 10
3677.544168
 20
-19636.446284
 30
0.0
  0
VERTEX
  5
4DC
100
AcDbEntity
  8
0
  6
CONTINUOUS
 62
     7
100
AcDbVertex
100
AcDb2dVertex
 10
3677.655509
 20
-19636.447957
 30
0.0
  0
VERTEX
  5
4DD
100
AcDbEntity
  8
0
  6
CONTINUOUS
 62
     7
100
AcDbVertex
100
AcDb2dVertex
 10
3677.766791
 20
-19636.449629
 30
0.0
  0
SEQEND
  5
4DE
100
AcDbEntity
  8
0
  6
CONTINUOUS
 62
     7
  0
POLYLINE
  5
4DF
100
AcDbEntity
  8
0
  6
CONTINUOUS
 62
     7
100
AcDb2dPolyline
 66
     1
 10
0.0
 20
0.0
 30
0.0
 70
   128
  0
VERTEX
  5
4E0
100
AcDbEntity
  8
0
  6
CONTINUOUS
 62
     7
100
AcDbVertex
100
AcDb2dVertex
 10
3676.753666
 20
-19638.248642
 30
0.0
  0
VERTEX
  5
4E1
100
AcDbEntity
  8
0
  6
CONTINUOUS
 62
     7
100
AcDbVertex
100
AcDb2dVertex
 10
3676.769166
 20
-19638.019134
 30
0.0
  0
VERTEX
  5
4E2
100
AcDbEntity
  8
0
  6
CONTINUOUS
 62
     7
100
AcDbVertex
100
AcDb2dVertex
 10
3676.784607
 20
-19637.790157
 30
0.0
  0
VERTEX
  5
4E3
100
AcDbEntity
  8
0
  6
CONTINUOUS
 62
     7
100
AcDbVertex
100
AcDb2dVertex
 10
3676.800018
 20
-19637.561859
 30
0.0
  0
VERTEX
  5
4E4
100
AcDbEntity
  8
0
  6
CONTINUOUS
 62
     7
100
AcDbVertex
100
AcDb2dVertex
 10
3676.81537
 20
-19637.334404
 30
0.0
  0
VERTEX
  5
4E5
100
AcDbEntity
  8
0
  6
CONTINUOUS
 62
     7
100
AcDbVertex
100
AcDb2dVertex
 10
3676.830661
 20
-19637.107958
 30
0.0
  0
VERTEX
  5
4E6
100
AcDbEntity
  8
0
  6
CONTINUOUS
 62
     7
100
AcDbVertex
100
AcDb2dVertex
 10
3676.845863
 20
-19636.882676
 30
0.0
  0
VERTEX
  5
4E7
100
AcDbEntity
  8
0
  6
CONTINUOUS
 62
     7
100
AcDbVertex
100
AcDb2dVertex
 10
3676.860975
 20
-19636.658723
 30
0.0
  0
VERTEX
  5
4E8
100
AcDbEntity
  8
0
  6
CONTINUOUS
 62
     7
100
AcDbVertex
100
AcDb2dVertex
 10
3676.875968
 20
-19636.436249
 30
0.0
  0
SEQEND
  5
4E9
100
AcDbEntity
  8
0
  6
CONTINUOUS
 62
     7
  0
POLYLINE
  5
4EA
100
AcDbEntity
  8
0
  6
CONTINUOUS
 62
     7
100
AcDb2dPolyline
 66
     1
 10
0.0
 20
0.0
 30
0.0
 70
   128
  0
VERTEX
  5
4EB
100
AcDbEntity
  8
0
  6
CONTINUOUS
 62
     7
100
AcDbVertex
100
AcDb2dVertex
 10
3674.938421
 20
-19638.316461
 30
0.0
  0
VERTEX
  5
4EC
100
AcDbEntity
  8
0
  6
CONTINUOUS
 62
     7
100
AcDbVertex
100
AcDb2dVertex
 10
3675.161253
 20
-19638.308136
 30
0.0
  0
VERTEX
  5
4ED
100
AcDbEntity
  8
0
  6
CONTINUOUS
 62
     7
100
AcDbVertex
100
AcDb2dVertex
 10
3675.385549
 20
-19638.299758
 30
0.0
  0
VERTEX
  5
4EE
100
AcDbEntity
  8
0
  6
CONTINUOUS
 62
     7
100
AcDbVertex
100
AcDb2dVertex
 10
3675.611189
 20
-19638.291329
 30
0.0
  0
VERTEX
  5
4EF
100
AcDbEntity
  8
0
  6
CONTINUOUS
 62
     7
100
AcDbVertex
100
AcDb2dVertex
 10
3675.837994
 20
-19638.282854
 30
0.0
  0
VERTEX
  5
4F0
100
AcDbEntity
  8
0
  6
CONTINUOUS
 62
     7
100
AcDbVertex
100
AcDb2dVertex
 10
3676.065814
 20
-19638.274342
 30
0.0
  0
VERTEX
  5
4F1
100
AcDbEntity
  8
0
  6
CONTINUOUS
 62
     7
100
AcDbVertex
100
AcDb2dVertex
 10
3676.294471
 20
-19638.2658
 30
0.0
  0
VERTEX
  5
4F2
100
AcDbEntity
  8
0
  6
CONTINUOUS
 62
     7
100
AcDbVertex
100
AcDb2dVertex
 10
3676.523815
 20
-19638.257229
 30
0.0
  0
VERTEX
  5
4F3
100
AcDbEntity
  8
0
  6
CONTINUOUS
 62
     7
100
AcDbVertex
100
AcDb2dVertex
 10
3676.753666
 20
-19638.248642
 30
0.0
  0
SEQEND
  5
4F4
100
AcDbEntity
  8
0
  6
CONTINUOUS
 62
     7
  0
POLYLINE
  5
4F5
100
AcDbEntity
  8
0
  6
CONTINUOUS
 62
     7
100
AcDb2dPolyline
 66
     1
 10
0.0
 20
0.0
 30
0.0
 70
   128
  0
VERTEX
  5
4F6
100
AcDbEntity
  8
0
  6
CONTINUOUS
 62
     7
100
AcDbVertex
100
AcDb2dVertex
 10
3674.92504
 20
-19639.207269
 30
0.0
  0
VERTEX
  5
4F7
100
AcDbEntity
  8
0
  6
CONTINUOUS
 62
     7
100
AcDbVertex
100
AcDb2dVertex
 10
3674.926713
 20
-19639.095987
 30
0.0
  0
VERTEX
  5
4F8
100
AcDbEntity
  8
0
  6
CONTINUOUS
 62
     7
100
AcDbVertex
100
AcDb2dVertex
 10
3674.928386
 20
-19638.984645
 30
0.0
  0
VERTEX
  5
4F9
100
AcDbEntity
  8
0
  6
CONTINUOUS
 62
     7
100
AcDbVertex
100
AcDb2dVertex
 10
3674.930058
 20
-19638.873266
 30
0.0
  0
VERTEX
  5
4FA
100
AcDbEntity
  8
0
  6
CONTINUOUS
 62
     7
100
AcDbVertex
100
AcDb2dVertex
 10
3674.931731
 20
-19638.761865
 30
0.0
  0
VERTEX
  5
4FB
100
AcDbEntity
  8
0
  6
CONTINUOUS
 62
     7
100
AcDbVertex
100
AcDb2dVertex
 10
3674.933403
 20
-19638.650464
 30
0.0
  0
VERTEX
  5
4FC
100
AcDbEntity
  8
0
  6
CONTINUOUS
 62
     7
100
AcDbVertex
100
AcDb2dVertex
 10
3674.935076
 20
-19638.539085
 30
0.0
  0
VERTEX
  5
4FD
100
AcDbEntity
  8
0
  6
CONTINUOUS
 62
     7
100
AcDbVertex
100
AcDb2dVertex
 10
3674.936748
 20
-19638.427743
 30
0.0
  0
VERTEX
  5
4FE
100
AcDbEntity
  8
0
  6
CONTINUOUS
 62
     7
100
AcDbVertex
100
AcDb2dVertex
 10
3674.938421
 20
-19638.316461
 30
0.0
  0
SEQEND
  5
4FF
100
AcDbEntity
  8
0
  6
CONTINUOUS
 62
     7
  0
LINE
  5
500
100
AcDbEntity
  8
0
  6
CONTINUOUS
 62
     7
100
AcDbLine
 10
3677.57714
 20
-19636.643559
 30
0.0
 11
3677.766791
 21
-19636.449629
 31
0.0
  0
LINE
  5
501
100
AcDbEntity
  8
0
  6
CONTINUOUS
 62
     7
100
AcDbLine
 10
3677.059706
 20
-19636.635794
 30
0.0
 11
3677.57714
 21
-19636.643559
 31
0.0
  0
LINE
  5
502
100
AcDbEntity
  8
0
  6
CONTINUOUS
 62
     7
100
AcDbLine
 10
3677.059706
 20
-19636.635794
 30
0.0
 11
3676.875968
 21
-19636.436249
 31
0.0
  0
LINE
  5
503
100
AcDbEntity
  8
0
  6
CONTINUOUS
 62
     7
100
AcDbLine
 10
3677.015295
 20
-19637.294137
 30
0.0
 11
3677.059706
 21
-19636.635794
 31
0.0
  0
LINE
  5
504
100
AcDbEntity
  8
0
  6
CONTINUOUS
 62
     7
100
AcDbLine
 10
3676.960968
 20
-19638.098975
 30
0.0
 11
3677.015295
 21
-19637.294137
 31
0.0
  0
LINE
  5
505
100
AcDbEntity
  8
0
  6
CONTINUOUS
 62
     7
100
AcDbLine
 10
3676.776603
 20
-19637.908973
 30
0.0
 11
3676.960968
 21
-19638.098975
 31
0.0
  0
LINE
  5
506
100
AcDbEntity
  8
0
  6
CONTINUOUS
 62
     7
100
AcDbLine
 10
3677.57714
 20
-19636.643559
 30
0.0
 11
3677.60178
 21
-19637.302948
 31
0.0
  0
LINE
  5
507
100
AcDbEntity
  8
0
  6
CONTINUOUS
 62
     7
100
AcDbLine
 10
3677.631079
 20
-19638.087289
 30
0.0
 11
3677.821178
 21
-19637.905217
 31
0.0
  0
LINE
  5
508
100
AcDbEntity
  8
0
  6
CONTINUOUS
 62
     7
100
AcDbLine
 10
3677.60178
 20
-19637.302948
 30
0.0
 11
3677.631079
 21
-19638.087289
 31
0.0
  0
LINE
  5
509
100
AcDbEntity
  8
0
  6
CONTINUOUS
 62
     7
100
AcDbLine
 10
3675.132372
 20
-19638.506112
 30
0.0
 11
3675.791731
 21
-19638.481473
 31
0.0
  0
LINE
  5
50A
100
AcDbEntity
  8
0
  6
CONTINUOUS
 62
     7
100
AcDbLine
 10
3675.132372
 20
-19638.506112
 30
0.0
 11
3674.938421
 21
-19638.316461
 31
0.0
  0
LINE
  5
50B
100
AcDbEntity
  8
0
  6
CONTINUOUS
 62
     7
100
AcDbLine
 10
3676.597853
 20
-19638.45136
 30
0.0
 11
3676.413458
 21
-19638.26135
 31
0.0
  0
LINE
  5
50C
100
AcDbEntity
  8
0
  6
CONTINUOUS
 62
     7
100
AcDbLine
 10
3675.791731
 20
-19638.481473
 30
0.0
 11
3676.597853
 21
-19638.45136
 31
0.0
  0
LINE
  5
50D
100
AcDbEntity
  8
0
  6
CONTINUOUS
 62
     7
100
AcDbLine
 10
3678.777886
 20
-19639.124151
 30
0.0
 11
3679.439634
 21
-19639.09076
 31
0.0
  0
LINE
  5
50E
100
AcDbEntity
  8
0
  6
CONTINUOUS
 62
     7
100
AcDbLine
 10
3679.439634
 20
-19639.09076
 30
0.0
 11
3679.633615
 21
-19639.277985
 31
0.0
  0
LINE
  5
50F
100
AcDbEntity
  8
0
  6
CONTINUOUS
 62
     7
100
AcDbLine
 10
3677.967791
 20
-19639.165031
 30
0.0
 11
3678.152335
 21
-19639.352725
 31
0.0
  0
LINE
  5
510
100
AcDbEntity
  8
0
  6
CONTINUOUS
 62
     7
100
AcDbLine
 10
3677.967791
 20
-19639.165031
 30
0.0
 11
3678.777886
 21
-19639.124151
 31
0.0
  0
LINE
  5
511
100
AcDbEntity
  8
0
  6
CONTINUOUS
 62
     7
100
AcDbLine
 10
3677.51233
 20
-19640.958652
 30
0.0
 11
3677.696068
 21
-19641.158189
 31
0.0
  0
LINE
  5
512
100
AcDbEntity
  8
0
  6
CONTINUOUS
 62
     7
100
AcDbLine
 10
3677.51233
 20
-19640.958652
 30
0.0
 11
3677.556741
 21
-19640.300309
 31
0.0
  0
LINE
  5
513
100
AcDbEntity
  8
0
  6
CONTINUOUS
 62
     7
100
AcDbLine
 10
3677.556741
 20
-19640.300309
 30
0.0
 11
3677.609605
 21
-19639.517192
 31
0.0
  0
LINE
  5
514
100
AcDbEntity
  8
0
  6
CONTINUOUS
 62
     7
100
AcDbLine
 10
3677.794149
 20
-19639.704894
 30
0.0
 11
3677.609605
 21
-19639.517192
 31
0.0
  0
LINE
  5
515
100
AcDbEntity
  8
0
  6
CONTINUOUS
 62
     7
100
AcDbLine
 10
3679.439634
 20
-19639.09076
 30
0.0
 11
3679.447488
 21
-19638.568488
 31
0.0
  0
LINE
  5
516
100
AcDbEntity
  8
0
  6
CONTINUOUS
 62
     7
100
AcDbLine
 10
3679.447488
 20
-19638.568488
 30
0.0
 11
3679.646996
 21
-19638.387177
 31
0.0
  0
LINE
  5
517
100
AcDbEntity
  8
0
  6
CONTINUOUS
 62
     7
100
AcDbLine
 10
3679.447488
 20
-19638.568488
 30
0.0
 11
3678.787025
 21
-19638.515236
 31
0.0
  0
LINE
  5
518
100
AcDbEntity
  8
0
  6
CONTINUOUS
 62
     7
100
AcDbLine
 10
3678.787025
 20
-19638.515236
 30
0.0
 11
3677.978513
 21
-19638.450053
 31
0.0
  0
LINE
  5
519
100
AcDbEntity
  8
0
  6
CONTINUOUS
 62
     7
100
AcDbLine
 10
3678.168613
 20
-19638.267981
 30
0.0
 11
3677.978513
 21
-19638.450053
 31
0.0
  0
ARC
  5
51A
100
AcDbEntity
  8
0
  6
CONTINUOUS
 62
     7
100
AcDbCircle
 10
3677.985874
 20
-19639.541661
 30
0.0
 40
0.377064
100
AcDbArc
 50
92.748712
 51
176.279288
  0
LINE
  5
51B
100
AcDbEntity
  8
0
  6
CONTINUOUS
 62
     7
100
AcDbLine
 10
3675.124607
 20
-19639.023531
 30
0.0
 11
3674.92504
 21
-19639.207269
 31
0.0
  0
LINE
  5
51C
100
AcDbEntity
  8
0
  6
CONTINUOUS
 62
     7
100
AcDbLine
 10
3675.782951
 20
-19639.067958
 30
0.0
 11
3675.124607
 21
-19639.023531
 31
0.0
  0
LINE
  5
51D
100
AcDbEntity
  8
0
  6
CONTINUOUS
 62
     7
100
AcDbLine
 10
3676.587788
 20
-19639.122262
 30
0.0
 11
3675.782951
 21
-19639.067958
 31
0.0
  0
LINE
  5
51E
100
AcDbEntity
  8
0
  6
CONTINUOUS
 62
     7
100
AcDbLine
 10
3676.397779
 20
-19639.306649
 30
0.0
 11
3676.587788
 21
-19639.122262
 31
0.0
  0
LINE
  5
51F
100
AcDbEntity
  8
0
  6
CONTINUOUS
 62
     7
100
AcDbLine
 10
3676.940151
 20
-19639.485392
 30
0.0
 11
3676.750142
 21
-19639.669771
 31
0.0
  0
ARC
  5
520
100
AcDbEntity
  8
0
  6
CONTINUOUS
 62
     7
100
AcDbCircle
 10
3676.563338
 20
-19639.49851
 30
0.0
 40
0.377041
100
AcDbArc
 50
1.993819
 51
86.281925
  0
LINE
  5
521
100
AcDbEntity
  8
0
  6
CONTINUOUS
 62
     7
100
AcDbLine
 10
3676.994926
 20
-19640.95088
 30
0.0
 11
3676.805275
 21
-19641.144809
 31
0.0
  0
LINE
  5
522
100
AcDbEntity
  8
0
  6
CONTINUOUS
 62
     7
100
AcDbLine
 10
3676.994926
 20
-19640.95088
 30
0.0
 11
3677.51233
 21
-19640.958652
 31
0.0
  0
ARC
  5
523
100
AcDbEntity
  8
0
  6
CONTINUOUS
 62
     7
100
AcDbCircle
 10
3678.007908
 20
-19638.074142
 30
0.0
 40
0.377059
100
AcDbArc
 50
181.998267
 51
265.528779
  0
LINE
  5
524
100
AcDbEntity
  8
0
  6
CONTINUOUS
 62
     7
100
AcDbLine
 10
3676.970286
 20
-19640.291499
 30
0.0
 11
3676.994926
 21
-19640.95088
 31
0.0
  0
LINE
  5
525
100
AcDbEntity
  8
0
  6
CONTINUOUS
 62
     7
100
AcDbLine
 10
3676.940151
 20
-19639.485392
 30
0.0
 11
3676.970286
 21
-19640.291499
 31
0.0
  0
CIRCLE
  5
526
100
AcDbEntity
  8
0
  6
CONTINUOUS
 62
     7
100
AcDbCircle
 10
3677.286032
 20
-19638.797216
 30
0.0
 40
5.40909
  0
ARC
  5
527
100
AcDbEntity
  8
0
  6
CONTINUOUS
 62
     7
100
AcDbCircle
 10
3676.58474
 20
-19638.074569
 30
0.0
 40
0.377019
100
AcDbArc
 50
271.993209
 51
356.28853
  0
LINE
  5
528
100
AcDbEntity
  8
0
  6
CONTINUOUS
 62
     7
100
AcDbLine
 10
3675.124607
 20
-19639.023531
 30
0.0
 11
3675.132372
 21
-19638.506112
 31
0.0
  0
ARC
  5
529
100
AcDbEntity
  8
0
  6
CONTINUOUS
 62
     7
100
AcDbCircle
 10
3677.286022
 20
-19638.797309
 30
0.0
 40
1.527357
100
AcDbArc
 50
78.068921
 51
100.209738
  0
ARC
  5
52A
100
AcDbEntity
  8
0
  6
CONTINUOUS
 62
     7
100
AcDbCircle
 10
3677.286772
 20
-19638.797245
 30
0.0
 40
1.526528
100
AcDbArc
 50
347.634341
 51
10.645903
  0
ARC
  5
52B
100
AcDbEntity
  8
0
  6
CONTINUOUS
 62
     7
100
AcDbCircle
 10
3677.286028
 20
-19638.79728
 30
0.0
 40
1.527214
100
AcDbArc
 50
258.068404
 51
280.210168
  0
ARC
  5
52C
100
AcDbEntity
  8
0
  6
CONTINUOUS
 62
     7
100
AcDbCircle
 10
3677.286915
 20
-19638.797166
 30
0.0
 40
1.528148
100
AcDbArc
 50
168.077653
 51
190.20684
  0
CIRCLE
  5
52D
100
AcDbEntity
  8
0
  6
CONTINUOUS
 62
     7
100
AcDbCircle
 10
3511.814178
 20
-19804.292107
 30
0.0
 40
3.563634
  0
POLYLINE
  5
52E
100
AcDbEntity
  8
0
  6
CONTINUOUS
 62
     7
100
AcDb2dPolyline
 66
     1
 10
0.0
 20
0.0
 30
0.0
 70
   128
  0
VERTEX
  5
52F
100
AcDbEntity
  8
0
  6
CONTINUOUS
 62
     7
100
AcDbVertex
100
AcDb2dVertex
 10
3511.05594
 20
-19804.195117
 30
0.0
  0
VERTEX
  5
530
100
AcDbEntity
  8
0
  6
CONTINUOUS
 62
     7
100
AcDbVertex
100
AcDb2dVertex
 10
3510.924954
 20
-19804.006033
 30
0.0
  0
VERTEX
  5
531
100
AcDbEntity
  8
0
  6
CONTINUOUS
 62
     7
100
AcDbVertex
100
AcDb2dVertex
 10
3510.794267
 20
-19803.817367
 30
0.0
  0
VERTEX
  5
532
100
AcDbEntity
  8
0
  6
CONTINUOUS
 62
     7
100
AcDbVertex
100
AcDb2dVertex
 10
3510.663967
 20
-19803.629269
 30
0.0
  0
VERTEX
  5
533
100
AcDbEntity
  8
0
  6
CONTINUOUS
 62
     7
100
AcDbVertex
100
AcDb2dVertex
 10
3510.534153
 20
-19803.441873
 30
0.0
  0
VERTEX
  5
534
100
AcDbEntity
  8
0
  6
CONTINUOUS
 62
     7
100
AcDbVertex
100
AcDb2dVertex
 10
3510.404914
 20
-19803.255313
 30
0.0
  0
VERTEX
  5
535
100
AcDbEntity
  8
0
  6
CONTINUOUS
 62
     7
100
AcDbVertex
100
AcDb2dVertex
 10
3510.27634
 20
-19803.069694
 30
0.0
  0
VERTEX
  5
536
100
AcDbEntity
  8
0
  6
CONTINUOUS
 62
     7
100
AcDbVertex
100
AcDb2dVertex
 10
3510.148519
 20
-19802.88518
 30
0.0
  0
VERTEX
  5
537
100
AcDbEntity
  8
0
  6
CONTINUOUS
 62
     7
100
AcDbVertex
100
AcDb2dVertex
 10
3510.02155
 20
-19802.70189
 30
0.0
  0
SEQEND
  5
538
100
AcDbEntity
  8
0
  6
CONTINUOUS
 62
     7
  0
POLYLINE
  5
539
100
AcDbEntity
  8
0
  6
CONTINUOUS
 62
     7
100
AcDb2dPolyline
 66
     1
 10
0.0
 20
0.0
 30
0.0
 70
   128
  0
VERTEX
  5
53A
100
AcDbEntity
  8
0
  6
CONTINUOUS
 62
     7
100
AcDbVertex
100
AcDb2dVertex
 10
3511.05594
 20
-19804.195117
 30
0.0
  0
VERTEX
  5
53B
100
AcDbEntity
  8
0
  6
CONTINUOUS
 62
     7
100
AcDbVertex
100
AcDb2dVertex
 10
3510.881581
 20
-19804.34515
 30
0.0
  0
VERTEX
  5
53C
100
AcDbEntity
  8
0
  6
CONTINUOUS
 62
     7
100
AcDbVertex
100
AcDb2dVertex
 10
3510.707617
 20
-19804.49484
 30
0.0
  0
VERTEX
  5
53D
100
AcDbEntity
  8
0
  6
CONTINUOUS
 62
     7
100
AcDbVertex
100
AcDb2dVertex
 10
3510.534168
 20
-19804.644082
 30
0.0
  0
VERTEX
  5
53E
100
AcDbEntity
  8
0
  6
CONTINUOUS
 62
     7
100
AcDbVertex
100
AcDb2dVertex
 10
3510.361369
 20
-19804.792787
 30
0.0
  0
VERTEX
  5
53F
100
AcDbEntity
  8
0
  6
CONTINUOUS
 62
     7
100
AcDbVertex
100
AcDb2dVertex
 10
3510.189324
 20
-19804.940819
 30
0.0
  0
VERTEX
  5
540
100
AcDbEntity
  8
0
  6
CONTINUOUS
 62
     7
100
AcDbVertex
100
AcDb2dVertex
 10
3510.018175
 20
-19805.08809
 30
0.0
  0
VERTEX
  5
541
100
AcDbEntity
  8
0
  6
CONTINUOUS
 62
     7
100
AcDbVertex
100
AcDb2dVertex
 10
3509.848027
 20
-19805.234494
 30
0.0
  0
VERTEX
  5
542
100
AcDbEntity
  8
0
  6
CONTINUOUS
 62
     7
100
AcDbVertex
100
AcDb2dVertex
 10
3509.679006
 20
-19805.379929
 30
0.0
  0
SEQEND
  5
543
100
AcDbEntity
  8
0
  6
CONTINUOUS
 62
     7
  0
POLYLINE
  5
544
100
AcDbEntity
  8
0
  6
CONTINUOUS
 62
     7
100
AcDb2dPolyline
 66
     1
 10
0.0
 20
0.0
 30
0.0
 70
   128
  0
VERTEX
  5
545
100
AcDbEntity
  8
0
  6
CONTINUOUS
 62
     7
100
AcDbVertex
100
AcDb2dVertex
 10
3509.679006
 20
-19805.379929
 30
0.0
  0
VERTEX
  5
546
100
AcDbEntity
  8
0
  6
CONTINUOUS
 62
     7
100
AcDbVertex
100
AcDb2dVertex
 10
3509.747086
 20
-19805.467974
 30
0.0
  0
VERTEX
  5
547
100
AcDbEntity
  8
0
  6
CONTINUOUS
 62
     7
100
AcDbVertex
100
AcDb2dVertex
 10
3509.815196
 20
-19805.556065
 30
0.0
  0
VERTEX
  5
548
100
AcDbEntity
  8
0
  6
CONTINUOUS
 62
     7
100
AcDbVertex
100
AcDb2dVertex
 10
3509.883336
 20
-19805.644186
 30
0.0
  0
VERTEX
  5
549
100
AcDbEntity
  8
0
  6
CONTINUOUS
 62
     7
100
AcDbVertex
100
AcDb2dVertex
 10
3509.951484
 20
-19805.732336
 30
0.0
  0
VERTEX
  5
54A
100
AcDbEntity
  8
0
  6
CONTINUOUS
 62
     7
100
AcDbVertex
100
AcDb2dVertex
 10
3510.019631
 20
-19805.820472
 30
0.0
  0
VERTEX
  5
54B
100
AcDbEntity
  8
0
  6
CONTINUOUS
 62
     7
100
AcDbVertex
100
AcDb2dVertex
 10
3510.087771
 20
-19805.908592
 30
0.0
  0
VERTEX
  5
54C
100
AcDbEntity
  8
0
  6
CONTINUOUS
 62
     7
100
AcDbVertex
100
AcDb2dVertex
 10
3510.155882
 20
-19805.996683
 30
0.0
  0
VERTEX
  5
54D
100
AcDbEntity
  8
0
  6
CONTINUOUS
 62
     7
100
AcDbVertex
100
AcDb2dVertex
 10
3510.223962
 20
-19806.084729
 30
0.0
  0
SEQEND
  5
54E
100
AcDbEntity
  8
0
  6
CONTINUOUS
 62
     7
  0
POLYLINE
  5
54F
100
AcDbEntity
  8
0
  6
CONTINUOUS
 62
     7
100
AcDb2dPolyline
 66
     1
 10
0.0
 20
0.0
 30
0.0
 70
   128
  0
VERTEX
  5
550
100
AcDbEntity
  8
0
  6
CONTINUOUS
 62
     7
100
AcDbVertex
100
AcDb2dVertex
 10
3510.223962
 20
-19806.084729
 30
0.0
  0
VERTEX
  5
551
100
AcDbEntity
  8
0
  6
CONTINUOUS
 62
     7
100
AcDbVertex
100
AcDb2dVertex
 10
3510.40487
 20
-19805.95941
 30
0.0
  0
VERTEX
  5
552
100
AcDbEntity
  8
0
  6
CONTINUOUS
 62
     7
100
AcDbVertex
100
AcDb2dVertex
 10
3510.586965
 20
-19805.833269
 30
0.0
  0
VERTEX
  5
553
100
AcDbEntity
  8
0
  6
CONTINUOUS
 62
     7
100
AcDbVertex
100
AcDb2dVertex
 10
3510.770135
 20
-19805.706382
 30
0.0
  0
VERTEX
  5
554
100
AcDbEntity
  8
0
  6
CONTINUOUS
 62
     7
100
AcDbVertex
100
AcDb2dVertex
 10
3510.954238
 20
-19805.578853
 30
0.0
  0
VERTEX
  5
555
100
AcDbEntity
  8
0
  6
CONTINUOUS
 62
     7
100
AcDbVertex
100
AcDb2dVertex
 10
3511.139163
 20
-19805.450757
 30
0.0
  0
VERTEX
  5
556
100
AcDbEntity
  8
0
  6
CONTINUOUS
 62
     7
100
AcDbVertex
100
AcDb2dVertex
 10
3511.324775
 20
-19805.322182
 30
0.0
  0
VERTEX
  5
557
100
AcDbEntity
  8
0
  6
CONTINUOUS
 62
     7
100
AcDbVertex
100
AcDb2dVertex
 10
3511.510939
 20
-19805.193219
 30
0.0
  0
VERTEX
  5
558
100
AcDbEntity
  8
0
  6
CONTINUOUS
 62
     7
100
AcDbVertex
100
AcDb2dVertex
 10
3511.697536
 20
-19805.063958
 30
0.0
  0
SEQEND
  5
559
100
AcDbEntity
  8
0
  6
CONTINUOUS
 62
     7
  0
POLYLINE
  5
55A
100
AcDbEntity
  8
0
  6
CONTINUOUS
 62
     7
100
AcDb2dPolyline
 66
     1
 10
0.0
 20
0.0
 30
0.0
 70
   128
  0
VERTEX
  5
55B
100
AcDbEntity
  8
0
  6
CONTINUOUS
 62
     7
100
AcDbVertex
100
AcDb2dVertex
 10
3511.697536
 20
-19805.063958
 30
0.0
  0
VERTEX
  5
55C
100
AcDbEntity
  8
0
  6
CONTINUOUS
 62
     7
100
AcDbVertex
100
AcDb2dVertex
 10
3511.850049
 20
-19805.236585
 30
0.0
  0
VERTEX
  5
55D
100
AcDbEntity
  8
0
  6
CONTINUOUS
 62
     7
100
AcDbVertex
100
AcDb2dVertex
 10
3512.002218
 20
-19805.408824
 30
0.0
  0
VERTEX
  5
55E
100
AcDbEntity
  8
0
  6
CONTINUOUS
 62
     7
100
AcDbVertex
100
AcDb2dVertex
 10
3512.153931
 20
-19805.580541
 30
0.0
  0
VERTEX
  5
55F
100
AcDbEntity
  8
0
  6
CONTINUOUS
 62
     7
100
AcDbVertex
100
AcDb2dVertex
 10
3512.305092
 20
-19805.75163
 30
0.0
  0
VERTEX
  5
560
100
AcDbEntity
  8
0
  6
CONTINUOUS
 62
     7
100
AcDbVertex
100
AcDb2dVertex
 10
3512.455581
 20
-19805.921972
 30
0.0
  0
VERTEX
  5
561
100
AcDbEntity
  8
0
  6
CONTINUOUS
 62
     7
100
AcDbVertex
100
AcDb2dVertex
 10
3512.605301
 20
-19806.091449
 30
0.0
  0
VERTEX
  5
562
100
AcDbEntity
  8
0
  6
CONTINUOUS
 62
     7
100
AcDbVertex
100
AcDb2dVertex
 10
3512.754147
 20
-19806.25991
 30
0.0
  0
VERTEX
  5
563
100
AcDbEntity
  8
0
  6
CONTINUOUS
 62
     7
100
AcDbVertex
100
AcDb2dVertex
 10
3512.902008
 20
-19806.427281
 30
0.0
  0
SEQEND
  5
564
100
AcDbEntity
  8
0
  6
CONTINUOUS
 62
     7
  0
POLYLINE
  5
565
100
AcDbEntity
  8
0
  6
CONTINUOUS
 62
     7
100
AcDb2dPolyline
 66
     1
 10
0.0
 20
0.0
 30
0.0
 70
   128
  0
VERTEX
  5
566
100
AcDbEntity
  8
0
  6
CONTINUOUS
 62
     7
100
AcDbVertex
100
AcDb2dVertex
 10
3512.902008
 20
-19806.427281
 30
0.0
  0
VERTEX
  5
567
100
AcDbEntity
  8
0
  6
CONTINUOUS
 62
     7
100
AcDbVertex
100
AcDb2dVertex
 10
3512.990054
 20
-19806.3592
 30
0.0
  0
VERTEX
  5
568
100
AcDbEntity
  8
0
  6
CONTINUOUS
 62
     7
100
AcDbVertex
100
AcDb2dVertex
 10
3513.078144
 20
-19806.29109
 30
0.0
  0
VERTEX
  5
569
100
AcDbEntity
  8
0
  6
CONTINUOUS
 62
     7
100
AcDbVertex
100
AcDb2dVertex
 10
3513.166265
 20
-19806.22295
 30
0.0
  0
VERTEX
  5
56A
100
AcDbEntity
  8
0
  6
CONTINUOUS
 62
     7
100
AcDbVertex
100
AcDb2dVertex
 10
3513.254408
 20
-19806.154795
 30
0.0
  0
VERTEX
  5
56B
100
AcDbEntity
  8
0
  6
CONTINUOUS
 62
     7
100
AcDbVertex
100
AcDb2dVertex
 10
3513.342543
 20
-19806.086655
 30
0.0
  0
VERTEX
  5
56C
100
AcDbEntity
  8
0
  6
CONTINUOUS
 62
     7
100
AcDbVertex
100
AcDb2dVertex
 10
3513.430671
 20
-19806.018515
 30
0.0
  0
VERTEX
  5
56D
100
AcDbEntity
  8
0
  6
CONTINUOUS
 62
     7
100
AcDbVertex
100
AcDb2dVertex
 10
3513.518762
 20
-19805.950405
 30
0.0
  0
VERTEX
  5
56E
100
AcDbEntity
  8
0
  6
CONTINUOUS
 62
     7
100
AcDbVertex
100
AcDb2dVertex
 10
3513.606808
 20
-19805.882325
 30
0.0
  0
SEQEND
  5
56F
100
AcDbEntity
  8
0
  6
CONTINUOUS
 62
     7
  0
POLYLINE
  5
570
100
AcDbEntity
  8
0
  6
CONTINUOUS
 62
     7
100
AcDb2dPolyline
 66
     1
 10
0.0
 20
0.0
 30
0.0
 70
   128
  0
VERTEX
  5
571
100
AcDbEntity
  8
0
  6
CONTINUOUS
 62
     7
100
AcDbVertex
100
AcDb2dVertex
 10
3513.606808
 20
-19805.882325
 30
0.0
  0
VERTEX
  5
572
100
AcDbEntity
  8
0
  6
CONTINUOUS
 62
     7
100
AcDbVertex
100
AcDb2dVertex
 10
3513.482049
 20
-19805.697094
 30
0.0
  0
VERTEX
  5
573
100
AcDbEntity
  8
0
  6
CONTINUOUS
 62
     7
100
AcDbVertex
100
AcDb2dVertex
 10
3513.356469
 20
-19805.510653
 30
0.0
  0
VERTEX
  5
574
100
AcDbEntity
  8
0
  6
CONTINUOUS
 62
     7
100
AcDbVertex
100
AcDb2dVertex
 10
3513.230141
 20
-19805.323093
 30
0.0
  0
VERTEX
  5
575
100
AcDbEntity
  8
0
  6
CONTINUOUS
 62
     7
100
AcDbVertex
100
AcDb2dVertex
 10
3513.103165
 20
-19805.134577
 30
0.0
  0
VERTEX
  5
576
100
AcDbEntity
  8
0
  6
CONTINUOUS
 62
     7
100
AcDbVertex
100
AcDb2dVertex
 10
3512.975621
 20
-19804.945209
 30
0.0
  0
VERTEX
  5
577
100
AcDbEntity
  8
0
  6
CONTINUOUS
 62
     7
100
AcDbVertex
100
AcDb2dVertex
 10
3512.847614
 20
-19804.755155
 30
0.0
  0
VERTEX
  5
578
100
AcDbEntity
  8
0
  6
CONTINUOUS
 62
     7
100
AcDbVertex
100
AcDb2dVertex
 10
3512.719226
 20
-19804.564548
 30
0.0
  0
VERTEX
  5
579
100
AcDbEntity
  8
0
  6
CONTINUOUS
 62
     7
100
AcDbVertex
100
AcDb2dVertex
 10
3512.590539
 20
-19804.373493
 30
0.0
  0
SEQEND
  5
57A
100
AcDbEntity
  8
0
  6
CONTINUOUS
 62
     7
  0
POLYLINE
  5
57B
100
AcDbEntity
  8
0
  6
CONTINUOUS
 62
     7
100
AcDb2dPolyline
 66
     1
 10
0.0
 20
0.0
 30
0.0
 70
   128
  0
VERTEX
  5
57C
100
AcDbEntity
  8
0
  6
CONTINUOUS
 62
     7
100
AcDbVertex
100
AcDb2dVertex
 10
3513.949352
 20
-19803.204272
 30
0.0
  0
VERTEX
  5
57D
100
AcDbEntity
  8
0
  6
CONTINUOUS
 62
     7
100
AcDbVertex
100
AcDb2dVertex
 10
3513.782534
 20
-19803.347824
 30
0.0
  0
VERTEX
  5
57E
100
AcDbEntity
  8
0
  6
CONTINUOUS
 62
     7
100
AcDbVertex
100
AcDb2dVertex
 10
3513.614618
 20
-19803.492302
 30
0.0
  0
VERTEX
  5
57F
100
AcDbEntity
  8
0
  6
CONTINUOUS
 62
     7
100
AcDbVertex
100
AcDb2dVertex
 10
3513.445717
 20
-19803.637647
 30
0.0
  0
VERTEX
  5
580
100
AcDbEntity
  8
0
  6
CONTINUOUS
 62
     7
100
AcDbVertex
100
AcDb2dVertex
 10
3513.275949
 20
-19803.783723
 30
0.0
  0
VERTEX
  5
581
100
AcDbEntity
  8
0
  6
CONTINUOUS
 62
     7
100
AcDbVertex
100
AcDb2dVertex
 10
3513.105427
 20
-19803.930441
 30
0.0
  0
VERTEX
  5
582
100
AcDbEntity
  8
0
  6
CONTINUOUS
 62
     7
100
AcDbVertex
100
AcDb2dVertex
 10
3512.934278
 20
-19804.077712
 30
0.0
  0
VERTEX
  5
583
100
AcDbEntity
  8
0
  6
CONTINUOUS
 62
     7
100
AcDbVertex
100
AcDb2dVertex
 10
3512.762607
 20
-19804.225431
 30
0.0
  0
VERTEX
  5
584
100
AcDbEntity
  8
0
  6
CONTINUOUS
 62
     7
100
AcDbVertex
100
AcDb2dVertex
 10
3512.590539
 20
-19804.373493
 30
0.0
  0
SEQEND
  5
585
100
AcDbEntity
  8
0
  6
CONTINUOUS
 62
     7
  0
POLYLINE
  5
586
100
AcDbEntity
  8
0
  6
CONTINUOUS
 62
     7
100
AcDb2dPolyline
 66
     1
 10
0.0
 20
0.0
 30
0.0
 70
   128
  0
VERTEX
  5
587
100
AcDbEntity
  8
0
  6
CONTINUOUS
 62
     7
100
AcDbVertex
100
AcDb2dVertex
 10
3513.404397
 20
-19802.499471
 30
0.0
  0
VERTEX
  5
588
100
AcDbEntity
  8
0
  6
CONTINUOUS
 62
     7
100
AcDbVertex
100
AcDb2dVertex
 10
3513.472477
 20
-19802.587517
 30
0.0
  0
VERTEX
  5
589
100
AcDbEntity
  8
0
  6
CONTINUOUS
 62
     7
100
AcDbVertex
100
AcDb2dVertex
 10
3513.540587
 20
-19802.675608
 30
0.0
  0
VERTEX
  5
58A
100
AcDbEntity
  8
0
  6
CONTINUOUS
 62
     7
100
AcDbVertex
100
AcDb2dVertex
 10
3513.608727
 20
-19802.763743
 30
0.0
  0
VERTEX
  5
58B
100
AcDbEntity
  8
0
  6
CONTINUOUS
 62
     7
100
AcDbVertex
100
AcDb2dVertex
 10
3513.676874
 20
-19802.851879
 30
0.0
  0
VERTEX
  5
58C
100
AcDbEntity
  8
0
  6
CONTINUOUS
 62
     7
100
AcDbVertex
100
AcDb2dVertex
 10
3513.745022
 20
-19802.940014
 30
0.0
  0
VERTEX
  5
58D
100
AcDbEntity
  8
0
  6
CONTINUOUS
 62
     7
100
AcDbVertex
100
AcDb2dVertex
 10
3513.813162
 20
-19803.028135
 30
0.0
  0
VERTEX
  5
58E
100
AcDbEntity
  8
0
  6
CONTINUOUS
 62
     7
100
AcDbVertex
100
AcDb2dVertex
 10
3513.881272
 20
-19803.116226
 30
0.0
  0
VERTEX
  5
58F
100
AcDbEntity
  8
0
  6
CONTINUOUS
 62
     7
100
AcDbVertex
100
AcDb2dVertex
 10
3513.949352
 20
-19803.204272
 30
0.0
  0
SEQEND
  5
590
100
AcDbEntity
  8
0
  6
CONTINUOUS
 62
     7
  0
POLYLINE
  5
591
100
AcDbEntity
  8
0
  6
CONTINUOUS
 62
     7
100
AcDb2dPolyline
 66
     1
 10
0.0
 20
0.0
 30
0.0
 70
   128
  0
VERTEX
  5
592
100
AcDbEntity
  8
0
  6
CONTINUOUS
 62
     7
100
AcDbVertex
100
AcDb2dVertex
 10
3510.02155
 20
-19802.70189
 30
0.0
  0
VERTEX
  5
593
100
AcDbEntity
  8
0
  6
CONTINUOUS
 62
     7
100
AcDbVertex
100
AcDb2dVertex
 10
3510.109596
 20
-19802.63381
 30
0.0
  0
VERTEX
  5
594
100
AcDbEntity
  8
0
  6
CONTINUOUS
 62
     7
100
AcDbVertex
100
AcDb2dVertex
 10
3510.197687
 20
-19802.5657
 30
0.0
  0
VERTEX
  5
595
100
AcDbEntity
  8
0
  6
CONTINUOUS
 62
     7
100
AcDbVertex
100
AcDb2dVertex
 10
3510.285815
 20
-19802.49756
 30
0.0
  0
VERTEX
  5
596
100
AcDbEntity
  8
0
  6
CONTINUOUS
 62
     7
100
AcDbVertex
100
AcDb2dVertex
 10
3510.37395
 20
-19802.429405
 30
0.0
  0
VERTEX
  5
597
100
AcDbEntity
  8
0
  6
CONTINUOUS
 62
     7
100
AcDbVertex
100
AcDb2dVertex
 10
3510.462093
 20
-19802.361265
 30
0.0
  0
VERTEX
  5
598
100
AcDbEntity
  8
0
  6
CONTINUOUS
 62
     7
100
AcDbVertex
100
AcDb2dVertex
 10
3510.550214
 20
-19802.293125
 30
0.0
  0
VERTEX
  5
599
100
AcDbEntity
  8
0
  6
CONTINUOUS
 62
     7
100
AcDbVertex
100
AcDb2dVertex
 10
3510.638305
 20
-19802.225015
 30
0.0
  0
VERTEX
  5
59A
100
AcDbEntity
  8
0
  6
CONTINUOUS
 62
     7
100
AcDbVertex
100
AcDb2dVertex
 10
3510.726351
 20
-19802.156934
 30
0.0
  0
SEQEND
  5
59B
100
AcDbEntity
  8
0
  6
CONTINUOUS
 62
     7
  0
POLYLINE
  5
59C
100
AcDbEntity
  8
0
  6
CONTINUOUS
 62
     7
100
AcDb2dPolyline
 66
     1
 10
0.0
 20
0.0
 30
0.0
 70
   128
  0
VERTEX
  5
59D
100
AcDbEntity
  8
0
  6
CONTINUOUS
 62
     7
100
AcDbVertex
100
AcDb2dVertex
 10
3511.911163
 20
-19803.533861
 30
0.0
  0
VERTEX
  5
59E
100
AcDbEntity
  8
0
  6
CONTINUOUS
 62
     7
100
AcDbVertex
100
AcDb2dVertex
 10
3512.100254
 20
-19803.402883
 30
0.0
  0
VERTEX
  5
59F
100
AcDbEntity
  8
0
  6
CONTINUOUS
 62
     7
100
AcDbVertex
100
AcDb2dVertex
 10
3512.288912
 20
-19803.272188
 30
0.0
  0
VERTEX
  5
5A0
100
AcDbEntity
  8
0
  6
CONTINUOUS
 62
     7
100
AcDbVertex
100
AcDb2dVertex
 10
3512.47701
 20
-19803.141896
 30
0.0
  0
VERTEX
  5
5A1
100
AcDbEntity
  8
0
  6
CONTINUOUS
 62
     7
100
AcDbVertex
100
AcDb2dVertex
 10
3512.664406
 20
-19803.012082
 30
0.0
  0
VERTEX
  5
5A2
100
AcDbEntity
  8
0
  6
CONTINUOUS
 62
     7
100
AcDbVertex
100
AcDb2dVertex
 10
3512.850974
 20
-19802.882835
 30
0.0
  0
VERTEX
  5
5A3
100
AcDbEntity
  8
0
  6
CONTINUOUS
 62
     7
100
AcDbVertex
100
AcDb2dVertex
 10
3513.036585
 20
-19802.754261
 30
0.0
  0
VERTEX
  5
5A4
100
AcDbEntity
  8
0
  6
CONTINUOUS
 62
     7
100
AcDbVertex
100
AcDb2dVertex
 10
3513.221099
 20
-19802.626448
 30
0.0
  0
VERTEX
  5
5A5
100
AcDbEntity
  8
0
  6
CONTINUOUS
 62
     7
100
AcDbVertex
100
AcDb2dVertex
 10
3513.404397
 20
-19802.499471
 30
0.0
  0
SEQEND
  5
5A6
100
AcDbEntity
  8
0
  6
CONTINUOUS
 62
     7
  0
POLYLINE
  5
5A7
100
AcDbEntity
  8
0
  6
CONTINUOUS
 62
     7
100
AcDb2dPolyline
 66
     1
 10
0.0
 20
0.0
 30
0.0
 70
   128
  0
VERTEX
  5
5A8
100
AcDbEntity
  8
0
  6
CONTINUOUS
 62
     7
100
AcDbVertex
100
AcDb2dVertex
 10
3510.726351
 20
-19802.156934
 30
0.0
  0
VERTEX
  5
5A9
100
AcDbEntity
  8
0
  6
CONTINUOUS
 62
     7
100
AcDbVertex
100
AcDb2dVertex
 10
3510.871792
 20
-19802.325948
 30
0.0
  0
VERTEX
  5
5AA
100
AcDbEntity
  8
0
  6
CONTINUOUS
 62
     7
100
AcDbVertex
100
AcDb2dVertex
 10
3511.018197
 20
-19802.496096
 30
0.0
  0
VERTEX
  5
5AB
100
AcDbEntity
  8
0
  6
CONTINUOUS
 62
     7
100
AcDbVertex
100
AcDb2dVertex
 10
3511.165468
 20
-19802.667245
 30
0.0
  0
VERTEX
  5
5AC
100
AcDbEntity
  8
0
  6
CONTINUOUS
 62
     7
100
AcDbVertex
100
AcDb2dVertex
 10
3511.3135
 20
-19802.83929
 30
0.0
  0
VERTEX
  5
5AD
100
AcDbEntity
  8
0
  6
CONTINUOUS
 62
     7
100
AcDbVertex
100
AcDb2dVertex
 10
3511.462197
 20
-19803.012097
 30
0.0
  0
VERTEX
  5
5AE
100
AcDbEntity
  8
0
  6
CONTINUOUS
 62
     7
100
AcDbVertex
100
AcDb2dVertex
 10
3511.611439
 20
-19803.185545
 30
0.0
  0
VERTEX
  5
5AF
100
AcDbEntity
  8
0
  6
CONTINUOUS
 62
     7
100
AcDbVertex
100
AcDb2dVertex
 10
3511.761129
 20
-19803.359502
 30
0.0
  0
VERTEX
  5
5B0
100
AcDbEntity
  8
0
  6
CONTINUOUS
 62
     7
100
AcDbVertex
100
AcDb2dVertex
 10
3511.911163
 20
-19803.533861
 30
0.0
  0
SEQEND
  5
5B1
100
AcDbEntity
  8
0
  6
CONTINUOUS
 62
     7
  0
LINE
  5
5B2
100
AcDbEntity
  8
0
  6
CONTINUOUS
 62
     7
100
AcDbLine
 10
3513.36295
 20
-19802.767536
 30
0.0
 11
3513.404397
 21
-19802.499471
 31
0.0
  0
LINE
  5
5B3
100
AcDbEntity
  8
0
  6
CONTINUOUS
 62
     7
100
AcDbLine
 10
3512.82054
 20
-19803.143284
 30
0.0
 11
3513.36295
 21
-19802.767536
 31
0.0
  0
LINE
  5
5B4
100
AcDbEntity
  8
0
  6
CONTINUOUS
 62
     7
100
AcDbLine
 10
3512.157433
 20
-19803.602629
 30
0.0
 11
3512.82054
 21
-19803.143284
 31
0.0
  0
LINE
  5
5B5
100
AcDbEntity
  8
0
  6
CONTINUOUS
 62
     7
100
AcDbLine
 10
3512.191017
 20
-19803.339999
 30
0.0
 11
3512.157433
 21
-19803.602629
 31
0.0
  0
LINE
  5
5B6
100
AcDbEntity
  8
0
  6
CONTINUOUS
 62
     7
100
AcDbLine
 10
3513.67948
 20
-19803.176914
 30
0.0
 11
3513.179316
 21
-19803.607303
 31
0.0
  0
LINE
  5
5B7
100
AcDbEntity
  8
0
  6
CONTINUOUS
 62
     7
100
AcDbLine
 10
3513.67948
 20
-19803.176914
 30
0.0
 11
3513.949352
 21
-19803.204272
 31
0.0
  0
LINE
  5
5B8
100
AcDbEntity
  8
0
  6
CONTINUOUS
 62
     7
100
AcDbLine
 10
3512.584364
 20
-19804.119241
 30
0.0
 11
3512.845232
 21
-19804.154334
 31
0.0
  0
LINE
  5
5B9
100
AcDbEntity
  8
0
  6
CONTINUOUS
 62
     7
100
AcDbLine
 10
3513.179316
 20
-19803.607303
 30
0.0
 11
3512.584364
 21
-19804.119241
 31
0.0
  0
LINE
  5
5BA
100
AcDbEntity
  8
0
  6
CONTINUOUS
 62
     7
100
AcDbLine
 10
3513.36295
 20
-19802.767536
 30
0.0
 11
3513.67948
 21
-19803.176914
 31
0.0
  0
LINE
  5
5BB
100
AcDbEntity
  8
0
  6
CONTINUOUS
 62
     7
100
AcDbLine
 10
3511.951691
 20
-19805.05446
 30
0.0
 11
3511.920003
 21
-19805.315761
 31
0.0
  0
LINE
  5
5BC
100
AcDbEntity
  8
0
  6
CONTINUOUS
 62
     7
100
AcDbLine
 10
3511.42134
 20
-19805.255281
 30
0.0
 11
3511.453028
 21
-19804.993981
 31
0.0
  0
ARC
  5
5BD
100
AcDbEntity
  8
0
  6
CONTINUOUS
 62
     7
100
AcDbCircle
 10
3511.668495
 20
-19805.303444
 30
0.0
 40
0.377085
100
AcDbArc
 50
41.321619
 51
124.847933
  0
LINE
  5
5BE
100
AcDbEntity
  8
0
  6
CONTINUOUS
 62
     7
100
AcDbLine
 10
3510.265409
 20
-19805.816664
 30
0.0
 11
3510.223962
 21
-19806.084729
 31
0.0
  0
LINE
  5
5BF
100
AcDbEntity
  8
0
  6
CONTINUOUS
 62
     7
100
AcDbLine
 10
3510.265409
 20
-19805.816664
 30
0.0
 11
3510.807819
 21
-19805.44093
 31
0.0
  0
LINE
  5
5C0
100
AcDbEntity
  8
0
  6
CONTINUOUS
 62
     7
100
AcDbLine
 10
3510.807819
 20
-19805.44093
 30
0.0
 11
3511.453028
 21
-19804.993981
 31
0.0
  0
LINE
  5
5C1
100
AcDbEntity
  8
0
  6
CONTINUOUS
 62
     7
100
AcDbLine
 10
3509.948878
 20
-19805.407286
 30
0.0
 11
3509.679006
 21
-19805.379929
 31
0.0
  0
LINE
  5
5C2
100
AcDbEntity
  8
0
  6
CONTINUOUS
 62
     7
100
AcDbLine
 10
3509.948878
 20
-19805.407286
 30
0.0
 11
3510.265409
 21
-19805.816664
 31
0.0
  0
LINE
  5
5C3
100
AcDbEntity
  8
0
  6
CONTINUOUS
 62
     7
100
AcDbLine
 10
3511.060503
 20
-19804.450757
 30
0.0
 11
3510.797881
 21
-19804.417173
 31
0.0
  0
LINE
  5
5C4
100
AcDbEntity
  8
0
  6
CONTINUOUS
 62
     7
100
AcDbLine
 10
3510.862078
 20
-19803.915254
 30
0.0
 11
3511.1247
 21
-19803.948854
 31
0.0
  0
ARC
  5
5C5
100
AcDbEntity
  8
0
  6
CONTINUOUS
 62
     7
100
AcDbCircle
 10
3510.815296
 20
-19804.164336
 30
0.0
 40
0.377046
100
AcDbArc
 50
310.566936
 51
34.855003
  0
LINE
  5
5C6
100
AcDbEntity
  8
0
  6
CONTINUOUS
 62
     7
100
AcDbLine
 10
3512.927439
 20
-19806.158887
 30
0.0
 11
3512.902008
 21
-19806.427281
 31
0.0
  0
LINE
  5
5C7
100
AcDbEntity
  8
0
  6
CONTINUOUS
 62
     7
100
AcDbLine
 10
3512.927439
 20
-19806.158887
 30
0.0
 11
3513.340662
 21
-19805.839392
 31
0.0
  0
LINE
  5
5C8
100
AcDbEntity
  8
0
  6
CONTINUOUS
 62
     7
100
AcDbLine
 10
3513.340662
 20
-19805.839392
 30
0.0
 11
3513.606808
 21
-19805.882325
 31
0.0
  0
LINE
  5
5C9
100
AcDbEntity
  8
0
  6
CONTINUOUS
 62
     7
100
AcDbLine
 10
3512.778242
 20
-19804.652176
 30
0.0
 11
3512.517374
 21
-19804.617068
 31
0.0
  0
ARC
  5
5CA
100
AcDbEntity
  8
0
  6
CONTINUOUS
 62
     7
100
AcDbCircle
 10
3512.829638
 20
-19804.405667
 30
0.0
 40
0.377093
100
AcDbArc
 50
130.574293
 51
214.097748
  0
LINE
  5
5CB
100
AcDbEntity
  8
0
  6
CONTINUOUS
 62
     7
100
AcDbLine
 10
3510.698993
 20
-19802.426806
 30
0.0
 11
3511.129374
 21
-19802.926963
 31
0.0
  0
LINE
  5
5CC
100
AcDbEntity
  8
0
  6
CONTINUOUS
 62
     7
100
AcDbLine
 10
3510.698993
 20
-19802.426806
 30
0.0
 11
3510.726351
 21
-19802.156934
 31
0.0
  0
LINE
  5
5CD
100
AcDbEntity
  8
0
  6
CONTINUOUS
 62
     7
100
AcDbLine
 10
3511.655522
 20
-19803.538431
 30
0.0
 11
3511.689114
 21
-19803.275801
 31
0.0
  0
LINE
  5
5CE
100
AcDbEntity
  8
0
  6
CONTINUOUS
 62
     7
100
AcDbLine
 10
3511.129374
 20
-19802.926963
 30
0.0
 11
3511.655522
 21
-19803.538431
 31
0.0
  0
ARC
  5
5CF
100
AcDbEntity
  8
0
  6
CONTINUOUS
 62
     7
100
AcDbCircle
 10
3511.94195
 20
-19803.293193
 30
0.0
 40
0.377072
100
AcDbArc
 50
220.569872
 51
304.852282
  0
CIRCLE
  5
5D0
100
AcDbEntity
  8
0
  6
CONTINUOUS
 62
     7
100
AcDbCircle
 10
3511.814179
 20
-19804.2921
 30
0.0
 40
5.409086
  0
LINE
  5
5D1
100
AcDbEntity
  8
0
  6
CONTINUOUS
 62
     7
100
AcDbLine
 10
3513.340662
 20
-19805.839392
 30
0.0
 11
3512.970514
 21
-19805.289837
 31
0.0
  0
LINE
  5
5D2
100
AcDbEntity
  8
0
  6
CONTINUOUS
 62
     7
100
AcDbLine
 10
3512.970514
 20
-19805.289837
 30
0.0
 11
3512.517374
 21
-19804.617068
 31
0.0
  0
LINE
  5
5D3
100
AcDbEntity
  8
0
  6
CONTINUOUS
 62
     7
100
AcDbLine
 10
3510.449042
 20
-19804.976912
 30
0.0
 11
3509.948878
 21
-19805.407286
 31
0.0
  0
LINE
  5
5D4
100
AcDbEntity
  8
0
  6
CONTINUOUS
 62
     7
100
AcDbLine
 10
3511.060503
 20
-19804.450757
 30
0.0
 11
3510.449042
 21
-19804.976912
 31
0.0
  0
LINE
  5
5D5
100
AcDbEntity
  8
0
  6
CONTINUOUS
 62
     7
100
AcDbLine
 10
3512.48874
 20
-19805.66233
 30
0.0
 11
3512.927439
 21
-19806.158887
 31
0.0
  0
LINE
  5
5D6
100
AcDbEntity
  8
0
  6
CONTINUOUS
 62
     7
100
AcDbLine
 10
3511.951691
 20
-19805.05446
 30
0.0
 11
3512.48874
 21
-19805.66233
 31
0.0
  0
LINE
  5
5D7
100
AcDbEntity
  8
0
  6
CONTINUOUS
 62
     7
100
AcDbLine
 10
3510.289615
 20
-19802.74333
 30
0.0
 11
3510.02155
 21
-19802.70189
 31
0.0
  0
LINE
  5
5D8
100
AcDbEntity
  8
0
  6
CONTINUOUS
 62
     7
100
AcDbLine
 10
3510.665356
 20
-19803.285747
 30
0.0
 11
3510.289615
 21
-19802.74333
 31
0.0
  0
LINE
  5
5D9
100
AcDbEntity
  8
0
  6
CONTINUOUS
 62
     7
100
AcDbLine
 10
3511.1247
 20
-19803.948854
 30
0.0
 11
3510.665356
 21
-19803.285747
 31
0.0
  0
LINE
  5
5DA
100
AcDbEntity
  8
0
  6
CONTINUOUS
 62
     7
100
AcDbLine
 10
3510.289615
 20
-19802.74333
 30
0.0
 11
3510.698993
 21
-19802.426806
 31
0.0
  0
ARC
  5
5DB
100
AcDbEntity
  8
0
  6
CONTINUOUS
 62
     7
100
AcDbCircle
 10
3511.813998
 20
-19804.291842
 30
0.0
 40
1.52696
100
AcDbArc
 50
116.638341
 51
138.784873
  0
ARC
  5
5DC
100
AcDbEntity
  8
0
  6
CONTINUOUS
 62
     7
100
AcDbCircle
 10
3511.814034
 20
-19804.292218
 30
0.0
 40
1.527092
100
AcDbArc
 50
206.638821
 51
228.783238
  0
ARC
  5
5DD
100
AcDbEntity
  8
0
  6
CONTINUOUS
 62
     7
100
AcDbCircle
 10
3511.814124
 20
-19804.291993
 30
0.0
 40
1.527393
100
AcDbArc
 50
296.210995
 51
319.209222
  0
ARC
  5
5DE
100
AcDbEntity
  8
0
  6
CONTINUOUS
 62
     7
100
AcDbCircle
 10
3511.814324
 20
-19804.291997
 30
0.0
 40
1.527092
100
AcDbArc
 50
26.638821
 51
48.783238
  0
CIRCLE
  5
5DF
100
AcDbEntity
  8
0
  6
CONTINUOUS
 62
     7
100
AcDbCircle
 10
3333.667804
 20
-19804.304502
 30
0.0
 40
3.563638
  0
POLYLINE
  5
5E0
100
AcDbEntity
  8
0
  6
CONTINUOUS
 62
     7
100
AcDb2dPolyline
 66
     1
 10
0.0
 20
0.0
 30
0.0
 70
   128
  0
VERTEX
  5
5E1
100
AcDbEntity
  8
0
  6
CONTINUOUS
 62
     7
100
AcDbVertex
100
AcDb2dVertex
 10
3333.135453
 20
-19803.755917
 30
0.0
  0
VERTEX
  5
5E2
100
AcDbEntity
  8
0
  6
CONTINUOUS
 62
     7
100
AcDbVertex
100
AcDb2dVertex
 10
3333.150939
 20
-19803.526425
 30
0.0
  0
VERTEX
  5
5E3
100
AcDbEntity
  8
0
  6
CONTINUOUS
 62
     7
100
AcDbVertex
100
AcDb2dVertex
 10
3333.166387
 20
-19803.29744
 30
0.0
  0
VERTEX
  5
5E4
100
AcDbEntity
  8
0
  6
CONTINUOUS
 62
     7
100
AcDbVertex
100
AcDb2dVertex
 10
3333.181798
 20
-19803.069141
 30
0.0
  0
VERTEX
  5
5E5
100
AcDbEntity
  8
0
  6
CONTINUOUS
 62
     7
100
AcDbVertex
100
AcDb2dVertex
 10
3333.197142
 20
-19802.841694
 30
0.0
  0
VERTEX
  5
5E6
100
AcDbEntity
  8
0
  6
CONTINUOUS
 62
     7
100
AcDbVertex
100
AcDb2dVertex
 10
3333.212426
 20
-19802.615248
 30
0.0
  0
VERTEX
  5
5E7
100
AcDbEntity
  8
0
  6
CONTINUOUS
 62
     7
100
AcDbVertex
100
AcDb2dVertex
 10
3333.227628
 20
-19802.389966
 30
0.0
  0
VERTEX
  5
5E8
100
AcDbEntity
  8
0
  6
CONTINUOUS
 62
     7
100
AcDbVertex
100
AcDb2dVertex
 10
3333.24274
 20
-19802.165999
 30
0.0
  0
VERTEX
  5
5E9
100
AcDbEntity
  8
0
  6
CONTINUOUS
 62
     7
100
AcDbVertex
100
AcDb2dVertex
 10
3333.257748
 20
-19801.943539
 30
0.0
  0
SEQEND
  5
5EA
100
AcDbEntity
  8
0
  6
CONTINUOUS
 62
     7
  0
POLYLINE
  5
5EB
100
AcDbEntity
  8
0
  6
CONTINUOUS
 62
     7
100
AcDb2dPolyline
 66
     1
 10
0.0
 20
0.0
 30
0.0
 70
   128
  0
VERTEX
  5
5EC
100
AcDbEntity
  8
0
  6
CONTINUOUS
 62
     7
100
AcDbVertex
100
AcDb2dVertex
 10
3333.135453
 20
-19803.755917
 30
0.0
  0
VERTEX
  5
5ED
100
AcDbEntity
  8
0
  6
CONTINUOUS
 62
     7
100
AcDbVertex
100
AcDb2dVertex
 10
3332.905587
 20
-19803.764519
 30
0.0
  0
VERTEX
  5
5EE
100
AcDbEntity
  8
0
  6
CONTINUOUS
 62
     7
100
AcDbVertex
100
AcDb2dVertex
 10
3332.676243
 20
-19803.773076
 30
0.0
  0
VERTEX
  5
5EF
100
AcDbEntity
  8
0
  6
CONTINUOUS
 62
     7
100
AcDbVertex
100
AcDb2dVertex
 10
3332.447587
 20
-19803.781617
 30
0.0
  0
VERTEX
  5
5F0
100
AcDbEntity
  8
0
  6
CONTINUOUS
 62
     7
100
AcDbVertex
100
AcDb2dVertex
 10
3332.219774
 20
-19803.790129
 30
0.0
  0
VERTEX
  5
5F1
100
AcDbEntity
  8
0
  6
CONTINUOUS
 62
     7
100
AcDbVertex
100
AcDb2dVertex
 10
3331.992969
 20
-19803.798611
 30
0.0
  0
VERTEX
  5
5F2
100
AcDbEntity
  8
0
  6
CONTINUOUS
 62
     7
100
AcDbVertex
100
AcDb2dVertex
 10
3331.767336
 20
-19803.807034
 30
0.0
  0
VERTEX
  5
5F3
100
AcDbEntity
  8
0
  6
CONTINUOUS
 62
     7
100
AcDbVertex
100
AcDb2dVertex
 10
3331.543033
 20
-19803.815411
 30
0.0
  0
VERTEX
  5
5F4
100
AcDbEntity
  8
0
  6
CONTINUOUS
 62
     7
100
AcDbVertex
100
AcDb2dVertex
 10
3331.320208
 20
-19803.823744
 30
0.0
  0
SEQEND
  5
5F5
100
AcDbEntity
  8
0
  6
CONTINUOUS
 62
     7
  0
POLYLINE
  5
5F6
100
AcDbEntity
  8
0
  6
CONTINUOUS
 62
     7
100
AcDb2dPolyline
 66
     1
 10
0.0
 20
0.0
 30
0.0
 70
   128
  0
VERTEX
  5
5F7
100
AcDbEntity
  8
0
  6
CONTINUOUS
 62
     7
100
AcDbVertex
100
AcDb2dVertex
 10
3331.320208
 20
-19803.823744
 30
0.0
  0
VERTEX
  5
5F8
100
AcDbEntity
  8
0
  6
CONTINUOUS
 62
     7
100
AcDbVertex
100
AcDb2dVertex
 10
3331.318535
 20
-19803.935026
 30
0.0
  0
VERTEX
  5
5F9
100
AcDbEntity
  8
0
  6
CONTINUOUS
 62
     7
100
AcDbVertex
100
AcDb2dVertex
 10
3331.316863
 20
-19804.046367
 30
0.0
  0
VERTEX
  5
5FA
100
AcDbEntity
  8
0
  6
CONTINUOUS
 62
     7
100
AcDbVertex
100
AcDb2dVertex
 10
3331.31519
 20
-19804.157754
 30
0.0
  0
VERTEX
  5
5FB
100
AcDbEntity
  8
0
  6
CONTINUOUS
 62
     7
100
AcDbVertex
100
AcDb2dVertex
 10
3331.313518
 20
-19804.26914
 30
0.0
  0
VERTEX
  5
5FC
100
AcDbEntity
  8
0
  6
CONTINUOUS
 62
     7
100
AcDbVertex
100
AcDb2dVertex
 10
3331.311845
 20
-19804.380542
 30
0.0
  0
VERTEX
  5
5FD
100
AcDbEntity
  8
0
  6
CONTINUOUS
 62
     7
100
AcDbVertex
100
AcDb2dVertex
 10
3331.310173
 20
-19804.491928
 30
0.0
  0
VERTEX
  5
5FE
100
AcDbEntity
  8
0
  6
CONTINUOUS
 62
     7
100
AcDbVertex
100
AcDb2dVertex
 10
3331.3085
 20
-19804.60327
 30
0.0
  0
VERTEX
  5
5FF
100
AcDbEntity
  8
0
  6
CONTINUOUS
 62
     7
100
AcDbVertex
100
AcDb2dVertex
 10
3331.306828
 20
-19804.714552
 30
0.0
  0
SEQEND
  5
600
100
AcDbEntity
  8
0
  6
CONTINUOUS
 62
     7
  0
POLYLINE
  5
601
100
AcDbEntity
  8
0
  6
CONTINUOUS
 62
     7
100
AcDb2dPolyline
 66
     1
 10
0.0
 20
0.0
 30
0.0
 70
   128
  0
VERTEX
  5
602
100
AcDbEntity
  8
0
  6
CONTINUOUS
 62
     7
100
AcDbVertex
100
AcDb2dVertex
 10
3331.306828
 20
-19804.714552
 30
0.0
  0
VERTEX
  5
603
100
AcDbEntity
  8
0
  6
CONTINUOUS
 62
     7
100
AcDbVertex
100
AcDb2dVertex
 10
3331.526405
 20
-19804.729365
 30
0.0
  0
VERTEX
  5
604
100
AcDbEntity
  8
0
  6
CONTINUOUS
 62
     7
100
AcDbVertex
100
AcDb2dVertex
 10
3331.747423
 20
-19804.744284
 30
0.0
  0
VERTEX
  5
605
100
AcDbEntity
  8
0
  6
CONTINUOUS
 62
     7
100
AcDbVertex
100
AcDb2dVertex
 10
3331.969741
 20
-19804.759276
 30
0.0
  0
VERTEX
  5
606
100
AcDbEntity
  8
0
  6
CONTINUOUS
 62
     7
100
AcDbVertex
100
AcDb2dVertex
 10
3332.1932
 20
-19804.774359
 30
0.0
  0
VERTEX
  5
607
100
AcDbEntity
  8
0
  6
CONTINUOUS
 62
     7
100
AcDbVertex
100
AcDb2dVertex
 10
3332.417646
 20
-19804.789501
 30
0.0
  0
VERTEX
  5
608
100
AcDbEntity
  8
0
  6
CONTINUOUS
 62
     7
100
AcDbVertex
100
AcDb2dVertex
 10
3332.64292
 20
-19804.804703
 30
0.0
  0
VERTEX
  5
609
100
AcDbEntity
  8
0
  6
CONTINUOUS
 62
     7
100
AcDbVertex
100
AcDb2dVertex
 10
3332.868881
 20
-19804.81995
 30
0.0
  0
VERTEX
  5
60A
100
AcDbEntity
  8
0
  6
CONTINUOUS
 62
     7
100
AcDbVertex
100
AcDb2dVertex
 10
3333.095365
 20
-19804.835241
 30
0.0
  0
SEQEND
  5
60B
100
AcDbEntity
  8
0
  6
CONTINUOUS
 62
     7
  0
POLYLINE
  5
60C
100
AcDbEntity
  8
0
  6
CONTINUOUS
 62
     7
100
AcDb2dPolyline
 66
     1
 10
0.0
 20
0.0
 30
0.0
 70
   128
  0
VERTEX
  5
60D
100
AcDbEntity
  8
0
  6
CONTINUOUS
 62
     7
100
AcDbVertex
100
AcDb2dVertex
 10
3333.095365
 20
-19804.835241
 30
0.0
  0
VERTEX
  5
60E
100
AcDbEntity
  8
0
  6
CONTINUOUS
 62
     7
100
AcDbVertex
100
AcDb2dVertex
 10
3333.106968
 20
-19805.065287
 30
0.0
  0
VERTEX
  5
60F
100
AcDbEntity
  8
0
  6
CONTINUOUS
 62
     7
100
AcDbVertex
100
AcDb2dVertex
 10
3333.118549
 20
-19805.294824
 30
0.0
  0
VERTEX
  5
610
100
AcDbEntity
  8
0
  6
CONTINUOUS
 62
     7
100
AcDbVertex
100
AcDb2dVertex
 10
3333.130099
 20
-19805.523675
 30
0.0
  0
VERTEX
  5
611
100
AcDbEntity
  8
0
  6
CONTINUOUS
 62
     7
100
AcDbVertex
100
AcDb2dVertex
 10
3333.141605
 20
-19805.75169
 30
0.0
  0
VERTEX
  5
612
100
AcDbEntity
  8
0
  6
CONTINUOUS
 62
     7
100
AcDbVertex
100
AcDb2dVertex
 10
3333.153059
 20
-19805.978703
 30
0.0
  0
VERTEX
  5
613
100
AcDbEntity
  8
0
  6
CONTINUOUS
 62
     7
100
AcDbVertex
100
AcDb2dVertex
 10
3333.164453
 20
-19806.204538
 30
0.0
  0
VERTEX
  5
614
100
AcDbEntity
  8
0
  6
CONTINUOUS
 62
     7
100
AcDbVertex
100
AcDb2dVertex
 10
3333.17578
 20
-19806.429058
 30
0.0
  0
VERTEX
  5
615
100
AcDbEntity
  8
0
  6
CONTINUOUS
 62
     7
100
AcDbVertex
100
AcDb2dVertex
 10
3333.18704
 20
-19806.652099
 30
0.0
  0
SEQEND
  5
616
100
AcDbEntity
  8
0
  6
CONTINUOUS
 62
     7
  0
POLYLINE
  5
617
100
AcDbEntity
  8
0
  6
CONTINUOUS
 62
     7
100
AcDb2dPolyline
 66
     1
 10
0.0
 20
0.0
 30
0.0
 70
   128
  0
VERTEX
  5
618
100
AcDbEntity
  8
0
  6
CONTINUOUS
 62
     7
100
AcDbVertex
100
AcDb2dVertex
 10
3333.18704
 20
-19806.652099
 30
0.0
  0
VERTEX
  5
619
100
AcDbEntity
  8
0
  6
CONTINUOUS
 62
     7
100
AcDbVertex
100
AcDb2dVertex
 10
3333.298321
 20
-19806.653772
 30
0.0
  0
VERTEX
  5
61A
100
AcDbEntity
  8
0
  6
CONTINUOUS
 62
     7
100
AcDbVertex
100
AcDb2dVertex
 10
3333.409663
 20
-19806.655444
 30
0.0
  0
VERTEX
  5
61B
100
AcDbEntity
  8
0
  6
CONTINUOUS
 62
     7
100
AcDbVertex
100
AcDb2dVertex
 10
3333.521042
 20
-19806.657117
 30
0.0
  0
VERTEX
  5
61C
100
AcDbEntity
  8
0
  6
CONTINUOUS
 62
     7
100
AcDbVertex
100
AcDb2dVertex
 10
3333.632443
 20
-19806.658789
 30
0.0
  0
VERTEX
  5
61D
100
AcDbEntity
  8
0
  6
CONTINUOUS
 62
     7
100
AcDbVertex
100
AcDb2dVertex
 10
3333.743845
 20
-19806.660462
 30
0.0
  0
VERTEX
  5
61E
100
AcDbEntity
  8
0
  6
CONTINUOUS
 62
     7
100
AcDbVertex
100
AcDb2dVertex
 10
3333.855224
 20
-19806.662135
 30
0.0
  0
VERTEX
  5
61F
100
AcDbEntity
  8
0
  6
CONTINUOUS
 62
     7
100
AcDbVertex
100
AcDb2dVertex
 10
3333.966565
 20
-19806.663807
 30
0.0
  0
VERTEX
  5
620
100
AcDbEntity
  8
0
  6
CONTINUOUS
 62
     7
100
AcDbVertex
100
AcDb2dVertex
 10
3334.077847
 20
-19806.66548
 30
0.0
  0
SEQEND
  5
621
100
AcDbEntity
  8
0
  6
CONTINUOUS
 62
     7
  0
POLYLINE
  5
622
100
AcDbEntity
  8
0
  6
CONTINUOUS
 62
     7
100
AcDb2dPolyline
 66
     1
 10
0.0
 20
0.0
 30
0.0
 70
   128
  0
VERTEX
  5
623
100
AcDbEntity
  8
0
  6
CONTINUOUS
 62
     7
100
AcDbVertex
100
AcDb2dVertex
 10
3334.077847
 20
-19806.66548
 30
0.0
  0
VERTEX
  5
624
100
AcDbEntity
  8
0
  6
CONTINUOUS
 62
     7
100
AcDbVertex
100
AcDb2dVertex
 10
3334.09579
 20
-19806.442871
 30
0.0
  0
VERTEX
  5
625
100
AcDbEntity
  8
0
  6
CONTINUOUS
 62
     7
100
AcDbVertex
100
AcDb2dVertex
 10
3334.113859
 20
-19806.218799
 30
0.0
  0
VERTEX
  5
626
100
AcDbEntity
  8
0
  6
CONTINUOUS
 62
     7
100
AcDbVertex
100
AcDb2dVertex
 10
3334.132032
 20
-19805.993398
 30
0.0
  0
VERTEX
  5
627
100
AcDbEntity
  8
0
  6
CONTINUOUS
 62
     7
100
AcDbVertex
100
AcDb2dVertex
 10
3334.150296
 20
-19805.766832
 30
0.0
  0
VERTEX
  5
628
100
AcDbEntity
  8
0
  6
CONTINUOUS
 62
     7
100
AcDbVertex
100
AcDb2dVertex
 10
3334.168641
 20
-19805.53928
 30
0.0
  0
VERTEX
  5
629
100
AcDbEntity
  8
0
  6
CONTINUOUS
 62
     7
100
AcDbVertex
100
AcDb2dVertex
 10
3334.187061
 20
-19805.310878
 30
0.0
  0
VERTEX
  5
62A
100
AcDbEntity
  8
0
  6
CONTINUOUS
 62
     7
100
AcDbVertex
100
AcDb2dVertex
 10
3334.205526
 20
-19805.081788
 30
0.0
  0
VERTEX
  5
62B
100
AcDbEntity
  8
0
  6
CONTINUOUS
 62
     7
100
AcDbVertex
100
AcDb2dVertex
 10
3334.224036
 20
-19804.852191
 30
0.0
  0
SEQEND
  5
62C
100
AcDbEntity
  8
0
  6
CONTINUOUS
 62
     7
  0
POLYLINE
  5
62D
100
AcDbEntity
  8
0
  6
CONTINUOUS
 62
     7
100
AcDb2dPolyline
 66
     1
 10
0.0
 20
0.0
 30
0.0
 70
   128
  0
VERTEX
  5
62E
100
AcDbEntity
  8
0
  6
CONTINUOUS
 62
     7
100
AcDbVertex
100
AcDb2dVertex
 10
3336.015388
 20
-19804.78526
 30
0.0
  0
VERTEX
  5
62F
100
AcDbEntity
  8
0
  6
CONTINUOUS
 62
     7
100
AcDbVertex
100
AcDb2dVertex
 10
3335.795467
 20
-19804.793473
 30
0.0
  0
VERTEX
  5
630
100
AcDbEntity
  8
0
  6
CONTINUOUS
 62
     7
100
AcDbVertex
100
AcDb2dVertex
 10
3335.574098
 20
-19804.801746
 30
0.0
  0
VERTEX
  5
631
100
AcDbEntity
  8
0
  6
CONTINUOUS
 62
     7
100
AcDbVertex
100
AcDb2dVertex
 10
3335.351437
 20
-19804.810064
 30
0.0
  0
VERTEX
  5
632
100
AcDbEntity
  8
0
  6
CONTINUOUS
 62
     7
100
AcDbVertex
100
AcDb2dVertex
 10
3335.127626
 20
-19804.818427
 30
0.0
  0
VERTEX
  5
633
100
AcDbEntity
  8
0
  6
CONTINUOUS
 62
     7
100
AcDbVertex
100
AcDb2dVertex
 10
3334.902822
 20
-19804.826834
 30
0.0
  0
VERTEX
  5
634
100
AcDbEntity
  8
0
  6
CONTINUOUS
 62
     7
100
AcDbVertex
100
AcDb2dVertex
 10
3334.67719
 20
-19804.835256
 30
0.0
  0
VERTEX
  5
635
100
AcDbEntity
  8
0
  6
CONTINUOUS
 62
     7
100
AcDbVertex
100
AcDb2dVertex
 10
3334.450878
 20
-19804.843709
 30
0.0
  0
VERTEX
  5
636
100
AcDbEntity
  8
0
  6
CONTINUOUS
 62
     7
100
AcDbVertex
100
AcDb2dVertex
 10
3334.224036
 20
-19804.852191
 30
0.0
  0
SEQEND
  5
637
100
AcDbEntity
  8
0
  6
CONTINUOUS
 62
     7
  0
POLYLINE
  5
638
100
AcDbEntity
  8
0
  6
CONTINUOUS
 62
     7
100
AcDb2dPolyline
 66
     1
 10
0.0
 20
0.0
 30
0.0
 70
   128
  0
VERTEX
  5
639
100
AcDbEntity
  8
0
  6
CONTINUOUS
 62
     7
100
AcDbVertex
100
AcDb2dVertex
 10
3336.028768
 20
-19803.894452
 30
0.0
  0
VERTEX
  5
63A
100
AcDbEntity
  8
0
  6
CONTINUOUS
 62
     7
100
AcDbVertex
100
AcDb2dVertex
 10
3336.027095
 20
-19804.005734
 30
0.0
  0
VERTEX
  5
63B
100
AcDbEntity
  8
0
  6
CONTINUOUS
 62
     7
100
AcDbVertex
100
AcDb2dVertex
 10
3336.025423
 20
-19804.117076
 30
0.0
  0
VERTEX
  5
63C
100
AcDbEntity
  8
0
  6
CONTINUOUS
 62
     7
100
AcDbVertex
100
AcDb2dVertex
 10
3336.02375
 20
-19804.228462
 30
0.0
  0
VERTEX
  5
63D
100
AcDbEntity
  8
0
  6
CONTINUOUS
 62
     7
100
AcDbVertex
100
AcDb2dVertex
 10
3336.022078
 20
-19804.339864
 30
0.0
  0
VERTEX
  5
63E
100
AcDbEntity
  8
0
  6
CONTINUOUS
 62
     7
100
AcDbVertex
100
AcDb2dVertex
 10
3336.020405
 20
-19804.451265
 30
0.0
  0
VERTEX
  5
63F
100
AcDbEntity
  8
0
  6
CONTINUOUS
 62
     7
100
AcDbVertex
100
AcDb2dVertex
 10
3336.018733
 20
-19804.562637
 30
0.0
  0
VERTEX
  5
640
100
AcDbEntity
  8
0
  6
CONTINUOUS
 62
     7
100
AcDbVertex
100
AcDb2dVertex
 10
3336.01706
 20
-19804.673978
 30
0.0
  0
VERTEX
  5
641
100
AcDbEntity
  8
0
  6
CONTINUOUS
 62
     7
100
AcDbVertex
100
AcDb2dVertex
 10
3336.015388
 20
-19804.78526
 30
0.0
  0
SEQEND
  5
642
100
AcDbEntity
  8
0
  6
CONTINUOUS
 62
     7
  0
POLYLINE
  5
643
100
AcDbEntity
  8
0
  6
CONTINUOUS
 62
     7
100
AcDb2dPolyline
 66
     1
 10
0.0
 20
0.0
 30
0.0
 70
   128
  0
VERTEX
  5
644
100
AcDbEntity
  8
0
  6
CONTINUOUS
 62
     7
100
AcDbVertex
100
AcDb2dVertex
 10
3333.257748
 20
-19801.943539
 30
0.0
  0
VERTEX
  5
645
100
AcDbEntity
  8
0
  6
CONTINUOUS
 62
     7
100
AcDbVertex
100
AcDb2dVertex
 10
3333.36903
 20
-19801.945212
 30
0.0
  0
VERTEX
  5
646
100
AcDbEntity
  8
0
  6
CONTINUOUS
 62
     7
100
AcDbVertex
100
AcDb2dVertex
 10
3333.480372
 20
-19801.946884
 30
0.0
  0
VERTEX
  5
647
100
AcDbEntity
  8
0
  6
CONTINUOUS
 62
     7
100
AcDbVertex
100
AcDb2dVertex
 10
3333.591751
 20
-19801.948557
 30
0.0
  0
VERTEX
  5
648
100
AcDbEntity
  8
0
  6
CONTINUOUS
 62
     7
100
AcDbVertex
100
AcDb2dVertex
 10
3333.703152
 20
-19801.950229
 30
0.0
  0
VERTEX
  5
649
100
AcDbEntity
  8
0
  6
CONTINUOUS
 62
     7
100
AcDbVertex
100
AcDb2dVertex
 10
3333.814553
 20
-19801.951902
 30
0.0
  0
VERTEX
  5
64A
100
AcDbEntity
  8
0
  6
CONTINUOUS
 62
     7
100
AcDbVertex
100
AcDb2dVertex
 10
3333.925932
 20
-19801.953575
 30
0.0
  0
VERTEX
  5
64B
100
AcDbEntity
  8
0
  6
CONTINUOUS
 62
     7
100
AcDbVertex
100
AcDb2dVertex
 10
3334.037274
 20
-19801.955247
 30
0.0
  0
VERTEX
  5
64C
100
AcDbEntity
  8
0
  6
CONTINUOUS
 62
     7
100
AcDbVertex
100
AcDb2dVertex
 10
3334.148556
 20
-19801.95692
 30
0.0
  0
SEQEND
  5
64D
100
AcDbEntity
  8
0
  6
CONTINUOUS
 62
     7
  0
POLYLINE
  5
64E
100
AcDbEntity
  8
0
  6
CONTINUOUS
 62
     7
100
AcDb2dPolyline
 66
     1
 10
0.0
 20
0.0
 30
0.0
 70
   128
  0
VERTEX
  5
64F
100
AcDbEntity
  8
0
  6
CONTINUOUS
 62
     7
100
AcDbVertex
100
AcDb2dVertex
 10
3334.216375
 20
-19803.772165
 30
0.0
  0
VERTEX
  5
650
100
AcDbEntity
  8
0
  6
CONTINUOUS
 62
     7
100
AcDbVertex
100
AcDb2dVertex
 10
3334.445883
 20
-19803.78765
 30
0.0
  0
VERTEX
  5
651
100
AcDbEntity
  8
0
  6
CONTINUOUS
 62
     7
100
AcDbVertex
100
AcDb2dVertex
 10
3334.67486
 20
-19803.803091
 30
0.0
  0
VERTEX
  5
652
100
AcDbEntity
  8
0
  6
CONTINUOUS
 62
     7
100
AcDbVertex
100
AcDb2dVertex
 10
3334.903158
 20
-19803.818502
 30
0.0
  0
VERTEX
  5
653
100
AcDbEntity
  8
0
  6
CONTINUOUS
 62
     7
100
AcDbVertex
100
AcDb2dVertex
 10
3335.130613
 20
-19803.833854
 30
0.0
  0
VERTEX
  5
654
100
AcDbEntity
  8
0
  6
CONTINUOUS
 62
     7
100
AcDbVertex
100
AcDb2dVertex
 10
3335.357059
 20
-19803.84913
 30
0.0
  0
VERTEX
  5
655
100
AcDbEntity
  8
0
  6
CONTINUOUS
 62
     7
100
AcDbVertex
100
AcDb2dVertex
 10
3335.582341
 20
-19803.864332
 30
0.0
  0
VERTEX
  5
656
100
AcDbEntity
  8
0
  6
CONTINUOUS
 62
     7
100
AcDbVertex
100
AcDb2dVertex
 10
3335.806294
 20
-19803.879445
 30
0.0
  0
VERTEX
  5
657
100
AcDbEntity
  8
0
  6
CONTINUOUS
 62
     7
100
AcDbVertex
100
AcDb2dVertex
 10
3336.028768
 20
-19803.894452
 30
0.0
  0
SEQEND
  5
658
100
AcDbEntity
  8
0
  6
CONTINUOUS
 62
     7
  0
POLYLINE
  5
659
100
AcDbEntity
  8
0
  6
CONTINUOUS
 62
     7
100
AcDb2dPolyline
 66
     1
 10
0.0
 20
0.0
 30
0.0
 70
   128
  0
VERTEX
  5
65A
100
AcDbEntity
  8
0
  6
CONTINUOUS
 62
     7
100
AcDbVertex
100
AcDb2dVertex
 10
3334.148556
 20
-19801.95692
 30
0.0
  0
VERTEX
  5
65B
100
AcDbEntity
  8
0
  6
CONTINUOUS
 62
     7
100
AcDbVertex
100
AcDb2dVertex
 10
3334.156881
 20
-19802.179737
 30
0.0
  0
VERTEX
  5
65C
100
AcDbEntity
  8
0
  6
CONTINUOUS
 62
     7
100
AcDbVertex
100
AcDb2dVertex
 10
3334.165266
 20
-19802.404048
 30
0.0
  0
VERTEX
  5
65D
100
AcDbEntity
  8
0
  6
CONTINUOUS
 62
     7
100
AcDbVertex
100
AcDb2dVertex
 10
3334.173696
 20
-19802.629673
 30
0.0
  0
VERTEX
  5
65E
100
AcDbEntity
  8
0
  6
CONTINUOUS
 62
     7
100
AcDbVertex
100
AcDb2dVertex
 10
3334.18217
 20
-19802.856478
 30
0.0
  0
VERTEX
  5
65F
100
AcDbEntity
  8
0
  6
CONTINUOUS
 62
     7
100
AcDbVertex
100
AcDb2dVertex
 10
3334.190675
 20
-19803.084299
 30
0.0
  0
VERTEX
  5
660
100
AcDbEntity
  8
0
  6
CONTINUOUS
 62
     7
100
AcDbVertex
100
AcDb2dVertex
 10
3334.199224
 20
-19803.312955
 30
0.0
  0
VERTEX
  5
661
100
AcDbEntity
  8
0
  6
CONTINUOUS
 62
     7
100
AcDbVertex
100
AcDb2dVertex
 10
3334.207788
 20
-19803.542299
 30
0.0
  0
VERTEX
  5
662
100
AcDbEntity
  8
0
  6
CONTINUOUS
 62
     7
100
AcDbVertex
100
AcDb2dVertex
 10
3334.216375
 20
-19803.772165
 30
0.0
  0
SEQEND
  5
663
100
AcDbEntity
  8
0
  6
CONTINUOUS
 62
     7
  0
LINE
  5
664
100
AcDbEntity
  8
0
  6
CONTINUOUS
 62
     7
100
AcDbLine
 10
3335.829231
 20
-19804.07819
 30
0.0
 11
3336.028768
 21
-19803.894452
 31
0.0
  0
LINE
  5
665
100
AcDbEntity
  8
0
  6
CONTINUOUS
 62
     7
100
AcDbLine
 10
3335.17088
 20
-19804.033764
 30
0.0
 11
3335.829231
 21
-19804.07819
 31
0.0
  0
LINE
  5
666
100
AcDbEntity
  8
0
  6
CONTINUOUS
 62
     7
100
AcDbLine
 10
3334.366042
 20
-19803.979467
 30
0.0
 11
3335.17088
 21
-19804.033764
 31
0.0
  0
LINE
  5
667
100
AcDbEntity
  8
0
  6
CONTINUOUS
 62
     7
100
AcDbLine
 10
3334.556052
 20
-19803.795072
 30
0.0
 11
3334.366042
 21
-19803.979467
 31
0.0
  0
LINE
  5
668
100
AcDbEntity
  8
0
  6
CONTINUOUS
 62
     7
100
AcDbLine
 10
3335.821458
 20
-19804.595609
 30
0.0
 11
3335.162077
 21
-19804.620249
 31
0.0
  0
LINE
  5
669
100
AcDbEntity
  8
0
  6
CONTINUOUS
 62
     7
100
AcDbLine
 10
3335.821458
 20
-19804.595609
 30
0.0
 11
3336.015388
 21
-19804.78526
 31
0.0
  0
LINE
  5
66A
100
AcDbEntity
  8
0
  6
CONTINUOUS
 62
     7
100
AcDbLine
 10
3334.377728
 20
-19804.649548
 30
0.0
 11
3334.5598
 21
-19804.839647
 31
0.0
  0
LINE
  5
66B
100
AcDbEntity
  8
0
  6
CONTINUOUS
 62
     7
100
AcDbLine
 10
3335.162077
 20
-19804.620249
 30
0.0
 11
3334.377728
 21
-19804.649548
 31
0.0
  0
LINE
  5
66C
100
AcDbEntity
  8
0
  6
CONTINUOUS
 62
     7
100
AcDbLine
 10
3335.829231
 20
-19804.07819
 30
0.0
 11
3335.821458
 21
-19804.595609
 31
0.0
  0
CIRCLE
  5
66D
100
AcDbEntity
  8
0
  6
CONTINUOUS
 62
     7
100
AcDbCircle
 10
3333.667798
 20
-19804.304502
 30
0.0
 40
5.40909
  0
LINE
  5
66E
100
AcDbEntity
  8
0
  6
CONTINUOUS
 62
     7
100
AcDbLine
 10
3333.299994
 20
-19804.986275
 30
0.0
 11
3333.112292
 21
-19805.170805
 31
0.0
  0
LINE
  5
66F
100
AcDbEntity
  8
0
  6
CONTINUOUS
 62
     7
100
AcDbLine
 10
3332.76013
 20
-19804.812618
 30
0.0
 11
3332.947825
 21
-19804.628074
 31
0.0
  0
ARC
  5
670
100
AcDbEntity
  8
0
  6
CONTINUOUS
 62
     7
100
AcDbCircle
 10
3332.923307
 20
-19805.004399
 30
0.0
 40
0.377123
100
AcDbArc
 50
2.754546
 51
86.27228
  0
LINE
  5
671
100
AcDbEntity
  8
0
  6
CONTINUOUS
 62
     7
100
AcDbLine
 10
3332.979625
 20
-19803.958635
 30
0.0
 11
3332.795246
 21
-19803.76864
 31
0.0
  0
LINE
  5
672
100
AcDbEntity
  8
0
  6
CONTINUOUS
 62
     7
100
AcDbLine
 10
3333.158375
 20
-19803.416248
 30
0.0
 11
3333.342755
 21
-19803.606257
 31
0.0
  0
ARC
  5
673
100
AcDbEntity
  8
0
  6
CONTINUOUS
 62
     7
100
AcDbCircle
 10
3332.9665
 20
-19803.581816
 30
0.0
 40
0.377048
100
AcDbArc
 50
271.994897
 51
356.283274
  0
LINE
  5
674
100
AcDbEntity
  8
0
  6
CONTINUOUS
 62
     7
100
AcDbLine
 10
3334.197036
 20
-19805.187097
 30
0.0
 11
3334.014964
 21
-19804.997012
 31
0.0
  0
ARC
  5
675
100
AcDbEntity
  8
0
  6
CONTINUOUS
 62
     7
100
AcDbCircle
 10
3334.390932
 20
-19805.026434
 30
0.0
 40
0.377118
100
AcDbArc
 50
92.006597
 51
175.525369
  0
LINE
  5
676
100
AcDbEntity
  8
0
  6
CONTINUOUS
 62
     7
100
AcDbLine
 10
3332.173518
 20
-19803.988755
 30
0.0
 11
3331.514137
 21
-19804.013395
 31
0.0
  0
LINE
  5
677
100
AcDbEntity
  8
0
  6
CONTINUOUS
 62
     7
100
AcDbLine
 10
3331.514137
 20
-19804.013395
 30
0.0
 11
3331.320208
 21
-19803.823744
 31
0.0
  0
LINE
  5
678
100
AcDbEntity
  8
0
  6
CONTINUOUS
 62
     7
100
AcDbLine
 10
3332.979625
 20
-19803.958635
 30
0.0
 11
3332.173518
 21
-19803.988755
 31
0.0
  0
LINE
  5
679
100
AcDbEntity
  8
0
  6
CONTINUOUS
 62
     7
100
AcDbLine
 10
3333.441493
 20
-19802.143076
 30
0.0
 11
3333.257748
 21
-19801.943539
 31
0.0
  0
LINE
  5
67A
100
AcDbEntity
  8
0
  6
CONTINUOUS
 62
     7
100
AcDbLine
 10
3333.397067
 20
-19802.80142
 30
0.0
 11
3333.441493
 21
-19802.143076
 31
0.0
  0
LINE
  5
67B
100
AcDbEntity
  8
0
  6
CONTINUOUS
 62
     7
100
AcDbLine
 10
3333.342755
 20
-19803.606257
 30
0.0
 11
3333.397067
 21
-19802.80142
 31
0.0
  0
LINE
  5
67C
100
AcDbEntity
  8
0
  6
CONTINUOUS
 62
     7
100
AcDbLine
 10
3334.013665
 20
-19803.616337
 30
0.0
 11
3334.203667
 21
-19803.431942
 31
0.0
  0
ARC
  5
67D
100
AcDbEntity
  8
0
  6
CONTINUOUS
 62
     7
100
AcDbCircle
 10
3334.390501
 20
-19803.603195
 30
0.0
 40
0.377066
100
AcDbArc
 50
181.997321
 51
266.28085
  0
LINE
  5
67E
100
AcDbEntity
  8
0
  6
CONTINUOUS
 62
     7
100
AcDbLine
 10
3331.506365
 20
-19804.530814
 30
0.0
 11
3331.306828
 21
-19804.714552
 31
0.0
  0
LINE
  5
67F
100
AcDbEntity
  8
0
  6
CONTINUOUS
 62
     7
100
AcDbLine
 10
3331.506365
 20
-19804.530814
 30
0.0
 11
3332.164715
 21
-19804.57524
 31
0.0
  0
LINE
  5
680
100
AcDbEntity
  8
0
  6
CONTINUOUS
 62
     7
100
AcDbLine
 10
3332.164715
 20
-19804.57524
 30
0.0
 11
3332.947825
 21
-19804.628074
 31
0.0
  0
LINE
  5
681
100
AcDbEntity
  8
0
  6
CONTINUOUS
 62
     7
100
AcDbLine
 10
3333.896536
 20
-19806.465973
 30
0.0
 11
3334.077847
 21
-19806.66548
 31
0.0
  0
LINE
  5
682
100
AcDbEntity
  8
0
  6
CONTINUOUS
 62
     7
100
AcDbLine
 10
3333.896536
 20
-19806.465973
 30
0.0
 11
3333.949781
 21
-19805.805524
 31
0.0
  0
LINE
  5
683
100
AcDbEntity
  8
0
  6
CONTINUOUS
 62
     7
100
AcDbLine
 10
3333.949781
 20
-19805.805524
 30
0.0
 11
3334.014964
 21
-19804.997012
 31
0.0
  0
LINE
  5
684
100
AcDbEntity
  8
0
  6
CONTINUOUS
 62
     7
100
AcDbLine
 10
3333.374257
 20
-19806.458133
 30
0.0
 11
3333.18704
 21
-19806.652099
 31
0.0
  0
LINE
  5
685
100
AcDbEntity
  8
0
  6
CONTINUOUS
 62
     7
100
AcDbLine
 10
3333.374257
 20
-19806.458133
 30
0.0
 11
3333.896536
 21
-19806.465973
 31
0.0
  0
LINE
  5
686
100
AcDbEntity
  8
0
  6
CONTINUOUS
 62
     7
100
AcDbLine
 10
3331.514137
 20
-19804.013395
 30
0.0
 11
3331.506365
 21
-19804.530814
 31
0.0
  0
LINE
  5
687
100
AcDbEntity
  8
0
  6
CONTINUOUS
 62
     7
100
AcDbLine
 10
3333.340866
 20
-19805.79637
 30
0.0
 11
3333.374257
 21
-19806.458133
 31
0.0
  0
LINE
  5
688
100
AcDbEntity
  8
0
  6
CONTINUOUS
 62
     7
100
AcDbLine
 10
3333.299994
 20
-19804.986275
 30
0.0
 11
3333.340866
 21
-19805.79637
 31
0.0
  0
LINE
  5
689
100
AcDbEntity
  8
0
  6
CONTINUOUS
 62
     7
100
AcDbLine
 10
3333.958912
 20
-19802.150842
 30
0.0
 11
3333.983544
 21
-19802.81023
 31
0.0
  0
LINE
  5
68A
100
AcDbEntity
  8
0
  6
CONTINUOUS
 62
     7
100
AcDbLine
 10
3333.958912
 20
-19802.150842
 30
0.0
 11
3334.148556
 21
-19801.95692
 31
0.0
  0
LINE
  5
68B
100
AcDbEntity
  8
0
  6
CONTINUOUS
 62
     7
100
AcDbLine
 10
3333.983544
 20
-19802.81023
 30
0.0
 11
3334.013665
 21
-19803.616337
 31
0.0
  0
LINE
  5
68C
100
AcDbEntity
  8
0
  6
CONTINUOUS
 62
     7
100
AcDbLine
 10
3333.441493
 20
-19802.143076
 30
0.0
 11
3333.958912
 21
-19802.150842
 31
0.0
  0
ARC
  5
68D
100
AcDbEntity
  8
0
  6
CONTINUOUS
 62
     7
100
AcDbCircle
 10
3333.66779
 20
-19804.304556
 30
0.0
 40
1.527321
100
AcDbArc
 50
78.068792
 51
100.209845
  0
ARC
  5
68E
100
AcDbEntity
  8
0
  6
CONTINUOUS
 62
     7
100
AcDbCircle
 10
3333.667682
 20
-19804.304491
 30
0.0
 40
1.527159
100
AcDbArc
 50
168.068203
 51
190.211914
  0
ARC
  5
68F
100
AcDbEntity
  8
0
  6
CONTINUOUS
 62
     7
100
AcDbCircle
 10
3333.667825
 20
-19804.304142
 30
0.0
 40
1.527627
100
AcDbArc
 50
257.641327
 51
280.636108
  0
ARC
  5
690
100
AcDbEntity
  8
0
  6
CONTINUOUS
 62
     7
100
AcDbCircle
 10
3333.667913
 20
-19804.304513
 30
0.0
 40
1.527159
100
AcDbArc
 50
348.068203
 51
10.211914
  0
CIRCLE
  5
691
100
AcDbEntity
  8
0
  6
CONTINUOUS
 62
     7
100
AcDbCircle
 10
3511.778742
 20
-19295.178994
 30
0.0
 40
3.563639
  0
POLYLINE
  5
692
100
AcDbEntity
  8
0
  6
CONTINUOUS
 62
     7
100
AcDb2dPolyline
 66
     1
 10
0.0
 20
0.0
 30
0.0
 70
   128
  0
VERTEX
  5
693
100
AcDbEntity
  8
0
  6
CONTINUOUS
 62
     7
100
AcDbVertex
100
AcDb2dVertex
 10
3512.311088
 20
-19295.727576
 30
0.0
  0
VERTEX
  5
694
100
AcDbEntity
  8
0
  6
CONTINUOUS
 62
     7
100
AcDbVertex
100
AcDb2dVertex
 10
3512.295602
 20
-19295.957069
 30
0.0
  0
VERTEX
  5
695
100
AcDbEntity
  8
0
  6
CONTINUOUS
 62
     7
100
AcDbVertex
100
AcDb2dVertex
 10
3512.280154
 20
-19296.186054
 30
0.0
  0
VERTEX
  5
696
100
AcDbEntity
  8
0
  6
CONTINUOUS
 62
     7
100
AcDbVertex
100
AcDb2dVertex
 10
3512.264742
 20
-19296.414352
 30
0.0
  0
VERTEX
  5
697
100
AcDbEntity
  8
0
  6
CONTINUOUS
 62
     7
100
AcDbVertex
100
AcDb2dVertex
 10
3512.249399
 20
-19296.641814
 30
0.0
  0
VERTEX
  5
698
100
AcDbEntity
  8
0
  6
CONTINUOUS
 62
     7
100
AcDbVertex
100
AcDb2dVertex
 10
3512.234115
 20
-19296.868261
 30
0.0
  0
VERTEX
  5
699
100
AcDbEntity
  8
0
  6
CONTINUOUS
 62
     7
100
AcDbVertex
100
AcDb2dVertex
 10
3512.218913
 20
-19297.093542
 30
0.0
  0
VERTEX
  5
69A
100
AcDbEntity
  8
0
  6
CONTINUOUS
 62
     7
100
AcDbVertex
100
AcDb2dVertex
 10
3512.2038
 20
-19297.31748
 30
0.0
  0
VERTEX
  5
69B
100
AcDbEntity
  8
0
  6
CONTINUOUS
 62
     7
100
AcDbVertex
100
AcDb2dVertex
 10
3512.188792
 20
-19297.539954
 30
0.0
  0
SEQEND
  5
69C
100
AcDbEntity
  8
0
  6
CONTINUOUS
 62
     7
  0
POLYLINE
  5
69D
100
AcDbEntity
  8
0
  6
CONTINUOUS
 62
     7
100
AcDb2dPolyline
 66
     1
 10
0.0
 20
0.0
 30
0.0
 70
   128
  0
VERTEX
  5
69E
100
AcDbEntity
  8
0
  6
CONTINUOUS
 62
     7
100
AcDbVertex
100
AcDb2dVertex
 10
3512.311088
 20
-19295.727576
 30
0.0
  0
VERTEX
  5
69F
100
AcDbEntity
  8
0
  6
CONTINUOUS
 62
     7
100
AcDbVertex
100
AcDb2dVertex
 10
3512.540954
 20
-19295.718975
 30
0.0
  0
VERTEX
  5
6A0
100
AcDbEntity
  8
0
  6
CONTINUOUS
 62
     7
100
AcDbVertex
100
AcDb2dVertex
 10
3512.770297
 20
-19295.710433
 30
0.0
  0
VERTEX
  5
6A1
100
AcDbEntity
  8
0
  6
CONTINUOUS
 62
     7
100
AcDbVertex
100
AcDb2dVertex
 10
3512.998954
 20
-19295.701861
 30
0.0
  0
VERTEX
  5
6A2
100
AcDbEntity
  8
0
  6
CONTINUOUS
 62
     7
100
AcDbVertex
100
AcDb2dVertex
 10
3513.226767
 20
-19295.693379
 30
0.0
  0
VERTEX
  5
6A3
100
AcDbEntity
  8
0
  6
CONTINUOUS
 62
     7
100
AcDbVertex
100
AcDb2dVertex
 10
3513.453571
 20
-19295.684897
 30
0.0
  0
VERTEX
  5
6A4
100
AcDbEntity
  8
0
  6
CONTINUOUS
 62
     7
100
AcDbVertex
100
AcDb2dVertex
 10
3513.679204
 20
-19295.676475
 30
0.0
  0
VERTEX
  5
6A5
100
AcDbEntity
  8
0
  6
CONTINUOUS
 62
     7
100
AcDbVertex
100
AcDb2dVertex
 10
3513.903508
 20
-19295.668082
 30
0.0
  0
VERTEX
  5
6A6
100
AcDbEntity
  8
0
  6
CONTINUOUS
 62
     7
100
AcDbVertex
100
AcDb2dVertex
 10
3514.126333
 20
-19295.65975
 30
0.0
  0
SEQEND
  5
6A7
100
AcDbEntity
  8
0
  6
CONTINUOUS
 62
     7
  0
POLYLINE
  5
6A8
100
AcDbEntity
  8
0
  6
CONTINUOUS
 62
     7
100
AcDb2dPolyline
 66
     1
 10
0.0
 20
0.0
 30
0.0
 70
   128
  0
VERTEX
  5
6A9
100
AcDbEntity
  8
0
  6
CONTINUOUS
 62
     7
100
AcDbVertex
100
AcDb2dVertex
 10
3514.126333
 20
-19295.65975
 30
0.0
  0
VERTEX
  5
6AA
100
AcDbEntity
  8
0
  6
CONTINUOUS
 62
     7
100
AcDbVertex
100
AcDb2dVertex
 10
3514.128005
 20
-19295.548468
 30
0.0
  0
VERTEX
  5
6AB
100
AcDbEntity
  8
0
  6
CONTINUOUS
 62
     7
100
AcDbVertex
100
AcDb2dVertex
 10
3514.129678
 20
-19295.437126
 30
0.0
  0
VERTEX
  5
6AC
100
AcDbEntity
  8
0
  6
CONTINUOUS
 62
     7
100
AcDbVertex
100
AcDb2dVertex
 10
3514.13135
 20
-19295.325755
 30
0.0
  0
VERTEX
  5
6AD
100
AcDbEntity
  8
0
  6
CONTINUOUS
 62
     7
100
AcDbVertex
100
AcDb2dVertex
 10
3514.133023
 20
-19295.214353
 30
0.0
  0
VERTEX
  5
6AE
100
AcDbEntity
  8
0
  6
CONTINUOUS
 62
     7
100
AcDbVertex
100
AcDb2dVertex
 10
3514.134695
 20
-19295.102952
 30
0.0
  0
VERTEX
  5
6AF
100
AcDbEntity
  8
0
  6
CONTINUOUS
 62
     7
100
AcDbVertex
100
AcDb2dVertex
 10
3514.136368
 20
-19294.99158
 30
0.0
  0
VERTEX
  5
6B0
100
AcDbEntity
  8
0
  6
CONTINUOUS
 62
     7
100
AcDbVertex
100
AcDb2dVertex
 10
3514.13804
 20
-19294.880239
 30
0.0
  0
VERTEX
  5
6B1
100
AcDbEntity
  8
0
  6
CONTINUOUS
 62
     7
100
AcDbVertex
100
AcDb2dVertex
 10
3514.139713
 20
-19294.768957
 30
0.0
  0
SEQEND
  5
6B2
100
AcDbEntity
  8
0
  6
CONTINUOUS
 62
     7
  0
POLYLINE
  5
6B3
100
AcDbEntity
  8
0
  6
CONTINUOUS
 62
     7
100
AcDb2dPolyline
 66
     1
 10
0.0
 20
0.0
 30
0.0
 70
   128
  0
VERTEX
  5
6B4
100
AcDbEntity
  8
0
  6
CONTINUOUS
 62
     7
100
AcDbVertex
100
AcDb2dVertex
 10
3514.139713
 20
-19294.768957
 30
0.0
  0
VERTEX
  5
6B5
100
AcDbEntity
  8
0
  6
CONTINUOUS
 62
     7
100
AcDbVertex
100
AcDb2dVertex
 10
3513.920136
 20
-19294.754143
 30
0.0
  0
VERTEX
  5
6B6
100
AcDbEntity
  8
0
  6
CONTINUOUS
 62
     7
100
AcDbVertex
100
AcDb2dVertex
 10
3513.699117
 20
-19294.73921
 30
0.0
  0
VERTEX
  5
6B7
100
AcDbEntity
  8
0
  6
CONTINUOUS
 62
     7
100
AcDbVertex
100
AcDb2dVertex
 10
3513.4768
 20
-19294.724217
 30
0.0
  0
VERTEX
  5
6B8
100
AcDbEntity
  8
0
  6
CONTINUOUS
 62
     7
100
AcDbVertex
100
AcDb2dVertex
 10
3513.25334
 20
-19294.709135
 30
0.0
  0
VERTEX
  5
6B9
100
AcDbEntity
  8
0
  6
CONTINUOUS
 62
     7
100
AcDbVertex
100
AcDb2dVertex
 10
3513.028895
 20
-19294.693992
 30
0.0
  0
VERTEX
  5
6BA
100
AcDbEntity
  8
0
  6
CONTINUOUS
 62
     7
100
AcDbVertex
100
AcDb2dVertex
 10
3512.803621
 20
-19294.67879
 30
0.0
  0
VERTEX
  5
6BB
100
AcDbEntity
  8
0
  6
CONTINUOUS
 62
     7
100
AcDbVertex
100
AcDb2dVertex
 10
3512.577659
 20
-19294.663529
 30
0.0
  0
VERTEX
  5
6BC
100
AcDbEntity
  8
0
  6
CONTINUOUS
 62
     7
100
AcDbVertex
100
AcDb2dVertex
 10
3512.351176
 20
-19294.648267
 30
0.0
  0
SEQEND
  5
6BD
100
AcDbEntity
  8
0
  6
CONTINUOUS
 62
     7
  0
POLYLINE
  5
6BE
100
AcDbEntity
  8
0
  6
CONTINUOUS
 62
     7
100
AcDb2dPolyline
 66
     1
 10
0.0
 20
0.0
 30
0.0
 70
   128
  0
VERTEX
  5
6BF
100
AcDbEntity
  8
0
  6
CONTINUOUS
 62
     7
100
AcDbVertex
100
AcDb2dVertex
 10
3512.351176
 20
-19294.648267
 30
0.0
  0
VERTEX
  5
6C0
100
AcDbEntity
  8
0
  6
CONTINUOUS
 62
     7
100
AcDbVertex
100
AcDb2dVertex
 10
3512.339573
 20
-19294.418207
 30
0.0
  0
VERTEX
  5
6C1
100
AcDbEntity
  8
0
  6
CONTINUOUS
 62
     7
100
AcDbVertex
100
AcDb2dVertex
 10
3512.327984
 20
-19294.188684
 30
0.0
  0
VERTEX
  5
6C2
100
AcDbEntity
  8
0
  6
CONTINUOUS
 62
     7
100
AcDbVertex
100
AcDb2dVertex
 10
3512.316441
 20
-19293.959818
 30
0.0
  0
VERTEX
  5
6C3
100
AcDbEntity
  8
0
  6
CONTINUOUS
 62
     7
100
AcDbVertex
100
AcDb2dVertex
 10
3512.304935
 20
-19293.731819
 30
0.0
  0
VERTEX
  5
6C4
100
AcDbEntity
  8
0
  6
CONTINUOUS
 62
     7
100
AcDbVertex
100
AcDb2dVertex
 10
3512.293481
 20
-19293.504805
 30
0.0
  0
VERTEX
  5
6C5
100
AcDbEntity
  8
0
  6
CONTINUOUS
 62
     7
100
AcDbVertex
100
AcDb2dVertex
 10
3512.282087
 20
-19293.278956
 30
0.0
  0
VERTEX
  5
6C6
100
AcDbEntity
  8
0
  6
CONTINUOUS
 62
     7
100
AcDbVertex
100
AcDb2dVertex
 10
3512.270761
 20
-19293.054451
 30
0.0
  0
VERTEX
  5
6C7
100
AcDbEntity
  8
0
  6
CONTINUOUS
 62
     7
100
AcDbVertex
100
AcDb2dVertex
 10
3512.259501
 20
-19292.831409
 30
0.0
  0
SEQEND
  5
6C8
100
AcDbEntity
  8
0
  6
CONTINUOUS
 62
     7
  0
POLYLINE
  5
6C9
100
AcDbEntity
  8
0
  6
CONTINUOUS
 62
     7
100
AcDb2dPolyline
 66
     1
 10
0.0
 20
0.0
 30
0.0
 70
   128
  0
VERTEX
  5
6CA
100
AcDbEntity
  8
0
  6
CONTINUOUS
 62
     7
100
AcDbVertex
100
AcDb2dVertex
 10
3512.259501
 20
-19292.831409
 30
0.0
  0
VERTEX
  5
6CB
100
AcDbEntity
  8
0
  6
CONTINUOUS
 62
     7
100
AcDbVertex
100
AcDb2dVertex
 10
3512.148219
 20
-19292.829737
 30
0.0
  0
VERTEX
  5
6CC
100
AcDbEntity
  8
0
  6
CONTINUOUS
 62
     7
100
AcDbVertex
100
AcDb2dVertex
 10
3512.036877
 20
-19292.828064
 30
0.0
  0
VERTEX
  5
6CD
100
AcDbEntity
  8
0
  6
CONTINUOUS
 62
     7
100
AcDbVertex
100
AcDb2dVertex
 10
3511.925498
 20
-19292.826392
 30
0.0
  0
VERTEX
  5
6CE
100
AcDbEntity
  8
0
  6
CONTINUOUS
 62
     7
100
AcDbVertex
100
AcDb2dVertex
 10
3511.814097
 20
-19292.824719
 30
0.0
  0
VERTEX
  5
6CF
100
AcDbEntity
  8
0
  6
CONTINUOUS
 62
     7
100
AcDbVertex
100
AcDb2dVertex
 10
3511.702696
 20
-19292.823046
 30
0.0
  0
VERTEX
  5
6D0
100
AcDbEntity
  8
0
  6
CONTINUOUS
 62
     7
100
AcDbVertex
100
AcDb2dVertex
 10
3511.591317
 20
-19292.821374
 30
0.0
  0
VERTEX
  5
6D1
100
AcDbEntity
  8
0
  6
CONTINUOUS
 62
     7
100
AcDbVertex
100
AcDb2dVertex
 10
3511.479975
 20
-19292.819701
 30
0.0
  0
VERTEX
  5
6D2
100
AcDbEntity
  8
0
  6
CONTINUOUS
 62
     7
100
AcDbVertex
100
AcDb2dVertex
 10
3511.368693
 20
-19292.818029
 30
0.0
  0
SEQEND
  5
6D3
100
AcDbEntity
  8
0
  6
CONTINUOUS
 62
     7
  0
POLYLINE
  5
6D4
100
AcDbEntity
  8
0
  6
CONTINUOUS
 62
     7
100
AcDb2dPolyline
 66
     1
 10
0.0
 20
0.0
 30
0.0
 70
   128
  0
VERTEX
  5
6D5
100
AcDbEntity
  8
0
  6
CONTINUOUS
 62
     7
100
AcDbVertex
100
AcDb2dVertex
 10
3511.368693
 20
-19292.818029
 30
0.0
  0
VERTEX
  5
6D6
100
AcDbEntity
  8
0
  6
CONTINUOUS
 62
     7
100
AcDbVertex
100
AcDb2dVertex
 10
3511.350751
 20
-19293.040623
 30
0.0
  0
VERTEX
  5
6D7
100
AcDbEntity
  8
0
  6
CONTINUOUS
 62
     7
100
AcDbVertex
100
AcDb2dVertex
 10
3511.332682
 20
-19293.26471
 30
0.0
  0
VERTEX
  5
6D8
100
AcDbEntity
  8
0
  6
CONTINUOUS
 62
     7
100
AcDbVertex
100
AcDb2dVertex
 10
3511.314508
 20
-19293.490111
 30
0.0
  0
VERTEX
  5
6D9
100
AcDbEntity
  8
0
  6
CONTINUOUS
 62
     7
100
AcDbVertex
100
AcDb2dVertex
 10
3511.296245
 20
-19293.716647
 30
0.0
  0
VERTEX
  5
6DA
100
AcDbEntity
  8
0
  6
CONTINUOUS
 62
     7
100
AcDbVertex
100
AcDb2dVertex
 10
3511.277899
 20
-19293.944228
 30
0.0
  0
VERTEX
  5
6DB
100
AcDbEntity
  8
0
  6
CONTINUOUS
 62
     7
100
AcDbVertex
100
AcDb2dVertex
 10
3511.259479
 20
-19294.172616
 30
0.0
  0
VERTEX
  5
6DC
100
AcDbEntity
  8
0
  6
CONTINUOUS
 62
     7
100
AcDbVertex
100
AcDb2dVertex
 10
3511.241015
 20
-19294.401721
 30
0.0
  0
VERTEX
  5
6DD
100
AcDbEntity
  8
0
  6
CONTINUOUS
 62
     7
100
AcDbVertex
100
AcDb2dVertex
 10
3511.222505
 20
-19294.631303
 30
0.0
  0
SEQEND
  5
6DE
100
AcDbEntity
  8
0
  6
CONTINUOUS
 62
     7
  0
POLYLINE
  5
6DF
100
AcDbEntity
  8
0
  6
CONTINUOUS
 62
     7
100
AcDb2dPolyline
 66
     1
 10
0.0
 20
0.0
 30
0.0
 70
   128
  0
VERTEX
  5
6E0
100
AcDbEntity
  8
0
  6
CONTINUOUS
 62
     7
100
AcDbVertex
100
AcDb2dVertex
 10
3509.431153
 20
-19294.698233
 30
0.0
  0
VERTEX
  5
6E1
100
AcDbEntity
  8
0
  6
CONTINUOUS
 62
     7
100
AcDbVertex
100
AcDb2dVertex
 10
3509.651073
 20
-19294.69002
 30
0.0
  0
VERTEX
  5
6E2
100
AcDbEntity
  8
0
  6
CONTINUOUS
 62
     7
100
AcDbVertex
100
AcDb2dVertex
 10
3509.872443
 20
-19294.681747
 30
0.0
  0
VERTEX
  5
6E3
100
AcDbEntity
  8
0
  6
CONTINUOUS
 62
     7
100
AcDbVertex
100
AcDb2dVertex
 10
3510.095104
 20
-19294.673444
 30
0.0
  0
VERTEX
  5
6E4
100
AcDbEntity
  8
0
  6
CONTINUOUS
 62
     7
100
AcDbVertex
100
AcDb2dVertex
 10
3510.318914
 20
-19294.665082
 30
0.0
  0
VERTEX
  5
6E5
100
AcDbEntity
  8
0
  6
CONTINUOUS
 62
     7
100
AcDbVertex
100
AcDb2dVertex
 10
3510.543718
 20
-19294.656659
 30
0.0
  0
VERTEX
  5
6E6
100
AcDbEntity
  8
0
  6
CONTINUOUS
 62
     7
100
AcDbVertex
100
AcDb2dVertex
 10
3510.769351
 20
-19294.648237
 30
0.0
  0
VERTEX
  5
6E7
100
AcDbEntity
  8
0
  6
CONTINUOUS
 62
     7
100
AcDbVertex
100
AcDb2dVertex
 10
3510.995663
 20
-19294.639785
 30
0.0
  0
VERTEX
  5
6E8
100
AcDbEntity
  8
0
  6
CONTINUOUS
 62
     7
100
AcDbVertex
100
AcDb2dVertex
 10
3511.222505
 20
-19294.631303
 30
0.0
  0
SEQEND
  5
6E9
100
AcDbEntity
  8
0
  6
CONTINUOUS
 62
     7
  0
POLYLINE
  5
6EA
100
AcDbEntity
  8
0
  6
CONTINUOUS
 62
     7
100
AcDb2dPolyline
 66
     1
 10
0.0
 20
0.0
 30
0.0
 70
   128
  0
VERTEX
  5
6EB
100
AcDbEntity
  8
0
  6
CONTINUOUS
 62
     7
100
AcDbVertex
100
AcDb2dVertex
 10
3509.417773
 20
-19295.589056
 30
0.0
  0
VERTEX
  5
6EC
100
AcDbEntity
  8
0
  6
CONTINUOUS
 62
     7
100
AcDbVertex
100
AcDb2dVertex
 10
3509.419445
 20
-19295.477774
 30
0.0
  0
VERTEX
  5
6ED
100
AcDbEntity
  8
0
  6
CONTINUOUS
 62
     7
100
AcDbVertex
100
AcDb2dVertex
 10
3509.421118
 20
-19295.366433
 30
0.0
  0
VERTEX
  5
6EE
100
AcDbEntity
  8
0
  6
CONTINUOUS
 62
     7
100
AcDbVertex
100
AcDb2dVertex
 10
3509.42279
 20
-19295.255031
 30
0.0
  0
VERTEX
  5
6EF
100
AcDbEntity
  8
0
  6
CONTINUOUS
 62
     7
100
AcDbVertex
100
AcDb2dVertex
 10
3509.424463
 20
-19295.14363
 30
0.0
  0
VERTEX
  5
6F0
100
AcDbEntity
  8
0
  6
CONTINUOUS
 62
     7
100
AcDbVertex
100
AcDb2dVertex
 10
3509.426135
 20
-19295.032228
 30
0.0
  0
VERTEX
  5
6F1
100
AcDbEntity
  8
0
  6
CONTINUOUS
 62
     7
100
AcDbVertex
100
AcDb2dVertex
 10
3509.427808
 20
-19294.920857
 30
0.0
  0
VERTEX
  5
6F2
100
AcDbEntity
  8
0
  6
CONTINUOUS
 62
     7
100
AcDbVertex
100
AcDb2dVertex
 10
3509.42948
 20
-19294.809515
 30
0.0
  0
VERTEX
  5
6F3
100
AcDbEntity
  8
0
  6
CONTINUOUS
 62
     7
100
AcDbVertex
100
AcDb2dVertex
 10
3509.431153
 20
-19294.698233
 30
0.0
  0
SEQEND
  5
6F4
100
AcDbEntity
  8
0
  6
CONTINUOUS
 62
     7
  0
POLYLINE
  5
6F5
100
AcDbEntity
  8
0
  6
CONTINUOUS
 62
     7
100
AcDb2dPolyline
 66
     1
 10
0.0
 20
0.0
 30
0.0
 70
   128
  0
VERTEX
  5
6F6
100
AcDbEntity
  8
0
  6
CONTINUOUS
 62
     7
100
AcDbVertex
100
AcDb2dVertex
 10
3512.188792
 20
-19297.539954
 30
0.0
  0
VERTEX
  5
6F7
100
AcDbEntity
  8
0
  6
CONTINUOUS
 62
     7
100
AcDbVertex
100
AcDb2dVertex
 10
3512.077511
 20
-19297.538282
 30
0.0
  0
VERTEX
  5
6F8
100
AcDbEntity
  8
0
  6
CONTINUOUS
 62
     7
100
AcDbVertex
100
AcDb2dVertex
 10
3511.966169
 20
-19297.536609
 30
0.0
  0
VERTEX
  5
6F9
100
AcDbEntity
  8
0
  6
CONTINUOUS
 62
     7
100
AcDbVertex
100
AcDb2dVertex
 10
3511.85479
 20
-19297.534937
 30
0.0
  0
VERTEX
  5
6FA
100
AcDbEntity
  8
0
  6
CONTINUOUS
 62
     7
100
AcDbVertex
100
AcDb2dVertex
 10
3511.743389
 20
-19297.533264
 30
0.0
  0
VERTEX
  5
6FB
100
AcDbEntity
  8
0
  6
CONTINUOUS
 62
     7
100
AcDbVertex
100
AcDb2dVertex
 10
3511.631987
 20
-19297.531592
 30
0.0
  0
VERTEX
  5
6FC
100
AcDbEntity
  8
0
  6
CONTINUOUS
 62
     7
100
AcDbVertex
100
AcDb2dVertex
 10
3511.520608
 20
-19297.529919
 30
0.0
  0
VERTEX
  5
6FD
100
AcDbEntity
  8
0
  6
CONTINUOUS
 62
     7
100
AcDbVertex
100
AcDb2dVertex
 10
3511.409267
 20
-19297.528247
 30
0.0
  0
VERTEX
  5
6FE
100
AcDbEntity
  8
0
  6
CONTINUOUS
 62
     7
100
AcDbVertex
100
AcDb2dVertex
 10
3511.297985
 20
-19297.526574
 30
0.0
  0
SEQEND
  5
6FF
100
AcDbEntity
  8
0
  6
CONTINUOUS
 62
     7
  0
POLYLINE
  5
700
100
AcDbEntity
  8
0
  6
CONTINUOUS
 62
     7
100
AcDb2dPolyline
 66
     1
 10
0.0
 20
0.0
 30
0.0
 70
   128
  0
VERTEX
  5
701
100
AcDbEntity
  8
0
  6
CONTINUOUS
 62
     7
100
AcDbVertex
100
AcDb2dVertex
 10
3511.230166
 20
-19295.711329
 30
0.0
  0
VERTEX
  5
702
100
AcDbEntity
  8
0
  6
CONTINUOUS
 62
     7
100
AcDbVertex
100
AcDb2dVertex
 10
3511.000658
 20
-19295.695858
 30
0.0
  0
VERTEX
  5
703
100
AcDbEntity
  8
0
  6
CONTINUOUS
 62
     7
100
AcDbVertex
100
AcDb2dVertex
 10
3510.77168
 20
-19295.680417
 30
0.0
  0
VERTEX
  5
704
100
AcDbEntity
  8
0
  6
CONTINUOUS
 62
     7
100
AcDbVertex
100
AcDb2dVertex
 10
3510.543382
 20
-19295.665006
 30
0.0
  0
VERTEX
  5
705
100
AcDbEntity
  8
0
  6
CONTINUOUS
 62
     7
100
AcDbVertex
100
AcDb2dVertex
 10
3510.315928
 20
-19295.649655
 30
0.0
  0
VERTEX
  5
706
100
AcDbEntity
  8
0
  6
CONTINUOUS
 62
     7
100
AcDbVertex
100
AcDb2dVertex
 10
3510.089481
 20
-19295.634363
 30
0.0
  0
VERTEX
  5
707
100
AcDbEntity
  8
0
  6
CONTINUOUS
 62
     7
100
AcDbVertex
100
AcDb2dVertex
 10
3509.8642
 20
-19295.619161
 30
0.0
  0
VERTEX
  5
708
100
AcDbEntity
  8
0
  6
CONTINUOUS
 62
     7
100
AcDbVertex
100
AcDb2dVertex
 10
3509.640247
 20
-19295.604049
 30
0.0
  0
VERTEX
  5
709
100
AcDbEntity
  8
0
  6
CONTINUOUS
 62
     7
100
AcDbVertex
100
AcDb2dVertex
 10
3509.417773
 20
-19295.589056
 30
0.0
  0
SEQEND
  5
70A
100
AcDbEntity
  8
0
  6
CONTINUOUS
 62
     7
  0
POLYLINE
  5
70B
100
AcDbEntity
  8
0
  6
CONTINUOUS
 62
     7
100
AcDb2dPolyline
 66
     1
 10
0.0
 20
0.0
 30
0.0
 70
   128
  0
VERTEX
  5
70C
100
AcDbEntity
  8
0
  6
CONTINUOUS
 62
     7
100
AcDbVertex
100
AcDb2dVertex
 10
3511.297985
 20
-19297.526574
 30
0.0
  0
VERTEX
  5
70D
100
AcDbEntity
  8
0
  6
CONTINUOUS
 62
     7
100
AcDbVertex
100
AcDb2dVertex
 10
3511.289659
 20
-19297.303771
 30
0.0
  0
VERTEX
  5
70E
100
AcDbEntity
  8
0
  6
CONTINUOUS
 62
     7
100
AcDbVertex
100
AcDb2dVertex
 10
3511.281274
 20
-19297.079445
 30
0.0
  0
VERTEX
  5
70F
100
AcDbEntity
  8
0
  6
CONTINUOUS
 62
     7
100
AcDbVertex
100
AcDb2dVertex
 10
3511.272845
 20
-19296.853835
 30
0.0
  0
VERTEX
  5
710
100
AcDbEntity
  8
0
  6
CONTINUOUS
 62
     7
100
AcDbVertex
100
AcDb2dVertex
 10
3511.26437
 20
-19296.62703
 30
0.0
  0
VERTEX
  5
711
100
AcDbEntity
  8
0
  6
CONTINUOUS
 62
     7
100
AcDbVertex
100
AcDb2dVertex
 10
3511.255866
 20
-19296.39921
 30
0.0
  0
VERTEX
  5
712
100
AcDbEntity
  8
0
  6
CONTINUOUS
 62
     7
100
AcDbVertex
100
AcDb2dVertex
 10
3511.247316
 20
-19296.170553
 30
0.0
  0
VERTEX
  5
713
100
AcDbEntity
  8
0
  6
CONTINUOUS
 62
     7
100
AcDbVertex
100
AcDb2dVertex
 10
3511.238752
 20
-19295.94121
 30
0.0
  0
VERTEX
  5
714
100
AcDbEntity
  8
0
  6
CONTINUOUS
 62
     7
100
AcDbVertex
100
AcDb2dVertex
 10
3511.230166
 20
-19295.711329
 30
0.0
  0
SEQEND
  5
715
100
AcDbEntity
  8
0
  6
CONTINUOUS
 62
     7
  0
LINE
  5
716
100
AcDbEntity
  8
0
  6
CONTINUOUS
 62
     7
100
AcDbLine
 10
3509.625082
 20
-19294.887885
 30
0.0
 11
3509.431153
 21
-19294.698233
 31
0.0
  0
LINE
  5
717
100
AcDbEntity
  8
0
  6
CONTINUOUS
 62
     7
100
AcDbLine
 10
3509.61731
 20
-19295.405319
 30
0.0
 11
3509.625082
 21
-19294.887885
 31
0.0
  0
LINE
  5
718
100
AcDbEntity
  8
0
  6
CONTINUOUS
 62
     7
100
AcDbLine
 10
3509.61731
 20
-19295.405319
 30
0.0
 11
3509.417773
 21
-19295.589056
 31
0.0
  0
LINE
  5
719
100
AcDbEntity
  8
0
  6
CONTINUOUS
 62
     7
100
AcDbLine
 10
3510.27566
 20
-19295.44973
 30
0.0
 11
3509.61731
 21
-19295.405319
 31
0.0
  0
LINE
  5
71A
100
AcDbEntity
  8
0
  6
CONTINUOUS
 62
     7
100
AcDbLine
 10
3511.080498
 20
-19295.504027
 30
0.0
 11
3510.27566
 21
-19295.44973
 31
0.0
  0
LINE
  5
71B
100
AcDbEntity
  8
0
  6
CONTINUOUS
 62
     7
100
AcDbLine
 10
3510.890489
 20
-19295.688421
 30
0.0
 11
3511.080498
 21
-19295.504027
 31
0.0
  0
LINE
  5
71C
100
AcDbEntity
  8
0
  6
CONTINUOUS
 62
     7
100
AcDbLine
 10
3509.625082
 20
-19294.887885
 30
0.0
 11
3510.284464
 21
-19294.863245
 31
0.0
  0
LINE
  5
71D
100
AcDbEntity
  8
0
  6
CONTINUOUS
 62
     7
100
AcDbLine
 10
3511.068813
 20
-19294.833946
 30
0.0
 11
3510.88674
 21
-19294.643847
 31
0.0
  0
LINE
  5
71E
100
AcDbEntity
  8
0
  6
CONTINUOUS
 62
     7
100
AcDbLine
 10
3510.284464
 20
-19294.863245
 30
0.0
 11
3511.068813
 21
-19294.833946
 31
0.0
  0
LINE
  5
71F
100
AcDbEntity
  8
0
  6
CONTINUOUS
 62
     7
100
AcDbLine
 10
3512.146547
 20
-19294.497233
 30
0.0
 11
3512.334249
 21
-19294.312689
 31
0.0
  0
LINE
  5
720
100
AcDbEntity
  8
0
  6
CONTINUOUS
 62
     7
100
AcDbLine
 10
3512.68641
 20
-19294.670876
 30
0.0
 11
3512.498715
 21
-19294.85542
 31
0.0
  0
ARC
  5
721
100
AcDbEntity
  8
0
  6
CONTINUOUS
 62
     7
100
AcDbCircle
 10
3512.523227
 20
-19294.4791
 30
0.0
 40
0.377117
100
AcDbArc
 50
182.755976
 51
266.273238
  0
LINE
  5
722
100
AcDbEntity
  8
0
  6
CONTINUOUS
 62
     7
100
AcDbLine
 10
3512.005047
 20
-19297.340417
 30
0.0
 11
3512.188792
 21
-19297.539954
 31
0.0
  0
LINE
  5
723
100
AcDbEntity
  8
0
  6
CONTINUOUS
 62
     7
100
AcDbLine
 10
3512.049474
 20
-19296.682074
 30
0.0
 11
3512.005047
 21
-19297.340417
 31
0.0
  0
LINE
  5
724
100
AcDbEntity
  8
0
  6
CONTINUOUS
 62
     7
100
AcDbLine
 10
3512.103785
 20
-19295.877236
 30
0.0
 11
3512.049474
 21
-19296.682074
 31
0.0
  0
LINE
  5
725
100
AcDbEntity
  8
0
  6
CONTINUOUS
 62
     7
100
AcDbLine
 10
3512.288165
 20
-19296.067246
 30
0.0
 11
3512.103785
 21
-19295.877236
 31
0.0
  0
LINE
  5
726
100
AcDbEntity
  8
0
  6
CONTINUOUS
 62
     7
100
AcDbLine
 10
3513.940176
 20
-19294.952694
 30
0.0
 11
3514.139713
 21
-19294.768957
 31
0.0
  0
LINE
  5
727
100
AcDbEntity
  8
0
  6
CONTINUOUS
 62
     7
100
AcDbLine
 10
3513.940176
 20
-19294.952694
 30
0.0
 11
3513.281825
 21
-19294.908253
 31
0.0
  0
LINE
  5
728
100
AcDbEntity
  8
0
  6
CONTINUOUS
 62
     7
100
AcDbLine
 10
3513.281825
 20
-19294.908253
 30
0.0
 11
3512.498715
 21
-19294.85542
 31
0.0
  0
LINE
  5
729
100
AcDbEntity
  8
0
  6
CONTINUOUS
 62
     7
100
AcDbLine
 10
3512.466915
 20
-19295.524873
 30
0.0
 11
3512.651295
 21
-19295.714853
 31
0.0
  0
ARC
  5
72A
100
AcDbEntity
  8
0
  6
CONTINUOUS
 62
     7
100
AcDbCircle
 10
3512.480025
 20
-19295.901678
 30
0.0
 40
0.377032
100
AcDbArc
 50
91.992618
 51
176.283126
  0
LINE
  5
72B
100
AcDbEntity
  8
0
  6
CONTINUOUS
 62
     7
100
AcDbLine
 10
3511.432876
 20
-19295.867171
 30
0.0
 11
3511.242874
 21
-19296.051536
 31
0.0
  0
ARC
  5
72C
100
AcDbEntity
  8
0
  6
CONTINUOUS
 62
     7
100
AcDbCircle
 10
3511.05603
 20
-19295.880306
 30
0.0
 40
0.377074
100
AcDbArc
 50
1.996248
 51
86.279568
  0
LINE
  5
72D
100
AcDbEntity
  8
0
  6
CONTINUOUS
 62
     7
100
AcDbLine
 10
3511.249504
 20
-19294.296412
 30
0.0
 11
3511.431577
 21
-19294.486481
 31
0.0
  0
ARC
  5
72E
100
AcDbEntity
  8
0
  6
CONTINUOUS
 62
     7
100
AcDbCircle
 10
3511.055626
 20
-19294.457078
 30
0.0
 40
0.377099
100
AcDbArc
 50
272.004022
 51
355.527945
  0
LINE
  5
72F
100
AcDbEntity
  8
0
  6
CONTINUOUS
 62
     7
100
AcDbLine
 10
3512.105674
 20
-19293.687139
 30
0.0
 11
3512.072284
 21
-19293.025361
 31
0.0
  0
LINE
  5
730
100
AcDbEntity
  8
0
  6
CONTINUOUS
 62
     7
100
AcDbLine
 10
3512.072284
 20
-19293.025361
 30
0.0
 11
3512.259501
 21
-19292.831409
 31
0.0
  0
LINE
  5
731
100
AcDbEntity
  8
0
  6
CONTINUOUS
 62
     7
100
AcDbLine
 10
3512.146547
 20
-19294.497233
 30
0.0
 11
3512.105674
 21
-19293.687139
 31
0.0
  0
LINE
  5
732
100
AcDbEntity
  8
0
  6
CONTINUOUS
 62
     7
100
AcDbLine
 10
3511.487628
 20
-19297.332652
 30
0.0
 11
3511.462996
 21
-19296.673263
 31
0.0
  0
LINE
  5
733
100
AcDbEntity
  8
0
  6
CONTINUOUS
 62
     7
100
AcDbLine
 10
3511.487628
 20
-19297.332652
 30
0.0
 11
3511.297985
 21
-19297.526574
 31
0.0
  0
LINE
  5
734
100
AcDbEntity
  8
0
  6
CONTINUOUS
 62
     7
100
AcDbLine
 10
3511.462996
 20
-19296.673263
 30
0.0
 11
3511.432876
 21
-19295.867171
 31
0.0
  0
LINE
  5
735
100
AcDbEntity
  8
0
  6
CONTINUOUS
 62
     7
100
AcDbLine
 10
3512.072284
 20
-19293.025361
 30
0.0
 11
3511.550004
 21
-19293.017536
 31
0.0
  0
LINE
  5
736
100
AcDbEntity
  8
0
  6
CONTINUOUS
 62
     7
100
AcDbLine
 10
3511.550004
 20
-19293.017536
 30
0.0
 11
3511.368693
 21
-19292.818029
 31
0.0
  0
LINE
  5
737
100
AcDbEntity
  8
0
  6
CONTINUOUS
 62
     7
100
AcDbLine
 10
3513.932403
 20
-19295.470099
 30
0.0
 11
3514.126333
 21
-19295.65975
 31
0.0
  0
LINE
  5
738
100
AcDbEntity
  8
0
  6
CONTINUOUS
 62
     7
100
AcDbLine
 10
3513.932403
 20
-19295.470099
 30
0.0
 11
3513.940176
 21
-19294.952694
 31
0.0
  0
CIRCLE
  5
739
100
AcDbEntity
  8
0
  6
CONTINUOUS
 62
     7
100
AcDbCircle
 10
3511.778739
 20
-19295.178992
 30
0.0
 40
5.40909
  0
LINE
  5
73A
100
AcDbEntity
  8
0
  6
CONTINUOUS
 62
     7
100
AcDbLine
 10
3513.273022
 20
-19295.494738
 30
0.0
 11
3513.932403
 21
-19295.470099
 31
0.0
  0
LINE
  5
73B
100
AcDbEntity
  8
0
  6
CONTINUOUS
 62
     7
100
AcDbLine
 10
3512.466915
 20
-19295.524873
 30
0.0
 11
3513.273022
 21
-19295.494738
 31
0.0
  0
LINE
  5
73C
100
AcDbEntity
  8
0
  6
CONTINUOUS
 62
     7
100
AcDbLine
 10
3511.550004
 20
-19293.017536
 30
0.0
 11
3511.49676
 21
-19293.67797
 31
0.0
  0
LINE
  5
73D
100
AcDbEntity
  8
0
  6
CONTINUOUS
 62
     7
100
AcDbLine
 10
3511.49676
 20
-19293.67797
 30
0.0
 11
3511.431577
 21
-19294.486481
 31
0.0
  0
LINE
  5
73E
100
AcDbEntity
  8
0
  6
CONTINUOUS
 62
     7
100
AcDbLine
 10
3512.005047
 20
-19297.340417
 30
0.0
 11
3511.487628
 21
-19297.332652
 31
0.0
  0
ARC
  5
73F
100
AcDbEntity
  8
0
  6
CONTINUOUS
 62
     7
100
AcDbCircle
 10
3511.778627
 20
-19295.178981
 30
0.0
 40
1.527159
100
AcDbArc
 50
168.068203
 51
190.211914
  0
ARC
  5
740
100
AcDbEntity
  8
0
  6
CONTINUOUS
 62
     7
100
AcDbCircle
 10
3511.778684
 20
-19295.178987
 30
0.0
 40
1.527264
100
AcDbArc
 50
77.637145
 51
100.63748
  0
ARC
  5
741
100
AcDbEntity
  8
0
  6
CONTINUOUS
 62
     7
100
AcDbCircle
 10
3511.778858
 20
-19295.179002
 30
0.0
 40
1.527159
100
AcDbArc
 50
348.068203
 51
10.211914
  0
ARC
  5
742
100
AcDbEntity
  8
0
  6
CONTINUOUS
 62
     7
100
AcDbCircle
 10
3511.77875
 20
-19295.178938
 30
0.0
 40
1.527321
100
AcDbArc
 50
258.068792
 51
280.209845
  0
CIRCLE
  5
743
100
AcDbEntity
  8
0
  6
CONTINUOUS
 62
     7
100
AcDbCircle
 10
3422.723274
 20
-19549.741755
 30
0.0
 40
168.636362
  0
LINE
  5
744
100
AcDbEntity
  8
0
  6
CONTINUOUS
 62
     7
100
AcDbLine
 10
3148.91117
 20
-19439.165559
 30
0.0
 11
3143.176538
 21
-19439.165559
 31
0.0
  0
ARC
  5
745
100
AcDbEntity
  8
0
  6
CONTINUOUS
 62
     7
100
AcDbCircle
 10
3155.768843
 20
-19439.165608
 30
0.0
 40
12.592305
100
AcDbArc
 50
135.000248
 51
180.0
  0
POLYLINE
  5
746
100
AcDbEntity
  8
0
  6
CONTINUOUS
 62
     7
100
AcDb2dPolyline
 66
     1
 10
0.0
 20
0.0
 30
0.0
 70
   128
  0
VERTEX
  5
747
100
AcDbEntity
  8
0
  6
CONTINUOUS
 62
     7
100
AcDbVertex
100
AcDb2dVertex
 10
3150.91971
 20
-19434.316537
 30
0.0
  0
VERTEX
  5
748
100
AcDbEntity
  8
0
  6
CONTINUOUS
 62
     7
100
AcDbVertex
100
AcDb2dVertex
 10
3150.461531
 20
-19433.858358
 30
0.0
  0
VERTEX
  5
749
100
AcDbEntity
  8
0
  6
CONTINUOUS
 62
     7
100
AcDbVertex
100
AcDb2dVertex
 10
3149.939737
 20
-19433.336578
 30
0.0
  0
VERTEX
  5
74A
100
AcDbEntity
  8
0
  6
CONTINUOUS
 62
     7
100
AcDbVertex
100
AcDb2dVertex
 10
3149.37813
 20
-19432.774957
 30
0.0
  0
VERTEX
  5
74B
100
AcDbEntity
  8
0
  6
CONTINUOUS
 62
     7
100
AcDbVertex
100
AcDb2dVertex
 10
3148.802188
 20
-19432.19903
 30
0.0
  0
VERTEX
  5
74C
100
AcDbEntity
  8
0
  6
CONTINUOUS
 62
     7
100
AcDbVertex
100
AcDb2dVertex
 10
3148.238193
 20
-19431.635034
 30
0.0
  0
VERTEX
  5
74D
100
AcDbEntity
  8
0
  6
CONTINUOUS
 62
     7
100
AcDbVertex
100
AcDb2dVertex
 10
3147.711769
 20
-19431.108611
 30
0.0
  0
VERTEX
  5
74E
100
AcDbEntity
  8
0
  6
CONTINUOUS
 62
     7
100
AcDbVertex
100
AcDb2dVertex
 10
3147.2469
 20
-19430.643726
 30
0.0
  0
VERTEX
  5
74F
100
AcDbEntity
  8
0
  6
CONTINUOUS
 62
     7
100
AcDbVertex
100
AcDb2dVertex
 10
3146.8647
 20
-19430.261542
 30
0.0
  0
SEQEND
  5
750
100
AcDbEntity
  8
0
  6
CONTINUOUS
 62
     7
  0
ARC
  5
751
100
AcDbEntity
  8
0
  6
CONTINUOUS
 62
     7
100
AcDbCircle
 10
3155.382153
 20
-19455.493183
 30
0.0
 40
21.641712
100
AcDbArc
 50
101.899543
 51
112.762661
  0
ARC
  5
752
100
AcDbEntity
  8
0
  6
CONTINUOUS
 62
     7
100
AcDbCircle
 10
3167.748517
 20
-19426.975722
 30
0.0
 40
22.437418
100
AcDbArc
 50
202.43057
 51
212.907312
  0
POLYLINE
  5
753
100
AcDbEntity
  8
0
  6
CONTINUOUS
 62
     7
100
AcDb2dPolyline
 66
     1
 10
0.0
 20
0.0
 30
0.0
 70
   128
  0
VERTEX
  5
754
100
AcDbEntity
  8
0
  6
CONTINUOUS
 62
     7
100
AcDbVertex
100
AcDb2dVertex
 10
3150.91971
 20
-19434.316537
 30
0.0
  0
VERTEX
  5
755
100
AcDbEntity
  8
0
  6
CONTINUOUS
 62
     7
100
AcDbVertex
100
AcDb2dVertex
 10
3151.226856
 20
-19434.255446
 30
0.0
  0
VERTEX
  5
756
100
AcDbEntity
  8
0
  6
CONTINUOUS
 62
     7
100
AcDbVertex
100
AcDb2dVertex
 10
3151.513304
 20
-19434.198461
 30
0.0
  0
VERTEX
  5
757
100
AcDbEntity
  8
0
  6
CONTINUOUS
 62
     7
100
AcDbVertex
100
AcDb2dVertex
 10
3151.77783
 20
-19434.145851
 30
0.0
  0
SEQEND
  5
758
100
AcDbEntity
  8
0
  6
CONTINUOUS
 62
     7
  0
LINE
  5
759
100
AcDbEntity
  8
0
  6
CONTINUOUS
 62
     7
100
AcDbLine
 10
3151.77783
 20
-19434.145851
 30
0.0
 11
3246.478291
 21
-19473.372062
 31
0.0
  0
POLYLINE
  5
75A
100
AcDbEntity
  8
0
  6
CONTINUOUS
 62
     7
100
AcDb2dPolyline
 66
     1
 10
0.0
 20
0.0
 30
0.0
 70
   128
  0
VERTEX
  5
75B
100
AcDbEntity
  8
0
  6
CONTINUOUS
 62
     7
100
AcDbVertex
100
AcDb2dVertex
 10
3246.478291
 20
-19473.372062
 30
0.0
  0
VERTEX
  5
75C
100
AcDbEntity
  8
0
  6
CONTINUOUS
 62
     7
100
AcDbVertex
100
AcDb2dVertex
 10
3246.244915
 20
-19473.935467
 30
0.0
  0
VERTEX
  5
75D
100
AcDbEntity
  8
0
  6
CONTINUOUS
 62
     7
100
AcDbVertex
100
AcDb2dVertex
 10
3245.957586
 20
-19474.629135
 30
0.0
  0
VERTEX
  5
75E
100
AcDbEntity
  8
0
  6
CONTINUOUS
 62
     7
100
AcDbVertex
100
AcDb2dVertex
 10
3245.632506
 20
-19475.413947
 30
0.0
  0
VERTEX
  5
75F
100
AcDbEntity
  8
0
  6
CONTINUOUS
 62
     7
100
AcDbVertex
100
AcDb2dVertex
 10
3245.288013
 20
-19476.245657
 30
0.0
  0
VERTEX
  5
760
100
AcDbEntity
  8
0
  6
CONTINUOUS
 62
     7
100
AcDbVertex
100
AcDb2dVertex
 10
3244.943505
 20
-19477.077367
 30
0.0
  0
VERTEX
  5
761
100
AcDbEntity
  8
0
  6
CONTINUOUS
 62
     7
100
AcDbVertex
100
AcDb2dVertex
 10
3244.618425
 20
-19477.862179
 30
0.0
  0
VERTEX
  5
762
100
AcDbEntity
  8
0
  6
CONTINUOUS
 62
     7
100
AcDbVertex
100
AcDb2dVertex
 10
3244.331096
 20
-19478.555847
 30
0.0
  0
VERTEX
  5
763
100
AcDbEntity
  8
0
  6
CONTINUOUS
 62
     7
100
AcDbVertex
100
AcDb2dVertex
 10
3244.097721
 20
-19479.119253
 30
0.0
  0
SEQEND
  5
764
100
AcDbEntity
  8
0
  6
CONTINUOUS
 62
     7
  0
LINE
  5
765
100
AcDbEntity
  8
0
  6
CONTINUOUS
 62
     7
100
AcDbLine
 10
3149.397275
 20
-19439.893035
 30
0.0
 11
3244.097721
 21
-19479.119253
 31
0.0
  0
POLYLINE
  5
766
100
AcDbEntity
  8
0
  6
CONTINUOUS
 62
     7
100
AcDb2dPolyline
 66
     1
 10
0.0
 20
0.0
 30
0.0
 70
   128
  0
VERTEX
  5
767
100
AcDbEntity
  8
0
  6
CONTINUOUS
 62
     7
100
AcDbVertex
100
AcDb2dVertex
 10
3148.91117
 20
-19439.165559
 30
0.0
  0
VERTEX
  5
768
100
AcDbEntity
  8
0
  6
CONTINUOUS
 62
     7
100
AcDbVertex
100
AcDb2dVertex
 10
3149.085172
 20
-19439.425948
 30
0.0
  0
VERTEX
  5
769
100
AcDbEntity
  8
0
  6
CONTINUOUS
 62
     7
100
AcDbVertex
100
AcDb2dVertex
 10
3149.247405
 20
-19439.668776
 30
0.0
  0
VERTEX
  5
76A
100
AcDbEntity
  8
0
  6
CONTINUOUS
 62
     7
100
AcDbVertex
100
AcDb2dVertex
 10
3149.397275
 20
-19439.893035
 30
0.0
  0
SEQEND
  5
76B
100
AcDbEntity
  8
0
  6
CONTINUOUS
 62
     7
  0
ARC
  5
76C
100
AcDbEntity
  8
0
  6
CONTINUOUS
 62
     7
100
AcDbCircle
 10
3677.88431
 20
-19672.410097
 30
0.0
 40
22.227948
100
AcDbArc
 50
22.381065
 51
32.956817
  0
ARC
  5
76D
100
AcDbEntity
  8
0
  6
CONTINUOUS
 62
     7
100
AcDbCircle
 10
3690.063924
 20
-19643.98899
 30
0.0
 40
21.643111
100
AcDbArc
 50
281.900057
 51
292.762395
  0
POLYLINE
  5
76E
100
AcDbEntity
  8
0
  6
CONTINUOUS
 62
     7
100
AcDb2dPolyline
 66
     1
 10
0.0
 20
0.0
 30
0.0
 70
   128
  0
VERTEX
  5
76F
100
AcDbEntity
  8
0
  6
CONTINUOUS
 62
     7
100
AcDbVertex
100
AcDb2dVertex
 10
3694.526845
 20
-19665.166964
 30
0.0
  0
VERTEX
  5
770
100
AcDbEntity
  8
0
  6
CONTINUOUS
 62
     7
100
AcDbVertex
100
AcDb2dVertex
 10
3694.21967
 20
-19665.228055
 30
0.0
  0
VERTEX
  5
771
100
AcDbEntity
  8
0
  6
CONTINUOUS
 62
     7
100
AcDbVertex
100
AcDb2dVertex
 10
3693.933252
 20
-19665.285033
 30
0.0
  0
VERTEX
  5
772
100
AcDbEntity
  8
0
  6
CONTINUOUS
 62
     7
100
AcDbVertex
100
AcDb2dVertex
 10
3693.668726
 20
-19665.33765
 30
0.0
  0
SEQEND
  5
773
100
AcDbEntity
  8
0
  6
CONTINUOUS
 62
     7
  0
LINE
  5
774
100
AcDbEntity
  8
0
  6
CONTINUOUS
 62
     7
100
AcDbLine
 10
3693.668726
 20
-19665.33765
 30
0.0
 11
3598.96825
 21
-19626.111432
 31
0.0
  0
POLYLINE
  5
775
100
AcDbEntity
  8
0
  6
CONTINUOUS
 62
     7
100
AcDb2dPolyline
 66
     1
 10
0.0
 20
0.0
 30
0.0
 70
   128
  0
VERTEX
  5
776
100
AcDbEntity
  8
0
  6
CONTINUOUS
 62
     7
100
AcDbVertex
100
AcDb2dVertex
 10
3598.96825
 20
-19626.111432
 30
0.0
  0
VERTEX
  5
777
100
AcDbEntity
  8
0
  6
CONTINUOUS
 62
     7
100
AcDbVertex
100
AcDb2dVertex
 10
3599.201625
 20
-19625.548026
 30
0.0
  0
VERTEX
  5
778
100
AcDbEntity
  8
0
  6
CONTINUOUS
 62
     7
100
AcDbVertex
100
AcDb2dVertex
 10
3599.488954
 20
-19624.854366
 30
0.0
  0
VERTEX
  5
779
100
AcDbEntity
  8
0
  6
CONTINUOUS
 62
     7
100
AcDbVertex
100
AcDb2dVertex
 10
3599.814034
 20
-19624.069554
 30
0.0
  0
VERTEX
  5
77A
100
AcDbEntity
  8
0
  6
CONTINUOUS
 62
     7
100
AcDbVertex
100
AcDb2dVertex
 10
3600.158527
 20
-19623.237844
 30
0.0
  0
VERTEX
  5
77B
100
AcDbEntity
  8
0
  6
CONTINUOUS
 62
     7
100
AcDbVertex
100
AcDb2dVertex
 10
3600.503035
 20
-19622.406134
 30
0.0
  0
VERTEX
  5
77C
100
AcDbEntity
  8
0
  6
CONTINUOUS
 62
     7
100
AcDbVertex
100
AcDb2dVertex
 10
3600.828115
 20
-19621.621322
 30
0.0
  0
VERTEX
  5
77D
100
AcDbEntity
  8
0
  6
CONTINUOUS
 62
     7
100
AcDbVertex
100
AcDb2dVertex
 10
3601.115444
 20
-19620.927654
 30
0.0
  0
VERTEX
  5
77E
100
AcDbEntity
  8
0
  6
CONTINUOUS
 62
     7
100
AcDbVertex
100
AcDb2dVertex
 10
3601.34882
 20
-19620.364248
 30
0.0
  0
SEQEND
  5
77F
100
AcDbEntity
  8
0
  6
CONTINUOUS
 62
     7
  0
LINE
  5
780
100
AcDbEntity
  8
0
  6
CONTINUOUS
 62
     7
100
AcDbLine
 10
3696.049281
 20
-19659.590466
 30
0.0
 11
3601.34882
 21
-19620.364248
 31
0.0
  0
POLYLINE
  5
781
100
AcDbEntity
  8
0
  6
CONTINUOUS
 62
     7
100
AcDb2dPolyline
 66
     1
 10
0.0
 20
0.0
 30
0.0
 70
   128
  0
VERTEX
  5
782
100
AcDbEntity
  8
0
  6
CONTINUOUS
 62
     7
100
AcDbVertex
100
AcDb2dVertex
 10
3696.049281
 20
-19659.590466
 30
0.0
  0
VERTEX
  5
783
100
AcDbEntity
  8
0
  6
CONTINUOUS
 62
     7
100
AcDbVertex
100
AcDb2dVertex
 10
3696.19912
 20
-19659.814725
 30
0.0
  0
VERTEX
  5
784
100
AcDbEntity
  8
0
  6
CONTINUOUS
 62
     7
100
AcDbVertex
100
AcDb2dVertex
 10
3696.361384
 20
-19660.057553
 30
0.0
  0
VERTEX
  5
785
100
AcDbEntity
  8
0
  6
CONTINUOUS
 62
     7
100
AcDbVertex
100
AcDb2dVertex
 10
3696.535355
 20
-19660.317942
 30
0.0
  0
SEQEND
  5
786
100
AcDbEntity
  8
0
  6
CONTINUOUS
 62
     7
  0
LINE
  5
787
100
AcDbEntity
  8
0
  6
CONTINUOUS
 62
     7
100
AcDbLine
 10
3696.535355
 20
-19660.317942
 30
0.0
 11
3702.269988
 21
-19660.317942
 31
0.0
  0
ARC
  5
788
100
AcDbEntity
  8
0
  6
CONTINUOUS
 62
     7
100
AcDbCircle
 10
3689.677752
 20
-19660.317915
 30
0.0
 40
12.592236
100
AcDbArc
 50
315.000118
 51
360.0
  0
POLYLINE
  5
789
100
AcDbEntity
  8
0
  6
CONTINUOUS
 62
     7
100
AcDb2dPolyline
 66
     1
 10
0.0
 20
0.0
 30
0.0
 70
   128
  0
VERTEX
  5
78A
100
AcDbEntity
  8
0
  6
CONTINUOUS
 62
     7
100
AcDbVertex
100
AcDb2dVertex
 10
3694.526845
 20
-19665.166964
 30
0.0
  0
VERTEX
  5
78B
100
AcDbEntity
  8
0
  6
CONTINUOUS
 62
     7
100
AcDbVertex
100
AcDb2dVertex
 10
3694.985024
 20
-19665.625143
 30
0.0
  0
VERTEX
  5
78C
100
AcDbEntity
  8
0
  6
CONTINUOUS
 62
     7
100
AcDbVertex
100
AcDb2dVertex
 10
3695.506789
 20
-19666.146923
 30
0.0
  0
VERTEX
  5
78D
100
AcDbEntity
  8
0
  6
CONTINUOUS
 62
     7
100
AcDbVertex
100
AcDb2dVertex
 10
3696.068425
 20
-19666.708551
 30
0.0
  0
VERTEX
  5
78E
100
AcDbEntity
  8
0
  6
CONTINUOUS
 62
     7
100
AcDbVertex
100
AcDb2dVertex
 10
3696.644337
 20
-19667.284464
 30
0.0
  0
VERTEX
  5
78F
100
AcDbEntity
  8
0
  6
CONTINUOUS
 62
     7
100
AcDbVertex
100
AcDb2dVertex
 10
3697.208333
 20
-19667.848467
 30
0.0
  0
VERTEX
  5
790
100
AcDbEntity
  8
0
  6
CONTINUOUS
 62
     7
100
AcDbVertex
100
AcDb2dVertex
 10
3697.734757
 20
-19668.37489
 30
0.0
  0
VERTEX
  5
791
100
AcDbEntity
  8
0
  6
CONTINUOUS
 62
     7
100
AcDbVertex
100
AcDb2dVertex
 10
3698.199626
 20
-19668.839767
 30
0.0
  0
VERTEX
  5
792
100
AcDbEntity
  8
0
  6
CONTINUOUS
 62
     7
100
AcDbVertex
100
AcDb2dVertex
 10
3698.581825
 20
-19669.221952
 30
0.0
  0
SEQEND
  5
793
100
AcDbEntity
  8
0
  6
CONTINUOUS
 62
     7
  0
LINE
  5
794
100
AcDbEntity
  8
0
  6
CONTINUOUS
 62
     7
100
AcDbLine
 10
3533.299466
 20
-19275.929669
 30
0.0
 11
3533.299466
 21
-19270.195037
 31
0.0
  0
ARC
  5
795
100
AcDbEntity
  8
0
  6
CONTINUOUS
 62
     7
100
AcDbCircle
 10
3533.299424
 20
-19282.787307
 30
0.0
 40
12.59227
100
AcDbArc
 50
45.000183
 51
89.999808
  0
POLYLINE
  5
796
100
AcDbEntity
  8
0
  6
CONTINUOUS
 62
     7
100
AcDb2dPolyline
 66
     1
 10
0.0
 20
0.0
 30
0.0
 70
   128
  0
VERTEX
  5
797
100
AcDbEntity
  8
0
  6
CONTINUOUS
 62
     7
100
AcDbVertex
100
AcDb2dVertex
 10
3538.14848
 20
-19277.93818
 30
0.0
  0
VERTEX
  5
798
100
AcDbEntity
  8
0
  6
CONTINUOUS
 62
     7
100
AcDbVertex
100
AcDb2dVertex
 10
3538.606666
 20
-19277.48
 30
0.0
  0
VERTEX
  5
799
100
AcDbEntity
  8
0
  6
CONTINUOUS
 62
     7
100
AcDbVertex
100
AcDb2dVertex
 10
3539.128439
 20
-19276.958236
 30
0.0
  0
VERTEX
  5
79A
100
AcDbEntity
  8
0
  6
CONTINUOUS
 62
     7
100
AcDbVertex
100
AcDb2dVertex
 10
3539.690067
 20
-19276.396599
 30
0.0
  0
VERTEX
  5
79B
100
AcDbEntity
  8
0
  6
CONTINUOUS
 62
     7
100
AcDbVertex
100
AcDb2dVertex
 10
3540.265987
 20
-19275.820687
 30
0.0
  0
VERTEX
  5
79C
100
AcDbEntity
  8
0
  6
CONTINUOUS
 62
     7
100
AcDbVertex
100
AcDb2dVertex
 10
3540.82999
 20
-19275.256692
 30
0.0
  0
VERTEX
  5
79D
100
AcDbEntity
  8
0
  6
CONTINUOUS
 62
     7
100
AcDbVertex
100
AcDb2dVertex
 10
3541.356406
 20
-19274.730268
 30
0.0
  0
VERTEX
  5
79E
100
AcDbEntity
  8
0
  6
CONTINUOUS
 62
     7
100
AcDbVertex
100
AcDb2dVertex
 10
3541.821291
 20
-19274.265369
 30
0.0
  0
VERTEX
  5
79F
100
AcDbEntity
  8
0
  6
CONTINUOUS
 62
     7
100
AcDbVertex
100
AcDb2dVertex
 10
3542.203475
 20
-19273.883199
 30
0.0
  0
SEQEND
  5
7A0
100
AcDbEntity
  8
0
  6
CONTINUOUS
 62
     7
  0
ARC
  5
7A1
100
AcDbEntity
  8
0
  6
CONTINUOUS
 62
     7
100
AcDbCircle
 10
3517.015234
 20
-19282.387105
 30
0.0
 40
21.596458
100
AcDbArc
 50
11.888193
 51
22.77406
  0
ARC
  5
7A2
100
AcDbEntity
  8
0
  6
CONTINUOUS
 62
     7
100
AcDbCircle
 10
3545.270511
 20
-19294.349731
 30
0.0
 40
21.968264
100
AcDbArc
 50
112.318376
 51
123.019505
  0
POLYLINE
  5
7A3
100
AcDbEntity
  8
0
  6
CONTINUOUS
 62
     7
100
AcDb2dPolyline
 66
     1
 10
0.0
 20
0.0
 30
0.0
 70
   128
  0
VERTEX
  5
7A4
100
AcDbEntity
  8
0
  6
CONTINUOUS
 62
     7
100
AcDbVertex
100
AcDb2dVertex
 10
3538.14848
 20
-19277.93818
 30
0.0
  0
VERTEX
  5
7A5
100
AcDbEntity
  8
0
  6
CONTINUOUS
 62
     7
100
AcDbVertex
100
AcDb2dVertex
 10
3538.209579
 20
-19278.245325
 30
0.0
  0
VERTEX
  5
7A6
100
AcDbEntity
  8
0
  6
CONTINUOUS
 62
     7
100
AcDbVertex
100
AcDb2dVertex
 10
3538.266556
 20
-19278.531773
 30
0.0
  0
VERTEX
  5
7A7
100
AcDbEntity
  8
0
  6
CONTINUOUS
 62
     7
100
AcDbVertex
100
AcDb2dVertex
 10
3538.319173
 20
-19278.796299
 30
0.0
  0
SEQEND
  5
7A8
100
AcDbEntity
  8
0
  6
CONTINUOUS
 62
     7
  0
LINE
  5
7A9
100
AcDbEntity
  8
0
  6
CONTINUOUS
 62
     7
100
AcDbLine
 10
3538.319173
 20
-19278.796299
 30
0.0
 11
3499.092955
 21
-19373.49676
 31
0.0
  0
POLYLINE
  5
7AA
100
AcDbEntity
  8
0
  6
CONTINUOUS
 62
     7
100
AcDb2dPolyline
 66
     1
 10
0.0
 20
0.0
 30
0.0
 70
   128
  0
VERTEX
  5
7AB
100
AcDbEntity
  8
0
  6
CONTINUOUS
 62
     7
100
AcDbVertex
100
AcDb2dVertex
 10
3499.092955
 20
-19373.49676
 30
0.0
  0
VERTEX
  5
7AC
100
AcDbEntity
  8
0
  6
CONTINUOUS
 62
     7
100
AcDbVertex
100
AcDb2dVertex
 10
3498.52955
 20
-19373.263399
 30
0.0
  0
VERTEX
  5
7AD
100
AcDbEntity
  8
0
  6
CONTINUOUS
 62
     7
100
AcDbVertex
100
AcDb2dVertex
 10
3497.835882
 20
-19372.97607
 30
0.0
  0
VERTEX
  5
7AE
100
AcDbEntity
  8
0
  6
CONTINUOUS
 62
     7
100
AcDbVertex
100
AcDb2dVertex
 10
3497.05107
 20
-19372.65099
 30
0.0
  0
VERTEX
  5
7AF
100
AcDbEntity
  8
0
  6
CONTINUOUS
 62
     7
100
AcDbVertex
100
AcDb2dVertex
 10
3496.21936
 20
-19372.306482
 30
0.0
  0
VERTEX
  5
7B0
100
AcDbEntity
  8
0
  6
CONTINUOUS
 62
     7
100
AcDbVertex
100
AcDb2dVertex
 10
3495.387657
 20
-19371.961974
 30
0.0
  0
VERTEX
  5
7B1
100
AcDbEntity
  8
0
  6
CONTINUOUS
 62
     7
100
AcDbVertex
100
AcDb2dVertex
 10
3494.602838
 20
-19371.636894
 30
0.0
  0
VERTEX
  5
7B2
100
AcDbEntity
  8
0
  6
CONTINUOUS
 62
     7
100
AcDbVertex
100
AcDb2dVertex
 10
3493.909177
 20
-19371.34958
 30
0.0
  0
VERTEX
  5
7B3
100
AcDbEntity
  8
0
  6
CONTINUOUS
 62
     7
100
AcDbVertex
100
AcDb2dVertex
 10
3493.345772
 20
-19371.116205
 30
0.0
  0
SEQEND
  5
7B4
100
AcDbEntity
  8
0
  6
CONTINUOUS
 62
     7
  0
LINE
  5
7B5
100
AcDbEntity
  8
0
  6
CONTINUOUS
 62
     7
100
AcDbLine
 10
3532.57199
 20
-19276.415744
 30
0.0
 11
3493.345772
 21
-19371.116205
 31
0.0
  0
POLYLINE
  5
7B6
100
AcDbEntity
  8
0
  6
CONTINUOUS
 62
     7
100
AcDb2dPolyline
 66
     1
 10
0.0
 20
0.0
 30
0.0
 70
   128
  0
VERTEX
  5
7B7
100
AcDbEntity
  8
0
  6
CONTINUOUS
 62
     7
100
AcDbVertex
100
AcDb2dVertex
 10
3532.57199
 20
-19276.415744
 30
0.0
  0
VERTEX
  5
7B8
100
AcDbEntity
  8
0
  6
CONTINUOUS
 62
     7
100
AcDbVertex
100
AcDb2dVertex
 10
3532.796241
 20
-19276.265904
 30
0.0
  0
VERTEX
  5
7B9
100
AcDbEntity
  8
0
  6
CONTINUOUS
 62
     7
100
AcDbVertex
100
AcDb2dVertex
 10
3533.039076
 20
-19276.103641
 30
0.0
  0
VERTEX
  5
7BA
100
AcDbEntity
  8
0
  6
CONTINUOUS
 62
     7
100
AcDbVertex
100
AcDb2dVertex
 10
3533.299466
 20
-19275.929669
 30
0.0
  0
SEQEND
  5
7BB
100
AcDbEntity
  8
0
  6
CONTINUOUS
 62
     7
  0
LINE
  5
7BC
100
AcDbEntity
  8
0
  6
CONTINUOUS
 62
     7
100
AcDbLine
 10
3307.127367
 20
-19820.687195
 30
0.0
 11
3346.353585
 21
-19725.986734
 31
0.0
  0
POLYLINE
  5
7BD
100
AcDbEntity
  8
0
  6
CONTINUOUS
 62
     7
100
AcDb2dPolyline
 66
     1
 10
0.0
 20
0.0
 30
0.0
 70
   128
  0
VERTEX
  5
7BE
100
AcDbEntity
  8
0
  6
CONTINUOUS
 62
     7
100
AcDbVertex
100
AcDb2dVertex
 10
3346.353585
 20
-19725.986734
 30
0.0
  0
VERTEX
  5
7BF
100
AcDbEntity
  8
0
  6
CONTINUOUS
 62
     7
100
AcDbVertex
100
AcDb2dVertex
 10
3346.916991
 20
-19726.220109
 30
0.0
  0
VERTEX
  5
7C0
100
AcDbEntity
  8
0
  6
CONTINUOUS
 62
     7
100
AcDbVertex
100
AcDb2dVertex
 10
3347.610658
 20
-19726.507423
 30
0.0
  0
VERTEX
  5
7C1
100
AcDbEntity
  8
0
  6
CONTINUOUS
 62
     7
100
AcDbVertex
100
AcDb2dVertex
 10
3348.395471
 20
-19726.832503
 30
0.0
  0
VERTEX
  5
7C2
100
AcDbEntity
  8
0
  6
CONTINUOUS
 62
     7
100
AcDbVertex
100
AcDb2dVertex
 10
3349.227181
 20
-19727.177011
 30
0.0
  0
VERTEX
  5
7C3
100
AcDbEntity
  8
0
  6
CONTINUOUS
 62
     7
100
AcDbVertex
100
AcDb2dVertex
 10
3350.058883
 20
-19727.521519
 30
0.0
  0
VERTEX
  5
7C4
100
AcDbEntity
  8
0
  6
CONTINUOUS
 62
     7
100
AcDbVertex
100
AcDb2dVertex
 10
3350.843703
 20
-19727.846599
 30
0.0
  0
VERTEX
  5
7C5
100
AcDbEntity
  8
0
  6
CONTINUOUS
 62
     7
100
AcDbVertex
100
AcDb2dVertex
 10
3351.537363
 20
-19728.133928
 30
0.0
  0
VERTEX
  5
7C6
100
AcDbEntity
  8
0
  6
CONTINUOUS
 62
     7
100
AcDbVertex
100
AcDb2dVertex
 10
3352.100769
 20
-19728.367289
 30
0.0
  0
SEQEND
  5
7C7
100
AcDbEntity
  8
0
  6
CONTINUOUS
 62
     7
  0
LINE
  5
7C8
100
AcDbEntity
  8
0
  6
CONTINUOUS
 62
     7
100
AcDbLine
 10
3312.874551
 20
-19823.06775
 30
0.0
 11
3352.100769
 21
-19728.367289
 31
0.0
  0
POLYLINE
  5
7C9
100
AcDbEntity
  8
0
  6
CONTINUOUS
 62
     7
100
AcDb2dPolyline
 66
     1
 10
0.0
 20
0.0
 30
0.0
 70
   128
  0
VERTEX
  5
7CA
100
AcDbEntity
  8
0
  6
CONTINUOUS
 62
     7
100
AcDbVertex
100
AcDb2dVertex
 10
3312.874551
 20
-19823.06775
 30
0.0
  0
VERTEX
  5
7CB
100
AcDbEntity
  8
0
  6
CONTINUOUS
 62
     7
100
AcDbVertex
100
AcDb2dVertex
 10
3312.6503
 20
-19823.217589
 30
0.0
  0
VERTEX
  5
7CC
100
AcDbEntity
  8
0
  6
CONTINUOUS
 62
     7
100
AcDbVertex
100
AcDb2dVertex
 10
3312.407464
 20
-19823.379853
 30
0.0
  0
VERTEX
  5
7CD
100
AcDbEntity
  8
0
  6
CONTINUOUS
 62
     7
100
AcDbVertex
100
AcDb2dVertex
 10
3312.147075
 20
-19823.553854
 30
0.0
  0
SEQEND
  5
7CE
100
AcDbEntity
  8
0
  6
CONTINUOUS
 62
     7
  0
ARC
  5
7CF
100
AcDbEntity
  8
0
  6
CONTINUOUS
 62
     7
100
AcDbCircle
 10
3300.176848
 20
-19805.135036
 30
0.0
 40
21.966775
100
AcDbArc
 50
292.317661
 51
303.019481
  0
ARC
  5
7D0
100
AcDbEntity
  8
0
  6
CONTINUOUS
 62
     7
100
AcDbCircle
 10
3328.430464
 20
-19817.096652
 30
0.0
 40
21.59558
100
AcDbArc
 50
191.887971
 51
202.774282
  0
POLYLINE
  5
7D1
100
AcDbEntity
  8
0
  6
CONTINUOUS
 62
     7
100
AcDb2dPolyline
 66
     1
 10
0.0
 20
0.0
 30
0.0
 70
   128
  0
VERTEX
  5
7D2
100
AcDbEntity
  8
0
  6
CONTINUOUS
 62
     7
100
AcDbVertex
100
AcDb2dVertex
 10
3307.298061
 20
-19821.545314
 30
0.0
  0
VERTEX
  5
7D3
100
AcDbEntity
  8
0
  6
CONTINUOUS
 62
     7
100
AcDbVertex
100
AcDb2dVertex
 10
3307.236962
 20
-19821.238169
 30
0.0
  0
VERTEX
  5
7D4
100
AcDbEntity
  8
0
  6
CONTINUOUS
 62
     7
100
AcDbVertex
100
AcDb2dVertex
 10
3307.179984
 20
-19820.951721
 30
0.0
  0
VERTEX
  5
7D5
100
AcDbEntity
  8
0
  6
CONTINUOUS
 62
     7
100
AcDbVertex
100
AcDb2dVertex
 10
3307.127367
 20
-19820.687195
 30
0.0
  0
SEQEND
  5
7D6
100
AcDbEntity
  8
0
  6
CONTINUOUS
 62
     7
  0
LINE
  5
7D7
100
AcDbEntity
  8
0
  6
CONTINUOUS
 62
     7
100
AcDbLine
 10
3312.147075
 20
-19823.553854
 30
0.0
 11
3312.147075
 21
-19829.288457
 31
0.0
  0
ARC
  5
7D8
100
AcDbEntity
  8
0
  6
CONTINUOUS
 62
     7
100
AcDbCircle
 10
3312.146978
 20
-19816.696521
 30
0.0
 40
12.591936
100
AcDbArc
 50
224.999552
 51
270.000439
  0
POLYLINE
  5
7D9
100
AcDbEntity
  8
0
  6
CONTINUOUS
 62
     7
100
AcDb2dPolyline
 66
     1
 10
0.0
 20
0.0
 30
0.0
 70
   128
  0
VERTEX
  5
7DA
100
AcDbEntity
  8
0
  6
CONTINUOUS
 62
     7
100
AcDbVertex
100
AcDb2dVertex
 10
3307.298061
 20
-19821.545314
 30
0.0
  0
VERTEX
  5
7DB
100
AcDbEntity
  8
0
  6
CONTINUOUS
 62
     7
100
AcDbVertex
100
AcDb2dVertex
 10
3306.839874
 20
-19822.003493
 30
0.0
  0
VERTEX
  5
7DC
100
AcDbEntity
  8
0
  6
CONTINUOUS
 62
     7
100
AcDbVertex
100
AcDb2dVertex
 10
3306.318102
 20
-19822.525288
 30
0.0
  0
VERTEX
  5
7DD
100
AcDbEntity
  8
0
  6
CONTINUOUS
 62
     7
100
AcDbVertex
100
AcDb2dVertex
 10
3305.756473
 20
-19823.086894
 30
0.0
  0
VERTEX
  5
7DE
100
AcDbEntity
  8
0
  6
CONTINUOUS
 62
     7
100
AcDbVertex
100
AcDb2dVertex
 10
3305.180553
 20
-19823.662806
 30
0.0
  0
VERTEX
  5
7DF
100
AcDbEntity
  8
0
  6
CONTINUOUS
 62
     7
100
AcDbVertex
100
AcDb2dVertex
 10
3304.61655
 20
-19824.226832
 30
0.0
  0
VERTEX
  5
7E0
100
AcDbEntity
  8
0
  6
CONTINUOUS
 62
     7
100
AcDbVertex
100
AcDb2dVertex
 10
3304.090134
 20
-19824.753226
 30
0.0
  0
VERTEX
  5
7E1
100
AcDbEntity
  8
0
  6
CONTINUOUS
 62
     7
100
AcDbVertex
100
AcDb2dVertex
 10
3303.62525
 20
-19825.218125
 30
0.0
  0
VERTEX
  5
7E2
100
AcDbEntity
  8
0
  6
CONTINUOUS
 62
     7
100
AcDbVertex
100
AcDb2dVertex
 10
3303.243065
 20
-19825.600294
 30
0.0
  0
SEQEND
  5
7E3
100
AcDbEntity
  8
0
  6
CONTINUOUS
 62
     7
  0
POLYLINE
  5
7E4
100
AcDbEntity
  8
0
  6
CONTINUOUS
 62
     7
100
AcDb2dPolyline
 66
     1
 10
0.0
 20
0.0
 30
0.0
 70
   128
  0
VERTEX
  5
7E5
100
AcDbEntity
  8
0
  6
CONTINUOUS
 62
     7
100
AcDbVertex
100
AcDb2dVertex
 10
3694.526845
 20
-19434.316537
 30
0.0
  0
VERTEX
  5
7E6
100
AcDbEntity
  8
0
  6
CONTINUOUS
 62
     7
100
AcDbVertex
100
AcDb2dVertex
 10
3694.985024
 20
-19433.858358
 30
0.0
  0
VERTEX
  5
7E7
100
AcDbEntity
  8
0
  6
CONTINUOUS
 62
     7
100
AcDbVertex
100
AcDb2dVertex
 10
3695.506789
 20
-19433.336578
 30
0.0
  0
VERTEX
  5
7E8
100
AcDbEntity
  8
0
  6
CONTINUOUS
 62
     7
100
AcDbVertex
100
AcDb2dVertex
 10
3696.068425
 20
-19432.774957
 30
0.0
  0
VERTEX
  5
7E9
100
AcDbEntity
  8
0
  6
CONTINUOUS
 62
     7
100
AcDbVertex
100
AcDb2dVertex
 10
3696.644337
 20
-19432.19903
 30
0.0
  0
VERTEX
  5
7EA
100
AcDbEntity
  8
0
  6
CONTINUOUS
 62
     7
100
AcDbVertex
100
AcDb2dVertex
 10
3697.208333
 20
-19431.635034
 30
0.0
  0
VERTEX
  5
7EB
100
AcDbEntity
  8
0
  6
CONTINUOUS
 62
     7
100
AcDbVertex
100
AcDb2dVertex
 10
3697.734757
 20
-19431.108611
 30
0.0
  0
VERTEX
  5
7EC
100
AcDbEntity
  8
0
  6
CONTINUOUS
 62
     7
100
AcDbVertex
100
AcDb2dVertex
 10
3698.199626
 20
-19430.643726
 30
0.0
  0
VERTEX
  5
7ED
100
AcDbEntity
  8
0
  6
CONTINUOUS
 62
     7
100
AcDbVertex
100
AcDb2dVertex
 10
3698.581825
 20
-19430.261542
 30
0.0
  0
SEQEND
  5
7EE
100
AcDbEntity
  8
0
  6
CONTINUOUS
 62
     7
  0
ARC
  5
7EF
100
AcDbEntity
  8
0
  6
CONTINUOUS
 62
     7
100
AcDbCircle
 10
3689.677682
 20
-19439.165608
 30
0.0
 40
12.592305
100
AcDbArc
 50
0.0
 51
44.999752
  0
LINE
  5
7F0
100
AcDbEntity
  8
0
  6
CONTINUOUS
 62
     7
100
AcDbLine
 10
3696.535355
 20
-19439.165559
 30
0.0
 11
3702.269988
 21
-19439.165559
 31
0.0
  0
ARC
  5
7F1
100
AcDbEntity
  8
0
  6
CONTINUOUS
 62
     7
100
AcDbCircle
 10
3678.548443
 20
-19427.421623
 30
0.0
 40
21.481365
100
AcDbArc
 50
326.858852
 51
337.803266
  0
ARC
  5
7F2
100
AcDbEntity
  8
0
  6
CONTINUOUS
 62
     7
100
AcDbCircle
 10
3689.96435
 20
-19455.813593
 30
0.0
 40
21.975891
100
AcDbArc
 50
67.32009
 51
78.017457
  0
POLYLINE
  5
7F3
100
AcDbEntity
  8
0
  6
CONTINUOUS
 62
     7
100
AcDb2dPolyline
 66
     1
 10
0.0
 20
0.0
 30
0.0
 70
   128
  0
VERTEX
  5
7F4
100
AcDbEntity
  8
0
  6
CONTINUOUS
 62
     7
100
AcDbVertex
100
AcDb2dVertex
 10
3696.535355
 20
-19439.165559
 30
0.0
  0
VERTEX
  5
7F5
100
AcDbEntity
  8
0
  6
CONTINUOUS
 62
     7
100
AcDbVertex
100
AcDb2dVertex
 10
3696.361384
 20
-19439.425948
 30
0.0
  0
VERTEX
  5
7F6
100
AcDbEntity
  8
0
  6
CONTINUOUS
 62
     7
100
AcDbVertex
100
AcDb2dVertex
 10
3696.19912
 20
-19439.668776
 30
0.0
  0
VERTEX
  5
7F7
100
AcDbEntity
  8
0
  6
CONTINUOUS
 62
     7
100
AcDbVertex
100
AcDb2dVertex
 10
3696.049281
 20
-19439.893035
 30
0.0
  0
SEQEND
  5
7F8
100
AcDbEntity
  8
0
  6
CONTINUOUS
 62
     7
  0
LINE
  5
7F9
100
AcDbEntity
  8
0
  6
CONTINUOUS
 62
     7
100
AcDbLine
 10
3696.049281
 20
-19439.893035
 30
0.0
 11
3601.34882
 21
-19479.119253
 31
0.0
  0
POLYLINE
  5
7FA
100
AcDbEntity
  8
0
  6
CONTINUOUS
 62
     7
100
AcDb2dPolyline
 66
     1
 10
0.0
 20
0.0
 30
0.0
 70
   128
  0
VERTEX
  5
7FB
100
AcDbEntity
  8
0
  6
CONTINUOUS
 62
     7
100
AcDbVertex
100
AcDb2dVertex
 10
3601.34882
 20
-19479.119253
 30
0.0
  0
VERTEX
  5
7FC
100
AcDbEntity
  8
0
  6
CONTINUOUS
 62
     7
100
AcDbVertex
100
AcDb2dVertex
 10
3601.115444
 20
-19478.555847
 30
0.0
  0
VERTEX
  5
7FD
100
AcDbEntity
  8
0
  6
CONTINUOUS
 62
     7
100
AcDbVertex
100
AcDb2dVertex
 10
3600.828115
 20
-19477.862179
 30
0.0
  0
VERTEX
  5
7FE
100
AcDbEntity
  8
0
  6
CONTINUOUS
 62
     7
100
AcDbVertex
100
AcDb2dVertex
 10
3600.503035
 20
-19477.077367
 30
0.0
  0
VERTEX
  5
7FF
100
AcDbEntity
  8
0
  6
CONTINUOUS
 62
     7
100
AcDbVertex
100
AcDb2dVertex
 10
3600.158527
 20
-19476.245657
 30
0.0
  0
VERTEX
  5
800
100
AcDbEntity
  8
0
  6
CONTINUOUS
 62
     7
100
AcDbVertex
100
AcDb2dVertex
 10
3599.814034
 20
-19475.413947
 30
0.0
  0
VERTEX
  5
801
100
AcDbEntity
  8
0
  6
CONTINUOUS
 62
     7
100
AcDbVertex
100
AcDb2dVertex
 10
3599.488954
 20
-19474.629135
 30
0.0
  0
VERTEX
  5
802
100
AcDbEntity
  8
0
  6
CONTINUOUS
 62
     7
100
AcDbVertex
100
AcDb2dVertex
 10
3599.201625
 20
-19473.935467
 30
0.0
  0
VERTEX
  5
803
100
AcDbEntity
  8
0
  6
CONTINUOUS
 62
     7
100
AcDbVertex
100
AcDb2dVertex
 10
3598.96825
 20
-19473.372062
 30
0.0
  0
SEQEND
  5
804
100
AcDbEntity
  8
0
  6
CONTINUOUS
 62
     7
  0
LINE
  5
805
100
AcDbEntity
  8
0
  6
CONTINUOUS
 62
     7
100
AcDbLine
 10
3693.668726
 20
-19434.145851
 30
0.0
 11
3598.96825
 21
-19473.372062
 31
0.0
  0
POLYLINE
  5
806
100
AcDbEntity
  8
0
  6
CONTINUOUS
 62
     7
100
AcDb2dPolyline
 66
     1
 10
0.0
 20
0.0
 30
0.0
 70
   128
  0
VERTEX
  5
807
100
AcDbEntity
  8
0
  6
CONTINUOUS
 62
     7
100
AcDbVertex
100
AcDb2dVertex
 10
3693.668726
 20
-19434.145851
 30
0.0
  0
VERTEX
  5
808
100
AcDbEntity
  8
0
  6
CONTINUOUS
 62
     7
100
AcDbVertex
100
AcDb2dVertex
 10
3693.933252
 20
-19434.198461
 30
0.0
  0
VERTEX
  5
809
100
AcDbEntity
  8
0
  6
CONTINUOUS
 62
     7
100
AcDbVertex
100
AcDb2dVertex
 10
3694.21967
 20
-19434.255446
 30
0.0
  0
VERTEX
  5
80A
100
AcDbEntity
  8
0
  6
CONTINUOUS
 62
     7
100
AcDbVertex
100
AcDb2dVertex
 10
3694.526845
 20
-19434.316537
 30
0.0
  0
SEQEND
  5
80B
100
AcDbEntity
  8
0
  6
CONTINUOUS
 62
     7
  0
ARC
  5
80C
100
AcDbEntity
  8
0
  6
CONTINUOUS
 62
     7
100
AcDbCircle
 10
3167.120653
 20
-19672.178577
 30
0.0
 40
21.731542
100
AcDbArc
 50
146.922038
 51
157.74008
  0
POLYLINE
  5
80D
100
AcDbEntity
  8
0
  6
CONTINUOUS
 62
     7
100
AcDb2dPolyline
 66
     1
 10
0.0
 20
0.0
 30
0.0
 70
   128
  0
VERTEX
  5
80E
100
AcDbEntity
  8
0
  6
CONTINUOUS
 62
     7
100
AcDbVertex
100
AcDb2dVertex
 10
3149.397275
 20
-19659.590466
 30
0.0
  0
VERTEX
  5
80F
100
AcDbEntity
  8
0
  6
CONTINUOUS
 62
     7
100
AcDbVertex
100
AcDb2dVertex
 10
3149.247405
 20
-19659.814725
 30
0.0
  0
VERTEX
  5
810
100
AcDbEntity
  8
0
  6
CONTINUOUS
 62
     7
100
AcDbVertex
100
AcDb2dVertex
 10
3149.085172
 20
-19660.057553
 30
0.0
  0
VERTEX
  5
811
100
AcDbEntity
  8
0
  6
CONTINUOUS
 62
     7
100
AcDbVertex
100
AcDb2dVertex
 10
3148.91117
 20
-19660.317942
 30
0.0
  0
SEQEND
  5
812
100
AcDbEntity
  8
0
  6
CONTINUOUS
 62
     7
  0
LINE
  5
813
100
AcDbEntity
  8
0
  6
CONTINUOUS
 62
     7
100
AcDbLine
 10
3149.397275
 20
-19659.590466
 30
0.0
 11
3244.097721
 21
-19620.364248
 31
0.0
  0
POLYLINE
  5
814
100
AcDbEntity
  8
0
  6
CONTINUOUS
 62
     7
100
AcDb2dPolyline
 66
     1
 10
0.0
 20
0.0
 30
0.0
 70
   128
  0
VERTEX
  5
815
100
AcDbEntity
  8
0
  6
CONTINUOUS
 62
     7
100
AcDbVertex
100
AcDb2dVertex
 10
3244.097721
 20
-19620.364248
 30
0.0
  0
VERTEX
  5
816
100
AcDbEntity
  8
0
  6
CONTINUOUS
 62
     7
100
AcDbVertex
100
AcDb2dVertex
 10
3244.331096
 20
-19620.927654
 30
0.0
  0
VERTEX
  5
817
100
AcDbEntity
  8
0
  6
CONTINUOUS
 62
     7
100
AcDbVertex
100
AcDb2dVertex
 10
3244.618425
 20
-19621.621322
 30
0.0
  0
VERTEX
  5
818
100
AcDbEntity
  8
0
  6
CONTINUOUS
 62
     7
100
AcDbVertex
100
AcDb2dVertex
 10
3244.943505
 20
-19622.406134
 30
0.0
  0
VERTEX
  5
819
100
AcDbEntity
  8
0
  6
CONTINUOUS
 62
     7
100
AcDbVertex
100
AcDb2dVertex
 10
3245.288013
 20
-19623.237844
 30
0.0
  0
VERTEX
  5
81A
100
AcDbEntity
  8
0
  6
CONTINUOUS
 62
     7
100
AcDbVertex
100
AcDb2dVertex
 10
3245.632506
 20
-19624.069554
 30
0.0
  0
VERTEX
  5
81B
100
AcDbEntity
  8
0
  6
CONTINUOUS
 62
     7
100
AcDbVertex
100
AcDb2dVertex
 10
3245.957586
 20
-19624.854366
 30
0.0
  0
VERTEX
  5
81C
100
AcDbEntity
  8
0
  6
CONTINUOUS
 62
     7
100
AcDbVertex
100
AcDb2dVertex
 10
3246.244915
 20
-19625.548026
 30
0.0
  0
VERTEX
  5
81D
100
AcDbEntity
  8
0
  6
CONTINUOUS
 62
     7
100
AcDbVertex
100
AcDb2dVertex
 10
3246.478291
 20
-19626.111432
 30
0.0
  0
SEQEND
  5
81E
100
AcDbEntity
  8
0
  6
CONTINUOUS
 62
     7
  0
LINE
  5
81F
100
AcDbEntity
  8
0
  6
CONTINUOUS
 62
     7
100
AcDbLine
 10
3151.77783
 20
-19665.33765
 30
0.0
 11
3246.478291
 21
-19626.111432
 31
0.0
  0
POLYLINE
  5
820
100
AcDbEntity
  8
0
  6
CONTINUOUS
 62
     7
100
AcDb2dPolyline
 66
     1
 10
0.0
 20
0.0
 30
0.0
 70
   128
  0
VERTEX
  5
821
100
AcDbEntity
  8
0
  6
CONTINUOUS
 62
     7
100
AcDbVertex
100
AcDb2dVertex
 10
3151.77783
 20
-19665.33765
 30
0.0
  0
VERTEX
  5
822
100
AcDbEntity
  8
0
  6
CONTINUOUS
 62
     7
100
AcDbVertex
100
AcDb2dVertex
 10
3151.513304
 20
-19665.285033
 30
0.0
  0
VERTEX
  5
823
100
AcDbEntity
  8
0
  6
CONTINUOUS
 62
     7
100
AcDbVertex
100
AcDb2dVertex
 10
3151.226856
 20
-19665.228055
 30
0.0
  0
VERTEX
  5
824
100
AcDbEntity
  8
0
  6
CONTINUOUS
 62
     7
100
AcDbVertex
100
AcDb2dVertex
 10
3150.91971
 20
-19665.166964
 30
0.0
  0
SEQEND
  5
825
100
AcDbEntity
  8
0
  6
CONTINUOUS
 62
     7
  0
ARC
  5
826
100
AcDbEntity
  8
0
  6
CONTINUOUS
 62
     7
100
AcDbCircle
 10
3155.481998
 20
-19643.670364
 30
0.0
 40
21.975401
100
AcDbArc
 50
247.320058
 51
258.017738
  0
POLYLINE
  5
827
100
AcDbEntity
  8
0
  6
CONTINUOUS
 62
     7
100
AcDb2dPolyline
 66
     1
 10
0.0
 20
0.0
 30
0.0
 70
   128
  0
VERTEX
  5
828
100
AcDbEntity
  8
0
  6
CONTINUOUS
 62
     7
100
AcDbVertex
100
AcDb2dVertex
 10
3150.91971
 20
-19665.166964
 30
0.0
  0
VERTEX
  5
829
100
AcDbEntity
  8
0
  6
CONTINUOUS
 62
     7
100
AcDbVertex
100
AcDb2dVertex
 10
3150.461531
 20
-19665.625143
 30
0.0
  0
VERTEX
  5
82A
100
AcDbEntity
  8
0
  6
CONTINUOUS
 62
     7
100
AcDbVertex
100
AcDb2dVertex
 10
3149.939737
 20
-19666.146923
 30
0.0
  0
VERTEX
  5
82B
100
AcDbEntity
  8
0
  6
CONTINUOUS
 62
     7
100
AcDbVertex
100
AcDb2dVertex
 10
3149.37813
 20
-19666.708551
 30
0.0
  0
VERTEX
  5
82C
100
AcDbEntity
  8
0
  6
CONTINUOUS
 62
     7
100
AcDbVertex
100
AcDb2dVertex
 10
3148.802188
 20
-19667.284464
 30
0.0
  0
VERTEX
  5
82D
100
AcDbEntity
  8
0
  6
CONTINUOUS
 62
     7
100
AcDbVertex
100
AcDb2dVertex
 10
3148.238193
 20
-19667.848467
 30
0.0
  0
VERTEX
  5
82E
100
AcDbEntity
  8
0
  6
CONTINUOUS
 62
     7
100
AcDbVertex
100
AcDb2dVertex
 10
3147.711769
 20
-19668.37489
 30
0.0
  0
VERTEX
  5
82F
100
AcDbEntity
  8
0
  6
CONTINUOUS
 62
     7
100
AcDbVertex
100
AcDb2dVertex
 10
3147.2469
 20
-19668.839767
 30
0.0
  0
VERTEX
  5
830
100
AcDbEntity
  8
0
  6
CONTINUOUS
 62
     7
100
AcDbVertex
100
AcDb2dVertex
 10
3146.8647
 20
-19669.221952
 30
0.0
  0
SEQEND
  5
831
100
AcDbEntity
  8
0
  6
CONTINUOUS
 62
     7
  0
ARC
  5
832
100
AcDbEntity
  8
0
  6
CONTINUOUS
 62
     7
100
AcDbCircle
 10
3155.768774
 20
-19660.317915
 30
0.0
 40
12.592236
100
AcDbArc
 50
180.0
 51
224.999882
  0
LINE
  5
833
100
AcDbEntity
  8
0
  6
CONTINUOUS
 62
     7
100
AcDbLine
 10
3148.91117
 20
-19660.317942
 30
0.0
 11
3143.176538
 21
-19660.317942
 31
0.0
  0
ARC
  5
834
100
AcDbEntity
  8
0
  6
CONTINUOUS
 62
     7
100
AcDbCircle
 10
3545.029784
 20
-19805.592603
 30
0.0
 40
21.452433
100
AcDbArc
 50
236.851838
 51
247.81102
  0
POLYLINE
  5
835
100
AcDbEntity
  8
0
  6
CONTINUOUS
 62
     7
100
AcDb2dPolyline
 66
     1
 10
0.0
 20
0.0
 30
0.0
 70
   128
  0
VERTEX
  5
836
100
AcDbEntity
  8
0
  6
CONTINUOUS
 62
     7
100
AcDbVertex
100
AcDb2dVertex
 10
3533.299466
 20
-19823.553854
 30
0.0
  0
VERTEX
  5
837
100
AcDbEntity
  8
0
  6
CONTINUOUS
 62
     7
100
AcDbVertex
100
AcDb2dVertex
 10
3533.039076
 20
-19823.379853
 30
0.0
  0
VERTEX
  5
838
100
AcDbEntity
  8
0
  6
CONTINUOUS
 62
     7
100
AcDbVertex
100
AcDb2dVertex
 10
3532.796241
 20
-19823.217589
 30
0.0
  0
VERTEX
  5
839
100
AcDbEntity
  8
0
  6
CONTINUOUS
 62
     7
100
AcDbVertex
100
AcDb2dVertex
 10
3532.57199
 20
-19823.06775
 30
0.0
  0
SEQEND
  5
83A
100
AcDbEntity
  8
0
  6
CONTINUOUS
 62
     7
  0
LINE
  5
83B
100
AcDbEntity
  8
0
  6
CONTINUOUS
 62
     7
100
AcDbLine
 10
3532.57199
 20
-19823.06775
 30
0.0
 11
3493.345772
 21
-19728.367289
 31
0.0
  0
POLYLINE
  5
83C
100
AcDbEntity
  8
0
  6
CONTINUOUS
 62
     7
100
AcDb2dPolyline
 66
     1
 10
0.0
 20
0.0
 30
0.0
 70
   128
  0
VERTEX
  5
83D
100
AcDbEntity
  8
0
  6
CONTINUOUS
 62
     7
100
AcDbVertex
100
AcDb2dVertex
 10
3493.345772
 20
-19728.367289
 30
0.0
  0
VERTEX
  5
83E
100
AcDbEntity
  8
0
  6
CONTINUOUS
 62
     7
100
AcDbVertex
100
AcDb2dVertex
 10
3493.909177
 20
-19728.133928
 30
0.0
  0
VERTEX
  5
83F
100
AcDbEntity
  8
0
  6
CONTINUOUS
 62
     7
100
AcDbVertex
100
AcDb2dVertex
 10
3494.602838
 20
-19727.846599
 30
0.0
  0
VERTEX
  5
840
100
AcDbEntity
  8
0
  6
CONTINUOUS
 62
     7
100
AcDbVertex
100
AcDb2dVertex
 10
3495.387657
 20
-19727.521519
 30
0.0
  0
VERTEX
  5
841
100
AcDbEntity
  8
0
  6
CONTINUOUS
 62
     7
100
AcDbVertex
100
AcDb2dVertex
 10
3496.21936
 20
-19727.177011
 30
0.0
  0
VERTEX
  5
842
100
AcDbEntity
  8
0
  6
CONTINUOUS
 62
     7
100
AcDbVertex
100
AcDb2dVertex
 10
3497.05107
 20
-19726.832503
 30
0.0
  0
VERTEX
  5
843
100
AcDbEntity
  8
0
  6
CONTINUOUS
 62
     7
100
AcDbVertex
100
AcDb2dVertex
 10
3497.835882
 20
-19726.507423
 30
0.0
  0
VERTEX
  5
844
100
AcDbEntity
  8
0
  6
CONTINUOUS
 62
     7
100
AcDbVertex
100
AcDb2dVertex
 10
3498.52955
 20
-19726.220109
 30
0.0
  0
VERTEX
  5
845
100
AcDbEntity
  8
0
  6
CONTINUOUS
 62
     7
100
AcDbVertex
100
AcDb2dVertex
 10
3499.092955
 20
-19725.986734
 30
0.0
  0
SEQEND
  5
846
100
AcDbEntity
  8
0
  6
CONTINUOUS
 62
     7
  0
LINE
  5
847
100
AcDbEntity
  8
0
  6
CONTINUOUS
 62
     7
100
AcDbLine
 10
3538.319173
 20
-19820.687195
 30
0.0
 11
3499.092955
 21
-19725.986734
 31
0.0
  0
POLYLINE
  5
848
100
AcDbEntity
  8
0
  6
CONTINUOUS
 62
     7
100
AcDb2dPolyline
 66
     1
 10
0.0
 20
0.0
 30
0.0
 70
   128
  0
VERTEX
  5
849
100
AcDbEntity
  8
0
  6
CONTINUOUS
 62
     7
100
AcDbVertex
100
AcDb2dVertex
 10
3538.319173
 20
-19820.687195
 30
0.0
  0
VERTEX
  5
84A
100
AcDbEntity
  8
0
  6
CONTINUOUS
 62
     7
100
AcDbVertex
100
AcDb2dVertex
 10
3538.266556
 20
-19820.951721
 30
0.0
  0
VERTEX
  5
84B
100
AcDbEntity
  8
0
  6
CONTINUOUS
 62
     7
100
AcDbVertex
100
AcDb2dVertex
 10
3538.209579
 20
-19821.238169
 30
0.0
  0
VERTEX
  5
84C
100
AcDbEntity
  8
0
  6
CONTINUOUS
 62
     7
100
AcDbVertex
100
AcDb2dVertex
 10
3538.14848
 20
-19821.545314
 30
0.0
  0
SEQEND
  5
84D
100
AcDbEntity
  8
0
  6
CONTINUOUS
 62
     7
  0
ARC
  5
84E
100
AcDbEntity
  8
0
  6
CONTINUOUS
 62
     7
100
AcDbCircle
 10
3516.54067
 20
-19816.948296
 30
0.0
 40
22.091402
100
AcDbArc
 50
337.348241
 51
347.989506
  0
POLYLINE
  5
84F
100
AcDbEntity
  8
0
  6
CONTINUOUS
 62
     7
100
AcDb2dPolyline
 66
     1
 10
0.0
 20
0.0
 30
0.0
 70
   128
  0
VERTEX
  5
850
100
AcDbEntity
  8
0
  6
CONTINUOUS
 62
     7
100
AcDbVertex
100
AcDb2dVertex
 10
3538.14848
 20
-19821.545314
 30
0.0
  0
VERTEX
  5
851
100
AcDbEntity
  8
0
  6
CONTINUOUS
 62
     7
100
AcDbVertex
100
AcDb2dVertex
 10
3538.606666
 20
-19822.003493
 30
0.0
  0
VERTEX
  5
852
100
AcDbEntity
  8
0
  6
CONTINUOUS
 62
     7
100
AcDbVertex
100
AcDb2dVertex
 10
3539.128439
 20
-19822.525288
 30
0.0
  0
VERTEX
  5
853
100
AcDbEntity
  8
0
  6
CONTINUOUS
 62
     7
100
AcDbVertex
100
AcDb2dVertex
 10
3539.690067
 20
-19823.086894
 30
0.0
  0
VERTEX
  5
854
100
AcDbEntity
  8
0
  6
CONTINUOUS
 62
     7
100
AcDbVertex
100
AcDb2dVertex
 10
3540.265987
 20
-19823.662806
 30
0.0
  0
VERTEX
  5
855
100
AcDbEntity
  8
0
  6
CONTINUOUS
 62
     7
100
AcDbVertex
100
AcDb2dVertex
 10
3540.82999
 20
-19824.226832
 30
0.0
  0
VERTEX
  5
856
100
AcDbEntity
  8
0
  6
CONTINUOUS
 62
     7
100
AcDbVertex
100
AcDb2dVertex
 10
3541.356406
 20
-19824.753226
 30
0.0
  0
VERTEX
  5
857
100
AcDbEntity
  8
0
  6
CONTINUOUS
 62
     7
100
AcDbVertex
100
AcDb2dVertex
 10
3541.821291
 20
-19825.218125
 30
0.0
  0
VERTEX
  5
858
100
AcDbEntity
  8
0
  6
CONTINUOUS
 62
     7
100
AcDbVertex
100
AcDb2dVertex
 10
3542.203475
 20
-19825.600294
 30
0.0
  0
SEQEND
  5
859
100
AcDbEntity
  8
0
  6
CONTINUOUS
 62
     7
  0
ARC
  5
85A
100
AcDbEntity
  8
0
  6
CONTINUOUS
 62
     7
100
AcDbCircle
 10
3533.299562
 20
-19816.696521
 30
0.0
 40
12.591936
100
AcDbArc
 50
269.999561
 51
315.000448
  0
LINE
  5
85B
100
AcDbEntity
  8
0
  6
CONTINUOUS
 62
     7
100
AcDbLine
 10
3533.299466
 20
-19823.553854
 30
0.0
 11
3533.299466
 21
-19829.288457
 31
0.0
  0
POLYLINE
  5
85C
100
AcDbEntity
  8
0
  6
CONTINUOUS
 62
     7
100
AcDb2dPolyline
 66
     1
 10
0.0
 20
0.0
 30
0.0
 70
   128
  0
VERTEX
  5
85D
100
AcDbEntity
  8
0
  6
CONTINUOUS
 62
     7
100
AcDbVertex
100
AcDb2dVertex
 10
3307.298061
 20
-19277.93818
 30
0.0
  0
VERTEX
  5
85E
100
AcDbEntity
  8
0
  6
CONTINUOUS
 62
     7
100
AcDbVertex
100
AcDb2dVertex
 10
3306.839874
 20
-19277.48
 30
0.0
  0
VERTEX
  5
85F
100
AcDbEntity
  8
0
  6
CONTINUOUS
 62
     7
100
AcDbVertex
100
AcDb2dVertex
 10
3306.318102
 20
-19276.958236
 30
0.0
  0
VERTEX
  5
860
100
AcDbEntity
  8
0
  6
CONTINUOUS
 62
     7
100
AcDbVertex
100
AcDb2dVertex
 10
3305.756473
 20
-19276.396599
 30
0.0
  0
VERTEX
  5
861
100
AcDbEntity
  8
0
  6
CONTINUOUS
 62
     7
100
AcDbVertex
100
AcDb2dVertex
 10
3305.180553
 20
-19275.820687
 30
0.0
  0
VERTEX
  5
862
100
AcDbEntity
  8
0
  6
CONTINUOUS
 62
     7
100
AcDbVertex
100
AcDb2dVertex
 10
3304.61655
 20
-19275.256692
 30
0.0
  0
VERTEX
  5
863
100
AcDbEntity
  8
0
  6
CONTINUOUS
 62
     7
100
AcDbVertex
100
AcDb2dVertex
 10
3304.090134
 20
-19274.730268
 30
0.0
  0
VERTEX
  5
864
100
AcDbEntity
  8
0
  6
CONTINUOUS
 62
     7
100
AcDbVertex
100
AcDb2dVertex
 10
3303.62525
 20
-19274.265369
 30
0.0
  0
VERTEX
  5
865
100
AcDbEntity
  8
0
  6
CONTINUOUS
 62
     7
100
AcDbVertex
100
AcDb2dVertex
 10
3303.243065
 20
-19273.883199
 30
0.0
  0
SEQEND
  5
866
100
AcDbEntity
  8
0
  6
CONTINUOUS
 62
     7
  0
ARC
  5
867
100
AcDbEntity
  8
0
  6
CONTINUOUS
 62
     7
100
AcDbCircle
 10
3312.147117
 20
-19282.787307
 30
0.0
 40
12.59227
100
AcDbArc
 50
90.000192
 51
134.999817
  0
LINE
  5
868
100
AcDbEntity
  8
0
  6
CONTINUOUS
 62
     7
100
AcDbLine
 10
3312.147075
 20
-19275.929669
 30
0.0
 11
3312.147075
 21
-19270.195037
 31
0.0
  0
ARC
  5
869
100
AcDbEntity
  8
0
  6
CONTINUOUS
 62
     7
100
AcDbCircle
 10
3300.41648
 20
-19293.891135
 30
0.0
 40
21.452764
100
AcDbArc
 50
56.851534
 51
67.810584
  0
ARC
  5
86A
100
AcDbEntity
  8
0
  6
CONTINUOUS
 62
     7
100
AcDbCircle
 10
3328.905871
 20
-19282.535198
 30
0.0
 40
22.091402
100
AcDbArc
 50
157.348241
 51
167.989506
  0
POLYLINE
  5
86B
100
AcDbEntity
  8
0
  6
CONTINUOUS
 62
     7
100
AcDb2dPolyline
 66
     1
 10
0.0
 20
0.0
 30
0.0
 70
   128
  0
VERTEX
  5
86C
100
AcDbEntity
  8
0
  6
CONTINUOUS
 62
     7
100
AcDbVertex
100
AcDb2dVertex
 10
3312.147075
 20
-19275.929669
 30
0.0
  0
VERTEX
  5
86D
100
AcDbEntity
  8
0
  6
CONTINUOUS
 62
     7
100
AcDbVertex
100
AcDb2dVertex
 10
3312.407464
 20
-19276.103641
 30
0.0
  0
VERTEX
  5
86E
100
AcDbEntity
  8
0
  6
CONTINUOUS
 62
     7
100
AcDbVertex
100
AcDb2dVertex
 10
3312.6503
 20
-19276.265904
 30
0.0
  0
VERTEX
  5
86F
100
AcDbEntity
  8
0
  6
CONTINUOUS
 62
     7
100
AcDbVertex
100
AcDb2dVertex
 10
3312.874551
 20
-19276.415744
 30
0.0
  0
SEQEND
  5
870
100
AcDbEntity
  8
0
  6
CONTINUOUS
 62
     7
  0
LINE
  5
871
100
AcDbEntity
  8
0
  6
CONTINUOUS
 62
     7
100
AcDbLine
 10
3312.874551
 20
-19276.415744
 30
0.0
 11
3352.100769
 21
-19371.116205
 31
0.0
  0
POLYLINE
  5
872
100
AcDbEntity
  8
0
  6
CONTINUOUS
 62
     7
100
AcDb2dPolyline
 66
     1
 10
0.0
 20
0.0
 30
0.0
 70
   128
  0
VERTEX
  5
873
100
AcDbEntity
  8
0
  6
CONTINUOUS
 62
     7
100
AcDbVertex
100
AcDb2dVertex
 10
3352.100769
 20
-19371.116205
 30
0.0
  0
VERTEX
  5
874
100
AcDbEntity
  8
0
  6
CONTINUOUS
 62
     7
100
AcDbVertex
100
AcDb2dVertex
 10
3351.537363
 20
-19371.34958
 30
0.0
  0
VERTEX
  5
875
100
AcDbEntity
  8
0
  6
CONTINUOUS
 62
     7
100
AcDbVertex
100
AcDb2dVertex
 10
3350.843703
 20
-19371.636894
 30
0.0
  0
VERTEX
  5
876
100
AcDbEntity
  8
0
  6
CONTINUOUS
 62
     7
100
AcDbVertex
100
AcDb2dVertex
 10
3350.058883
 20
-19371.961974
 30
0.0
  0
VERTEX
  5
877
100
AcDbEntity
  8
0
  6
CONTINUOUS
 62
     7
100
AcDbVertex
100
AcDb2dVertex
 10
3349.227181
 20
-19372.306482
 30
0.0
  0
VERTEX
  5
878
100
AcDbEntity
  8
0
  6
CONTINUOUS
 62
     7
100
AcDbVertex
100
AcDb2dVertex
 10
3348.395471
 20
-19372.65099
 30
0.0
  0
VERTEX
  5
879
100
AcDbEntity
  8
0
  6
CONTINUOUS
 62
     7
100
AcDbVertex
100
AcDb2dVertex
 10
3347.610658
 20
-19372.97607
 30
0.0
  0
VERTEX
  5
87A
100
AcDbEntity
  8
0
  6
CONTINUOUS
 62
     7
100
AcDbVertex
100
AcDb2dVertex
 10
3346.916991
 20
-19373.263399
 30
0.0
  0
VERTEX
  5
87B
100
AcDbEntity
  8
0
  6
CONTINUOUS
 62
     7
100
AcDbVertex
100
AcDb2dVertex
 10
3346.353585
 20
-19373.49676
 30
0.0
  0
SEQEND
  5
87C
100
AcDbEntity
  8
0
  6
CONTINUOUS
 62
     7
  0
LINE
  5
87D
100
AcDbEntity
  8
0
  6
CONTINUOUS
 62
     7
100
AcDbLine
 10
3307.127367
 20
-19278.796299
 30
0.0
 11
3346.353585
 21
-19373.49676
 31
0.0
  0
POLYLINE
  5
87E
100
AcDbEntity
  8
0
  6
CONTINUOUS
 62
     7
100
AcDb2dPolyline
 66
     1
 10
0.0
 20
0.0
 30
0.0
 70
   128
  0
VERTEX
  5
87F
100
AcDbEntity
  8
0
  6
CONTINUOUS
 62
     7
100
AcDbVertex
100
AcDb2dVertex
 10
3307.127367
 20
-19278.796299
 30
0.0
  0
VERTEX
  5
880
100
AcDbEntity
  8
0
  6
CONTINUOUS
 62
     7
100
AcDbVertex
100
AcDb2dVertex
 10
3307.179984
 20
-19278.531773
 30
0.0
  0
VERTEX
  5
881
100
AcDbEntity
  8
0
  6
CONTINUOUS
 62
     7
100
AcDbVertex
100
AcDb2dVertex
 10
3307.236962
 20
-19278.245325
 30
0.0
  0
VERTEX
  5
882
100
AcDbEntity
  8
0
  6
CONTINUOUS
 62
     7
100
AcDbVertex
100
AcDb2dVertex
 10
3307.298061
 20
-19277.93818
 30
0.0
  0
SEQEND
  5
883
100
AcDbEntity
  8
0
  6
CONTINUOUS
 62
     7
  0
POLYLINE
  5
884
100
AcDbEntity
  8
0
  6
CONTINUOUS
 62
     7
100
AcDb2dPolyline
 66
     1
 10
0.0
 20
0.0
 30
0.0
 70
   128
  0
VERTEX
  5
885
100
AcDbEntity
  8
0
  6
CONTINUOUS
 62
     7
100
AcDbVertex
100
AcDb2dVertex
 10
3473.919906
 20
-19276.415744
 30
0.0
  0
VERTEX
  5
886
100
AcDbEntity
  8
0
  6
CONTINUOUS
 62
     7
100
AcDbVertex
100
AcDb2dVertex
 10
3474.499122
 20
-19275.940391
 30
0.0
  0
VERTEX
  5
887
100
AcDbEntity
  8
0
  6
CONTINUOUS
 62
     7
100
AcDbVertex
100
AcDb2dVertex
 10
3475.194403
 20
-19275.369795
 30
0.0
  0
VERTEX
  5
888
100
AcDbEntity
  8
0
  6
CONTINUOUS
 62
     7
100
AcDbVertex
100
AcDb2dVertex
 10
3475.980615
 20
-19274.724563
 30
0.0
  0
VERTEX
  5
889
100
AcDbEntity
  8
0
  6
CONTINUOUS
 62
     7
100
AcDbVertex
100
AcDb2dVertex
 10
3476.829334
 20
-19274.028021
 30
0.0
  0
VERTEX
  5
88A
100
AcDbEntity
  8
0
  6
CONTINUOUS
 62
     7
100
AcDbVertex
100
AcDb2dVertex
 10
3477.709882
 20
-19273.305375
 30
0.0
  0
SEQEND
  5
88B
100
AcDbEntity
  8
0
  6
CONTINUOUS
 62
     7
  0
LINE
  5
88C
100
AcDbEntity
  8
0
  6
CONTINUOUS
 62
     7
100
AcDbLine
 10
3473.919906
 20
-19276.415744
 30
0.0
 11
3425.833624
 21
-19276.415744
 31
0.0
  0
POLYLINE
  5
88D
100
AcDbEntity
  8
0
  6
CONTINUOUS
 62
     7
100
AcDb2dPolyline
 66
     1
 10
0.0
 20
0.0
 30
0.0
 70
   128
  0
VERTEX
  5
88E
100
AcDbEntity
  8
0
  6
CONTINUOUS
 62
     7
100
AcDbVertex
100
AcDb2dVertex
 10
3422.72327
 20
-19273.305375
 30
0.0
  0
VERTEX
  5
88F
100
AcDbEntity
  8
0
  6
CONTINUOUS
 62
     7
100
AcDbVertex
100
AcDb2dVertex
 10
3423.445918
 20
-19274.028021
 30
0.0
  0
VERTEX
  5
890
100
AcDbEntity
  8
0
  6
CONTINUOUS
 62
     7
100
AcDbVertex
100
AcDb2dVertex
 10
3424.142444
 20
-19274.724563
 30
0.0
  0
VERTEX
  5
891
100
AcDbEntity
  8
0
  6
CONTINUOUS
 62
     7
100
AcDbVertex
100
AcDb2dVertex
 10
3424.78767
 20
-19275.369795
 30
0.0
  0
VERTEX
  5
892
100
AcDbEntity
  8
0
  6
CONTINUOUS
 62
     7
100
AcDbVertex
100
AcDb2dVertex
 10
3425.358272
 20
-19275.940391
 30
0.0
  0
VERTEX
  5
893
100
AcDbEntity
  8
0
  6
CONTINUOUS
 62
     7
100
AcDbVertex
100
AcDb2dVertex
 10
3425.833624
 20
-19276.415744
 30
0.0
  0
SEQEND
  5
894
100
AcDbEntity
  8
0
  6
CONTINUOUS
 62
     7
  0
POLYLINE
  5
895
100
AcDbEntity
  8
0
  6
CONTINUOUS
 62
     7
100
AcDb2dPolyline
 66
     1
 10
0.0
 20
0.0
 30
0.0
 70
   128
  0
VERTEX
  5
896
100
AcDbEntity
  8
0
  6
CONTINUOUS
 62
     7
100
AcDbVertex
100
AcDb2dVertex
 10
3419.612916
 20
-19276.415744
 30
0.0
  0
VERTEX
  5
897
100
AcDbEntity
  8
0
  6
CONTINUOUS
 62
     7
100
AcDbVertex
100
AcDb2dVertex
 10
3420.088269
 20
-19275.940391
 30
0.0
  0
VERTEX
  5
898
100
AcDbEntity
  8
0
  6
CONTINUOUS
 62
     7
100
AcDbVertex
100
AcDb2dVertex
 10
3420.658871
 20
-19275.369795
 30
0.0
  0
VERTEX
  5
899
100
AcDbEntity
  8
0
  6
CONTINUOUS
 62
     7
100
AcDbVertex
100
AcDb2dVertex
 10
3421.304096
 20
-19274.724563
 30
0.0
  0
VERTEX
  5
89A
100
AcDbEntity
  8
0
  6
CONTINUOUS
 62
     7
100
AcDbVertex
100
AcDb2dVertex
 10
3422.000622
 20
-19274.028021
 30
0.0
  0
VERTEX
  5
89B
100
AcDbEntity
  8
0
  6
CONTINUOUS
 62
     7
100
AcDbVertex
100
AcDb2dVertex
 10
3422.72327
 20
-19273.305375
 30
0.0
  0
SEQEND
  5
89C
100
AcDbEntity
  8
0
  6
CONTINUOUS
 62
     7
  0
LINE
  5
89D
100
AcDbEntity
  8
0
  6
CONTINUOUS
 62
     7
100
AcDbLine
 10
3419.612916
 20
-19276.415744
 30
0.0
 11
3371.526634
 21
-19276.415744
 31
0.0
  0
POLYLINE
  5
89E
100
AcDbEntity
  8
0
  6
CONTINUOUS
 62
     7
100
AcDb2dPolyline
 66
     1
 10
0.0
 20
0.0
 30
0.0
 70
   128
  0
VERTEX
  5
89F
100
AcDbEntity
  8
0
  6
CONTINUOUS
 62
     7
100
AcDbVertex
100
AcDb2dVertex
 10
3367.736658
 20
-19273.305375
 30
0.0
  0
VERTEX
  5
8A0
100
AcDbEntity
  8
0
  6
CONTINUOUS
 62
     7
100
AcDbVertex
100
AcDb2dVertex
 10
3368.617207
 20
-19274.028021
 30
0.0
  0
VERTEX
  5
8A1
100
AcDbEntity
  8
0
  6
CONTINUOUS
 62
     7
100
AcDbVertex
100
AcDb2dVertex
 10
3369.465925
 20
-19274.724563
 30
0.0
  0
VERTEX
  5
8A2
100
AcDbEntity
  8
0
  6
CONTINUOUS
 62
     7
100
AcDbVertex
100
AcDb2dVertex
 10
3370.252138
 20
-19275.369795
 30
0.0
  0
VERTEX
  5
8A3
100
AcDbEntity
  8
0
  6
CONTINUOUS
 62
     7
100
AcDbVertex
100
AcDb2dVertex
 10
3370.947418
 20
-19275.940391
 30
0.0
  0
VERTEX
  5
8A4
100
AcDbEntity
  8
0
  6
CONTINUOUS
 62
     7
100
AcDbVertex
100
AcDb2dVertex
 10
3371.526634
 20
-19276.415744
 30
0.0
  0
SEQEND
  5
8A5
100
AcDbEntity
  8
0
  6
CONTINUOUS
 62
     7
  0
POLYLINE
  5
8A6
100
AcDbEntity
  8
0
  6
CONTINUOUS
 62
     7
100
AcDb2dPolyline
 66
     1
 10
0.0
 20
0.0
 30
0.0
 70
   128
  0
VERTEX
  5
8A7
100
AcDbEntity
  8
0
  6
CONTINUOUS
 62
     7
100
AcDbVertex
100
AcDb2dVertex
 10
3365.184058
 20
-19276.415744
 30
0.0
  0
VERTEX
  5
8A8
100
AcDbEntity
  8
0
  6
CONTINUOUS
 62
     7
100
AcDbVertex
100
AcDb2dVertex
 10
3365.574168
 20
-19275.940391
 30
0.0
  0
VERTEX
  5
8A9
100
AcDbEntity
  8
0
  6
CONTINUOUS
 62
     7
100
AcDbVertex
100
AcDb2dVertex
 10
3366.04245
 20
-19275.369795
 30
0.0
  0
VERTEX
  5
8AA
100
AcDbEntity
  8
0
  6
CONTINUOUS
 62
     7
100
AcDbVertex
100
AcDb2dVertex
 10
3366.571972
 20
-19274.724563
 30
0.0
  0
VERTEX
  5
8AB
100
AcDbEntity
  8
0
  6
CONTINUOUS
 62
     7
100
AcDbVertex
100
AcDb2dVertex
 10
3367.143595
 20
-19274.028021
 30
0.0
  0
VERTEX
  5
8AC
100
AcDbEntity
  8
0
  6
CONTINUOUS
 62
     7
100
AcDbVertex
100
AcDb2dVertex
 10
3367.736658
 20
-19273.305375
 30
0.0
  0
SEQEND
  5
8AD
100
AcDbEntity
  8
0
  6
CONTINUOUS
 62
     7
  0
LINE
  5
8AE
100
AcDbEntity
  8
0
  6
CONTINUOUS
 62
     7
100
AcDbLine
 10
3365.184058
 20
-19276.415744
 30
0.0
 11
3312.874551
 21
-19276.415744
 31
0.0
  0
LINE
  5
8AF
100
AcDbEntity
  8
0
  6
CONTINUOUS
 62
     7
100
AcDbLine
 10
3533.299466
 20
-19270.195037
 30
0.0
 11
3312.147075
 21
-19270.195037
 31
0.0
  0
LINE
  5
8B0
100
AcDbEntity
  8
0
  6
CONTINUOUS
 62
     7
100
AcDbLine
 10
3532.57199
 20
-19276.415744
 30
0.0
 11
3480.262482
 21
-19276.415744
 31
0.0
  0
POLYLINE
  5
8B1
100
AcDbEntity
  8
0
  6
CONTINUOUS
 62
     7
100
AcDb2dPolyline
 66
     1
 10
0.0
 20
0.0
 30
0.0
 70
   128
  0
VERTEX
  5
8B2
100
AcDbEntity
  8
0
  6
CONTINUOUS
 62
     7
100
AcDbVertex
100
AcDb2dVertex
 10
3477.709882
 20
-19273.305375
 30
0.0
  0
VERTEX
  5
8B3
100
AcDbEntity
  8
0
  6
CONTINUOUS
 62
     7
100
AcDbVertex
100
AcDb2dVertex
 10
3478.302942
 20
-19274.028021
 30
0.0
  0
VERTEX
  5
8B4
100
AcDbEntity
  8
0
  6
CONTINUOUS
 62
     7
100
AcDbVertex
100
AcDb2dVertex
 10
3478.874568
 20
-19274.724563
 30
0.0
  0
VERTEX
  5
8B5
100
AcDbEntity
  8
0
  6
CONTINUOUS
 62
     7
100
AcDbVertex
100
AcDb2dVertex
 10
3479.404091
 20
-19275.369795
 30
0.0
  0
VERTEX
  5
8B6
100
AcDbEntity
  8
0
  6
CONTINUOUS
 62
     7
100
AcDbVertex
100
AcDb2dVertex
 10
3479.872372
 20
-19275.940391
 30
0.0
  0
VERTEX
  5
8B7
100
AcDbEntity
  8
0
  6
CONTINUOUS
 62
     7
100
AcDbVertex
100
AcDb2dVertex
 10
3480.262482
 20
-19276.415744
 30
0.0
  0
SEQEND
  5
8B8
100
AcDbEntity
  8
0
  6
CONTINUOUS
 62
     7
  0
POLYLINE
  5
8B9
100
AcDbEntity
  8
0
  6
CONTINUOUS
 62
     7
100
AcDb2dPolyline
 66
     1
 10
0.0
 20
0.0
 30
0.0
 70
   128
  0
VERTEX
  5
8BA
100
AcDbEntity
  8
0
  6
CONTINUOUS
 62
     7
100
AcDbVertex
100
AcDb2dVertex
 10
3265.654082
 20
-19320.269584
 30
0.0
  0
VERTEX
  5
8BB
100
AcDbEntity
  8
0
  6
CONTINUOUS
 62
     7
100
AcDbVertex
100
AcDb2dVertex
 10
3265.727523
 20
-19319.523896
 30
0.0
  0
VERTEX
  5
8BC
100
AcDbEntity
  8
0
  6
CONTINUOUS
 62
     7
100
AcDbVertex
100
AcDb2dVertex
 10
3265.815689
 20
-19318.628773
 30
0.0
  0
VERTEX
  5
8BD
100
AcDbEntity
  8
0
  6
CONTINUOUS
 62
     7
100
AcDbVertex
100
AcDb2dVertex
 10
3265.915383
 20
-19317.616603
 30
0.0
  0
VERTEX
  5
8BE
100
AcDbEntity
  8
0
  6
CONTINUOUS
 62
     7
100
AcDbVertex
100
AcDb2dVertex
 10
3266.022991
 20
-19316.523944
 30
0.0
  0
VERTEX
  5
8BF
100
AcDbEntity
  8
0
  6
CONTINUOUS
 62
     7
100
AcDbVertex
100
AcDb2dVertex
 10
3266.134646
 20
-19315.390323
 30
0.0
  0
SEQEND
  5
8C0
100
AcDbEntity
  8
0
  6
CONTINUOUS
 62
     7
  0
LINE
  5
8C1
100
AcDbEntity
  8
0
  6
CONTINUOUS
 62
     7
100
AcDbLine
 10
3265.654082
 20
-19320.269584
 30
0.0
 11
3231.651947
 21
-19354.271719
 31
0.0
  0
LINE
  5
8C2
100
AcDbEntity
  8
0
  6
CONTINUOUS
 62
     7
100
AcDbLine
 10
3227.25325
 20
-19354.271719
 30
0.0
 11
3231.651947
 21
-19354.271719
 31
0.0
  0
LINE
  5
8C3
100
AcDbEntity
  8
0
  6
CONTINUOUS
 62
     7
100
AcDbLine
 10
3227.25325
 20
-19358.670431
 30
0.0
 11
3227.25325
 21
-19354.271719
 31
0.0
  0
LINE
  5
8C4
100
AcDbEntity
  8
0
  6
CONTINUOUS
 62
     7
100
AcDbLine
 10
3227.25325
 20
-19358.670431
 30
0.0
 11
3193.251115
 21
-19392.672566
 31
0.0
  0
POLYLINE
  5
8C5
100
AcDbEntity
  8
0
  6
CONTINUOUS
 62
     7
100
AcDb2dPolyline
 66
     1
 10
0.0
 20
0.0
 30
0.0
 70
   128
  0
VERTEX
  5
8C6
100
AcDbEntity
  8
0
  6
CONTINUOUS
 62
     7
100
AcDbVertex
100
AcDb2dVertex
 10
3188.371839
 20
-19393.15313
 30
0.0
  0
VERTEX
  5
8C7
100
AcDbEntity
  8
0
  6
CONTINUOUS
 62
     7
100
AcDbVertex
100
AcDb2dVertex
 10
3189.505475
 20
-19393.041475
 30
0.0
  0
VERTEX
  5
8C8
100
AcDbEntity
  8
0
  6
CONTINUOUS
 62
     7
100
AcDbVertex
100
AcDb2dVertex
 10
3190.598119
 20
-19392.933852
 30
0.0
  0
VERTEX
  5
8C9
100
AcDbEntity
  8
0
  6
CONTINUOUS
 62
     7
100
AcDbVertex
100
AcDb2dVertex
 10
3191.610304
 20
-19392.834173
 30
0.0
  0
VERTEX
  5
8CA
100
AcDbEntity
  8
0
  6
CONTINUOUS
 62
     7
100
AcDbVertex
100
AcDb2dVertex
 10
3192.505412
 20
-19392.746007
 30
0.0
  0
VERTEX
  5
8CB
100
AcDbEntity
  8
0
  6
CONTINUOUS
 62
     7
100
AcDbVertex
100
AcDb2dVertex
 10
3193.251115
 20
-19392.672566
 30
0.0
  0
SEQEND
  5
8CC
100
AcDbEntity
  8
0
  6
CONTINUOUS
 62
     7
  0
POLYLINE
  5
8CD
100
AcDbEntity
  8
0
  6
CONTINUOUS
 62
     7
100
AcDb2dPolyline
 66
     1
 10
0.0
 20
0.0
 30
0.0
 70
   128
  0
VERTEX
  5
8CE
100
AcDbEntity
  8
0
  6
CONTINUOUS
 62
     7
100
AcDbVertex
100
AcDb2dVertex
 10
3188.766224
 20
-19397.157442
 30
0.0
  0
VERTEX
  5
8CF
100
AcDbEntity
  8
0
  6
CONTINUOUS
 62
     7
100
AcDbVertex
100
AcDb2dVertex
 10
3188.705953
 20
-19396.545466
 30
0.0
  0
VERTEX
  5
8D0
100
AcDbEntity
  8
0
  6
CONTINUOUS
 62
     7
100
AcDbVertex
100
AcDb2dVertex
 10
3188.633602
 20
-19395.810859
 30
0.0
  0
VERTEX
  5
8D1
100
AcDbEntity
  8
0
  6
CONTINUOUS
 62
     7
100
AcDbVertex
100
AcDb2dVertex
 10
3188.551783
 20
-19394.980187
 30
0.0
  0
VERTEX
  5
8D2
100
AcDbEntity
  8
0
  6
CONTINUOUS
 62
     7
100
AcDbVertex
100
AcDb2dVertex
 10
3188.463469
 20
-19394.083481
 30
0.0
  0
VERTEX
  5
8D3
100
AcDbEntity
  8
0
  6
CONTINUOUS
 62
     7
100
AcDbVertex
100
AcDb2dVertex
 10
3188.371839
 20
-19393.15313
 30
0.0
  0
SEQEND
  5
8D4
100
AcDbEntity
  8
0
  6
CONTINUOUS
 62
     7
  0
LINE
  5
8D5
100
AcDbEntity
  8
0
  6
CONTINUOUS
 62
     7
100
AcDbLine
 10
3188.766224
 20
-19397.157442
 30
0.0
 11
3151.77783
 21
-19434.145851
 31
0.0
  0
LINE
  5
8D6
100
AcDbEntity
  8
0
  6
CONTINUOUS
 62
     7
100
AcDbLine
 10
3303.243065
 20
-19273.883199
 30
0.0
 11
3146.8647
 21
-19430.261542
 31
0.0
  0
LINE
  5
8D7
100
AcDbEntity
  8
0
  6
CONTINUOUS
 62
     7
100
AcDbLine
 10
3307.127367
 20
-19278.796299
 30
0.0
 11
3270.138958
 21
-19315.784708
 31
0.0
  0
POLYLINE
  5
8D8
100
AcDbEntity
  8
0
  6
CONTINUOUS
 62
     7
100
AcDb2dPolyline
 66
     1
 10
0.0
 20
0.0
 30
0.0
 70
   128
  0
VERTEX
  5
8D9
100
AcDbEntity
  8
0
  6
CONTINUOUS
 62
     7
100
AcDbVertex
100
AcDb2dVertex
 10
3266.134646
 20
-19315.390323
 30
0.0
  0
VERTEX
  5
8DA
100
AcDbEntity
  8
0
  6
CONTINUOUS
 62
     7
100
AcDbVertex
100
AcDb2dVertex
 10
3267.064997
 20
-19315.481953
 30
0.0
  0
VERTEX
  5
8DB
100
AcDbEntity
  8
0
  6
CONTINUOUS
 62
     7
100
AcDbVertex
100
AcDb2dVertex
 10
3267.961718
 20
-19315.570267
 30
0.0
  0
VERTEX
  5
8DC
100
AcDbEntity
  8
0
  6
CONTINUOUS
 62
     7
100
AcDbVertex
100
AcDb2dVertex
 10
3268.79239
 20
-19315.652086
 30
0.0
  0
VERTEX
  5
8DD
100
AcDbEntity
  8
0
  6
CONTINUOUS
 62
     7
100
AcDbVertex
100
AcDb2dVertex
 10
3269.526982
 20
-19315.724437
 30
0.0
  0
VERTEX
  5
8DE
100
AcDbEntity
  8
0
  6
CONTINUOUS
 62
     7
100
AcDbVertex
100
AcDb2dVertex
 10
3270.138958
 20
-19315.784708
 30
0.0
  0
SEQEND
  5
8DF
100
AcDbEntity
  8
0
  6
CONTINUOUS
 62
     7
  0
POLYLINE
  5
8E0
100
AcDbEntity
  8
0
  6
CONTINUOUS
 62
     7
100
AcDb2dPolyline
 66
     1
 10
0.0
 20
0.0
 30
0.0
 70
   128
  0
VERTEX
  5
8E1
100
AcDbEntity
  8
0
  6
CONTINUOUS
 62
     7
100
AcDbVertex
100
AcDb2dVertex
 10
3652.195426
 20
-19392.672566
 30
0.0
  0
VERTEX
  5
8E2
100
AcDbEntity
  8
0
  6
CONTINUOUS
 62
     7
100
AcDbVertex
100
AcDb2dVertex
 10
3652.941128
 20
-19392.746007
 30
0.0
  0
VERTEX
  5
8E3
100
AcDbEntity
  8
0
  6
CONTINUOUS
 62
     7
100
AcDbVertex
100
AcDb2dVertex
 10
3653.836237
 20
-19392.834173
 30
0.0
  0
VERTEX
  5
8E4
100
AcDbEntity
  8
0
  6
CONTINUOUS
 62
     7
100
AcDbVertex
100
AcDb2dVertex
 10
3654.848421
 20
-19392.933852
 30
0.0
  0
VERTEX
  5
8E5
100
AcDbEntity
  8
0
  6
CONTINUOUS
 62
     7
100
AcDbVertex
100
AcDb2dVertex
 10
3655.941066
 20
-19393.041475
 30
0.0
  0
VERTEX
  5
8E6
100
AcDbEntity
  8
0
  6
CONTINUOUS
 62
     7
100
AcDbVertex
100
AcDb2dVertex
 10
3657.074702
 20
-19393.15313
 30
0.0
  0
SEQEND
  5
8E7
100
AcDbEntity
  8
0
  6
CONTINUOUS
 62
     7
  0
LINE
  5
8E8
100
AcDbEntity
  8
0
  6
CONTINUOUS
 62
     7
100
AcDbLine
 10
3652.195426
 20
-19392.672566
 30
0.0
 11
3618.193291
 21
-19358.670431
 31
0.0
  0
LINE
  5
8E9
100
AcDbEntity
  8
0
  6
CONTINUOUS
 62
     7
100
AcDbLine
 10
3618.193291
 20
-19354.271719
 30
0.0
 11
3618.193291
 21
-19358.670431
 31
0.0
  0
LINE
  5
8EA
100
AcDbEntity
  8
0
  6
CONTINUOUS
 62
     7
100
AcDbLine
 10
3613.794594
 20
-19354.271719
 30
0.0
 11
3618.193291
 21
-19354.271719
 31
0.0
  0
LINE
  5
8EB
100
AcDbEntity
  8
0
  6
CONTINUOUS
 62
     7
100
AcDbLine
 10
3613.794594
 20
-19354.271719
 30
0.0
 11
3579.792458
 21
-19320.269584
 31
0.0
  0
POLYLINE
  5
8EC
100
AcDbEntity
  8
0
  6
CONTINUOUS
 62
     7
100
AcDb2dPolyline
 66
     1
 10
0.0
 20
0.0
 30
0.0
 70
   128
  0
VERTEX
  5
8ED
100
AcDbEntity
  8
0
  6
CONTINUOUS
 62
     7
100
AcDbVertex
100
AcDb2dVertex
 10
3579.311894
 20
-19315.390323
 30
0.0
  0
VERTEX
  5
8EE
100
AcDbEntity
  8
0
  6
CONTINUOUS
 62
     7
100
AcDbVertex
100
AcDb2dVertex
 10
3579.42355
 20
-19316.523944
 30
0.0
  0
VERTEX
  5
8EF
100
AcDbEntity
  8
0
  6
CONTINUOUS
 62
     7
100
AcDbVertex
100
AcDb2dVertex
 10
3579.531158
 20
-19317.616603
 30
0.0
  0
VERTEX
  5
8F0
100
AcDbEntity
  8
0
  6
CONTINUOUS
 62
     7
100
AcDbVertex
100
AcDb2dVertex
 10
3579.630852
 20
-19318.628773
 30
0.0
  0
VERTEX
  5
8F1
100
AcDbEntity
  8
0
  6
CONTINUOUS
 62
     7
100
AcDbVertex
100
AcDb2dVertex
 10
3579.719017
 20
-19319.523896
 30
0.0
  0
VERTEX
  5
8F2
100
AcDbEntity
  8
0
  6
CONTINUOUS
 62
     7
100
AcDbVertex
100
AcDb2dVertex
 10
3579.792458
 20
-19320.269584
 30
0.0
  0
SEQEND
  5
8F3
100
AcDbEntity
  8
0
  6
CONTINUOUS
 62
     7
  0
POLYLINE
  5
8F4
100
AcDbEntity
  8
0
  6
CONTINUOUS
 62
     7
100
AcDb2dPolyline
 66
     1
 10
0.0
 20
0.0
 30
0.0
 70
   128
  0
VERTEX
  5
8F5
100
AcDbEntity
  8
0
  6
CONTINUOUS
 62
     7
100
AcDbVertex
100
AcDb2dVertex
 10
3575.307582
 20
-19315.784708
 30
0.0
  0
VERTEX
  5
8F6
100
AcDbEntity
  8
0
  6
CONTINUOUS
 62
     7
100
AcDbVertex
100
AcDb2dVertex
 10
3575.919558
 20
-19315.724437
 30
0.0
  0
VERTEX
  5
8F7
100
AcDbEntity
  8
0
  6
CONTINUOUS
 62
     7
100
AcDbVertex
100
AcDb2dVertex
 10
3576.65415
 20
-19315.652086
 30
0.0
  0
VERTEX
  5
8F8
100
AcDbEntity
  8
0
  6
CONTINUOUS
 62
     7
100
AcDbVertex
100
AcDb2dVertex
 10
3577.484822
 20
-19315.570267
 30
0.0
  0
VERTEX
  5
8F9
100
AcDbEntity
  8
0
  6
CONTINUOUS
 62
     7
100
AcDbVertex
100
AcDb2dVertex
 10
3578.381543
 20
-19315.481953
 30
0.0
  0
VERTEX
  5
8FA
100
AcDbEntity
  8
0
  6
CONTINUOUS
 62
     7
100
AcDbVertex
100
AcDb2dVertex
 10
3579.311894
 20
-19315.390323
 30
0.0
  0
SEQEND
  5
8FB
100
AcDbEntity
  8
0
  6
CONTINUOUS
 62
     7
  0
LINE
  5
8FC
100
AcDbEntity
  8
0
  6
CONTINUOUS
 62
     7
100
AcDbLine
 10
3575.307582
 20
-19315.784708
 30
0.0
 11
3538.319173
 21
-19278.796299
 31
0.0
  0
LINE
  5
8FD
100
AcDbEntity
  8
0
  6
CONTINUOUS
 62
     7
100
AcDbLine
 10
3698.581825
 20
-19430.261542
 30
0.0
 11
3542.203475
 21
-19273.883199
 31
0.0
  0
LINE
  5
8FE
100
AcDbEntity
  8
0
  6
CONTINUOUS
 62
     7
100
AcDbLine
 10
3693.668726
 20
-19434.145851
 30
0.0
 11
3656.680317
 21
-19397.157442
 31
0.0
  0
POLYLINE
  5
8FF
100
AcDbEntity
  8
0
  6
CONTINUOUS
 62
     7
100
AcDb2dPolyline
 66
     1
 10
0.0
 20
0.0
 30
0.0
 70
   128
  0
VERTEX
  5
900
100
AcDbEntity
  8
0
  6
CONTINUOUS
 62
     7
100
AcDbVertex
100
AcDb2dVertex
 10
3657.074702
 20
-19393.15313
 30
0.0
  0
VERTEX
  5
901
100
AcDbEntity
  8
0
  6
CONTINUOUS
 62
     7
100
AcDbVertex
100
AcDb2dVertex
 10
3656.983072
 20
-19394.083481
 30
0.0
  0
VERTEX
  5
902
100
AcDbEntity
  8
0
  6
CONTINUOUS
 62
     7
100
AcDbVertex
100
AcDb2dVertex
 10
3656.894757
 20
-19394.980187
 30
0.0
  0
VERTEX
  5
903
100
AcDbEntity
  8
0
  6
CONTINUOUS
 62
     7
100
AcDbVertex
100
AcDb2dVertex
 10
3656.812938
 20
-19395.810859
 30
0.0
  0
VERTEX
  5
904
100
AcDbEntity
  8
0
  6
CONTINUOUS
 62
     7
100
AcDbVertex
100
AcDb2dVertex
 10
3656.740587
 20
-19396.545466
 30
0.0
  0
VERTEX
  5
905
100
AcDbEntity
  8
0
  6
CONTINUOUS
 62
     7
100
AcDbVertex
100
AcDb2dVertex
 10
3656.680317
 20
-19397.157442
 30
0.0
  0
SEQEND
  5
906
100
AcDbEntity
  8
0
  6
CONTINUOUS
 62
     7
  0
LINE
  5
907
100
AcDbEntity
  8
0
  6
CONTINUOUS
 62
     7
100
AcDbLine
 10
3371.526634
 20
-19276.415744
 30
0.0
 11
3386.443649
 21
-19351.408644
 31
0.0
  0
POLYLINE
  5
908
100
AcDbEntity
  8
0
  6
CONTINUOUS
 62
     7
100
AcDb2dPolyline
 66
     1
 10
0.0
 20
0.0
 30
0.0
 70
   128
  0
VERTEX
  5
909
100
AcDbEntity
  8
0
  6
CONTINUOUS
 62
     7
100
AcDbVertex
100
AcDb2dVertex
 10
3386.443649
 20
-19351.408644
 30
0.0
  0
VERTEX
  5
90A
100
AcDbEntity
  8
0
  6
CONTINUOUS
 62
     7
100
AcDbVertex
100
AcDb2dVertex
 10
3385.845542
 20
-19351.527601
 30
0.0
  0
VERTEX
  5
90B
100
AcDbEntity
  8
0
  6
CONTINUOUS
 62
     7
100
AcDbVertex
100
AcDb2dVertex
 10
3385.109151
 20
-19351.674081
 30
0.0
  0
VERTEX
  5
90C
100
AcDbEntity
  8
0
  6
CONTINUOUS
 62
     7
100
AcDbVertex
100
AcDb2dVertex
 10
3384.276
 20
-19351.839809
 30
0.0
  0
VERTEX
  5
90D
100
AcDbEntity
  8
0
  6
CONTINUOUS
 62
     7
100
AcDbVertex
100
AcDb2dVertex
 10
3383.393062
 20
-19352.015438
 30
0.0
  0
VERTEX
  5
90E
100
AcDbEntity
  8
0
  6
CONTINUOUS
 62
     7
100
AcDbVertex
100
AcDb2dVertex
 10
3382.510124
 20
-19352.191067
 30
0.0
  0
VERTEX
  5
90F
100
AcDbEntity
  8
0
  6
CONTINUOUS
 62
     7
100
AcDbVertex
100
AcDb2dVertex
 10
3381.676969
 20
-19352.356795
 30
0.0
  0
VERTEX
  5
910
100
AcDbEntity
  8
0
  6
CONTINUOUS
 62
     7
100
AcDbVertex
100
AcDb2dVertex
 10
3380.940581
 20
-19352.503259
 30
0.0
  0
VERTEX
  5
911
100
AcDbEntity
  8
0
  6
CONTINUOUS
 62
     7
100
AcDbVertex
100
AcDb2dVertex
 10
3380.342471
 20
-19352.622232
 30
0.0
  0
SEQEND
  5
912
100
AcDbEntity
  8
0
  6
CONTINUOUS
 62
     7
  0
LINE
  5
913
100
AcDbEntity
  8
0
  6
CONTINUOUS
 62
     7
100
AcDbLine
 10
3365.184058
 20
-19276.415744
 30
0.0
 11
3380.342471
 21
-19352.622232
 31
0.0
  0
LINE
  5
914
100
AcDbEntity
  8
0
  6
CONTINUOUS
 62
     7
100
AcDbLine
 10
3270.138958
 20
-19315.784708
 30
0.0
 11
3313.306478
 21
-19380.389459
 31
0.0
  0
POLYLINE
  5
915
100
AcDbEntity
  8
0
  6
CONTINUOUS
 62
     7
100
AcDb2dPolyline
 66
     1
 10
0.0
 20
0.0
 30
0.0
 70
   128
  0
VERTEX
  5
916
100
AcDbEntity
  8
0
  6
CONTINUOUS
 62
     7
100
AcDbVertex
100
AcDb2dVertex
 10
3313.306478
 20
-19380.389459
 30
0.0
  0
VERTEX
  5
917
100
AcDbEntity
  8
0
  6
CONTINUOUS
 62
     7
100
AcDbVertex
100
AcDb2dVertex
 10
3312.799422
 20
-19380.728262
 30
0.0
  0
VERTEX
  5
918
100
AcDbEntity
  8
0
  6
CONTINUOUS
 62
     7
100
AcDbVertex
100
AcDb2dVertex
 10
3312.175141
 20
-19381.14539
 30
0.0
  0
VERTEX
  5
919
100
AcDbEntity
  8
0
  6
CONTINUOUS
 62
     7
100
AcDbVertex
100
AcDb2dVertex
 10
3311.468833
 20
-19381.617338
 30
0.0
  0
VERTEX
  5
91A
100
AcDbEntity
  8
0
  6
CONTINUOUS
 62
     7
100
AcDbVertex
100
AcDb2dVertex
 10
3310.720308
 20
-19382.117479
 30
0.0
  0
VERTEX
  5
91B
100
AcDbEntity
  8
0
  6
CONTINUOUS
 62
     7
100
AcDbVertex
100
AcDb2dVertex
 10
3309.971791
 20
-19382.617621
 30
0.0
  0
VERTEX
  5
91C
100
AcDbEntity
  8
0
  6
CONTINUOUS
 62
     7
100
AcDbVertex
100
AcDb2dVertex
 10
3309.265482
 20
-19383.089569
 30
0.0
  0
VERTEX
  5
91D
100
AcDbEntity
  8
0
  6
CONTINUOUS
 62
     7
100
AcDbVertex
100
AcDb2dVertex
 10
3308.641194
 20
-19383.506696
 30
0.0
  0
VERTEX
  5
91E
100
AcDbEntity
  8
0
  6
CONTINUOUS
 62
     7
100
AcDbVertex
100
AcDb2dVertex
 10
3308.134146
 20
-19383.8455
 30
0.0
  0
SEQEND
  5
91F
100
AcDbEntity
  8
0
  6
CONTINUOUS
 62
     7
  0
LINE
  5
920
100
AcDbEntity
  8
0
  6
CONTINUOUS
 62
     7
100
AcDbLine
 10
3265.654082
 20
-19320.269584
 30
0.0
 11
3308.134146
 21
-19383.8455
 31
0.0
  0
LINE
  5
921
100
AcDbEntity
  8
0
  6
CONTINUOUS
 62
     7
100
AcDbLine
 10
3579.792458
 20
-19320.269584
 30
0.0
 11
3537.312394
 21
-19383.8455
 31
0.0
  0
POLYLINE
  5
922
100
AcDbEntity
  8
0
  6
CONTINUOUS
 62
     7
100
AcDb2dPolyline
 66
     1
 10
0.0
 20
0.0
 30
0.0
 70
   128
  0
VERTEX
  5
923
100
AcDbEntity
  8
0
  6
CONTINUOUS
 62
     7
100
AcDbVertex
100
AcDb2dVertex
 10
3537.312394
 20
-19383.8455
 30
0.0
  0
VERTEX
  5
924
100
AcDbEntity
  8
0
  6
CONTINUOUS
 62
     7
100
AcDbVertex
100
AcDb2dVertex
 10
3536.805339
 20
-19383.506696
 30
0.0
  0
VERTEX
  5
925
100
AcDbEntity
  8
0
  6
CONTINUOUS
 62
     7
100
AcDbVertex
100
AcDb2dVertex
 10
3536.181058
 20
-19383.089569
 30
0.0
  0
VERTEX
  5
926
100
AcDbEntity
  8
0
  6
CONTINUOUS
 62
     7
100
AcDbVertex
100
AcDb2dVertex
 10
3535.47475
 20
-19382.617621
 30
0.0
  0
VERTEX
  5
927
100
AcDbEntity
  8
0
  6
CONTINUOUS
 62
     7
100
AcDbVertex
100
AcDb2dVertex
 10
3534.726232
 20
-19382.117479
 30
0.0
  0
VERTEX
  5
928
100
AcDbEntity
  8
0
  6
CONTINUOUS
 62
     7
100
AcDbVertex
100
AcDb2dVertex
 10
3533.977708
 20
-19381.617338
 30
0.0
  0
VERTEX
  5
929
100
AcDbEntity
  8
0
  6
CONTINUOUS
 62
     7
100
AcDbVertex
100
AcDb2dVertex
 10
3533.271399
 20
-19381.14539
 30
0.0
  0
VERTEX
  5
92A
100
AcDbEntity
  8
0
  6
CONTINUOUS
 62
     7
100
AcDbVertex
100
AcDb2dVertex
 10
3532.647118
 20
-19380.728262
 30
0.0
  0
VERTEX
  5
92B
100
AcDbEntity
  8
0
  6
CONTINUOUS
 62
     7
100
AcDbVertex
100
AcDb2dVertex
 10
3532.140063
 20
-19380.389459
 30
0.0
  0
SEQEND
  5
92C
100
AcDbEntity
  8
0
  6
CONTINUOUS
 62
     7
  0
LINE
  5
92D
100
AcDbEntity
  8
0
  6
CONTINUOUS
 62
     7
100
AcDbLine
 10
3575.307582
 20
-19315.784708
 30
0.0
 11
3532.140063
 21
-19380.389459
 31
0.0
  0
LINE
  5
92E
100
AcDbEntity
  8
0
  6
CONTINUOUS
 62
     7
100
AcDbLine
 10
3480.262482
 20
-19276.415744
 30
0.0
 11
3465.10407
 21
-19352.622232
 31
0.0
  0
POLYLINE
  5
92F
100
AcDbEntity
  8
0
  6
CONTINUOUS
 62
     7
100
AcDb2dPolyline
 66
     1
 10
0.0
 20
0.0
 30
0.0
 70
   128
  0
VERTEX
  5
930
100
AcDbEntity
  8
0
  6
CONTINUOUS
 62
     7
100
AcDbVertex
100
AcDb2dVertex
 10
3465.10407
 20
-19352.622232
 30
0.0
  0
VERTEX
  5
931
100
AcDbEntity
  8
0
  6
CONTINUOUS
 62
     7
100
AcDbVertex
100
AcDb2dVertex
 10
3464.505959
 20
-19352.503259
 30
0.0
  0
VERTEX
  5
932
100
AcDbEntity
  8
0
  6
CONTINUOUS
 62
     7
100
AcDbVertex
100
AcDb2dVertex
 10
3463.769568
 20
-19352.356795
 30
0.0
  0
VERTEX
  5
933
100
AcDbEntity
  8
0
  6
CONTINUOUS
 62
     7
100
AcDbVertex
100
AcDb2dVertex
 10
3462.936417
 20
-19352.191067
 30
0.0
  0
VERTEX
  5
934
100
AcDbEntity
  8
0
  6
CONTINUOUS
 62
     7
100
AcDbVertex
100
AcDb2dVertex
 10
3462.053479
 20
-19352.015438
 30
0.0
  0
VERTEX
  5
935
100
AcDbEntity
  8
0
  6
CONTINUOUS
 62
     7
100
AcDbVertex
100
AcDb2dVertex
 10
3461.170541
 20
-19351.839809
 30
0.0
  0
VERTEX
  5
936
100
AcDbEntity
  8
0
  6
CONTINUOUS
 62
     7
100
AcDbVertex
100
AcDb2dVertex
 10
3460.33739
 20
-19351.674081
 30
0.0
  0
VERTEX
  5
937
100
AcDbEntity
  8
0
  6
CONTINUOUS
 62
     7
100
AcDbVertex
100
AcDb2dVertex
 10
3459.600998
 20
-19351.527601
 30
0.0
  0
VERTEX
  5
938
100
AcDbEntity
  8
0
  6
CONTINUOUS
 62
     7
100
AcDbVertex
100
AcDb2dVertex
 10
3459.002892
 20
-19351.408644
 30
0.0
  0
SEQEND
  5
939
100
AcDbEntity
  8
0
  6
CONTINUOUS
 62
     7
  0
LINE
  5
93A
100
AcDbEntity
  8
0
  6
CONTINUOUS
 62
     7
100
AcDbLine
 10
3473.919906
 20
-19276.415744
 30
0.0
 11
3459.002892
 21
-19351.408644
 31
0.0
  0
LINE
  5
93B
100
AcDbEntity
  8
0
  6
CONTINUOUS
 62
     7
100
AcDbLine
 10
3425.833624
 20
-19276.415744
 30
0.0
 11
3425.833624
 21
-19348.141746
 31
0.0
  0
LINE
  5
93C
100
AcDbEntity
  8
0
  6
CONTINUOUS
 62
     7
100
AcDbLine
 10
3425.833624
 20
-19348.141746
 30
0.0
 11
3419.612916
 21
-19348.141746
 31
0.0
  0
LINE
  5
93D
100
AcDbEntity
  8
0
  6
CONTINUOUS
 62
     7
100
AcDbLine
 10
3419.612916
 20
-19276.415744
 30
0.0
 11
3419.612916
 21
-19348.141746
 31
0.0
  0
POLYLINE
  5
93E
100
AcDbEntity
  8
0
  6
CONTINUOUS
 62
     7
100
AcDb2dPolyline
 66
     1
 10
0.0
 20
0.0
 30
0.0
 70
   128
  0
VERTEX
  5
93F
100
AcDbEntity
  8
0
  6
CONTINUOUS
 62
     7
100
AcDbVertex
100
AcDb2dVertex
 10
3149.397275
 20
-19546.631396
 30
0.0
  0
VERTEX
  5
940
100
AcDbEntity
  8
0
  6
CONTINUOUS
 62
     7
100
AcDbVertex
100
AcDb2dVertex
 10
3148.921922
 20
-19547.106748
 30
0.0
  0
VERTEX
  5
941
100
AcDbEntity
  8
0
  6
CONTINUOUS
 62
     7
100
AcDbVertex
100
AcDb2dVertex
 10
3148.351296
 20
-19547.67735
 30
0.0
  0
VERTEX
  5
942
100
AcDbEntity
  8
0
  6
CONTINUOUS
 62
     7
100
AcDbVertex
100
AcDb2dVertex
 10
3147.706094
 20
-19548.322576
 30
0.0
  0
VERTEX
  5
943
100
AcDbEntity
  8
0
  6
CONTINUOUS
 62
     7
100
AcDbVertex
100
AcDb2dVertex
 10
3147.009552
 20
-19549.019101
 30
0.0
  0
VERTEX
  5
944
100
AcDbEntity
  8
0
  6
CONTINUOUS
 62
     7
100
AcDbVertex
100
AcDb2dVertex
 10
3146.286906
 20
-19549.74175
 30
0.0
  0
SEQEND
  5
945
100
AcDbEntity
  8
0
  6
CONTINUOUS
 62
     7
  0
POLYLINE
  5
946
100
AcDbEntity
  8
0
  6
CONTINUOUS
 62
     7
100
AcDb2dPolyline
 66
     1
 10
0.0
 20
0.0
 30
0.0
 70
   128
  0
VERTEX
  5
947
100
AcDbEntity
  8
0
  6
CONTINUOUS
 62
     7
100
AcDbVertex
100
AcDb2dVertex
 10
3146.286906
 20
-19549.74175
 30
0.0
  0
VERTEX
  5
948
100
AcDbEntity
  8
0
  6
CONTINUOUS
 62
     7
100
AcDbVertex
100
AcDb2dVertex
 10
3147.009552
 20
-19550.464398
 30
0.0
  0
VERTEX
  5
949
100
AcDbEntity
  8
0
  6
CONTINUOUS
 62
     7
100
AcDbVertex
100
AcDb2dVertex
 10
3147.706094
 20
-19551.160923
 30
0.0
  0
VERTEX
  5
94A
100
AcDbEntity
  8
0
  6
CONTINUOUS
 62
     7
100
AcDbVertex
100
AcDb2dVertex
 10
3148.351296
 20
-19551.806149
 30
0.0
  0
VERTEX
  5
94B
100
AcDbEntity
  8
0
  6
CONTINUOUS
 62
     7
100
AcDbVertex
100
AcDb2dVertex
 10
3148.921922
 20
-19552.376751
 30
0.0
  0
VERTEX
  5
94C
100
AcDbEntity
  8
0
  6
CONTINUOUS
 62
     7
100
AcDbVertex
100
AcDb2dVertex
 10
3149.397275
 20
-19552.852103
 30
0.0
  0
SEQEND
  5
94D
100
AcDbEntity
  8
0
  6
CONTINUOUS
 62
     7
  0
LINE
  5
94E
100
AcDbEntity
  8
0
  6
CONTINUOUS
 62
     7
100
AcDbLine
 10
3149.397275
 20
-19600.938383
 30
0.0
 11
3149.397275
 21
-19552.852103
 31
0.0
  0
POLYLINE
  5
94F
100
AcDbEntity
  8
0
  6
CONTINUOUS
 62
     7
100
AcDb2dPolyline
 66
     1
 10
0.0
 20
0.0
 30
0.0
 70
   128
  0
VERTEX
  5
950
100
AcDbEntity
  8
0
  6
CONTINUOUS
 62
     7
100
AcDbVertex
100
AcDb2dVertex
 10
3149.397275
 20
-19600.938383
 30
0.0
  0
VERTEX
  5
951
100
AcDbEntity
  8
0
  6
CONTINUOUS
 62
     7
100
AcDbVertex
100
AcDb2dVertex
 10
3148.921922
 20
-19601.517603
 30
0.0
  0
VERTEX
  5
952
100
AcDbEntity
  8
0
  6
CONTINUOUS
 62
     7
100
AcDbVertex
100
AcDb2dVertex
 10
3148.351296
 20
-19602.212883
 30
0.0
  0
VERTEX
  5
953
100
AcDbEntity
  8
0
  6
CONTINUOUS
 62
     7
100
AcDbVertex
100
AcDb2dVertex
 10
3147.706094
 20
-19602.999092
 30
0.0
  0
VERTEX
  5
954
100
AcDbEntity
  8
0
  6
CONTINUOUS
 62
     7
100
AcDbVertex
100
AcDb2dVertex
 10
3147.009552
 20
-19603.84781
 30
0.0
  0
VERTEX
  5
955
100
AcDbEntity
  8
0
  6
CONTINUOUS
 62
     7
100
AcDbVertex
100
AcDb2dVertex
 10
3146.286906
 20
-19604.728363
 30
0.0
  0
SEQEND
  5
956
100
AcDbEntity
  8
0
  6
CONTINUOUS
 62
     7
  0
POLYLINE
  5
957
100
AcDbEntity
  8
0
  6
CONTINUOUS
 62
     7
100
AcDb2dPolyline
 66
     1
 10
0.0
 20
0.0
 30
0.0
 70
   128
  0
VERTEX
  5
958
100
AcDbEntity
  8
0
  6
CONTINUOUS
 62
     7
100
AcDbVertex
100
AcDb2dVertex
 10
3146.286906
 20
-19604.728363
 30
0.0
  0
VERTEX
  5
959
100
AcDbEntity
  8
0
  6
CONTINUOUS
 62
     7
100
AcDbVertex
100
AcDb2dVertex
 10
3147.009552
 20
-19605.321422
 30
0.0
  0
VERTEX
  5
95A
100
AcDbEntity
  8
0
  6
CONTINUOUS
 62
     7
100
AcDbVertex
100
AcDb2dVertex
 10
3147.706094
 20
-19605.893049
 30
0.0
  0
VERTEX
  5
95B
100
AcDbEntity
  8
0
  6
CONTINUOUS
 62
     7
100
AcDbVertex
100
AcDb2dVertex
 10
3148.351296
 20
-19606.422571
 30
0.0
  0
VERTEX
  5
95C
100
AcDbEntity
  8
0
  6
CONTINUOUS
 62
     7
100
AcDbVertex
100
AcDb2dVertex
 10
3148.921922
 20
-19606.890852
 30
0.0
  0
VERTEX
  5
95D
100
AcDbEntity
  8
0
  6
CONTINUOUS
 62
     7
100
AcDbVertex
100
AcDb2dVertex
 10
3149.397275
 20
-19607.280963
 30
0.0
  0
SEQEND
  5
95E
100
AcDbEntity
  8
0
  6
CONTINUOUS
 62
     7
  0
LINE
  5
95F
100
AcDbEntity
  8
0
  6
CONTINUOUS
 62
     7
100
AcDbLine
 10
3149.397275
 20
-19659.590466
 30
0.0
 11
3149.397275
 21
-19607.280963
 31
0.0
  0
LINE
  5
960
100
AcDbEntity
  8
0
  6
CONTINUOUS
 62
     7
100
AcDbLine
 10
3143.176538
 20
-19660.317942
 30
0.0
 11
3143.176538
 21
-19439.165559
 31
0.0
  0
LINE
  5
961
100
AcDbEntity
  8
0
  6
CONTINUOUS
 62
     7
100
AcDbLine
 10
3149.397275
 20
-19492.202538
 30
0.0
 11
3149.397275
 21
-19439.893035
 31
0.0
  0
POLYLINE
  5
962
100
AcDbEntity
  8
0
  6
CONTINUOUS
 62
     7
100
AcDb2dPolyline
 66
     1
 10
0.0
 20
0.0
 30
0.0
 70
   128
  0
VERTEX
  5
963
100
AcDbEntity
  8
0
  6
CONTINUOUS
 62
     7
100
AcDbVertex
100
AcDb2dVertex
 10
3149.397275
 20
-19492.202538
 30
0.0
  0
VERTEX
  5
964
100
AcDbEntity
  8
0
  6
CONTINUOUS
 62
     7
100
AcDbVertex
100
AcDb2dVertex
 10
3148.921922
 20
-19492.592645
 30
0.0
  0
VERTEX
  5
965
100
AcDbEntity
  8
0
  6
CONTINUOUS
 62
     7
100
AcDbVertex
100
AcDb2dVertex
 10
3148.351296
 20
-19493.060926
 30
0.0
  0
VERTEX
  5
966
100
AcDbEntity
  8
0
  6
CONTINUOUS
 62
     7
100
AcDbVertex
100
AcDb2dVertex
 10
3147.706094
 20
-19493.590449
 30
0.0
  0
VERTEX
  5
967
100
AcDbEntity
  8
0
  6
CONTINUOUS
 62
     7
100
AcDbVertex
100
AcDb2dVertex
 10
3147.009552
 20
-19494.162075
 30
0.0
  0
VERTEX
  5
968
100
AcDbEntity
  8
0
  6
CONTINUOUS
 62
     7
100
AcDbVertex
100
AcDb2dVertex
 10
3146.286906
 20
-19494.755138
 30
0.0
  0
SEQEND
  5
969
100
AcDbEntity
  8
0
  6
CONTINUOUS
 62
     7
  0
POLYLINE
  5
96A
100
AcDbEntity
  8
0
  6
CONTINUOUS
 62
     7
100
AcDb2dPolyline
 66
     1
 10
0.0
 20
0.0
 30
0.0
 70
   128
  0
VERTEX
  5
96B
100
AcDbEntity
  8
0
  6
CONTINUOUS
 62
     7
100
AcDbVertex
100
AcDb2dVertex
 10
3146.286906
 20
-19494.755138
 30
0.0
  0
VERTEX
  5
96C
100
AcDbEntity
  8
0
  6
CONTINUOUS
 62
     7
100
AcDbVertex
100
AcDb2dVertex
 10
3147.009552
 20
-19495.635687
 30
0.0
  0
VERTEX
  5
96D
100
AcDbEntity
  8
0
  6
CONTINUOUS
 62
     7
100
AcDbVertex
100
AcDb2dVertex
 10
3147.706094
 20
-19496.484406
 30
0.0
  0
VERTEX
  5
96E
100
AcDbEntity
  8
0
  6
CONTINUOUS
 62
     7
100
AcDbVertex
100
AcDb2dVertex
 10
3148.351296
 20
-19497.270618
 30
0.0
  0
VERTEX
  5
96F
100
AcDbEntity
  8
0
  6
CONTINUOUS
 62
     7
100
AcDbVertex
100
AcDb2dVertex
 10
3148.921922
 20
-19497.965899
 30
0.0
  0
VERTEX
  5
970
100
AcDbEntity
  8
0
  6
CONTINUOUS
 62
     7
100
AcDbVertex
100
AcDb2dVertex
 10
3149.397275
 20
-19498.545115
 30
0.0
  0
SEQEND
  5
971
100
AcDbEntity
  8
0
  6
CONTINUOUS
 62
     7
  0
LINE
  5
972
100
AcDbEntity
  8
0
  6
CONTINUOUS
 62
     7
100
AcDbLine
 10
3149.397275
 20
-19546.631396
 30
0.0
 11
3149.397275
 21
-19498.545115
 31
0.0
  0
POLYLINE
  5
973
100
AcDbEntity
  8
0
  6
CONTINUOUS
 62
     7
100
AcDb2dPolyline
 66
     1
 10
0.0
 20
0.0
 30
0.0
 70
   128
  0
VERTEX
  5
974
100
AcDbEntity
  8
0
  6
CONTINUOUS
 62
     7
100
AcDbVertex
100
AcDb2dVertex
 10
3696.049281
 20
-19600.938383
 30
0.0
  0
VERTEX
  5
975
100
AcDbEntity
  8
0
  6
CONTINUOUS
 62
     7
100
AcDbVertex
100
AcDb2dVertex
 10
3696.524633
 20
-19601.517603
 30
0.0
  0
VERTEX
  5
976
100
AcDbEntity
  8
0
  6
CONTINUOUS
 62
     7
100
AcDbVertex
100
AcDb2dVertex
 10
3697.095229
 20
-19602.212883
 30
0.0
  0
VERTEX
  5
977
100
AcDbEntity
  8
0
  6
CONTINUOUS
 62
     7
100
AcDbVertex
100
AcDb2dVertex
 10
3697.740461
 20
-19602.999092
 30
0.0
  0
VERTEX
  5
978
100
AcDbEntity
  8
0
  6
CONTINUOUS
 62
     7
100
AcDbVertex
100
AcDb2dVertex
 10
3698.436974
 20
-19603.84781
 30
0.0
  0
VERTEX
  5
979
100
AcDbEntity
  8
0
  6
CONTINUOUS
 62
     7
100
AcDbVertex
100
AcDb2dVertex
 10
3699.159619
 20
-19604.728363
 30
0.0
  0
SEQEND
  5
97A
100
AcDbEntity
  8
0
  6
CONTINUOUS
 62
     7
  0
LINE
  5
97B
100
AcDbEntity
  8
0
  6
CONTINUOUS
 62
     7
100
AcDbLine
 10
3696.049281
 20
-19600.938383
 30
0.0
 11
3696.049281
 21
-19552.852103
 31
0.0
  0
POLYLINE
  5
97C
100
AcDbEntity
  8
0
  6
CONTINUOUS
 62
     7
100
AcDb2dPolyline
 66
     1
 10
0.0
 20
0.0
 30
0.0
 70
   128
  0
VERTEX
  5
97D
100
AcDbEntity
  8
0
  6
CONTINUOUS
 62
     7
100
AcDbVertex
100
AcDb2dVertex
 10
3699.159619
 20
-19549.74175
 30
0.0
  0
VERTEX
  5
97E
100
AcDbEntity
  8
0
  6
CONTINUOUS
 62
     7
100
AcDbVertex
100
AcDb2dVertex
 10
3698.436974
 20
-19550.464398
 30
0.0
  0
VERTEX
  5
97F
100
AcDbEntity
  8
0
  6
CONTINUOUS
 62
     7
100
AcDbVertex
100
AcDb2dVertex
 10
3697.740461
 20
-19551.160923
 30
0.0
  0
VERTEX
  5
980
100
AcDbEntity
  8
0
  6
CONTINUOUS
 62
     7
100
AcDbVertex
100
AcDb2dVertex
 10
3697.095229
 20
-19551.806149
 30
0.0
  0
VERTEX
  5
981
100
AcDbEntity
  8
0
  6
CONTINUOUS
 62
     7
100
AcDbVertex
100
AcDb2dVertex
 10
3696.524633
 20
-19552.376751
 30
0.0
  0
VERTEX
  5
982
100
AcDbEntity
  8
0
  6
CONTINUOUS
 62
     7
100
AcDbVertex
100
AcDb2dVertex
 10
3696.049281
 20
-19552.852103
 30
0.0
  0
SEQEND
  5
983
100
AcDbEntity
  8
0
  6
CONTINUOUS
 62
     7
  0
POLYLINE
  5
984
100
AcDbEntity
  8
0
  6
CONTINUOUS
 62
     7
100
AcDb2dPolyline
 66
     1
 10
0.0
 20
0.0
 30
0.0
 70
   128
  0
VERTEX
  5
985
100
AcDbEntity
  8
0
  6
CONTINUOUS
 62
     7
100
AcDbVertex
100
AcDb2dVertex
 10
3696.049281
 20
-19546.631396
 30
0.0
  0
VERTEX
  5
986
100
AcDbEntity
  8
0
  6
CONTINUOUS
 62
     7
100
AcDbVertex
100
AcDb2dVertex
 10
3696.524633
 20
-19547.106748
 30
0.0
  0
VERTEX
  5
987
100
AcDbEntity
  8
0
  6
CONTINUOUS
 62
     7
100
AcDbVertex
100
AcDb2dVertex
 10
3697.095229
 20
-19547.67735
 30
0.0
  0
VERTEX
  5
988
100
AcDbEntity
  8
0
  6
CONTINUOUS
 62
     7
100
AcDbVertex
100
AcDb2dVertex
 10
3697.740461
 20
-19548.322576
 30
0.0
  0
VERTEX
  5
989
100
AcDbEntity
  8
0
  6
CONTINUOUS
 62
     7
100
AcDbVertex
100
AcDb2dVertex
 10
3698.436974
 20
-19549.019101
 30
0.0
  0
VERTEX
  5
98A
100
AcDbEntity
  8
0
  6
CONTINUOUS
 62
     7
100
AcDbVertex
100
AcDb2dVertex
 10
3699.159619
 20
-19549.74175
 30
0.0
  0
SEQEND
  5
98B
100
AcDbEntity
  8
0
  6
CONTINUOUS
 62
     7
  0
LINE
  5
98C
100
AcDbEntity
  8
0
  6
CONTINUOUS
 62
     7
100
AcDbLine
 10
3696.049281
 20
-19546.631396
 30
0.0
 11
3696.049281
 21
-19498.545115
 31
0.0
  0
POLYLINE
  5
98D
100
AcDbEntity
  8
0
  6
CONTINUOUS
 62
     7
100
AcDb2dPolyline
 66
     1
 10
0.0
 20
0.0
 30
0.0
 70
   128
  0
VERTEX
  5
98E
100
AcDbEntity
  8
0
  6
CONTINUOUS
 62
     7
100
AcDbVertex
100
AcDb2dVertex
 10
3699.159619
 20
-19494.755138
 30
0.0
  0
VERTEX
  5
98F
100
AcDbEntity
  8
0
  6
CONTINUOUS
 62
     7
100
AcDbVertex
100
AcDb2dVertex
 10
3698.436974
 20
-19495.635687
 30
0.0
  0
VERTEX
  5
990
100
AcDbEntity
  8
0
  6
CONTINUOUS
 62
     7
100
AcDbVertex
100
AcDb2dVertex
 10
3697.740461
 20
-19496.484406
 30
0.0
  0
VERTEX
  5
991
100
AcDbEntity
  8
0
  6
CONTINUOUS
 62
     7
100
AcDbVertex
100
AcDb2dVertex
 10
3697.095229
 20
-19497.270618
 30
0.0
  0
VERTEX
  5
992
100
AcDbEntity
  8
0
  6
CONTINUOUS
 62
     7
100
AcDbVertex
100
AcDb2dVertex
 10
3696.524633
 20
-19497.965899
 30
0.0
  0
VERTEX
  5
993
100
AcDbEntity
  8
0
  6
CONTINUOUS
 62
     7
100
AcDbVertex
100
AcDb2dVertex
 10
3696.049281
 20
-19498.545115
 30
0.0
  0
SEQEND
  5
994
100
AcDbEntity
  8
0
  6
CONTINUOUS
 62
     7
  0
POLYLINE
  5
995
100
AcDbEntity
  8
0
  6
CONTINUOUS
 62
     7
100
AcDb2dPolyline
 66
     1
 10
0.0
 20
0.0
 30
0.0
 70
   128
  0
VERTEX
  5
996
100
AcDbEntity
  8
0
  6
CONTINUOUS
 62
     7
100
AcDbVertex
100
AcDb2dVertex
 10
3696.049281
 20
-19492.202538
 30
0.0
  0
VERTEX
  5
997
100
AcDbEntity
  8
0
  6
CONTINUOUS
 62
     7
100
AcDbVertex
100
AcDb2dVertex
 10
3696.524633
 20
-19492.592645
 30
0.0
  0
VERTEX
  5
998
100
AcDbEntity
  8
0
  6
CONTINUOUS
 62
     7
100
AcDbVertex
100
AcDb2dVertex
 10
3697.095229
 20
-19493.060926
 30
0.0
  0
VERTEX
  5
999
100
AcDbEntity
  8
0
  6
CONTINUOUS
 62
     7
100
AcDbVertex
100
AcDb2dVertex
 10
3697.740461
 20
-19493.590449
 30
0.0
  0
VERTEX
  5
99A
100
AcDbEntity
  8
0
  6
CONTINUOUS
 62
     7
100
AcDbVertex
100
AcDb2dVertex
 10
3698.436974
 20
-19494.162075
 30
0.0
  0
VERTEX
  5
99B
100
AcDbEntity
  8
0
  6
CONTINUOUS
 62
     7
100
AcDbVertex
100
AcDb2dVertex
 10
3699.159619
 20
-19494.755138
 30
0.0
  0
SEQEND
  5
99C
100
AcDbEntity
  8
0
  6
CONTINUOUS
 62
     7
  0
LINE
  5
99D
100
AcDbEntity
  8
0
  6
CONTINUOUS
 62
     7
100
AcDbLine
 10
3696.049281
 20
-19492.202538
 30
0.0
 11
3696.049281
 21
-19439.893035
 31
0.0
  0
LINE
  5
99E
100
AcDbEntity
  8
0
  6
CONTINUOUS
 62
     7
100
AcDbLine
 10
3702.269988
 20
-19660.317942
 30
0.0
 11
3702.269988
 21
-19439.165559
 31
0.0
  0
LINE
  5
99F
100
AcDbEntity
  8
0
  6
CONTINUOUS
 62
     7
100
AcDbLine
 10
3696.049281
 20
-19659.590466
 30
0.0
 11
3696.049281
 21
-19607.280963
 31
0.0
  0
POLYLINE
  5
9A0
100
AcDbEntity
  8
0
  6
CONTINUOUS
 62
     7
100
AcDb2dPolyline
 66
     1
 10
0.0
 20
0.0
 30
0.0
 70
   128
  0
VERTEX
  5
9A1
100
AcDbEntity
  8
0
  6
CONTINUOUS
 62
     7
100
AcDbVertex
100
AcDb2dVertex
 10
3699.159619
 20
-19604.728363
 30
0.0
  0
VERTEX
  5
9A2
100
AcDbEntity
  8
0
  6
CONTINUOUS
 62
     7
100
AcDbVertex
100
AcDb2dVertex
 10
3698.436974
 20
-19605.321422
 30
0.0
  0
VERTEX
  5
9A3
100
AcDbEntity
  8
0
  6
CONTINUOUS
 62
     7
100
AcDbVertex
100
AcDb2dVertex
 10
3697.740461
 20
-19605.893049
 30
0.0
  0
VERTEX
  5
9A4
100
AcDbEntity
  8
0
  6
CONTINUOUS
 62
     7
100
AcDbVertex
100
AcDb2dVertex
 10
3697.095229
 20
-19606.422571
 30
0.0
  0
VERTEX
  5
9A5
100
AcDbEntity
  8
0
  6
CONTINUOUS
 62
     7
100
AcDbVertex
100
AcDb2dVertex
 10
3696.524633
 20
-19606.890852
 30
0.0
  0
VERTEX
  5
9A6
100
AcDbEntity
  8
0
  6
CONTINUOUS
 62
     7
100
AcDbVertex
100
AcDb2dVertex
 10
3696.049281
 20
-19607.280963
 30
0.0
  0
SEQEND
  5
9A7
100
AcDbEntity
  8
0
  6
CONTINUOUS
 62
     7
  0
LINE
  5
9A8
100
AcDbEntity
  8
0
  6
CONTINUOUS
 62
     7
100
AcDbLine
 10
3231.651947
 20
-19354.271719
 30
0.0
 11
3282.369889
 21
-19404.989676
 31
0.0
  0
LINE
  5
9A9
100
AcDbEntity
  8
0
  6
CONTINUOUS
 62
     7
100
AcDbLine
 10
3282.369889
 20
-19404.989676
 30
0.0
 11
3277.971192
 21
-19409.388373
 31
0.0
  0
LINE
  5
9AA
100
AcDbEntity
  8
0
  6
CONTINUOUS
 62
     7
100
AcDbLine
 10
3227.25325
 20
-19358.670431
 30
0.0
 11
3277.971192
 21
-19409.388373
 31
0.0
  0
LINE
  5
9AB
100
AcDbEntity
  8
0
  6
CONTINUOUS
 62
     7
100
AcDbLine
 10
3656.680317
 20
-19397.157442
 30
0.0
 11
3592.075566
 21
-19440.324954
 31
0.0
  0
POLYLINE
  5
9AC
100
AcDbEntity
  8
0
  6
CONTINUOUS
 62
     7
100
AcDb2dPolyline
 66
     1
 10
0.0
 20
0.0
 30
0.0
 70
   128
  0
VERTEX
  5
9AD
100
AcDbEntity
  8
0
  6
CONTINUOUS
 62
     7
100
AcDbVertex
100
AcDb2dVertex
 10
3592.075566
 20
-19440.324954
 30
0.0
  0
VERTEX
  5
9AE
100
AcDbEntity
  8
0
  6
CONTINUOUS
 62
     7
100
AcDbVertex
100
AcDb2dVertex
 10
3591.736762
 20
-19439.817906
 30
0.0
  0
VERTEX
  5
9AF
100
AcDbEntity
  8
0
  6
CONTINUOUS
 62
     7
100
AcDbVertex
100
AcDb2dVertex
 10
3591.319634
 20
-19439.193625
 30
0.0
  0
VERTEX
  5
9B0
100
AcDbEntity
  8
0
  6
CONTINUOUS
 62
     7
100
AcDbVertex
100
AcDb2dVertex
 10
3590.847686
 20
-19438.487309
 30
0.0
  0
VERTEX
  5
9B1
100
AcDbEntity
  8
0
  6
CONTINUOUS
 62
     7
100
AcDbVertex
100
AcDb2dVertex
 10
3590.347545
 20
-19437.738792
 30
0.0
  0
VERTEX
  5
9B2
100
AcDbEntity
  8
0
  6
CONTINUOUS
 62
     7
100
AcDbVertex
100
AcDb2dVertex
 10
3589.847404
 20
-19436.990275
 30
0.0
  0
VERTEX
  5
9B3
100
AcDbEntity
  8
0
  6
CONTINUOUS
 62
     7
100
AcDbVertex
100
AcDb2dVertex
 10
3589.375456
 20
-19436.283959
 30
0.0
  0
VERTEX
  5
9B4
100
AcDbEntity
  8
0
  6
CONTINUOUS
 62
     7
100
AcDbVertex
100
AcDb2dVertex
 10
3588.958328
 20
-19435.659678
 30
0.0
  0
VERTEX
  5
9B5
100
AcDbEntity
  8
0
  6
CONTINUOUS
 62
     7
100
AcDbVertex
100
AcDb2dVertex
 10
3588.619524
 20
-19435.152623
 30
0.0
  0
SEQEND
  5
9B6
100
AcDbEntity
  8
0
  6
CONTINUOUS
 62
     7
  0
LINE
  5
9B7
100
AcDbEntity
  8
0
  6
CONTINUOUS
 62
     7
100
AcDbLine
 10
3652.195426
 20
-19392.672566
 30
0.0
 11
3588.619524
 21
-19435.152623
 31
0.0
  0
LINE
  5
9B8
100
AcDbEntity
  8
0
  6
CONTINUOUS
 62
     7
100
AcDbLine
 10
3193.251115
 20
-19392.672566
 30
0.0
 11
3256.827016
 21
-19435.152623
 31
0.0
  0
POLYLINE
  5
9B9
100
AcDbEntity
  8
0
  6
CONTINUOUS
 62
     7
100
AcDb2dPolyline
 66
     1
 10
0.0
 20
0.0
 30
0.0
 70
   128
  0
VERTEX
  5
9BA
100
AcDbEntity
  8
0
  6
CONTINUOUS
 62
     7
100
AcDbVertex
100
AcDb2dVertex
 10
3256.827016
 20
-19435.152623
 30
0.0
  0
VERTEX
  5
9BB
100
AcDbEntity
  8
0
  6
CONTINUOUS
 62
     7
100
AcDbVertex
100
AcDb2dVertex
 10
3256.488212
 20
-19435.659678
 30
0.0
  0
VERTEX
  5
9BC
100
AcDbEntity
  8
0
  6
CONTINUOUS
 62
     7
100
AcDbVertex
100
AcDb2dVertex
 10
3256.071085
 20
-19436.283959
 30
0.0
  0
VERTEX
  5
9BD
100
AcDbEntity
  8
0
  6
CONTINUOUS
 62
     7
100
AcDbVertex
100
AcDb2dVertex
 10
3255.599137
 20
-19436.990275
 30
0.0
  0
VERTEX
  5
9BE
100
AcDbEntity
  8
0
  6
CONTINUOUS
 62
     7
100
AcDbVertex
100
AcDb2dVertex
 10
3255.098995
 20
-19437.738792
 30
0.0
  0
VERTEX
  5
9BF
100
AcDbEntity
  8
0
  6
CONTINUOUS
 62
     7
100
AcDbVertex
100
AcDb2dVertex
 10
3254.598854
 20
-19438.487309
 30
0.0
  0
VERTEX
  5
9C0
100
AcDbEntity
  8
0
  6
CONTINUOUS
 62
     7
100
AcDbVertex
100
AcDb2dVertex
 10
3254.126906
 20
-19439.193625
 30
0.0
  0
VERTEX
  5
9C1
100
AcDbEntity
  8
0
  6
CONTINUOUS
 62
     7
100
AcDbVertex
100
AcDb2dVertex
 10
3253.709778
 20
-19439.817906
 30
0.0
  0
VERTEX
  5
9C2
100
AcDbEntity
  8
0
  6
CONTINUOUS
 62
     7
100
AcDbVertex
100
AcDb2dVertex
 10
3253.370975
 20
-19440.324954
 30
0.0
  0
SEQEND
  5
9C3
100
AcDbEntity
  8
0
  6
CONTINUOUS
 62
     7
  0
LINE
  5
9C4
100
AcDbEntity
  8
0
  6
CONTINUOUS
 62
     7
100
AcDbLine
 10
3188.766224
 20
-19397.157442
 30
0.0
 11
3253.370975
 21
-19440.324954
 31
0.0
  0
LINE
  5
9C5
100
AcDbEntity
  8
0
  6
CONTINUOUS
 62
     7
100
AcDbLine
 10
3618.193291
 20
-19358.670431
 30
0.0
 11
3567.475348
 21
-19409.388373
 31
0.0
  0
LINE
  5
9C6
100
AcDbEntity
  8
0
  6
CONTINUOUS
 62
     7
100
AcDbLine
 10
3567.475348
 20
-19409.388373
 30
0.0
 11
3563.076652
 21
-19404.989676
 31
0.0
  0
LINE
  5
9C7
100
AcDbEntity
  8
0
  6
CONTINUOUS
 62
     7
100
AcDbLine
 10
3613.794594
 20
-19354.271719
 30
0.0
 11
3563.076652
 21
-19404.989676
 31
0.0
  0
ARC
  5
9C8
100
AcDbEntity
  8
0
  6
CONTINUOUS
 62
     7
100
AcDbCircle
 10
3422.72327
 20
-19348.14175
 30
0.0
 40
3.110354
100
AcDbArc
 50
180.0
 51
360.0
  0
LINE
  5
9C9
100
AcDbEntity
  8
0
  6
CONTINUOUS
 62
     7
100
AcDbLine
 10
3149.397275
 20
-19492.202538
 30
0.0
 11
3225.603763
 21
-19507.360951
 31
0.0
  0
POLYLINE
  5
9CA
100
AcDbEntity
  8
0
  6
CONTINUOUS
 62
     7
100
AcDb2dPolyline
 66
     1
 10
0.0
 20
0.0
 30
0.0
 70
   128
  0
VERTEX
  5
9CB
100
AcDbEntity
  8
0
  6
CONTINUOUS
 62
     7
100
AcDbVertex
100
AcDb2dVertex
 10
3225.603763
 20
-19507.360951
 30
0.0
  0
VERTEX
  5
9CC
100
AcDbEntity
  8
0
  6
CONTINUOUS
 62
     7
100
AcDbVertex
100
AcDb2dVertex
 10
3225.48479
 20
-19507.959058
 30
0.0
  0
VERTEX
  5
9CD
100
AcDbEntity
  8
0
  6
CONTINUOUS
 62
     7
100
AcDbVertex
100
AcDb2dVertex
 10
3225.338311
 20
-19508.695449
 30
0.0
  0
VERTEX
  5
9CE
100
AcDbEntity
  8
0
  6
CONTINUOUS
 62
     7
100
AcDbVertex
100
AcDb2dVertex
 10
3225.172583
 20
-19509.528604
 30
0.0
  0
VERTEX
  5
9CF
100
AcDbEntity
  8
0
  6
CONTINUOUS
 62
     7
100
AcDbVertex
100
AcDb2dVertex
 10
3224.996954
 20
-19510.411542
 30
0.0
  0
VERTEX
  5
9D0
100
AcDbEntity
  8
0
  6
CONTINUOUS
 62
     7
100
AcDbVertex
100
AcDb2dVertex
 10
3224.821325
 20
-19511.29448
 30
0.0
  0
VERTEX
  5
9D1
100
AcDbEntity
  8
0
  6
CONTINUOUS
 62
     7
100
AcDbVertex
100
AcDb2dVertex
 10
3224.655612
 20
-19512.127631
 30
0.0
  0
VERTEX
  5
9D2
100
AcDbEntity
  8
0
  6
CONTINUOUS
 62
     7
100
AcDbVertex
100
AcDb2dVertex
 10
3224.509132
 20
-19512.864022
 30
0.0
  0
VERTEX
  5
9D3
100
AcDbEntity
  8
0
  6
CONTINUOUS
 62
     7
100
AcDbVertex
100
AcDb2dVertex
 10
3224.39016
 20
-19513.462129
 30
0.0
  0
SEQEND
  5
9D4
100
AcDbEntity
  8
0
  6
CONTINUOUS
 62
     7
  0
LINE
  5
9D5
100
AcDbEntity
  8
0
  6
CONTINUOUS
 62
     7
100
AcDbLine
 10
3149.397275
 20
-19498.545115
 30
0.0
 11
3224.39016
 21
-19513.462129
 31
0.0
  0
ARC
  5
9D6
100
AcDbEntity
  8
0
  6
CONTINUOUS
 62
     7
100
AcDbCircle
 10
3310.720307
 20
-19382.117472
 30
0.0
 40
3.110355
100
AcDbArc
 50
213.750154
 51
33.749839
  0
LINE
  5
9D7
100
AcDbEntity
  8
0
  6
CONTINUOUS
 62
     7
100
AcDbLine
 10
3696.049281
 20
-19498.545115
 30
0.0
 11
3621.056381
 21
-19513.462129
 31
0.0
  0
POLYLINE
  5
9D8
100
AcDbEntity
  8
0
  6
CONTINUOUS
 62
     7
100
AcDb2dPolyline
 66
     1
 10
0.0
 20
0.0
 30
0.0
 70
   128
  0
VERTEX
  5
9D9
100
AcDbEntity
  8
0
  6
CONTINUOUS
 62
     7
100
AcDbVertex
100
AcDb2dVertex
 10
3621.056381
 20
-19513.462129
 30
0.0
  0
VERTEX
  5
9DA
100
AcDbEntity
  8
0
  6
CONTINUOUS
 62
     7
100
AcDbVertex
100
AcDb2dVertex
 10
3620.937408
 20
-19512.864022
 30
0.0
  0
VERTEX
  5
9DB
100
AcDbEntity
  8
0
  6
CONTINUOUS
 62
     7
100
AcDbVertex
100
AcDb2dVertex
 10
3620.790929
 20
-19512.127631
 30
0.0
  0
VERTEX
  5
9DC
100
AcDbEntity
  8
0
  6
CONTINUOUS
 62
     7
100
AcDbVertex
100
AcDb2dVertex
 10
3620.625215
 20
-19511.29448
 30
0.0
  0
VERTEX
  5
9DD
100
AcDbEntity
  8
0
  6
CONTINUOUS
 62
     7
100
AcDbVertex
100
AcDb2dVertex
 10
3620.449587
 20
-19510.411542
 30
0.0
  0
VERTEX
  5
9DE
100
AcDbEntity
  8
0
  6
CONTINUOUS
 62
     7
100
AcDbVertex
100
AcDb2dVertex
 10
3620.273958
 20
-19509.528604
 30
0.0
  0
VERTEX
  5
9DF
100
AcDbEntity
  8
0
  6
CONTINUOUS
 62
     7
100
AcDbVertex
100
AcDb2dVertex
 10
3620.108229
 20
-19508.695449
 30
0.0
  0
VERTEX
  5
9E0
100
AcDbEntity
  8
0
  6
CONTINUOUS
 62
     7
100
AcDbVertex
100
AcDb2dVertex
 10
3619.96175
 20
-19507.959058
 30
0.0
  0
VERTEX
  5
9E1
100
AcDbEntity
  8
0
  6
CONTINUOUS
 62
     7
100
AcDbVertex
100
AcDb2dVertex
 10
3619.842778
 20
-19507.360951
 30
0.0
  0
SEQEND
  5
9E2
100
AcDbEntity
  8
0
  6
CONTINUOUS
 62
     7
  0
LINE
  5
9E3
100
AcDbEntity
  8
0
  6
CONTINUOUS
 62
     7
100
AcDbLine
 10
3696.049281
 20
-19492.202538
 30
0.0
 11
3619.842778
 21
-19507.360951
 31
0.0
  0
ARC
  5
9E4
100
AcDbEntity
  8
0
  6
CONTINUOUS
 62
     7
100
AcDbCircle
 10
3534.726234
 20
-19382.117471
 30
0.0
 40
3.110355
100
AcDbArc
 50
146.250184
 51
326.249822
  0
ARC
  5
9E5
100
AcDbEntity
  8
0
  6
CONTINUOUS
 62
     7
100
AcDbCircle
 10
3462.053482
 20
-19352.015432
 30
0.0
 40
3.110352
100
AcDbArc
 50
168.750208
 51
348.750003
  0
ARC
  5
9E6
100
AcDbEntity
  8
0
  6
CONTINUOUS
 62
     7
100
AcDbCircle
 10
3383.393059
 20
-19352.015436
 30
0.0
 40
3.110352
100
AcDbArc
 50
191.249922
 51
11.249867
  0
POLYLINE
  5
9E7
100
AcDbEntity
  8
0
  6
CONTINUOUS
 62
     7
100
AcDb2dPolyline
 66
     1
 10
0.0
 20
0.0
 30
0.0
 70
   128
  0
VERTEX
  5
9E8
100
AcDbEntity
  8
0
  6
CONTINUOUS
 62
     7
100
AcDbVertex
100
AcDb2dVertex
 10
3579.792458
 20
-19779.21391
 30
0.0
  0
VERTEX
  5
9E9
100
AcDbEntity
  8
0
  6
CONTINUOUS
 62
     7
100
AcDbVertex
100
AcDb2dVertex
 10
3579.719017
 20
-19779.959612
 30
0.0
  0
VERTEX
  5
9EA
100
AcDbEntity
  8
0
  6
CONTINUOUS
 62
     7
100
AcDbVertex
100
AcDb2dVertex
 10
3579.630852
 20
-19780.854721
 30
0.0
  0
VERTEX
  5
9EB
100
AcDbEntity
  8
0
  6
CONTINUOUS
 62
     7
100
AcDbVertex
100
AcDb2dVertex
 10
3579.531158
 20
-19781.866905
 30
0.0
  0
VERTEX
  5
9EC
100
AcDbEntity
  8
0
  6
CONTINUOUS
 62
     7
100
AcDbVertex
100
AcDb2dVertex
 10
3579.42355
 20
-19782.95955
 30
0.0
  0
VERTEX
  5
9ED
100
AcDbEntity
  8
0
  6
CONTINUOUS
 62
     7
100
AcDbVertex
100
AcDb2dVertex
 10
3579.311894
 20
-19784.093186
 30
0.0
  0
SEQEND
  5
9EE
100
AcDbEntity
  8
0
  6
CONTINUOUS
 62
     7
  0
LINE
  5
9EF
100
AcDbEntity
  8
0
  6
CONTINUOUS
 62
     7
100
AcDbLine
 10
3579.792458
 20
-19779.21391
 30
0.0
 11
3613.794594
 21
-19745.211775
 31
0.0
  0
LINE
  5
9F0
100
AcDbEntity
  8
0
  6
CONTINUOUS
 62
     7
100
AcDbLine
 10
3618.193291
 20
-19745.211775
 30
0.0
 11
3613.794594
 21
-19745.211775
 31
0.0
  0
LINE
  5
9F1
100
AcDbEntity
  8
0
  6
CONTINUOUS
 62
     7
100
AcDbLine
 10
3618.193291
 20
-19740.813078
 30
0.0
 11
3618.193291
 21
-19745.211775
 31
0.0
  0
LINE
  5
9F2
100
AcDbEntity
  8
0
  6
CONTINUOUS
 62
     7
100
AcDbLine
 10
3618.193291
 20
-19740.813078
 30
0.0
 11
3652.195426
 21
-19706.810942
 31
0.0
  0
POLYLINE
  5
9F3
100
AcDbEntity
  8
0
  6
CONTINUOUS
 62
     7
100
AcDb2dPolyline
 66
     1
 10
0.0
 20
0.0
 30
0.0
 70
   128
  0
VERTEX
  5
9F4
100
AcDbEntity
  8
0
  6
CONTINUOUS
 62
     7
100
AcDbVertex
100
AcDb2dVertex
 10
3657.074702
 20
-19706.330378
 30
0.0
  0
VERTEX
  5
9F5
100
AcDbEntity
  8
0
  6
CONTINUOUS
 62
     7
100
AcDbVertex
100
AcDb2dVertex
 10
3655.941066
 20
-19706.442019
 30
0.0
  0
VERTEX
  5
9F6
100
AcDbEntity
  8
0
  6
CONTINUOUS
 62
     7
100
AcDbVertex
100
AcDb2dVertex
 10
3654.848421
 20
-19706.549642
 30
0.0
  0
VERTEX
  5
9F7
100
AcDbEntity
  8
0
  6
CONTINUOUS
 62
     7
100
AcDbVertex
100
AcDb2dVertex
 10
3653.836237
 20
-19706.649336
 30
0.0
  0
VERTEX
  5
9F8
100
AcDbEntity
  8
0
  6
CONTINUOUS
 62
     7
100
AcDbVertex
100
AcDb2dVertex
 10
3652.941128
 20
-19706.737486
 30
0.0
  0
VERTEX
  5
9F9
100
AcDbEntity
  8
0
  6
CONTINUOUS
 62
     7
100
AcDbVertex
100
AcDb2dVertex
 10
3652.195426
 20
-19706.810942
 30
0.0
  0
SEQEND
  5
9FA
100
AcDbEntity
  8
0
  6
CONTINUOUS
 62
     7
  0
POLYLINE
  5
9FB
100
AcDbEntity
  8
0
  6
CONTINUOUS
 62
     7
100
AcDb2dPolyline
 66
     1
 10
0.0
 20
0.0
 30
0.0
 70
   128
  0
VERTEX
  5
9FC
100
AcDbEntity
  8
0
  6
CONTINUOUS
 62
     7
100
AcDbVertex
100
AcDb2dVertex
 10
3656.680317
 20
-19702.326051
 30
0.0
  0
VERTEX
  5
9FD
100
AcDbEntity
  8
0
  6
CONTINUOUS
 62
     7
100
AcDbVertex
100
AcDb2dVertex
 10
3656.740587
 20
-19702.938027
 30
0.0
  0
VERTEX
  5
9FE
100
AcDbEntity
  8
0
  6
CONTINUOUS
 62
     7
100
AcDbVertex
100
AcDb2dVertex
 10
3656.812938
 20
-19703.672634
 30
0.0
  0
VERTEX
  5
9FF
100
AcDbEntity
  8
0
  6
CONTINUOUS
 62
     7
100
AcDbVertex
100
AcDb2dVertex
 10
3656.894757
 20
-19704.503306
 30
0.0
  0
VERTEX
  5
A00
100
AcDbEntity
  8
0
  6
CONTINUOUS
 62
     7
100
AcDbVertex
100
AcDb2dVertex
 10
3656.983072
 20
-19705.400028
 30
0.0
  0
VERTEX
  5
A01
100
AcDbEntity
  8
0
  6
CONTINUOUS
 62
     7
100
AcDbVertex
100
AcDb2dVertex
 10
3657.074702
 20
-19706.330378
 30
0.0
  0
SEQEND
  5
A02
100
AcDbEntity
  8
0
  6
CONTINUOUS
 62
     7
  0
LINE
  5
A03
100
AcDbEntity
  8
0
  6
CONTINUOUS
 62
     7
100
AcDbLine
 10
3656.680317
 20
-19702.326051
 30
0.0
 11
3693.668726
 21
-19665.33765
 31
0.0
  0
LINE
  5
A04
100
AcDbEntity
  8
0
  6
CONTINUOUS
 62
     7
100
AcDbLine
 10
3542.203475
 20
-19825.600294
 30
0.0
 11
3698.581825
 21
-19669.221952
 31
0.0
  0
LINE
  5
A05
100
AcDbEntity
  8
0
  6
CONTINUOUS
 62
     7
100
AcDbLine
 10
3538.319173
 20
-19820.687195
 30
0.0
 11
3575.307582
 21
-19783.698786
 31
0.0
  0
POLYLINE
  5
A06
100
AcDbEntity
  8
0
  6
CONTINUOUS
 62
     7
100
AcDb2dPolyline
 66
     1
 10
0.0
 20
0.0
 30
0.0
 70
   128
  0
VERTEX
  5
A07
100
AcDbEntity
  8
0
  6
CONTINUOUS
 62
     7
100
AcDbVertex
100
AcDb2dVertex
 10
3579.311894
 20
-19784.093186
 30
0.0
  0
VERTEX
  5
A08
100
AcDbEntity
  8
0
  6
CONTINUOUS
 62
     7
100
AcDbVertex
100
AcDb2dVertex
 10
3578.381543
 20
-19784.001556
 30
0.0
  0
VERTEX
  5
A09
100
AcDbEntity
  8
0
  6
CONTINUOUS
 62
     7
100
AcDbVertex
100
AcDb2dVertex
 10
3577.484822
 20
-19783.913226
 30
0.0
  0
VERTEX
  5
A0A
100
AcDbEntity
  8
0
  6
CONTINUOUS
 62
     7
100
AcDbVertex
100
AcDb2dVertex
 10
3576.65415
 20
-19783.831422
 30
0.0
  0
VERTEX
  5
A0B
100
AcDbEntity
  8
0
  6
CONTINUOUS
 62
     7
100
AcDbVertex
100
AcDb2dVertex
 10
3575.919558
 20
-19783.759071
 30
0.0
  0
VERTEX
  5
A0C
100
AcDbEntity
  8
0
  6
CONTINUOUS
 62
     7
100
AcDbVertex
100
AcDb2dVertex
 10
3575.307582
 20
-19783.698786
 30
0.0
  0
SEQEND
  5
A0D
100
AcDbEntity
  8
0
  6
CONTINUOUS
 62
     7
  0
POLYLINE
  5
A0E
100
AcDbEntity
  8
0
  6
CONTINUOUS
 62
     7
100
AcDb2dPolyline
 66
     1
 10
0.0
 20
0.0
 30
0.0
 70
   128
  0
VERTEX
  5
A0F
100
AcDbEntity
  8
0
  6
CONTINUOUS
 62
     7
100
AcDbVertex
100
AcDb2dVertex
 10
3193.251115
 20
-19706.810942
 30
0.0
  0
VERTEX
  5
A10
100
AcDbEntity
  8
0
  6
CONTINUOUS
 62
     7
100
AcDbVertex
100
AcDb2dVertex
 10
3192.505412
 20
-19706.737486
 30
0.0
  0
VERTEX
  5
A11
100
AcDbEntity
  8
0
  6
CONTINUOUS
 62
     7
100
AcDbVertex
100
AcDb2dVertex
 10
3191.610304
 20
-19706.649336
 30
0.0
  0
VERTEX
  5
A12
100
AcDbEntity
  8
0
  6
CONTINUOUS
 62
     7
100
AcDbVertex
100
AcDb2dVertex
 10
3190.598119
 20
-19706.549642
 30
0.0
  0
VERTEX
  5
A13
100
AcDbEntity
  8
0
  6
CONTINUOUS
 62
     7
100
AcDbVertex
100
AcDb2dVertex
 10
3189.505475
 20
-19706.442019
 30
0.0
  0
VERTEX
  5
A14
100
AcDbEntity
  8
0
  6
CONTINUOUS
 62
     7
100
AcDbVertex
100
AcDb2dVertex
 10
3188.371839
 20
-19706.330378
 30
0.0
  0
SEQEND
  5
A15
100
AcDbEntity
  8
0
  6
CONTINUOUS
 62
     7
  0
LINE
  5
A16
100
AcDbEntity
  8
0
  6
CONTINUOUS
 62
     7
100
AcDbLine
 10
3193.251115
 20
-19706.810942
 30
0.0
 11
3227.25325
 21
-19740.813078
 31
0.0
  0
LINE
  5
A17
100
AcDbEntity
  8
0
  6
CONTINUOUS
 62
     7
100
AcDbLine
 10
3227.25325
 20
-19745.211775
 30
0.0
 11
3227.25325
 21
-19740.813078
 31
0.0
  0
LINE
  5
A18
100
AcDbEntity
  8
0
  6
CONTINUOUS
 62
     7
100
AcDbLine
 10
3231.651947
 20
-19745.211775
 30
0.0
 11
3227.25325
 21
-19745.211775
 31
0.0
  0
LINE
  5
A19
100
AcDbEntity
  8
0
  6
CONTINUOUS
 62
     7
100
AcDbLine
 10
3231.651947
 20
-19745.211775
 30
0.0
 11
3265.654082
 21
-19779.21391
 31
0.0
  0
POLYLINE
  5
A1A
100
AcDbEntity
  8
0
  6
CONTINUOUS
 62
     7
100
AcDb2dPolyline
 66
     1
 10
0.0
 20
0.0
 30
0.0
 70
   128
  0
VERTEX
  5
A1B
100
AcDbEntity
  8
0
  6
CONTINUOUS
 62
     7
100
AcDbVertex
100
AcDb2dVertex
 10
3266.134646
 20
-19784.093186
 30
0.0
  0
VERTEX
  5
A1C
100
AcDbEntity
  8
0
  6
CONTINUOUS
 62
     7
100
AcDbVertex
100
AcDb2dVertex
 10
3266.022991
 20
-19782.95955
 30
0.0
  0
VERTEX
  5
A1D
100
AcDbEntity
  8
0
  6
CONTINUOUS
 62
     7
100
AcDbVertex
100
AcDb2dVertex
 10
3265.915383
 20
-19781.866905
 30
0.0
  0
VERTEX
  5
A1E
100
AcDbEntity
  8
0
  6
CONTINUOUS
 62
     7
100
AcDbVertex
100
AcDb2dVertex
 10
3265.815689
 20
-19780.854721
 30
0.0
  0
VERTEX
  5
A1F
100
AcDbEntity
  8
0
  6
CONTINUOUS
 62
     7
100
AcDbVertex
100
AcDb2dVertex
 10
3265.727523
 20
-19779.959612
 30
0.0
  0
VERTEX
  5
A20
100
AcDbEntity
  8
0
  6
CONTINUOUS
 62
     7
100
AcDbVertex
100
AcDb2dVertex
 10
3265.654082
 20
-19779.21391
 30
0.0
  0
SEQEND
  5
A21
100
AcDbEntity
  8
0
  6
CONTINUOUS
 62
     7
  0
POLYLINE
  5
A22
100
AcDbEntity
  8
0
  6
CONTINUOUS
 62
     7
100
AcDb2dPolyline
 66
     1
 10
0.0
 20
0.0
 30
0.0
 70
   128
  0
VERTEX
  5
A23
100
AcDbEntity
  8
0
  6
CONTINUOUS
 62
     7
100
AcDbVertex
100
AcDb2dVertex
 10
3270.138958
 20
-19783.698786
 30
0.0
  0
VERTEX
  5
A24
100
AcDbEntity
  8
0
  6
CONTINUOUS
 62
     7
100
AcDbVertex
100
AcDb2dVertex
 10
3269.526982
 20
-19783.759071
 30
0.0
  0
VERTEX
  5
A25
100
AcDbEntity
  8
0
  6
CONTINUOUS
 62
     7
100
AcDbVertex
100
AcDb2dVertex
 10
3268.79239
 20
-19783.831422
 30
0.0
  0
VERTEX
  5
A26
100
AcDbEntity
  8
0
  6
CONTINUOUS
 62
     7
100
AcDbVertex
100
AcDb2dVertex
 10
3267.961718
 20
-19783.913226
 30
0.0
  0
VERTEX
  5
A27
100
AcDbEntity
  8
0
  6
CONTINUOUS
 62
     7
100
AcDbVertex
100
AcDb2dVertex
 10
3267.064997
 20
-19784.001556
 30
0.0
  0
VERTEX
  5
A28
100
AcDbEntity
  8
0
  6
CONTINUOUS
 62
     7
100
AcDbVertex
100
AcDb2dVertex
 10
3266.134646
 20
-19784.093186
 30
0.0
  0
SEQEND
  5
A29
100
AcDbEntity
  8
0
  6
CONTINUOUS
 62
     7
  0
LINE
  5
A2A
100
AcDbEntity
  8
0
  6
CONTINUOUS
 62
     7
100
AcDbLine
 10
3270.138958
 20
-19783.698786
 30
0.0
 11
3307.127367
 21
-19820.687195
 31
0.0
  0
LINE
  5
A2B
100
AcDbEntity
  8
0
  6
CONTINUOUS
 62
     7
100
AcDbLine
 10
3146.8647
 20
-19669.221952
 30
0.0
 11
3303.243065
 21
-19825.600294
 31
0.0
  0
LINE
  5
A2C
100
AcDbEntity
  8
0
  6
CONTINUOUS
 62
     7
100
AcDbLine
 10
3151.77783
 20
-19665.33765
 30
0.0
 11
3188.766224
 21
-19702.326051
 31
0.0
  0
POLYLINE
  5
A2D
100
AcDbEntity
  8
0
  6
CONTINUOUS
 62
     7
100
AcDb2dPolyline
 66
     1
 10
0.0
 20
0.0
 30
0.0
 70
   128
  0
VERTEX
  5
A2E
100
AcDbEntity
  8
0
  6
CONTINUOUS
 62
     7
100
AcDbVertex
100
AcDb2dVertex
 10
3188.371839
 20
-19706.330378
 30
0.0
  0
VERTEX
  5
A2F
100
AcDbEntity
  8
0
  6
CONTINUOUS
 62
     7
100
AcDbVertex
100
AcDb2dVertex
 10
3188.463469
 20
-19705.400028
 30
0.0
  0
VERTEX
  5
A30
100
AcDbEntity
  8
0
  6
CONTINUOUS
 62
     7
100
AcDbVertex
100
AcDb2dVertex
 10
3188.551783
 20
-19704.503306
 30
0.0
  0
VERTEX
  5
A31
100
AcDbEntity
  8
0
  6
CONTINUOUS
 62
     7
100
AcDbVertex
100
AcDb2dVertex
 10
3188.633602
 20
-19703.672634
 30
0.0
  0
VERTEX
  5
A32
100
AcDbEntity
  8
0
  6
CONTINUOUS
 62
     7
100
AcDbVertex
100
AcDb2dVertex
 10
3188.705953
 20
-19702.938027
 30
0.0
  0
VERTEX
  5
A33
100
AcDbEntity
  8
0
  6
CONTINUOUS
 62
     7
100
AcDbVertex
100
AcDb2dVertex
 10
3188.766224
 20
-19702.326051
 30
0.0
  0
SEQEND
  5
A34
100
AcDbEntity
  8
0
  6
CONTINUOUS
 62
     7
  0
LINE
  5
A35
100
AcDbEntity
  8
0
  6
CONTINUOUS
 62
     7
100
AcDbLine
 10
3149.397275
 20
-19600.938383
 30
0.0
 11
3224.39016
 21
-19586.02137
 31
0.0
  0
POLYLINE
  5
A36
100
AcDbEntity
  8
0
  6
CONTINUOUS
 62
     7
100
AcDb2dPolyline
 66
     1
 10
0.0
 20
0.0
 30
0.0
 70
   128
  0
VERTEX
  5
A37
100
AcDbEntity
  8
0
  6
CONTINUOUS
 62
     7
100
AcDbVertex
100
AcDb2dVertex
 10
3224.39016
 20
-19586.02137
 30
0.0
  0
VERTEX
  5
A38
100
AcDbEntity
  8
0
  6
CONTINUOUS
 62
     7
100
AcDbVertex
100
AcDb2dVertex
 10
3224.509132
 20
-19586.619477
 30
0.0
  0
VERTEX
  5
A39
100
AcDbEntity
  8
0
  6
CONTINUOUS
 62
     7
100
AcDbVertex
100
AcDb2dVertex
 10
3224.655612
 20
-19587.355868
 30
0.0
  0
VERTEX
  5
A3A
100
AcDbEntity
  8
0
  6
CONTINUOUS
 62
     7
100
AcDbVertex
100
AcDb2dVertex
 10
3224.821325
 20
-19588.189021
 30
0.0
  0
VERTEX
  5
A3B
100
AcDbEntity
  8
0
  6
CONTINUOUS
 62
     7
100
AcDbVertex
100
AcDb2dVertex
 10
3224.996954
 20
-19589.071959
 30
0.0
  0
VERTEX
  5
A3C
100
AcDbEntity
  8
0
  6
CONTINUOUS
 62
     7
100
AcDbVertex
100
AcDb2dVertex
 10
3225.172583
 20
-19589.954895
 30
0.0
  0
VERTEX
  5
A3D
100
AcDbEntity
  8
0
  6
CONTINUOUS
 62
     7
100
AcDbVertex
100
AcDb2dVertex
 10
3225.338311
 20
-19590.78805
 30
0.0
  0
VERTEX
  5
A3E
100
AcDbEntity
  8
0
  6
CONTINUOUS
 62
     7
100
AcDbVertex
100
AcDb2dVertex
 10
3225.48479
 20
-19591.52444
 30
0.0
  0
VERTEX
  5
A3F
100
AcDbEntity
  8
0
  6
CONTINUOUS
 62
     7
100
AcDbVertex
100
AcDb2dVertex
 10
3225.603763
 20
-19592.122546
 30
0.0
  0
SEQEND
  5
A40
100
AcDbEntity
  8
0
  6
CONTINUOUS
 62
     7
  0
LINE
  5
A41
100
AcDbEntity
  8
0
  6
CONTINUOUS
 62
     7
100
AcDbLine
 10
3149.397275
 20
-19607.280963
 30
0.0
 11
3225.603763
 21
-19592.122546
 31
0.0
  0
LINE
  5
A42
100
AcDbEntity
  8
0
  6
CONTINUOUS
 62
     7
100
AcDbLine
 10
3149.397275
 20
-19546.631396
 30
0.0
 11
3221.123277
 21
-19546.631396
 31
0.0
  0
LINE
  5
A43
100
AcDbEntity
  8
0
  6
CONTINUOUS
 62
     7
100
AcDbLine
 10
3221.123277
 20
-19546.631396
 30
0.0
 11
3221.123277
 21
-19552.852103
 31
0.0
  0
LINE
  5
A44
100
AcDbEntity
  8
0
  6
CONTINUOUS
 62
     7
100
AcDbLine
 10
3149.397275
 20
-19552.852103
 30
0.0
 11
3221.123277
 21
-19552.852103
 31
0.0
  0
ARC
  5
A45
100
AcDbEntity
  8
0
  6
CONTINUOUS
 62
     7
100
AcDbCircle
 10
3280.170549
 20
-19407.189033
 30
0.0
 40
3.110348
100
AcDbArc
 50
224.99979
 51
45.00021
  0
LINE
  5
A46
100
AcDbEntity
  8
0
  6
CONTINUOUS
 62
     7
100
AcDbLine
 10
3696.049281
 20
-19552.852103
 30
0.0
 11
3624.323263
 21
-19552.852103
 31
0.0
  0
LINE
  5
A47
100
AcDbEntity
  8
0
  6
CONTINUOUS
 62
     7
100
AcDbLine
 10
3624.323263
 20
-19552.852103
 30
0.0
 11
3624.323263
 21
-19546.631396
 31
0.0
  0
LINE
  5
A48
100
AcDbEntity
  8
0
  6
CONTINUOUS
 62
     7
100
AcDbLine
 10
3696.049281
 20
-19546.631396
 30
0.0
 11
3624.323263
 21
-19546.631396
 31
0.0
  0
LINE
  5
A49
100
AcDbEntity
  8
0
  6
CONTINUOUS
 62
     7
100
AcDbLine
 10
3696.049281
 20
-19607.280963
 30
0.0
 11
3619.842778
 21
-19592.122546
 31
0.0
  0
POLYLINE
  5
A4A
100
AcDbEntity
  8
0
  6
CONTINUOUS
 62
     7
100
AcDb2dPolyline
 66
     1
 10
0.0
 20
0.0
 30
0.0
 70
   128
  0
VERTEX
  5
A4B
100
AcDbEntity
  8
0
  6
CONTINUOUS
 62
     7
100
AcDbVertex
100
AcDb2dVertex
 10
3619.842778
 20
-19592.122546
 30
0.0
  0
VERTEX
  5
A4C
100
AcDbEntity
  8
0
  6
CONTINUOUS
 62
     7
100
AcDbVertex
100
AcDb2dVertex
 10
3619.96175
 20
-19591.52444
 30
0.0
  0
VERTEX
  5
A4D
100
AcDbEntity
  8
0
  6
CONTINUOUS
 62
     7
100
AcDbVertex
100
AcDb2dVertex
 10
3620.108229
 20
-19590.78805
 30
0.0
  0
VERTEX
  5
A4E
100
AcDbEntity
  8
0
  6
CONTINUOUS
 62
     7
100
AcDbVertex
100
AcDb2dVertex
 10
3620.273958
 20
-19589.954895
 30
0.0
  0
VERTEX
  5
A4F
100
AcDbEntity
  8
0
  6
CONTINUOUS
 62
     7
100
AcDbVertex
100
AcDb2dVertex
 10
3620.449587
 20
-19589.071959
 30
0.0
  0
VERTEX
  5
A50
100
AcDbEntity
  8
0
  6
CONTINUOUS
 62
     7
100
AcDbVertex
100
AcDb2dVertex
 10
3620.625215
 20
-19588.189021
 30
0.0
  0
VERTEX
  5
A51
100
AcDbEntity
  8
0
  6
CONTINUOUS
 62
     7
100
AcDbVertex
100
AcDb2dVertex
 10
3620.790929
 20
-19587.355868
 30
0.0
  0
VERTEX
  5
A52
100
AcDbEntity
  8
0
  6
CONTINUOUS
 62
     7
100
AcDbVertex
100
AcDb2dVertex
 10
3620.937408
 20
-19586.619477
 30
0.0
  0
VERTEX
  5
A53
100
AcDbEntity
  8
0
  6
CONTINUOUS
 62
     7
100
AcDbVertex
100
AcDb2dVertex
 10
3621.056381
 20
-19586.02137
 30
0.0
  0
SEQEND
  5
A54
100
AcDbEntity
  8
0
  6
CONTINUOUS
 62
     7
  0
LINE
  5
A55
100
AcDbEntity
  8
0
  6
CONTINUOUS
 62
     7
100
AcDbLine
 10
3696.049281
 20
-19600.938383
 30
0.0
 11
3621.056381
 21
-19586.02137
 31
0.0
  0
ARC
  5
A56
100
AcDbEntity
  8
0
  6
CONTINUOUS
 62
     7
100
AcDbCircle
 10
3565.276001
 20
-19407.189024
 30
0.0
 40
3.110348
100
AcDbArc
 50
135.000019
 51
314.999981
  0
ARC
  5
A57
100
AcDbEntity
  8
0
  6
CONTINUOUS
 62
     7
100
AcDbCircle
 10
3255.098999
 20
-19437.738791
 30
0.0
 40
3.110355
100
AcDbArc
 50
236.249929
 51
56.250078
  0
ARC
  5
A58
100
AcDbEntity
  8
0
  6
CONTINUOUS
 62
     7
100
AcDbCircle
 10
3590.347543
 20
-19437.73879
 30
0.0
 40
3.110355
100
AcDbArc
 50
123.749953
 51
303.750041
  0
ARC
  5
A59
100
AcDbEntity
  8
0
  6
CONTINUOUS
 62
     7
100
AcDbCircle
 10
3224.996962
 20
-19510.41154
 30
0.0
 40
3.110354
100
AcDbArc
 50
258.749961
 51
78.74998
  0
ARC
  5
A5A
100
AcDbEntity
  8
0
  6
CONTINUOUS
 62
     7
100
AcDbCircle
 10
3620.449576
 20
-19510.411541
 30
0.0
 40
3.110354
100
AcDbArc
 50
101.24998
 51
281.250079
  0
LINE
  5
A5B
100
AcDbEntity
  8
0
  6
CONTINUOUS
 62
     7
100
AcDbLine
 10
3613.794594
 20
-19745.211775
 30
0.0
 11
3563.076652
 21
-19694.493832
 31
0.0
  0
POLYLINE
  5
A5C
100
AcDbEntity
  8
0
  6
CONTINUOUS
 62
     7
100
AcDb2dPolyline
 66
     1
 10
0.0
 20
0.0
 30
0.0
 70
   128
  0
VERTEX
  5
A5D
100
AcDbEntity
  8
0
  6
CONTINUOUS
 62
     7
100
AcDbVertex
100
AcDb2dVertex
 10
3563.076652
 20
-19694.493832
 30
0.0
  0
VERTEX
  5
A5E
100
AcDbEntity
  8
0
  6
CONTINUOUS
 62
     7
100
AcDbVertex
100
AcDb2dVertex
 10
3563.507861
 20
-19694.062622
 30
0.0
  0
VERTEX
  5
A5F
100
AcDbEntity
  8
0
  6
CONTINUOUS
 62
     7
100
AcDbVertex
100
AcDb2dVertex
 10
3564.038765
 20
-19693.531704
 30
0.0
  0
VERTEX
  5
A60
100
AcDbEntity
  8
0
  6
CONTINUOUS
 62
     7
100
AcDbVertex
100
AcDb2dVertex
 10
3564.639437
 20
-19692.931032
 30
0.0
  0
VERTEX
  5
A61
100
AcDbEntity
  8
0
  6
CONTINUOUS
 62
     7
100
AcDbVertex
100
AcDb2dVertex
 10
3565.275992
 20
-19692.294477
 30
0.0
  0
VERTEX
  5
A62
100
AcDbEntity
  8
0
  6
CONTINUOUS
 62
     7
100
AcDbVertex
100
AcDb2dVertex
 10
3565.912563
 20
-19691.657921
 30
0.0
  0
VERTEX
  5
A63
100
AcDbEntity
  8
0
  6
CONTINUOUS
 62
     7
100
AcDbVertex
100
AcDb2dVertex
 10
3566.513235
 20
-19691.057249
 30
0.0
  0
VERTEX
  5
A64
100
AcDbEntity
  8
0
  6
CONTINUOUS
 62
     7
100
AcDbVertex
100
AcDb2dVertex
 10
3567.044138
 20
-19690.526331
 30
0.0
  0
VERTEX
  5
A65
100
AcDbEntity
  8
0
  6
CONTINUOUS
 62
     7
100
AcDbVertex
100
AcDb2dVertex
 10
3567.475348
 20
-19690.095121
 30
0.0
  0
SEQEND
  5
A66
100
AcDbEntity
  8
0
  6
CONTINUOUS
 62
     7
  0
LINE
  5
A67
100
AcDbEntity
  8
0
  6
CONTINUOUS
 62
     7
100
AcDbLine
 10
3618.193291
 20
-19740.813078
 30
0.0
 11
3567.475348
 21
-19690.095121
 31
0.0
  0
ARC
  5
A68
100
AcDbEntity
  8
0
  6
CONTINUOUS
 62
     7
100
AcDbCircle
 10
3620.449578
 20
-19589.071958
 30
0.0
 40
3.110353
100
AcDbArc
 50
78.749941
 51
258.749993
  0
POLYLINE
  5
A69
100
AcDbEntity
  8
0
  6
CONTINUOUS
 62
     7
100
AcDb2dPolyline
 66
     1
 10
0.0
 20
0.0
 30
0.0
 70
   128
  0
VERTEX
  5
A6A
100
AcDbEntity
  8
0
  6
CONTINUOUS
 62
     7
100
AcDbVertex
100
AcDb2dVertex
 10
3371.526634
 20
-19823.06775
 30
0.0
  0
VERTEX
  5
A6B
100
AcDbEntity
  8
0
  6
CONTINUOUS
 62
     7
100
AcDbVertex
100
AcDb2dVertex
 10
3370.947418
 20
-19823.543102
 30
0.0
  0
VERTEX
  5
A6C
100
AcDbEntity
  8
0
  6
CONTINUOUS
 62
     7
100
AcDbVertex
100
AcDb2dVertex
 10
3370.252138
 20
-19824.113728
 30
0.0
  0
VERTEX
  5
A6D
100
AcDbEntity
  8
0
  6
CONTINUOUS
 62
     7
100
AcDbVertex
100
AcDb2dVertex
 10
3369.465925
 20
-19824.75893
 30
0.0
  0
VERTEX
  5
A6E
100
AcDbEntity
  8
0
  6
CONTINUOUS
 62
     7
100
AcDbVertex
100
AcDb2dVertex
 10
3368.617207
 20
-19825.455473
 30
0.0
  0
VERTEX
  5
A6F
100
AcDbEntity
  8
0
  6
CONTINUOUS
 62
     7
100
AcDbVertex
100
AcDb2dVertex
 10
3367.736658
 20
-19826.178118
 30
0.0
  0
SEQEND
  5
A70
100
AcDbEntity
  8
0
  6
CONTINUOUS
 62
     7
  0
LINE
  5
A71
100
AcDbEntity
  8
0
  6
CONTINUOUS
 62
     7
100
AcDbLine
 10
3371.526634
 20
-19823.06775
 30
0.0
 11
3419.612916
 21
-19823.06775
 31
0.0
  0
POLYLINE
  5
A72
100
AcDbEntity
  8
0
  6
CONTINUOUS
 62
     7
100
AcDb2dPolyline
 66
     1
 10
0.0
 20
0.0
 30
0.0
 70
   128
  0
VERTEX
  5
A73
100
AcDbEntity
  8
0
  6
CONTINUOUS
 62
     7
100
AcDbVertex
100
AcDb2dVertex
 10
3422.72327
 20
-19826.178118
 30
0.0
  0
VERTEX
  5
A74
100
AcDbEntity
  8
0
  6
CONTINUOUS
 62
     7
100
AcDbVertex
100
AcDb2dVertex
 10
3422.000622
 20
-19825.455473
 30
0.0
  0
VERTEX
  5
A75
100
AcDbEntity
  8
0
  6
CONTINUOUS
 62
     7
100
AcDbVertex
100
AcDb2dVertex
 10
3421.304096
 20
-19824.75893
 30
0.0
  0
VERTEX
  5
A76
100
AcDbEntity
  8
0
  6
CONTINUOUS
 62
     7
100
AcDbVertex
100
AcDb2dVertex
 10
3420.658871
 20
-19824.113728
 30
0.0
  0
VERTEX
  5
A77
100
AcDbEntity
  8
0
  6
CONTINUOUS
 62
     7
100
AcDbVertex
100
AcDb2dVertex
 10
3420.088269
 20
-19823.543102
 30
0.0
  0
VERTEX
  5
A78
100
AcDbEntity
  8
0
  6
CONTINUOUS
 62
     7
100
AcDbVertex
100
AcDb2dVertex
 10
3419.612916
 20
-19823.06775
 30
0.0
  0
SEQEND
  5
A79
100
AcDbEntity
  8
0
  6
CONTINUOUS
 62
     7
  0
POLYLINE
  5
A7A
100
AcDbEntity
  8
0
  6
CONTINUOUS
 62
     7
100
AcDb2dPolyline
 66
     1
 10
0.0
 20
0.0
 30
0.0
 70
   128
  0
VERTEX
  5
A7B
100
AcDbEntity
  8
0
  6
CONTINUOUS
 62
     7
100
AcDbVertex
100
AcDb2dVertex
 10
3425.833624
 20
-19823.06775
 30
0.0
  0
VERTEX
  5
A7C
100
AcDbEntity
  8
0
  6
CONTINUOUS
 62
     7
100
AcDbVertex
100
AcDb2dVertex
 10
3425.358272
 20
-19823.543102
 30
0.0
  0
VERTEX
  5
A7D
100
AcDbEntity
  8
0
  6
CONTINUOUS
 62
     7
100
AcDbVertex
100
AcDb2dVertex
 10
3424.78767
 20
-19824.113728
 30
0.0
  0
VERTEX
  5
A7E
100
AcDbEntity
  8
0
  6
CONTINUOUS
 62
     7
100
AcDbVertex
100
AcDb2dVertex
 10
3424.142444
 20
-19824.75893
 30
0.0
  0
VERTEX
  5
A7F
100
AcDbEntity
  8
0
  6
CONTINUOUS
 62
     7
100
AcDbVertex
100
AcDb2dVertex
 10
3423.445918
 20
-19825.455473
 30
0.0
  0
VERTEX
  5
A80
100
AcDbEntity
  8
0
  6
CONTINUOUS
 62
     7
100
AcDbVertex
100
AcDb2dVertex
 10
3422.72327
 20
-19826.178118
 30
0.0
  0
SEQEND
  5
A81
100
AcDbEntity
  8
0
  6
CONTINUOUS
 62
     7
  0
LINE
  5
A82
100
AcDbEntity
  8
0
  6
CONTINUOUS
 62
     7
100
AcDbLine
 10
3425.833624
 20
-19823.06775
 30
0.0
 11
3473.919906
 21
-19823.06775
 31
0.0
  0
POLYLINE
  5
A83
100
AcDbEntity
  8
0
  6
CONTINUOUS
 62
     7
100
AcDb2dPolyline
 66
     1
 10
0.0
 20
0.0
 30
0.0
 70
   128
  0
VERTEX
  5
A84
100
AcDbEntity
  8
0
  6
CONTINUOUS
 62
     7
100
AcDbVertex
100
AcDb2dVertex
 10
3477.709882
 20
-19826.178118
 30
0.0
  0
VERTEX
  5
A85
100
AcDbEntity
  8
0
  6
CONTINUOUS
 62
     7
100
AcDbVertex
100
AcDb2dVertex
 10
3476.829334
 20
-19825.455473
 30
0.0
  0
VERTEX
  5
A86
100
AcDbEntity
  8
0
  6
CONTINUOUS
 62
     7
100
AcDbVertex
100
AcDb2dVertex
 10
3475.980615
 20
-19824.75893
 30
0.0
  0
VERTEX
  5
A87
100
AcDbEntity
  8
0
  6
CONTINUOUS
 62
     7
100
AcDbVertex
100
AcDb2dVertex
 10
3475.194403
 20
-19824.113728
 30
0.0
  0
VERTEX
  5
A88
100
AcDbEntity
  8
0
  6
CONTINUOUS
 62
     7
100
AcDbVertex
100
AcDb2dVertex
 10
3474.499122
 20
-19823.543102
 30
0.0
  0
VERTEX
  5
A89
100
AcDbEntity
  8
0
  6
CONTINUOUS
 62
     7
100
AcDbVertex
100
AcDb2dVertex
 10
3473.919906
 20
-19823.06775
 30
0.0
  0
SEQEND
  5
A8A
100
AcDbEntity
  8
0
  6
CONTINUOUS
 62
     7
  0
POLYLINE
  5
A8B
100
AcDbEntity
  8
0
  6
CONTINUOUS
 62
     7
100
AcDb2dPolyline
 66
     1
 10
0.0
 20
0.0
 30
0.0
 70
   128
  0
VERTEX
  5
A8C
100
AcDbEntity
  8
0
  6
CONTINUOUS
 62
     7
100
AcDbVertex
100
AcDb2dVertex
 10
3480.262482
 20
-19823.06775
 30
0.0
  0
VERTEX
  5
A8D
100
AcDbEntity
  8
0
  6
CONTINUOUS
 62
     7
100
AcDbVertex
100
AcDb2dVertex
 10
3479.872372
 20
-19823.543102
 30
0.0
  0
VERTEX
  5
A8E
100
AcDbEntity
  8
0
  6
CONTINUOUS
 62
     7
100
AcDbVertex
100
AcDb2dVertex
 10
3479.404091
 20
-19824.113728
 30
0.0
  0
VERTEX
  5
A8F
100
AcDbEntity
  8
0
  6
CONTINUOUS
 62
     7
100
AcDbVertex
100
AcDb2dVertex
 10
3478.874568
 20
-19824.75893
 30
0.0
  0
VERTEX
  5
A90
100
AcDbEntity
  8
0
  6
CONTINUOUS
 62
     7
100
AcDbVertex
100
AcDb2dVertex
 10
3478.302942
 20
-19825.455473
 30
0.0
  0
VERTEX
  5
A91
100
AcDbEntity
  8
0
  6
CONTINUOUS
 62
     7
100
AcDbVertex
100
AcDb2dVertex
 10
3477.709882
 20
-19826.178118
 30
0.0
  0
SEQEND
  5
A92
100
AcDbEntity
  8
0
  6
CONTINUOUS
 62
     7
  0
LINE
  5
A93
100
AcDbEntity
  8
0
  6
CONTINUOUS
 62
     7
100
AcDbLine
 10
3480.262482
 20
-19823.06775
 30
0.0
 11
3532.57199
 21
-19823.06775
 31
0.0
  0
LINE
  5
A94
100
AcDbEntity
  8
0
  6
CONTINUOUS
 62
     7
100
AcDbLine
 10
3312.147075
 20
-19829.288457
 30
0.0
 11
3533.299466
 21
-19829.288457
 31
0.0
  0
LINE
  5
A95
100
AcDbEntity
  8
0
  6
CONTINUOUS
 62
     7
100
AcDbLine
 10
3312.874551
 20
-19823.06775
 30
0.0
 11
3365.184058
 21
-19823.06775
 31
0.0
  0
POLYLINE
  5
A96
100
AcDbEntity
  8
0
  6
CONTINUOUS
 62
     7
100
AcDb2dPolyline
 66
     1
 10
0.0
 20
0.0
 30
0.0
 70
   128
  0
VERTEX
  5
A97
100
AcDbEntity
  8
0
  6
CONTINUOUS
 62
     7
100
AcDbVertex
100
AcDb2dVertex
 10
3367.736658
 20
-19826.178118
 30
0.0
  0
VERTEX
  5
A98
100
AcDbEntity
  8
0
  6
CONTINUOUS
 62
     7
100
AcDbVertex
100
AcDb2dVertex
 10
3367.143595
 20
-19825.455473
 30
0.0
  0
VERTEX
  5
A99
100
AcDbEntity
  8
0
  6
CONTINUOUS
 62
     7
100
AcDbVertex
100
AcDb2dVertex
 10
3366.571972
 20
-19824.75893
 30
0.0
  0
VERTEX
  5
A9A
100
AcDbEntity
  8
0
  6
CONTINUOUS
 62
     7
100
AcDbVertex
100
AcDb2dVertex
 10
3366.04245
 20
-19824.113728
 30
0.0
  0
VERTEX
  5
A9B
100
AcDbEntity
  8
0
  6
CONTINUOUS
 62
     7
100
AcDbVertex
100
AcDb2dVertex
 10
3365.574168
 20
-19823.543102
 30
0.0
  0
VERTEX
  5
A9C
100
AcDbEntity
  8
0
  6
CONTINUOUS
 62
     7
100
AcDbVertex
100
AcDb2dVertex
 10
3365.184058
 20
-19823.06775
 30
0.0
  0
SEQEND
  5
A9D
100
AcDbEntity
  8
0
  6
CONTINUOUS
 62
     7
  0
ARC
  5
A9E
100
AcDbEntity
  8
0
  6
CONTINUOUS
 62
     7
100
AcDbCircle
 10
3624.323274
 20
-19549.74175
 30
0.0
 40
3.110354
100
AcDbArc
 50
90.000193
 51
269.999807
  0
LINE
  5
A9F
100
AcDbEntity
  8
0
  6
CONTINUOUS
 62
     7
100
AcDbLine
 10
3652.195426
 20
-19706.810942
 30
0.0
 11
3588.619524
 21
-19664.330871
 31
0.0
  0
POLYLINE
  5
AA0
100
AcDbEntity
  8
0
  6
CONTINUOUS
 62
     7
100
AcDb2dPolyline
 66
     1
 10
0.0
 20
0.0
 30
0.0
 70
   128
  0
VERTEX
  5
AA1
100
AcDbEntity
  8
0
  6
CONTINUOUS
 62
     7
100
AcDbVertex
100
AcDb2dVertex
 10
3588.619524
 20
-19664.330871
 30
0.0
  0
VERTEX
  5
AA2
100
AcDbEntity
  8
0
  6
CONTINUOUS
 62
     7
100
AcDbVertex
100
AcDb2dVertex
 10
3588.958328
 20
-19663.823823
 30
0.0
  0
VERTEX
  5
AA3
100
AcDbEntity
  8
0
  6
CONTINUOUS
 62
     7
100
AcDbVertex
100
AcDb2dVertex
 10
3589.375456
 20
-19663.199542
 30
0.0
  0
VERTEX
  5
AA4
100
AcDbEntity
  8
0
  6
CONTINUOUS
 62
     7
100
AcDbVertex
100
AcDb2dVertex
 10
3589.847404
 20
-19662.493226
 30
0.0
  0
VERTEX
  5
AA5
100
AcDbEntity
  8
0
  6
CONTINUOUS
 62
     7
100
AcDbVertex
100
AcDb2dVertex
 10
3590.347545
 20
-19661.744709
 30
0.0
  0
VERTEX
  5
AA6
100
AcDbEntity
  8
0
  6
CONTINUOUS
 62
     7
100
AcDbVertex
100
AcDb2dVertex
 10
3590.847686
 20
-19660.996192
 30
0.0
  0
VERTEX
  5
AA7
100
AcDbEntity
  8
0
  6
CONTINUOUS
 62
     7
100
AcDbVertex
100
AcDb2dVertex
 10
3591.319634
 20
-19660.289876
 30
0.0
  0
VERTEX
  5
AA8
100
AcDbEntity
  8
0
  6
CONTINUOUS
 62
     7
100
AcDbVertex
100
AcDb2dVertex
 10
3591.736762
 20
-19659.665595
 30
0.0
  0
VERTEX
  5
AA9
100
AcDbEntity
  8
0
  6
CONTINUOUS
 62
     7
100
AcDbVertex
100
AcDb2dVertex
 10
3592.075566
 20
-19659.158547
 30
0.0
  0
SEQEND
  5
AAA
100
AcDbEntity
  8
0
  6
CONTINUOUS
 62
     7
  0
LINE
  5
AAB
100
AcDbEntity
  8
0
  6
CONTINUOUS
 62
     7
100
AcDbLine
 10
3656.680317
 20
-19702.326051
 30
0.0
 11
3592.075566
 21
-19659.158547
 31
0.0
  0
ARC
  5
AAC
100
AcDbEntity
  8
0
  6
CONTINUOUS
 62
     7
100
AcDbCircle
 10
3221.123267
 20
-19549.74175
 30
0.0
 40
3.110354
100
AcDbArc
 50
270.000191
 51
89.999809
  0
LINE
  5
AAD
100
AcDbEntity
  8
0
  6
CONTINUOUS
 62
     7
100
AcDbLine
 10
3188.766224
 20
-19702.326051
 30
0.0
 11
3253.370975
 21
-19659.158547
 31
0.0
  0
POLYLINE
  5
AAE
100
AcDbEntity
  8
0
  6
CONTINUOUS
 62
     7
100
AcDb2dPolyline
 66
     1
 10
0.0
 20
0.0
 30
0.0
 70
   128
  0
VERTEX
  5
AAF
100
AcDbEntity
  8
0
  6
CONTINUOUS
 62
     7
100
AcDbVertex
100
AcDb2dVertex
 10
3253.370975
 20
-19659.158547
 30
0.0
  0
VERTEX
  5
AB0
100
AcDbEntity
  8
0
  6
CONTINUOUS
 62
     7
100
AcDbVertex
100
AcDb2dVertex
 10
3253.709778
 20
-19659.665595
 30
0.0
  0
VERTEX
  5
AB1
100
AcDbEntity
  8
0
  6
CONTINUOUS
 62
     7
100
AcDbVertex
100
AcDb2dVertex
 10
3254.126906
 20
-19660.289876
 30
0.0
  0
VERTEX
  5
AB2
100
AcDbEntity
  8
0
  6
CONTINUOUS
 62
     7
100
AcDbVertex
100
AcDb2dVertex
 10
3254.598854
 20
-19660.996192
 30
0.0
  0
VERTEX
  5
AB3
100
AcDbEntity
  8
0
  6
CONTINUOUS
 62
     7
100
AcDbVertex
100
AcDb2dVertex
 10
3255.098995
 20
-19661.744709
 30
0.0
  0
VERTEX
  5
AB4
100
AcDbEntity
  8
0
  6
CONTINUOUS
 62
     7
100
AcDbVertex
100
AcDb2dVertex
 10
3255.599137
 20
-19662.493226
 30
0.0
  0
VERTEX
  5
AB5
100
AcDbEntity
  8
0
  6
CONTINUOUS
 62
     7
100
AcDbVertex
100
AcDb2dVertex
 10
3256.071085
 20
-19663.199542
 30
0.0
  0
VERTEX
  5
AB6
100
AcDbEntity
  8
0
  6
CONTINUOUS
 62
     7
100
AcDbVertex
100
AcDb2dVertex
 10
3256.488212
 20
-19663.823823
 30
0.0
  0
VERTEX
  5
AB7
100
AcDbEntity
  8
0
  6
CONTINUOUS
 62
     7
100
AcDbVertex
100
AcDb2dVertex
 10
3256.827016
 20
-19664.330871
 30
0.0
  0
SEQEND
  5
AB8
100
AcDbEntity
  8
0
  6
CONTINUOUS
 62
     7
  0
LINE
  5
AB9
100
AcDbEntity
  8
0
  6
CONTINUOUS
 62
     7
100
AcDbLine
 10
3193.251115
 20
-19706.810942
 30
0.0
 11
3256.827016
 21
-19664.330871
 31
0.0
  0
ARC
  5
ABA
100
AcDbEntity
  8
0
  6
CONTINUOUS
 62
     7
100
AcDbCircle
 10
3224.996965
 20
-19589.071957
 30
0.0
 40
3.110353
100
AcDbArc
 50
281.24996
 51
101.250106
  0
LINE
  5
ABB
100
AcDbEntity
  8
0
  6
CONTINUOUS
 62
     7
100
AcDbLine
 10
3227.25325
 20
-19740.813078
 30
0.0
 11
3277.971192
 21
-19690.095121
 31
0.0
  0
POLYLINE
  5
ABC
100
AcDbEntity
  8
0
  6
CONTINUOUS
 62
     7
100
AcDb2dPolyline
 66
     1
 10
0.0
 20
0.0
 30
0.0
 70
   128
  0
VERTEX
  5
ABD
100
AcDbEntity
  8
0
  6
CONTINUOUS
 62
     7
100
AcDbVertex
100
AcDb2dVertex
 10
3277.971192
 20
-19690.095121
 30
0.0
  0
VERTEX
  5
ABE
100
AcDbEntity
  8
0
  6
CONTINUOUS
 62
     7
100
AcDbVertex
100
AcDb2dVertex
 10
3278.402402
 20
-19690.526331
 30
0.0
  0
VERTEX
  5
ABF
100
AcDbEntity
  8
0
  6
CONTINUOUS
 62
     7
100
AcDbVertex
100
AcDb2dVertex
 10
3278.933306
 20
-19691.057249
 30
0.0
  0
VERTEX
  5
AC0
100
AcDbEntity
  8
0
  6
CONTINUOUS
 62
     7
100
AcDbVertex
100
AcDb2dVertex
 10
3279.533977
 20
-19691.657921
 30
0.0
  0
VERTEX
  5
AC1
100
AcDbEntity
  8
0
  6
CONTINUOUS
 62
     7
100
AcDbVertex
100
AcDb2dVertex
 10
3280.170548
 20
-19692.294477
 30
0.0
  0
VERTEX
  5
AC2
100
AcDbEntity
  8
0
  6
CONTINUOUS
 62
     7
100
AcDbVertex
100
AcDb2dVertex
 10
3280.807104
 20
-19692.931032
 30
0.0
  0
VERTEX
  5
AC3
100
AcDbEntity
  8
0
  6
CONTINUOUS
 62
     7
100
AcDbVertex
100
AcDb2dVertex
 10
3281.407775
 20
-19693.531704
 30
0.0
  0
VERTEX
  5
AC4
100
AcDbEntity
  8
0
  6
CONTINUOUS
 62
     7
100
AcDbVertex
100
AcDb2dVertex
 10
3281.938679
 20
-19694.062622
 30
0.0
  0
VERTEX
  5
AC5
100
AcDbEntity
  8
0
  6
CONTINUOUS
 62
     7
100
AcDbVertex
100
AcDb2dVertex
 10
3282.369889
 20
-19694.493832
 30
0.0
  0
SEQEND
  5
AC6
100
AcDbEntity
  8
0
  6
CONTINUOUS
 62
     7
  0
LINE
  5
AC7
100
AcDbEntity
  8
0
  6
CONTINUOUS
 62
     7
100
AcDbLine
 10
3231.651947
 20
-19745.211775
 30
0.0
 11
3282.369889
 21
-19694.493832
 31
0.0
  0
LINE
  5
AC8
100
AcDbEntity
  8
0
  6
CONTINUOUS
 62
     7
100
AcDbLine
 10
3265.654082
 20
-19779.21391
 30
0.0
 11
3308.134146
 21
-19715.638008
 31
0.0
  0
POLYLINE
  5
AC9
100
AcDbEntity
  8
0
  6
CONTINUOUS
 62
     7
100
AcDb2dPolyline
 66
     1
 10
0.0
 20
0.0
 30
0.0
 70
   128
  0
VERTEX
  5
ACA
100
AcDbEntity
  8
0
  6
CONTINUOUS
 62
     7
100
AcDbVertex
100
AcDb2dVertex
 10
3308.134146
 20
-19715.638008
 30
0.0
  0
VERTEX
  5
ACB
100
AcDbEntity
  8
0
  6
CONTINUOUS
 62
     7
100
AcDbVertex
100
AcDb2dVertex
 10
3308.641194
 20
-19715.976797
 30
0.0
  0
VERTEX
  5
ACC
100
AcDbEntity
  8
0
  6
CONTINUOUS
 62
     7
100
AcDbVertex
100
AcDb2dVertex
 10
3309.265482
 20
-19716.39394
 30
0.0
  0
VERTEX
  5
ACD
100
AcDbEntity
  8
0
  6
CONTINUOUS
 62
     7
100
AcDbVertex
100
AcDb2dVertex
 10
3309.971791
 20
-19716.865873
 30
0.0
  0
VERTEX
  5
ACE
100
AcDbEntity
  8
0
  6
CONTINUOUS
 62
     7
100
AcDbVertex
100
AcDb2dVertex
 10
3310.720308
 20
-19717.366029
 30
0.0
  0
VERTEX
  5
ACF
100
AcDbEntity
  8
0
  6
CONTINUOUS
 62
     7
100
AcDbVertex
100
AcDb2dVertex
 10
3311.468833
 20
-19717.86617
 30
0.0
  0
VERTEX
  5
AD0
100
AcDbEntity
  8
0
  6
CONTINUOUS
 62
     7
100
AcDbVertex
100
AcDb2dVertex
 10
3312.175141
 20
-19718.338118
 30
0.0
  0
VERTEX
  5
AD1
100
AcDbEntity
  8
0
  6
CONTINUOUS
 62
     7
100
AcDbVertex
100
AcDb2dVertex
 10
3312.799422
 20
-19718.755246
 30
0.0
  0
VERTEX
  5
AD2
100
AcDbEntity
  8
0
  6
CONTINUOUS
 62
     7
100
AcDbVertex
100
AcDb2dVertex
 10
3313.306478
 20
-19719.09405
 30
0.0
  0
SEQEND
  5
AD3
100
AcDbEntity
  8
0
  6
CONTINUOUS
 62
     7
  0
LINE
  5
AD4
100
AcDbEntity
  8
0
  6
CONTINUOUS
 62
     7
100
AcDbLine
 10
3270.138958
 20
-19783.698786
 30
0.0
 11
3313.306478
 21
-19719.09405
 31
0.0
  0
LINE
  5
AD5
100
AcDbEntity
  8
0
  6
CONTINUOUS
 62
     7
100
AcDbLine
 10
3575.307582
 20
-19783.698786
 30
0.0
 11
3532.140063
 21
-19719.09405
 31
0.0
  0
POLYLINE
  5
AD6
100
AcDbEntity
  8
0
  6
CONTINUOUS
 62
     7
100
AcDb2dPolyline
 66
     1
 10
0.0
 20
0.0
 30
0.0
 70
   128
  0
VERTEX
  5
AD7
100
AcDbEntity
  8
0
  6
CONTINUOUS
 62
     7
100
AcDbVertex
100
AcDb2dVertex
 10
3532.140063
 20
-19719.09405
 30
0.0
  0
VERTEX
  5
AD8
100
AcDbEntity
  8
0
  6
CONTINUOUS
 62
     7
100
AcDbVertex
100
AcDb2dVertex
 10
3532.647118
 20
-19718.755246
 30
0.0
  0
VERTEX
  5
AD9
100
AcDbEntity
  8
0
  6
CONTINUOUS
 62
     7
100
AcDbVertex
100
AcDb2dVertex
 10
3533.271399
 20
-19718.338118
 30
0.0
  0
VERTEX
  5
ADA
100
AcDbEntity
  8
0
  6
CONTINUOUS
 62
     7
100
AcDbVertex
100
AcDb2dVertex
 10
3533.977708
 20
-19717.86617
 30
0.0
  0
VERTEX
  5
ADB
100
AcDbEntity
  8
0
  6
CONTINUOUS
 62
     7
100
AcDbVertex
100
AcDb2dVertex
 10
3534.726232
 20
-19717.366029
 30
0.0
  0
VERTEX
  5
ADC
100
AcDbEntity
  8
0
  6
CONTINUOUS
 62
     7
100
AcDbVertex
100
AcDb2dVertex
 10
3535.47475
 20
-19716.865873
 30
0.0
  0
VERTEX
  5
ADD
100
AcDbEntity
  8
0
  6
CONTINUOUS
 62
     7
100
AcDbVertex
100
AcDb2dVertex
 10
3536.181058
 20
-19716.39394
 30
0.0
  0
VERTEX
  5
ADE
100
AcDbEntity
  8
0
  6
CONTINUOUS
 62
     7
100
AcDbVertex
100
AcDb2dVertex
 10
3536.805339
 20
-19715.976797
 30
0.0
  0
VERTEX
  5
ADF
100
AcDbEntity
  8
0
  6
CONTINUOUS
 62
     7
100
AcDbVertex
100
AcDb2dVertex
 10
3537.312394
 20
-19715.638008
 30
0.0
  0
SEQEND
  5
AE0
100
AcDbEntity
  8
0
  6
CONTINUOUS
 62
     7
  0
LINE
  5
AE1
100
AcDbEntity
  8
0
  6
CONTINUOUS
 62
     7
100
AcDbLine
 10
3579.792458
 20
-19779.21391
 30
0.0
 11
3537.312394
 21
-19715.638008
 31
0.0
  0
LINE
  5
AE2
100
AcDbEntity
  8
0
  6
CONTINUOUS
 62
     7
100
AcDbLine
 10
3365.184058
 20
-19823.06775
 30
0.0
 11
3380.342471
 21
-19746.861262
 31
0.0
  0
POLYLINE
  5
AE3
100
AcDbEntity
  8
0
  6
CONTINUOUS
 62
     7
100
AcDb2dPolyline
 66
     1
 10
0.0
 20
0.0
 30
0.0
 70
   128
  0
VERTEX
  5
AE4
100
AcDbEntity
  8
0
  6
CONTINUOUS
 62
     7
100
AcDbVertex
100
AcDb2dVertex
 10
3380.342471
 20
-19746.861262
 30
0.0
  0
VERTEX
  5
AE5
100
AcDbEntity
  8
0
  6
CONTINUOUS
 62
     7
100
AcDbVertex
100
AcDb2dVertex
 10
3380.940581
 20
-19746.980234
 30
0.0
  0
VERTEX
  5
AE6
100
AcDbEntity
  8
0
  6
CONTINUOUS
 62
     7
100
AcDbVertex
100
AcDb2dVertex
 10
3381.676969
 20
-19747.126713
 30
0.0
  0
VERTEX
  5
AE7
100
AcDbEntity
  8
0
  6
CONTINUOUS
 62
     7
100
AcDbVertex
100
AcDb2dVertex
 10
3382.510124
 20
-19747.292442
 30
0.0
  0
VERTEX
  5
AE8
100
AcDbEntity
  8
0
  6
CONTINUOUS
 62
     7
100
AcDbVertex
100
AcDb2dVertex
 10
3383.393062
 20
-19747.468056
 30
0.0
  0
VERTEX
  5
AE9
100
AcDbEntity
  8
0
  6
CONTINUOUS
 62
     7
100
AcDbVertex
100
AcDb2dVertex
 10
3384.276
 20
-19747.643685
 30
0.0
  0
VERTEX
  5
AEA
100
AcDbEntity
  8
0
  6
CONTINUOUS
 62
     7
100
AcDbVertex
100
AcDb2dVertex
 10
3385.109151
 20
-19747.809413
 30
0.0
  0
VERTEX
  5
AEB
100
AcDbEntity
  8
0
  6
CONTINUOUS
 62
     7
100
AcDbVertex
100
AcDb2dVertex
 10
3385.845542
 20
-19747.955892
 30
0.0
  0
VERTEX
  5
AEC
100
AcDbEntity
  8
0
  6
CONTINUOUS
 62
     7
100
AcDbVertex
100
AcDb2dVertex
 10
3386.443649
 20
-19748.074865
 30
0.0
  0
SEQEND
  5
AED
100
AcDbEntity
  8
0
  6
CONTINUOUS
 62
     7
  0
LINE
  5
AEE
100
AcDbEntity
  8
0
  6
CONTINUOUS
 62
     7
100
AcDbLine
 10
3371.526634
 20
-19823.06775
 30
0.0
 11
3386.443649
 21
-19748.074865
 31
0.0
  0
LINE
  5
AEF
100
AcDbEntity
  8
0
  6
CONTINUOUS
 62
     7
100
AcDbLine
 10
3473.919906
 20
-19823.06775
 30
0.0
 11
3459.002892
 21
-19748.074865
 31
0.0
  0
POLYLINE
  5
AF0
100
AcDbEntity
  8
0
  6
CONTINUOUS
 62
     7
100
AcDb2dPolyline
 66
     1
 10
0.0
 20
0.0
 30
0.0
 70
   128
  0
VERTEX
  5
AF1
100
AcDbEntity
  8
0
  6
CONTINUOUS
 62
     7
100
AcDbVertex
100
AcDb2dVertex
 10
3459.002892
 20
-19748.074865
 30
0.0
  0
VERTEX
  5
AF2
100
AcDbEntity
  8
0
  6
CONTINUOUS
 62
     7
100
AcDbVertex
100
AcDb2dVertex
 10
3459.600998
 20
-19747.955892
 30
0.0
  0
VERTEX
  5
AF3
100
AcDbEntity
  8
0
  6
CONTINUOUS
 62
     7
100
AcDbVertex
100
AcDb2dVertex
 10
3460.33739
 20
-19747.809413
 30
0.0
  0
VERTEX
  5
AF4
100
AcDbEntity
  8
0
  6
CONTINUOUS
 62
     7
100
AcDbVertex
100
AcDb2dVertex
 10
3461.170541
 20
-19747.643685
 30
0.0
  0
VERTEX
  5
AF5
100
AcDbEntity
  8
0
  6
CONTINUOUS
 62
     7
100
AcDbVertex
100
AcDb2dVertex
 10
3462.053479
 20
-19747.468056
 30
0.0
  0
VERTEX
  5
AF6
100
AcDbEntity
  8
0
  6
CONTINUOUS
 62
     7
100
AcDbVertex
100
AcDb2dVertex
 10
3462.936417
 20
-19747.292442
 30
0.0
  0
VERTEX
  5
AF7
100
AcDbEntity
  8
0
  6
CONTINUOUS
 62
     7
100
AcDbVertex
100
AcDb2dVertex
 10
3463.769568
 20
-19747.126713
 30
0.0
  0
VERTEX
  5
AF8
100
AcDbEntity
  8
0
  6
CONTINUOUS
 62
     7
100
AcDbVertex
100
AcDb2dVertex
 10
3464.505959
 20
-19746.980234
 30
0.0
  0
VERTEX
  5
AF9
100
AcDbEntity
  8
0
  6
CONTINUOUS
 62
     7
100
AcDbVertex
100
AcDb2dVertex
 10
3465.10407
 20
-19746.861262
 30
0.0
  0
SEQEND
  5
AFA
100
AcDbEntity
  8
0
  6
CONTINUOUS
 62
     7
  0
LINE
  5
AFB
100
AcDbEntity
  8
0
  6
CONTINUOUS
 62
     7
100
AcDbLine
 10
3480.262482
 20
-19823.06775
 30
0.0
 11
3465.10407
 21
-19746.861262
 31
0.0
  0
LINE
  5
AFC
100
AcDbEntity
  8
0
  6
CONTINUOUS
 62
     7
100
AcDbLine
 10
3419.612916
 20
-19823.06775
 30
0.0
 11
3419.612916
 21
-19751.341747
 31
0.0
  0
LINE
  5
AFD
100
AcDbEntity
  8
0
  6
CONTINUOUS
 62
     7
100
AcDbLine
 10
3419.612916
 20
-19751.341747
 30
0.0
 11
3425.833624
 21
-19751.341747
 31
0.0
  0
LINE
  5
AFE
100
AcDbEntity
  8
0
  6
CONTINUOUS
 62
     7
100
AcDbLine
 10
3425.833624
 20
-19823.06775
 30
0.0
 11
3425.833624
 21
-19751.341747
 31
0.0
  0
ARC
  5
AFF
100
AcDbEntity
  8
0
  6
CONTINUOUS
 62
     7
100
AcDbCircle
 10
3255.099002
 20
-19661.744704
 30
0.0
 40
3.110352
100
AcDbArc
 50
303.749885
 51
123.750185
  0
ARC
  5
B00
100
AcDbEntity
  8
0
  6
CONTINUOUS
 62
     7
100
AcDbCircle
 10
3590.34754
 20
-19661.744706
 30
0.0
 40
3.110352
100
AcDbArc
 50
56.24986
 51
236.25007
  0
ARC
  5
B01
100
AcDbEntity
  8
0
  6
CONTINUOUS
 62
     7
100
AcDbCircle
 10
3462.05348
 20
-19747.468059
 30
0.0
 40
3.110354
100
AcDbArc
 50
11.249954
 51
191.250105
  0
ARC
  5
B02
100
AcDbEntity
  8
0
  6
CONTINUOUS
 62
     7
100
AcDbCircle
 10
3534.726227
 20
-19717.366027
 30
0.0
 40
3.110355
100
AcDbArc
 50
33.749953
 51
213.750041
  0
ARC
  5
B03
100
AcDbEntity
  8
0
  6
CONTINUOUS
 62
     7
100
AcDbCircle
 10
3565.275999
 20
-19692.294475
 30
0.0
 40
3.110354
100
AcDbArc
 50
45.000066
 51
225.000128
  0
ARC
  5
B04
100
AcDbEntity
  8
0
  6
CONTINUOUS
 62
     7
100
AcDbCircle
 10
3280.17054
 20
-19692.294477
 30
0.0
 40
3.110354
100
AcDbArc
 50
314.999906
 51
134.999899
  0
ARC
  5
B05
100
AcDbEntity
  8
0
  6
CONTINUOUS
 62
     7
100
AcDbCircle
 10
3310.720314
 20
-19717.366026
 30
0.0
 40
3.110355
100
AcDbArc
 50
326.249929
 51
146.250078
  0
ARC
  5
B06
100
AcDbEntity
  8
0
  6
CONTINUOUS
 62
     7
100
AcDbCircle
 10
3383.39306
 20
-19747.468063
 30
0.0
 40
3.110354
100
AcDbArc
 50
348.749961
 51
168.74998
  0
ARC
  5
B07
100
AcDbEntity
  8
0
  6
CONTINUOUS
 62
     7
100
AcDbCircle
 10
3422.72327
 20
-19751.341743
 30
0.0
 40
3.110354
100
AcDbArc
 50
0.0
 51
180.0
  0
ARC
  5
B08
100
AcDbEntity
  8
0
  6
CONTINUOUS
 62
     7
100
AcDbCircle
 10
3496.219362
 20
-19372.306486
 30
0.0
 40
3.110352
100
AcDbArc
 50
157.499974
 51
337.500137
  0
ARC
  5
B09
100
AcDbEntity
  8
0
  6
CONTINUOUS
 62
     7
100
AcDbCircle
 10
3349.227179
 20
-19372.306488
 30
0.0
 40
3.110352
100
AcDbArc
 50
202.499826
 51
22.500063
  0
ARC
  5
B0A
100
AcDbEntity
  8
0
  6
CONTINUOUS
 62
     7
100
AcDbCircle
 10
3245.287996
 20
-19476.245653
 30
0.0
 40
3.110358
100
AcDbArc
 50
247.500143
 51
67.499767
  0
ARC
  5
B0B
100
AcDbEntity
  8
0
  6
CONTINUOUS
 62
     7
100
AcDbCircle
 10
3600.158542
 20
-19476.245654
 30
0.0
 40
3.110358
100
AcDbArc
 50
112.5002
 51
292.49989
  0
ARC
  5
B0C
100
AcDbEntity
  8
0
  6
CONTINUOUS
 62
     7
100
AcDbCircle
 10
3600.158542
 20
-19623.237843
 30
0.0
 40
3.110355
100
AcDbArc
 50
67.500067
 51
247.49979
  0
ARC
  5
B0D
100
AcDbEntity
  8
0
  6
CONTINUOUS
 62
     7
100
AcDbCircle
 10
3245.287999
 20
-19623.237843
 30
0.0
 40
3.110355
100
AcDbArc
 50
292.500199
 51
112.499943
  0
ARC
  5
B0E
100
AcDbEntity
  8
0
  6
CONTINUOUS
 62
     7
100
AcDbCircle
 10
3496.219361
 20
-19727.177005
 30
0.0
 40
3.110352
100
AcDbArc
 50
22.499826
 51
202.500063
  0
ARC
  5
B0F
100
AcDbEntity
  8
0
  6
CONTINUOUS
 62
     7
100
AcDbCircle
 10
3349.227179
 20
-19727.177007
 30
0.0
 40
3.110352
100
AcDbArc
 50
337.499974
 51
157.500137
  0
LINE
  5
B10
100
AcDbEntity
  8
0
  6
CONTINUOUS
 62
     7
100
AcDbLine
 10
3702.728167
 20
-19665.723575
 30
0.0
 11
3702.728167
 21
-19433.759919
 31
0.0
  0
LINE
  5
B11
100
AcDbEntity
  8
0
  6
CONTINUOUS
 62
     7
100
AcDbLine
 10
3538.705098
 20
-19829.746636
 30
0.0
 11
3702.728167
 21
-19665.723575
 31
0.0
  0
LINE
  5
B12
100
AcDbEntity
  8
0
  6
CONTINUOUS
 62
     7
100
AcDbLine
 10
3306.741442
 20
-19829.746636
 30
0.0
 11
3538.705098
 21
-19829.746636
 31
0.0
  0
LINE
  5
B13
100
AcDbEntity
  8
0
  6
CONTINUOUS
 62
     7
100
AcDbLine
 10
3142.718359
 20
-19665.723575
 30
0.0
 11
3306.741442
 21
-19829.746636
 31
0.0
  0
LINE
  5
B14
100
AcDbEntity
  8
0
  6
CONTINUOUS
 62
     7
100
AcDbLine
 10
3142.718359
 20
-19433.759919
 30
0.0
 11
3142.718359
 21
-19665.723575
 31
0.0
  0
LINE
  5
B15
100
AcDbEntity
  8
0
  6
CONTINUOUS
 62
     7
100
AcDbLine
 10
3702.728167
 20
-19433.759919
 30
0.0
 11
3538.705098
 21
-19269.736858
 31
0.0
  0
LINE
  5
B16
100
AcDbEntity
  8
0
  6
CONTINUOUS
 62
     7
100
AcDbLine
 10
3538.705098
 20
-19269.736858
 30
0.0
 11
3306.741442
 21
-19269.736858
 31
0.0
  0
LINE
  5
B17
100
AcDbEntity
  8
0
  6
CONTINUOUS
 62
     7
100
AcDbLine
 10
3306.741442
 20
-19269.736858
 30
0.0
 11
3142.718359
 21
-19433.759919
 31
0.0
  0
CIRCLE
  5
B18
100
AcDbEntity
  8
0
  6
CONTINUOUS
 62
     7
100
AcDbCircle
 10
3422.723274
 20
-19549.741755
 30
0.0
 40
130.46595
  0
CIRCLE
  5
B19
100
AcDbEntity
  8
0
  6
CONTINUOUS
 62
     7
100
AcDbCircle
 10
3422.723274
 20
-19549.741755
 30
0.0
 40
134.480287
  0
DIMENSION
  5
B23
100
AcDbEntity
  8
0
  6
CONTINUOUS
 62
     5
100
AcDbDimension
  2
*D4
 10
2959.059388
 20
-19638.515778
 30
0.0
 11
2946.559388
 21
-19549.760706
 31
0.0
 70
    32
  3
DIMSTYLE001
100
AcDbAlignedDimension
 13
3081.022477
 23
-19461.005634
 33
0.0
 14
3081.034833
 24
-19638.515778
 34
0.0
 50
270.0
100
AcDbRotatedDimension
1001
ACAD
1000
DSTYLE
1002
{
1070
    43
1040
1000.0
1070
    73
1070
     0
1070
    74
1070
     0
1070
    77
1070
     1
1070
   277
1070
     2
1070
   172
1070
     1
1070
   174
1070
     1
1070
   179
1070
     0
1070
   287
1070
     3
1070
   289
1070
     3
1070
     5
1000
_ORIGIN
1002
}
  0
DIMENSION
  5
B2D
100
AcDbEntity
  8
0
  6
CONTINUOUS
 62
     5
100
AcDbDimension
  2
*D5
 10
3702.271606
 20
-19077.75785
 30
0.0
 11
3422.494997
 21
-19065.25785
 31
0.0
 70
    32
  3
DIMSTYLE001
100
AcDbAlignedDimension
 13
3142.718388
 23
-19230.783478
 33
0.0
 14
3702.271606
 24
-19230.203167
 34
0.0
100
AcDbRotatedDimension
1001
ACAD
1000
DSTYLE
1002
{
1070
    43
1040
1000.0
1070
    73
1070
     0
1070
    74
1070
     0
1070
    77
1070
     1
1070
   277
1070
     2
1070
   172
1070
     1
1070
   174
1070
     1
1070
   179
1070
     0
1070
   287
1070
     3
1070
   289
1070
     3
1070
     5
1000
_ORIGIN
1002
}
  0
DIMENSION
  5
B37
100
AcDbEntity
  8
0
  6
CONTINUOUS
 62
     5
100
AcDbDimension
  2
*D6
 10
3702.271606
 20
-19077.75785
 30
0.0
 11
3422.494997
 21
-19065.25785
 31
0.0
 70
    32
  3
DIMSTYLE001
100
AcDbAlignedDimension
 13
3142.718388
 23
-19230.783478
 33
0.0
 14
3702.271606
 24
-19230.203167
 34
0.0
100
AcDbRotatedDimension
1001
ACAD
1000
DSTYLE
1002
{
1070
    43
1040
1000.0
1070
    73
1070
     0
1070
    74
1070
     0
1070
    77
1070
     1
1070
   277
1070
     2
1070
   172
1070
     1
1070
   174
1070
     1
1070
   179
1070
     0
1070
   287
1070
     3
1070
   289
1070
     3
1070
     5
1000
_ORIGIN
1002
}
  0
DIMENSION
  5
B41
100
AcDbEntity
  8
0
  6
CONTINUOUS
 62
     5
100
AcDbDimension
  2
*D7
 10
3882.384683
 20
-19829.746618
 30
0.0
 11
3869.884683
 21
-19549.741747
 31
0.0
 70
    32
  3
DIMSTYLE001
100
AcDbAlignedDimension
 13
3714.350589
 23
-19269.736875
 33
0.0
 14
3714.350589
 24
-19829.746618
 34
0.0
 50
270.0
100
AcDbRotatedDimension
1001
ACAD
1000
DSTYLE
1002
{
1070
    43
1040
1000.0
1070
    73
1070
     0
1070
    74
1070
     0
1070
    77
1070
     1
1070
   277
1070
     2
1070
   172
1070
     1
1070
   174
1070
     1
1070
   179
1070
     0
1070
   287
1070
     3
1070
   289
1070
     3
1070
     5
1000
_ORIGIN
1002
}
  0
LINE
  5
B42
100
AcDbEntity
  8
0
  6
CONTINUOUS
 62
     5
100
AcDbLine
 10
3294.383254
 20
-20324.896449
 30
0.0
 11
3551.063254
 21
-20324.896449
 31
0.0
  0
LINE
  5
B43
100
AcDbEntity
  8
0
  6
CONTINUOUS
 62
     5
100
AcDbLine
 10
3294.383254
 20
-20325.70892
 30
0.0
 11
3551.063254
 21
-20325.70892
 31
0.0
  0
LINE
  5
B44
100
AcDbEntity
  8
0
  6
CONTINUOUS
 62
     5
100
AcDbLine
 10
3254.689163
 20
-20477.078267
 30
0.0
 11
3590.757345
 21
-20477.078267
 31
0.0
  0
DIMENSION
  5
B4E
100
AcDbEntity
  8
0
  6
CONTINUOUS
 62
     5
100
AcDbDimension
  2
*D8
 10
3552.723274
 20
-20236.790538
 30
0.0
 11
3422.723274
 21
-20224.290538
 31
0.0
 70
    32
  3
DIMSTYLE001
100
AcDbAlignedDimension
 13
3292.723274
 23
-20291.594748
 33
0.0
 14
3552.723274
 24
-20291.594748
 34
0.0
100
AcDbRotatedDimension
1001
ACAD
1000
DSTYLE
1002
{
1070
    43
1040
1000.0
1070
    73
1070
     0
1070
    74
1070
     0
1070
    77
1070
     1
1070
   277
1070
     2
1070
   172
1070
     1
1070
   174
1070
     1
1070
   179
1070
     0
1070
   287
1070
     3
1070
   289
1070
     3
1070
     5
1000
_ORIGIN
1002
}
  0
TEXT
  5
B4F
100
AcDbEntity
  8
002
  6
CONTINUOUS
 62
     7
100
AcDbText
 10
4605.626196
 20
-20871.904641
 30
0.0
 40
17.219965
  1
1/10
 41
1.176471
  7
DRACAD
 72
     5
 11
4686.661326
 21
-20871.904641
 31
0.0
100
AcDbText
  0
POLYLINE
  5
B50
100
AcDbEntity
  8
002
  6
CONTINUOUS
 62
     6
100
AcDb2dPolyline
 66
     1
 10
0.0
 20
0.0
 30
0.0
 70
   129
  0
VERTEX
  5
B51
100
AcDbEntity
  8
002
  6
CONTINUOUS
 62
     6
100
AcDbVertex
100
AcDb2dVertex
 10
2002.202784
 20
-18868.610282
 30
0.0
  0
VERTEX
  5
B52
100
AcDbEntity
  8
002
  6
CONTINUOUS
 62
     6
100
AcDbVertex
100
AcDb2dVertex
 10
4895.452784
 20
-18868.610282
 30
0.0
  0
VERTEX
  5
B53
100
AcDbEntity
  8
002
  6
CONTINUOUS
 62
     6
100
AcDbVertex
100
AcDb2dVertex
 10
4895.452784
 20
-20877.910282
 30
0.0
  0
VERTEX
  5
B54
100
AcDbEntity
  8
002
  6
CONTINUOUS
 62
     6
100
AcDbVertex
100
AcDb2dVertex
 10
2002.202784
 20
-20877.910282
 30
0.0
  0
SEQEND
  5
B55
100
AcDbEntity
  8
002
  6
CONTINUOUS
 62
     6
  0
LINE
  5
B56
100
AcDbEntity
  8
002
  6
CONTINUOUS
 62
     6
100
AcDbLine
 10
2051.902784
 20
-20784.51203
 30
0.0
 11
4895.452784
 21
-20784.51203
 31
0.0
  0
LINE
  5
B57
100
AcDbEntity
  8
002
  6
CONTINUOUS
 62
     6
100
AcDbLine
 10
2002.202784
 20
-20784.51203
 30
0.0
 11
4895.452784
 21
-20784.51203
 31
0.0
  0
LINE
  5
B58
100
AcDbEntity
  8
002
  6
CONTINUOUS
 62
     6
100
AcDbLine
 10
4895.452784
 20
-20784.51203
 30
0.0
 11
4895.452784
 21
-20876.54223
 31
0.0
  0
LINE
  5
B59
100
AcDbEntity
  8
002
  6
CONTINUOUS
 62
     6
100
AcDbLine
 10
2716.462784
 20
-20784.51203
 30
0.0
 11
2716.462784
 21
-20876.54223
 31
0.0
  0
TEXT
  5
B5A
100
AcDbEntity
  8
002
  6
CONTINUOUS
 62
     7
100
AcDbText
 10
4757.357784
 20
-20805.699614
 30
0.0
 40
10.762478
  1
No.
 41
1.176471
  7
DRACAD
 72
     5
 11
4795.343002
 21
-20805.699614
 31
0.0
100
AcDbText
  0
LINE
  5
B5B
100
AcDbEntity
  8
002
  6
CONTINUOUS
 62
     7
100
AcDbLine
 10
4575.952784
 20
-20784.51203
 30
0.0
 11
4575.952784
 21
-20876.54223
 31
0.0
  0
TEXT
  5
B5C
100
AcDbEntity
  8
002
  6
CONTINUOUS
 62
     7
100
AcDbText
 10
4578.211176
 20
-20842.498322
 30
0.0
 40
10.762478
  1
SCALE
 41
1.176471
  7
DRACAD
 72
     5
 11
4641.519872
 21
-20842.498322
 31
0.0
100
AcDbText
  0
LINE
  5
B5D
100
AcDbEntity
  8
002
  6
CONTINUOUS
 62
     6
100
AcDbLine
 10
4753.452784
 20
-20784.51203
 30
0.0
 11
4753.452784
 21
-20876.54223
 31
0.0
  0
LINE
  5
B5E
100
AcDbEntity
  8
002
  6
CONTINUOUS
 62
     6
100
AcDbLine
 10
4220.952784
 20
-20784.51203
 30
0.0
 11
4220.952784
 21
-20876.54223
 31
0.0
  0
TEXT
  5
B5F
100
AcDbEntity
  8
002
  6
CONTINUOUS
 62
     7
100
AcDbText
 10
4578.417671
 20
-20803.90826
 30
0.0
 40
10.762478
  1
Date
 41
1.176471
  7
DRACAD
 72
     5
 11
4629.064627
 21
-20803.90826
 31
0.0
100
AcDbText
  0
LINE
  5
B60
100
AcDbEntity
  8
002
  6
CONTINUOUS
 62
     7
100
AcDbLine
 10
4575.952784
 20
-20823.42713
 30
0.0
 11
4753.452784
 21
-20823.42713
 31
0.0
  0
TEXT
  5
B61
100
AcDbEntity
  8
002
  6
CONTINUOUS
 62
     7
100
AcDbText
 10
4225.014578
 20
-20808.773322
 30
0.0
 40
10.762478
  1
Drawing Title
 41
1.176471
  7
DRACAD
 72
     5
 11
4389.617188
 21
-20808.773322
 31
0.0
100
AcDbText
  0
LINE
  5
B62
100
AcDbEntity
  8
002
  6
CONTINUOUS
 62
     4
100
AcDbLine
 10
2717.444831
 20
-20830.52713
 30
0.0
 11
3716.852784
 21
-20830.52713
 31
0.0
  0
LINE
  5
B63
100
AcDbEntity
  8
002
  6
CONTINUOUS
 62
     4
100
AcDbLine
 10
2716.561891
 20
-20807.51958
 30
0.0
 11
3716.852784
 21
-20807.51958
 31
0.0
  0
LINE
  5
B64
100
AcDbEntity
  8
002
  6
CONTINUOUS
 62
     4
100
AcDbLine
 10
2716.561891
 20
-20853.53468
 30
0.0
 11
3716.852784
 21
-20853.53468
 31
0.0
  0
TEXT
  5
B65
100
AcDbEntity
  8
002
  6
CONTINUOUS
 62
     7
100
AcDbText
 10
2722.489222
 20
-20804.271419
 30
0.0
 40
10.054993
  1
Memo
 41
1.176471
  7
DRACAD
 72
     5
 11
2769.806834
 21
-20804.271419
 31
0.0
100
AcDbText
  0
LINE
  5
B66
100
AcDbEntity
  8
002
  6
CONTINUOUS
 62
     6
100
AcDbLine
 10
3716.852784
 20
-20784.51203
 30
0.0
 11
3716.852784
 21
-20876.54223
 31
0.0
  0
TEXT
  5
B67
100
AcDbEntity
  8
002
  6
CONTINUOUS
 62
     7
100
AcDbText
 10
3722.879222
 20
-20803.90826
 30
0.0
 40
10.270983
  1
Project
 41
1.176471
  7
DRACAD
 72
     5
 11
3807.463785
 21
-20803.90826
 31
0.0
100
AcDbText
  0
TEXT
  5
B68
100
AcDbEntity
  8
002
  6
CONTINUOUS
 62
     7
100
AcDbText
 10
3764.007867
 20
-20847.742121
 30
0.0
 40
19.410192
  1
SLT　CAD部品図面
 41
0.984706
  7
DRACAD
 72
     5
 11
4015.198593
 21
-20847.742121
 31
0.0
100
AcDbText
  0
TEXT
  5
B69
100
AcDbEntity
  8
002
  6
CONTINUOUS
 62
     7
100
AcDbText
 10
4615.018561
 20
-20821.021532
 30
0.0
 40
15.497969
  1
11/2/10
 41
1.176471
  7
DRACAD
 72
     5
 11
4742.648892
 21
-20821.021532
 31
0.0
100
AcDbText
  0
TEXT
  5
B6A
100
AcDbEntity
  8
002
  6
CONTINUOUS
 62
     7
100
AcDbText
 10
4278.02055
 20
-20854.715168
 30
0.0
 40
19.811038
  1
ＲＢ-2Ｆ
 41
0.984706
  7
DRACAD
 72
     5
 11
4394.556064
 21
-20854.715168
 31
0.0
100
AcDbText
  0
TEXT
  5
B6B
100
AcDbEntity
  8
002
  6
CONTINUOUS
 62
     4
100
AcDbText
 10
2170.739027
 20
-20851.747619
 30
0.0
 40
18.941962
  1
ス カ イ ラ イ ト チ ュ ー ブ
 41
0.984706
  7
DRACAD
 72
     5
 11
2594.147585
 21
-20851.747619
 31
0.0
100
AcDbText
  0
INSERT
  5
B6C
100
AcDbEntity
  8
003
  6
CONTINUOUS
 62
     4
100
AcDbBlockReference
  2
3
 10
2002.202784
 20
-20877.910282
 30
0.0
 41
0.71
 42
0.71
  0
DIMENSION
  5
B76
100
AcDbEntity
  8
0
  6
CONTINUOUS
 62
     5
100
AcDbDimension
  2
*D9
 10
3702.271606
 20
-20704.301973
 30
0.0
 11
3422.494997
 21
-20691.801973
 31
0.0
 70
    32
  3
DIMSTYLE001
100
AcDbAlignedDimension
 13
3142.718388
 23
-20551.276345
 33
0.0
 14
3702.271606
 24
-20551.856655
 34
0.0
100
AcDbRotatedDimension
1001
ACAD
1000
DSTYLE
1002
{
1070
    43
1040
1000.0
1070
    73
1070
     0
1070
    74
1070
     0
1070
    77
1070
     1
1070
   277
1070
     2
1070
   172
1070
     1
1070
   174
1070
     1
1070
   179
1070
     0
1070
   287
1070
     3
1070
   289
1070
     3
1070
     5
1000
_ORIGIN
1002
}
  0
DIMENSION
  5
B80
100
AcDbEntity
  8
0
  6
CONTINUOUS
 62
     5
100
AcDbDimension
  2
*D10
 10
3702.271606
 20
-20704.301973
 30
0.0
 11
3422.494997
 21
-20691.801973
 31
0.0
 70
    32
  3
DIMSTYLE001
100
AcDbAlignedDimension
 13
3142.718388
 23
-20551.276345
 33
0.0
 14
3702.271606
 24
-20551.856655
 34
0.0
100
AcDbRotatedDimension
1001
ACAD
1000
DSTYLE
1002
{
1070
    43
1040
1000.0
1070
    73
1070
     0
1070
    74
1070
     0
1070
    77
1070
     1
1070
   277
1070
     2
1070
   172
1070
     1
1070
   174
1070
     1
1070
   179
1070
     0
1070
   287
1070
     3
1070
   289
1070
     3
1070
     5
1000
_ORIGIN
1002
}
  0
LINE
  5
B81
100
AcDbEntity
  8
0
  6
STYLE_07
 62
     1
100
AcDbLine
 10
3946.61902
 20
-19549.741741
 30
0.0
 11
2898.827543
 21
-19549.741741
 31
0.0
  0
LINE
  5
B82
100
AcDbEntity
  8
0
  6
STYLE_07
 62
     1
100
AcDbLine
 10
3422.723268
 20
-19158.741985
 30
0.0
 11
3422.723268
 21
-20540.461382
 31
0.0
  0
DIMENSION
  5
B8C
100
AcDbEntity
  8
0
  6
CONTINUOUS
 62
     5
100
AcDbDimension
  2
*D11
 10
3021.742932
 20
-20477.078267
 30
0.0
 11
3009.242932
 21
-20400.987358
 31
0.0
 70
    32
  3
DIMSTYLE001
100
AcDbAlignedDimension
 13
3143.706021
 23
-20324.896449
 33
0.0
 14
3143.718376
 24
-20477.078267
 34
0.0
 50
270.0
100
AcDbRotatedDimension
1001
ACAD
1000
DSTYLE
1002
{
1070
    43
1040
1000.0
1070
    73
1070
     0
1070
    74
1070
     0
1070
    77
1070
     1
1070
   277
1070
     2
1070
   172
1070
     1
1070
   174
1070
     1
1070
   179
1070
     0
1070
   287
1070
     3
1070
   289
1070
     3
1070
     5
1000
_ORIGIN
1002
}
  0
ENDSEC
  0
SECTION
  2
OBJECTS
  0
DICTIONARY
  5
19
100
AcDbDictionary
  3
ACAD_GROUP
350
1A
  3
ACAD_MLINESTYLE
350
1B
  0
DICTIONARY
  5
1A
102
{ACAD_REACTORS
330
19
102
}
100
AcDbDictionary
  0
DICTIONARY
  5
1B
102
{ACAD_REACTORS
330
19
102
}
100
AcDbDictionary
  3
STANDARD
350
1C
  0
MLINESTYLE
  5
1C
102
{ACAD_REACTORS
330
1B
102
}
100
AcDbMlineStyle
  2
STANDARD
 70
     0
  3

 62
     0
 51
90.0
 52
90.0
 71
     2
 49
0.5
 62
   256
  6
ByLayer
 49
-0.5
 62
   256
  6
ByLayer
  0
ENDSEC
  0
EOF
