  0
SECTION
  2
HEADER
  9
$ACADVER
  1
AC1014
  9
$ACADMAINTVER
 70
     0
  9
$DWGCODEPAGE
  3
ANSI_932
  9
$INSBASE
 10
0.0
 20
0.0
 30
0.0
  9
$EXTMIN
 10
6002.202784
 20
-20877.910282
 30
0.0
  9
$EXTMAX
 10
8895.452784
 20
-18868.610282
 30
0.0
  9
$LIMMIN
 10
-22251.172216
 20
-40873.260282
  9
$LIMMAX
 10
37148.827784
 20
1126.739718
  9
$ORTHOMODE
 70
     0
  9
$REGENMODE
 70
     1
  9
$FILLMODE
 70
     1
  9
$QTEXTMODE
 70
     0
  9
$MIRRTEXT
 70
     1
  9
$DRAGMODE
 70
     2
  9
$LTSCALE
 40
100.0
  9
$OSMODE
 70
     0
  9
$ATTMODE
 70
     1
  9
$TEXTSIZE
 40
0.2
  9
$TRACEWID
 40
0.05
  9
$TEXTSTYLE
  7
STANDARD
  9
$CLAYER
  8
0
  9
$CELTYPE
  6
CONTINUOUS
  9
$CECOLOR
 62
   256
  9
$CELTSCALE
 40
1.0
  9
$DELOBJ
 70
     1
  9
$DISPSILH
 70
     0
  9
$DIMSCALE
 40
1.0
  9
$DIMASZ
 40
0.18
  9
$DIMEXO
 40
0.0625
  9
$DIMDLI
 40
0.38
  9
$DIMRND
 40
0.0
  9
$DIMDLE
 40
0.0
  9
$DIMEXE
 40
0.18
  9
$DIMTP
 40
0.0
  9
$DIMTM
 40
0.0
  9
$DIMTXT
 40
0.18
  9
$DIMCEN
 40
0.09
  9
$DIMTSZ
 40
0.0
  9
$DIMTOL
 70
     0
  9
$DIMLIM
 70
     0
  9
$DIMTIH
 70
     1
  9
$DIMTOH
 70
     1
  9
$DIMSE1
 70
     0
  9
$DIMSE2
 70
     0
  9
$DIMTAD
 70
     0
  9
$DIMZIN
 70
     0
  9
$DIMBLK
  1

  9
$DIMASO
 70
     1
  9
$DIMSHO
 70
     1
  9
$DIMPOST
  1

  9
$DIMAPOST
  1

  9
$DIMALT
 70
     0
  9
$DIMALTD
 70
     2
  9
$DIMALTF
 40
25.4
  9
$DIMLFAC
 40
1.0
  9
$DIMTOFL
 70
     0
  9
$DIMTVP
 40
0.0
  9
$DIMTIX
 70
     0
  9
$DIMSOXD
 70
     0
  9
$DIMSAH
 70
     0
  9
$DIMBLK1
  1

  9
$DIMBLK2
  1

  9
$DIMSTYLE
  2
STANDARD
  9
$DIMCLRD
 70
     0
  9
$DIMCLRE
 70
     0
  9
$DIMCLRT
 70
     0
  9
$DIMTFAC
 40
1.0
  9
$DIMGAP
 40
0.09
  9
$DIMJUST
 70
     0
  9
$DIMSD1
 70
     0
  9
$DIMSD2
 70
     0
  9
$DIMTOLJ
 70
     1
  9
$DIMTZIN
 70
     0
  9
$DIMALTZ
 70
     0
  9
$DIMALTTZ
 70
     0
  9
$DIMFIT
 70
     3
  9
$DIMUPT
 70
     0
  9
$DIMUNIT
 70
     2
  9
$DIMDEC
 70
     4
  9
$DIMTDEC
 70
     4
  9
$DIMALTU
 70
     2
  9
$DIMALTTD
 70
     2
  9
$DIMTXSTY
  7
STANDARD
  9
$DIMAUNIT
 70
     0
  9
$LUNITS
 70
     2
  9
$LUPREC
 70
     4
  9
$SKETCHINC
 40
0.1
  9
$FILLETRAD
 40
0.0
  9
$AUNITS
 70
     0
  9
$AUPREC
 70
     0
  9
$MENU
  1
acad
  9
$ELEVATION
 40
0.0
  9
$PELEVATION
 40
0.0
  9
$THICKNESS
 40
0.0
  9
$LIMCHECK
 70
     0
  9
$BLIPMODE
 70
     1
  9
$CHAMFERA
 40
0.0
  9
$CHAMFERB
 40
0.0
  9
$CHAMFERC
 40
0.0
  9
$CHAMFERD
 40
0.0
  9
$SKPOLY
 70
     0
  9
$TDCREATE
 40
0.000000000
  9
$TDUPDATE
 40
0.000000000
  9
$TDINDWG
 40
0.0000000000
  9
$TDUSRTIMER
 40
0.0000000000
  9
$USRTIMER
 70
     1
  9
$ANGBASE
 50
0.0
  9
$ANGDIR
 70
     0
  9
$PDMODE
 70
     0
  9
$PDSIZE
 40
0.0
  9
$PLINEWID
 40
0.0
  9
$COORDS
 70
     0
  9
$SPLFRAME
 70
     0
  9
$SPLINETYPE
 70
     6
  9
$SPLINESEGS
 70
     8
  9
$ATTDIA
 70
     0
  9
$ATTREQ
 70
     1
  9
$HANDLING
 70
     1
  9
$HANDSEED
  5
BC0
  9
$SURFTAB1
 70
     6
  9
$SURFTAB2
 70
     6
  9
$SURFTYPE
 70
     6
  9
$SURFU
 70
     6
  9
$SURFV
 70
     6
  9
$UCSNAME
  2

  9
$UCSORG
 10
0.0
 20
0.0
 30
0.0
  9
$UCSXDIR
 10
1.0
 20
0.0
 30
0.0
  9
$UCSYDIR
 10
0.0
 20
1.0
 30
0.0
  9
$PUCSNAME
  2

  9
$PUCSORG
 10
0.0
 20
0.0
 30
0.0
  9
$PUCSXDIR
 10
1.0
 20
0.0
 30
0.0
  9
$PUCSYDIR
 10
0.0
 20
1.0
 30
0.0
  9
$USERI1
 70
     0
  9
$USERI2
 70
     0
  9
$USERI3
 70
     0
  9
$USERI4
 70
     0
  9
$USERI5
 70
     0
  9
$USERR1
 40
0.0
  9
$USERR2
 40
0.0
  9
$USERR3
 40
0.0
  9
$USERR4
 40
0.0
  9
$USERR5
 40
0.0
  9
$WORLDVIEW
 70
     1
  9
$SHADEDGE
 70
     3
  9
$SHADEDIF
 70
    70
  9
$TILEMODE
 70
     1
  9
$MAXACTVP
 70
    16
  9
$PINSBASE
 10
0.0
 20
0.0
 30
0.0
  9
$PLIMCHECK
 70
     0
  9
$PEXTMIN
 10
1.000000E+20
 20
1.000000E+20
 30
1.000000E+20
  9
$PEXTMAX
 10
-1.000000E+20
 20
-1.000000E+20
 30
-1.000000E+20
  9
$PLIMMIN
 10
0.0
 20
0.0
  9
$PLIMMAX
 10
12.0
 20
9.0
  9
$UNITMODE
 70
     0
  9
$VISRETAIN
 70
     0
  9
$PLINEGEN
 70
     1
  9
$PSLTSCALE
 70
     0
  9
$TREEDEPTH
 70
  3020
  9
$PICKSTYLE
 70
     1
  9
$CMLSTYLE
  2
STANDARD
  9
$CMLJUST
 70
     0
  9
$CMLSCALE
 40
1.0
  9
$PROXYGRAPHICS
 70
     0
  9
$MEASUREMENT
 70
     0
  0
ENDSEC
  0
SECTION
  2
CLASSES
  0
CLASS
  1
LWPOLYLINE
  2
AcDbPolyline
  3
"AutoCAD"
 90
        0
280
     0
281
     1
  0
CLASS
  1
IMAGE
  2
AcDbRasterImage
  3
ISM
 90
      127
280
     0
281
     1
  0
CLASS
  1
OLE2FRAME
  2
AcDbOle2Frame
  3
""
 90
        0
280
     0
281
     1
  0
CLASS
  1
HATCH
  2
AcDbHatch
  3
"ACAD_SEDONA"
 90
        0
280
     0
281
     1
  0
CLASS
  1
DICTIONARYVAR
  2
AcDbDictionaryVar
  3
"AutoCAD"
 90
        0
280
     0
281
     0
  0
CLASS
  1
RASTERVARIABLES
  2
AcDbRasterVariables
  3
ISM
 90
        0
280
     0
281
     0
  0
CLASS
  1
IMAGEDEF
  2
AcDbRasterImageDef
  3
ISM
 90
        0
280
     0
281
     0
  0
CLASS
  1
IMAGEDEF_REACTOR
  2
AcDbRasterImageDefReactor
  3
ISM
 90
        1
280
     0
281
     0
  0
CLASS
  1
IDBUFFER
  2
AcDbIdBuffer
  3
"Acad"
 90
        0
280
     0
281
     0
  0
CLASS
  1
SPATIAL_FILTER
  2
AcDbSpatialFilter
  3
"Acad"
 90
        0
280
     0
281
     0
  0
CLASS
  1
XRECORD
  2
AcDbXrecord
  3
"<Built In>"
 90
        0
280
     0
281
     0
  0
CLASS
  1
SORTENTSTABLE
  2
AcDbSortentsTable
  3
"AutoCAD"
 90
        0
280
     0
281
     0
  0
CLASS
  1
LAYER_INDEX
  2
AcDbLayerIndex
  3
"Acad"
 90
        0
280
     0
281
     0
  0
CLASS
  1
SPATIAL_INDEX
  2
AcDbSpatialIndex
  3
"Acad"
 90
        0
280
     0
281
     0
  0
CLASS
  1
OBJECT_PTR
  2
CAseDLPNTableRecord
  3
"ASE-LPNTableRecord"
 90
        1
280
     0
281
     0
  0
CLASS
  1
LAYOUT
  2
AcDbLayout
  3
"AutoCAD 2000"
 90
        0
280
     0
281
     0
  0
CLASS
  1
PLOTSETTINGS
  2
AcDbPlotSettings
  3
"AutoCAD 2000"
 90
        0
280
     0
281
     0
  0
CLASS
  1
ACDBDICTIONARYWDFLT
  2
AcDbDictionaryWithDefault
  3
"AutoCAD 2000"
 90
        0
280
     0
281
     0
  0
CLASS
  1
ACDBPLACEHOLDER
  2
AcDbPlaceHolder
  3
"AutoCAD 2000"
 90
        0
280
     0
281
     0
  0
CLASS
  1
VBA_PROJECT
  2
AcDbVbaProject
  3
"acadvba"
 90
        0
280
     0
281
     0
  0
CLASS
  1
WIPEOUT
  2
AcDbWipeout
  3
WipeOut|AutoCAD Express Tool|expresstools@autodesk.com
 90
      127
280
     0
281
     1
  0
CLASS
  1
WIPEOUTVARIABLES
  2
AcDbWipeoutVariables
  3
WipeOut|AutoCAD Express Tool|expresstools@autodesk.com
 90
        0
280
     0
281
     0
  0
CLASS
  1
RTEXT
  2
RText
  3
RText|AutoCAD Express Tool|expresstools@autodesk.com
 90
        0
280
     0
281
     1
  0
CLASS
  1
ARCALIGNEDTEXT
  2
AcDbArcAlignedText
  3
ATEXT|AutoCAD Express Tool|expresstools@autodesk.com
 90
        0
280
     0
281
     1
  0
ENDSEC
  0
SECTION
  2
TABLES
  0
TABLE
  2
VPORT
  5
7
100
AcDbSymbolTable
 70
     1
  0
VPORT
  5
15
100
AcDbSymbolTableRecord
100
AcDbViewportTableRecord
  2
*ACTIVE
 70
     0
 10
0.0
 20
0.0
 11
1.0
 21
1.0
 12
7448.827784
 22
-19873.260282
 13
0.0
 23
0.0
 14
1000.0
 24
1000.0
 15
1000.0
 25
1000.0
 16
0.0
 26
0.0
 36
1.0
 17
0.0
 27
0.0
 37
0.0
 40
42000.0
 41
1.414286
 42
50.0
 43
0.0
 44
0.0
 50
0.0
 51
0.0
 71
     0
 72
   100
 73
     1
 74
     1
 75
     0
 76
     0
 77
     0
 78
     0
  0
ENDTAB
  0
TABLE
  2
LTYPE
  5
4
100
AcDbSymbolTable
 70
     8
  0
LTYPE
  5
11
100
AcDbSymbolTableRecord
100
AcDbLinetypeTableRecord
  2
BYBLOCK
 70
    64
  3

 72
    65
 73
     0
 40
0.0
  0
LTYPE
  5
12
100
AcDbSymbolTableRecord
100
AcDbLinetypeTableRecord
  2
BYLAYER
 70
    64
  3

 72
    65
 73
     0
 40
0.0
  0
LTYPE
  5
13
100
AcDbSymbolTableRecord
100
AcDbLinetypeTableRecord
  2
CONTINUOUS
 70
    64
  3
Solid line
 72
    65
 73
     0
 40
0.0
  0
LTYPE
  5
12B
100
AcDbSymbolTableRecord
100
AcDbLinetypeTableRecord
  2
HIDDEN
 70
    64
  3
__ __ __ __ __ __ __ __ __ __ __ __ __ __ __ __
 72
    65
 73
     5
 40
8.0
 49
1.0
 74
     0
 49
-2.0
 74
     0
 49
2.0
 74
     0
 49
-2.0
 74
     0
 49
1.0
 74
     0
  0
LTYPE
  5
12C
100
AcDbSymbolTableRecord
100
AcDbLinetypeTableRecord
  2
DOT
 70
    64
  3
. . . . . . . . . . . . . . . . . . . . . . . .
 72
    65
 73
     3
 40
1.6
 49
0.4
 74
     0
 49
-0.8
 74
     0
 49
0.4
 74
     0
  0
LTYPE
  5
12D
100
AcDbSymbolTableRecord
100
AcDbLinetypeTableRecord
  2
CENTER
 70
    64
  3
____ _ ____ _ ____ _ ____ _ ____ _ ____ _ ____ 
 72
    65
 73
     5
 40
12.0
 49
5.0
 74
     0
 49
-0.8
 74
     0
 49
0.4
 74
     0
 49
-0.8
 74
     0
 49
5.0
 74
     0
  0
LTYPE
  5
12E
100
AcDbSymbolTableRecord
100
AcDbLinetypeTableRecord
  2
DIVIDE
 70
    64
  3
____ . . ____ . . ____ . . ____ . . ____ . . __
 72
    65
 73
     7
 40
13.2
 49
5.0
 74
     0
 49
-0.8
 74
     0
 49
0.4
 74
     0
 49
-0.8
 74
     0
 49
0.4
 74
     0
 49
-0.8
 74
     0
 49
5.0
 74
     0
  0
LTYPE
  5
12F
100
AcDbSymbolTableRecord
100
AcDbLinetypeTableRecord
  2
STYLE_07
 70
     0
  3
Solid Line
 72
    65
 73
     6
 40
7.48
 49
2.5
 74
     0
 49
-0.83
 74
     0
 49
2.5
 74
     0
 49
-0.83
 74
     0
 49
0.27
 74
     0
 49
-0.55
 74
     0
  0
ENDTAB
  0
TABLE
  2
LAYER
  5
2
100
AcDbSymbolTable
 70
     5
  0
LAYER
  5
14
100
AcDbSymbolTableRecord
100
AcDbLayerTableRecord
  2
0
 70
     0
 62
     7
  6
CONTINUOUS
  0
LAYER
  5
27
100
AcDbSymbolTableRecord
100
AcDbLayerTableRecord
  2
001
 70
     0
 62
     7
  6
CONTINUOUS
  0
LAYER
  5
28
100
AcDbSymbolTableRecord
100
AcDbLayerTableRecord
  2
002
 70
     0
 62
     7
  6
CONTINUOUS
  0
LAYER
  5
29
100
AcDbSymbolTableRecord
100
AcDbLayerTableRecord
  2
003
 70
     0
 62
     7
  6
CONTINUOUS
  0
LAYER
  5
2A
100
AcDbSymbolTableRecord
100
AcDbLayerTableRecord
  2
004
 70
     0
 62
     7
  6
CONTINUOUS
  0
ENDTAB
  0
TABLE
  2
STYLE
  5
3
100
AcDbSymbolTable
 70
     3
  0
STYLE
  5
17
100
AcDbSymbolTableRecord
100
AcDbTextStyleTableRecord
  2
STANDARD
 70
     0
 40
0.0
 41
1.0
 50
0.0
 71
     0
 42
0.0
  3
txt
  4

  0
STYLE
  5
127
100
AcDbSymbolTableRecord
100
AcDbTextStyleTableRecord
  2
DRACAD
 70
     0
 40
0.0
 41
1.0
 50
0.0
 71
     0
 42
0.0
  3
txt
  4
extfont
  0
STYLE
  5
128
100
AcDbSymbolTableRecord
100
AcDbTextStyleTableRecord
  2
TATEDRACAD
 70
     4
 40
0.0
 41
1.0
 50
0.0
 71
     0
 42
0.0
  3
txt
  4
extfont
  0
ENDTAB
  0
TABLE
  2
VIEW
  5
5
100
AcDbSymbolTable
 70
     0
  0
ENDTAB
  0
TABLE
  2
UCS
  5
6
100
AcDbSymbolTable
 70
     0
  0
ENDTAB
  0
TABLE
  2
APPID
  5
8
100
AcDbSymbolTable
 70
     1
  0
APPID
  5
16
100
AcDbSymbolTableRecord
100
AcDbRegAppTableRecord
  2
ACAD
 70
     0
  0
ENDTAB
  0
TABLE
  2
DIMSTYLE
  5
9
100
AcDbSymbolTable
 70
     2
  0
DIMSTYLE
105
18
100
AcDbSymbolTableRecord
100
AcDbDimStyleTableRecord
  2
STANDARD
 70
     0
  3

  4

  5

  6

  7

 40
1.0
 41
0.18
 42
0.0625
 43
0.38
 44
0.18
 45
0.0
 46
0.0
 47
0.0
 48
0.0
 71
     0
 72
     0
 73
     1
 74
     1
 75
     0
 76
     0
 77
     0
 78
     0
140
0.18
141
0.09
142
0.0
143
25.4
144
1.0
145
0.0
146
1.0
147
0.09
170
     0
171
     2
172
     0
173
     0
174
     0
175
     0
176
     0
177
     0
178
     0
270
     2
271
     4
272
     4
273
     2
274
     2
275
     0
280
     0
281
     0
282
     0
283
     1
284
     0
285
     0
286
     0
287
     0
288
     0
340
17
  0
DIMSTYLE
105
14F
100
AcDbSymbolTableRecord
100
AcDbDimStyleTableRecord
  2
DIMSTYLE001
 70
     0
  3

  4

  5
_ORIGIN
  6

  7

 40
1.0
 41
10.0
 42
0.0
 43
1000.0
 44
0.0
 45
0.0
 46
0.0
 47
0.0
 48
0.0
 71
     0
 72
     0
 73
     0
 74
     0
 75
     0
 76
     0
 77
     1
 78
     0
140
25.0
141
0.09
142
0.0
143
25.4
144
1.0
145
0.0
146
1.0
147
0.0
170
     0
171
     2
172
     1
173
     0
174
     1
175
     0
176
     0
177
     0
178
     0
270
     2
271
     0
272
     4
273
     2
274
     2
275
     0
280
     0
281
     0
282
     0
283
     1
284
     0
285
     0
286
     0
287
     3
288
     0
340
127
  0
ENDTAB
  0
TABLE
  2
BLOCK_RECORD
  5
1
100
AcDbSymbolTable
 70
    13
  0
BLOCK_RECORD
  5
A
100
AcDbSymbolTableRecord
100
AcDbBlockTableRecord
  2
*MODEL_SPACE
  0
BLOCK_RECORD
  5
B
100
AcDbSymbolTableRecord
100
AcDbBlockTableRecord
  2
*PAPER_SPACE
  0
BLOCK_RECORD
  5
14A
100
AcDbSymbolTableRecord
100
AcDbBlockTableRecord
  2
_ORIGIN
  0
BLOCK_RECORD
  5
150
100
AcDbSymbolTableRecord
100
AcDbBlockTableRecord
  2
1
  0
BLOCK_RECORD
  5
151
100
AcDbSymbolTableRecord
100
AcDbBlockTableRecord
  2
2
  0
BLOCK_RECORD
  5
152
100
AcDbSymbolTableRecord
100
AcDbBlockTableRecord
  2
3
  0
BLOCK_RECORD
  5
B46
100
AcDbSymbolTableRecord
100
AcDbBlockTableRecord
  2
*D4
  0
BLOCK_RECORD
  5
B6A
100
AcDbSymbolTableRecord
100
AcDbBlockTableRecord
  2
*D5
  0
BLOCK_RECORD
  5
B76
100
AcDbSymbolTableRecord
100
AcDbBlockTableRecord
  2
*D6
  0
BLOCK_RECORD
  5
B80
100
AcDbSymbolTableRecord
100
AcDbBlockTableRecord
  2
*D7
  0
BLOCK_RECORD
  5
B8A
100
AcDbSymbolTableRecord
100
AcDbBlockTableRecord
  2
*D8
  0
BLOCK_RECORD
  5
B94
100
AcDbSymbolTableRecord
100
AcDbBlockTableRecord
  2
*D9
  0
BLOCK_RECORD
  5
B9E
100
AcDbSymbolTableRecord
100
AcDbBlockTableRecord
  2
*D10
  0
BLOCK_RECORD
  5
BA8
100
AcDbSymbolTableRecord
100
AcDbBlockTableRecord
  2
*D11
  0
BLOCK_RECORD
  5
BB4
100
AcDbSymbolTableRecord
100
AcDbBlockTableRecord
  2
*D12
  0
ENDTAB
  0
ENDSEC
  0
SECTION
  2
BLOCKS
  0
BLOCK
  5
D
100
AcDbEntity
  8
0
100
AcDbBlockBegin
  2
*MODEL_SPACE
 70
     0
 10
0.0
 20
0.0
 30
0.0
  3
*MODEL_SPACE
  1

  0
ENDBLK
  5
E
100
AcDbEntity
  8
0
100
AcDbBlockEnd
  0
BLOCK
  5
F
100
AcDbEntity
 67
     1
  8
0
100
AcDbBlockBegin
  2
*PAPER_SPACE
 70
     0
 10
0.0
 20
0.0
 30
0.0
  3
*PAPER_SPACE
  1

  0
ENDBLK
  5
10
100
AcDbEntity
 67
     1
  8
0
100
AcDbBlockEnd
  0
BLOCK
  5
14B
100
AcDbEntity
  8
0
100
AcDbBlockBegin
  2
_ORIGIN
 70
     0
 10
0.0
 20
0.0
 30
0.0
  3
_ORIGIN
  1

  0
CIRCLE
  5
14C
100
AcDbEntity
  8
0
  6
ByBlock
 62
     0
100
AcDbCircle
 10
0.0
 20
0.0
 30
0.0
 40
0.5
  0
LINE
  5
14D
100
AcDbEntity
  8
0
  6
ByBlock
 62
     0
100
AcDbLine
 10
0.0
 20
0.0
 30
0.0
 11
-1.0
 21
0.0
 31
0.0
  0
ENDBLK
  5
14E
100
AcDbEntity
  8
0
100
AcDbBlockEnd
  0
BLOCK
  5
153
100
AcDbEntity
  8
0
100
AcDbBlockBegin
  2
1
 70
     0
 10
0.0
 20
0.0
 30
0.0
  3
1
  1

  0
ARC
  5
154
100
AcDbEntity
  8
004
  6
CONTINUOUS
 62
     7
100
AcDbCircle
 10
133.068018
 20
-9.500511
 30
0.0
 40
134.969188
100
AcDbArc
 50
45.663628
 51
224.512358
  0
LINE
  5
155
100
AcDbEntity
  8
004
  6
CONTINUOUS
 62
     7
100
AcDbLine
 10
-120.089883
 20
249.590778
 30
0.0
 11
386.225919
 21
249.590778
 31
0.0
  0
LINE
  5
156
100
AcDbEntity
  8
004
  6
CONTINUOUS
 62
     7
100
AcDbLine
 10
-120.089883
 20
-268.591801
 30
0.0
 11
-120.089883
 21
249.590778
 31
0.0
  0
ARC
  5
157
100
AcDbEntity
  8
004
  6
CONTINUOUS
 62
     7
100
AcDbCircle
 10
133.068018
 20
-9.500511
 30
0.0
 40
134.969188
100
AcDbArc
 50
224.512358
 51
225.663628
  0
LINE
  5
158
100
AcDbEntity
  8
004
  6
CONTINUOUS
 62
     7
100
AcDbLine
 10
-120.089883
 20
239.590778
 30
0.0
 11
376.454927
 21
239.590778
 31
0.0
  0
LINE
  5
159
100
AcDbEntity
  8
004
  6
CONTINUOUS
 62
     7
100
AcDbLine
 10
-120.089883
 20
229.590778
 30
0.0
 11
366.683934
 21
229.590778
 31
0.0
  0
LINE
  5
15A
100
AcDbEntity
  8
004
  6
CONTINUOUS
 62
     7
100
AcDbLine
 10
-120.089883
 20
219.590778
 30
0.0
 11
356.912942
 21
219.590778
 31
0.0
  0
LINE
  5
15B
100
AcDbEntity
  8
004
  6
CONTINUOUS
 62
     7
100
AcDbLine
 10
-120.089883
 20
209.590778
 30
0.0
 11
347.14195
 21
209.590778
 31
0.0
  0
LINE
  5
15C
100
AcDbEntity
  8
004
  6
CONTINUOUS
 62
     7
100
AcDbLine
 10
-120.089883
 20
199.590778
 30
0.0
 11
337.370957
 21
199.590778
 31
0.0
  0
LINE
  5
15D
100
AcDbEntity
  8
004
  6
CONTINUOUS
 62
     7
100
AcDbLine
 10
-120.089883
 20
189.590778
 30
0.0
 11
327.599965
 21
189.590778
 31
0.0
  0
LINE
  5
15E
100
AcDbEntity
  8
004
  6
CONTINUOUS
 62
     7
100
AcDbLine
 10
-120.089883
 20
179.590778
 30
0.0
 11
317.828973
 21
179.590778
 31
0.0
  0
LINE
  5
15F
100
AcDbEntity
  8
004
  6
CONTINUOUS
 62
     7
100
AcDbLine
 10
-120.089883
 20
169.590778
 30
0.0
 11
308.05798
 21
169.590778
 31
0.0
  0
LINE
  5
160
100
AcDbEntity
  8
004
  6
CONTINUOUS
 62
     7
100
AcDbLine
 10
-120.089883
 20
159.590778
 30
0.0
 11
298.286988
 21
159.590778
 31
0.0
  0
LINE
  5
161
100
AcDbEntity
  8
004
  6
CONTINUOUS
 62
     7
100
AcDbLine
 10
-120.089883
 20
149.590778
 30
0.0
 11
288.515995
 21
149.590778
 31
0.0
  0
LINE
  5
162
100
AcDbEntity
  8
004
  6
CONTINUOUS
 62
     7
100
AcDbLine
 10
-120.089883
 20
139.590778
 30
0.0
 11
278.745003
 21
139.590778
 31
0.0
  0
LINE
  5
163
100
AcDbEntity
  8
004
  6
CONTINUOUS
 62
     7
100
AcDbLine
 10
-120.089883
 20
129.590778
 30
0.0
 11
268.974011
 21
129.590778
 31
0.0
  0
LINE
  5
164
100
AcDbEntity
  8
004
  6
CONTINUOUS
 62
     7
100
AcDbLine
 10
386.225919
 20
249.590778
 30
0.0
 11
227.393864
 21
87.036097
 31
0.0
  0
LINE
  5
165
100
AcDbEntity
  8
004
  6
CONTINUOUS
 62
     7
100
AcDbLine
 10
-120.089883
 20
-110.409222
 30
0.0
 11
34.470194
 21
-110.409222
 31
0.0
  0
LINE
  5
166
100
AcDbEntity
  8
004
  6
CONTINUOUS
 62
     7
100
AcDbLine
 10
-120.089883
 20
-120.409222
 30
0.0
 11
24.699202
 21
-120.409222
 31
0.0
  0
LINE
  5
167
100
AcDbEntity
  8
004
  6
CONTINUOUS
 62
     7
100
AcDbLine
 10
-120.089883
 20
-130.409222
 30
0.0
 11
14.928209
 21
-130.409222
 31
0.0
  0
LINE
  5
168
100
AcDbEntity
  8
004
  6
CONTINUOUS
 62
     7
100
AcDbLine
 10
-120.089883
 20
-140.409222
 30
0.0
 11
5.157217
 21
-140.409222
 31
0.0
  0
LINE
  5
169
100
AcDbEntity
  8
004
  6
CONTINUOUS
 62
     7
100
AcDbLine
 10
-120.089883
 20
-150.409222
 30
0.0
 11
-4.613776
 21
-150.409222
 31
0.0
  0
LINE
  5
16A
100
AcDbEntity
  8
004
  6
CONTINUOUS
 62
     7
100
AcDbLine
 10
-120.089883
 20
-160.409222
 30
0.0
 11
-14.384768
 21
-160.409222
 31
0.0
  0
LINE
  5
16B
100
AcDbEntity
  8
004
  6
CONTINUOUS
 62
     7
100
AcDbLine
 10
-120.089883
 20
-170.409222
 30
0.0
 11
-24.15576
 21
-170.409222
 31
0.0
  0
LINE
  5
16C
100
AcDbEntity
  8
004
  6
CONTINUOUS
 62
     7
100
AcDbLine
 10
-120.089883
 20
-180.409222
 30
0.0
 11
-33.926753
 21
-180.409222
 31
0.0
  0
LINE
  5
16D
100
AcDbEntity
  8
004
  6
CONTINUOUS
 62
     7
100
AcDbLine
 10
-120.089883
 20
-190.409222
 30
0.0
 11
-43.697745
 21
-190.409222
 31
0.0
  0
LINE
  5
16E
100
AcDbEntity
  8
004
  6
CONTINUOUS
 62
     7
100
AcDbLine
 10
-120.089883
 20
-200.409222
 30
0.0
 11
-53.468737
 21
-200.409222
 31
0.0
  0
LINE
  5
16F
100
AcDbEntity
  8
004
  6
CONTINUOUS
 62
     7
100
AcDbLine
 10
-120.089883
 20
-210.409222
 30
0.0
 11
-63.23973
 21
-210.409222
 31
0.0
  0
LINE
  5
170
100
AcDbEntity
  8
004
  6
CONTINUOUS
 62
     7
100
AcDbLine
 10
-120.089883
 20
-220.409222
 30
0.0
 11
-73.010722
 21
-220.409222
 31
0.0
  0
LINE
  5
171
100
AcDbEntity
  8
004
  6
CONTINUOUS
 62
     7
100
AcDbLine
 10
-120.089883
 20
-230.409222
 30
0.0
 11
-82.781714
 21
-230.409222
 31
0.0
  0
LINE
  5
172
100
AcDbEntity
  8
004
  6
CONTINUOUS
 62
     7
100
AcDbLine
 10
-120.089883
 20
-240.409222
 30
0.0
 11
-92.552707
 21
-240.409222
 31
0.0
  0
LINE
  5
173
100
AcDbEntity
  8
004
  6
CONTINUOUS
 62
     7
100
AcDbLine
 10
-120.089883
 20
-250.409222
 30
0.0
 11
-102.323699
 21
-250.409222
 31
0.0
  0
LINE
  5
174
100
AcDbEntity
  8
004
  6
CONTINUOUS
 62
     7
100
AcDbLine
 10
-120.089883
 20
-260.409222
 30
0.0
 11
-112.094692
 21
-260.409222
 31
0.0
  0
LINE
  5
175
100
AcDbEntity
  8
004
  6
CONTINUOUS
 62
     7
100
AcDbLine
 10
38.761214
 20
-106.017631
 30
0.0
 11
-120.089883
 21
-268.591801
 31
0.0
  0
LINE
  5
176
100
AcDbEntity
  8
004
  6
CONTINUOUS
 62
     7
100
AcDbLine
 10
-120.089883
 20
-100.409222
 30
0.0
 11
33.306863
 21
-100.409222
 31
0.0
  0
LINE
  5
177
100
AcDbEntity
  8
004
  6
CONTINUOUS
 62
     7
100
AcDbLine
 10
-120.089883
 20
-90.409222
 30
0.0
 11
25.038104
 21
-90.409222
 31
0.0
  0
LINE
  5
178
100
AcDbEntity
  8
004
  6
CONTINUOUS
 62
     7
100
AcDbLine
 10
-120.089883
 20
-80.409222
 30
0.0
 11
18.226229
 21
-80.409222
 31
0.0
  0
LINE
  5
179
100
AcDbEntity
  8
004
  6
CONTINUOUS
 62
     7
100
AcDbLine
 10
-120.089883
 20
-70.409222
 30
0.0
 11
12.623795
 21
-70.409222
 31
0.0
  0
LINE
  5
17A
100
AcDbEntity
  8
004
  6
CONTINUOUS
 62
     7
100
AcDbLine
 10
-120.089883
 20
-60.409222
 30
0.0
 11
8.068078
 21
-60.409222
 31
0.0
  0
LINE
  5
17B
100
AcDbEntity
  8
004
  6
CONTINUOUS
 62
     7
100
AcDbLine
 10
-120.089883
 20
-50.409222
 30
0.0
 11
4.447805
 21
-50.409222
 31
0.0
  0
LINE
  5
17C
100
AcDbEntity
  8
004
  6
CONTINUOUS
 62
     7
100
AcDbLine
 10
-120.089883
 20
-40.409222
 30
0.0
 11
1.685624
 21
-40.409222
 31
0.0
  0
LINE
  5
17D
100
AcDbEntity
  8
004
  6
CONTINUOUS
 62
     7
100
AcDbLine
 10
-120.089883
 20
-30.409222
 30
0.0
 11
-0.271802
 21
-30.409222
 31
0.0
  0
LINE
  5
17E
100
AcDbEntity
  8
004
  6
CONTINUOUS
 62
     7
100
AcDbLine
 10
-120.089883
 20
-20.409222
 30
0.0
 11
-1.459607
 21
-20.409222
 31
0.0
  0
LINE
  5
17F
100
AcDbEntity
  8
004
  6
CONTINUOUS
 62
     7
100
AcDbLine
 10
-120.089883
 20
-10.409222
 30
0.0
 11
-1.898111
 21
-10.409222
 31
0.0
  0
LINE
  5
180
100
AcDbEntity
  8
004
  6
CONTINUOUS
 62
     7
100
AcDbLine
 10
-120.089883
 20
-0.409222
 30
0.0
 11
-1.594635
 21
-0.409222
 31
0.0
  0
LINE
  5
181
100
AcDbEntity
  8
004
  6
CONTINUOUS
 62
     7
100
AcDbLine
 10
-120.089883
 20
9.590778
 30
0.0
 11
-0.544124
 21
9.590778
 31
0.0
  0
LINE
  5
182
100
AcDbEntity
  8
004
  6
CONTINUOUS
 62
     7
100
AcDbLine
 10
-120.089883
 20
19.590778
 30
0.0
 11
1.271286
 21
19.590778
 31
0.0
  0
LINE
  5
183
100
AcDbEntity
  8
004
  6
CONTINUOUS
 62
     7
100
AcDbLine
 10
-120.089883
 20
29.590778
 30
0.0
 11
3.883836
 21
29.590778
 31
0.0
  0
LINE
  5
184
100
AcDbEntity
  8
004
  6
CONTINUOUS
 62
     7
100
AcDbLine
 10
-120.089883
 20
39.590778
 30
0.0
 11
7.343211
 21
39.590778
 31
0.0
  0
LINE
  5
185
100
AcDbEntity
  8
004
  6
CONTINUOUS
 62
     7
100
AcDbLine
 10
-120.089883
 20
49.590778
 30
0.0
 11
11.721814
 21
49.590778
 31
0.0
  0
LINE
  5
186
100
AcDbEntity
  8
004
  6
CONTINUOUS
 62
     7
100
AcDbLine
 10
-120.089883
 20
59.590778
 30
0.0
 11
17.12374
 21
59.590778
 31
0.0
  0
LINE
  5
187
100
AcDbEntity
  8
004
  6
CONTINUOUS
 62
     7
100
AcDbLine
 10
-120.089883
 20
69.590778
 30
0.0
 11
23.70052
 21
69.590778
 31
0.0
  0
LINE
  5
188
100
AcDbEntity
  8
004
  6
CONTINUOUS
 62
     7
100
AcDbLine
 10
-120.089883
 20
79.590778
 30
0.0
 11
31.680524
 21
79.590778
 31
0.0
  0
LINE
  5
189
100
AcDbEntity
  8
004
  6
CONTINUOUS
 62
     7
100
AcDbLine
 10
-120.089883
 20
89.590778
 30
0.0
 11
41.429608
 21
89.590778
 31
0.0
  0
LINE
  5
18A
100
AcDbEntity
  8
004
  6
CONTINUOUS
 62
     7
100
AcDbLine
 10
-120.089883
 20
99.590778
 30
0.0
 11
53.596184
 21
99.590778
 31
0.0
  0
LINE
  5
18B
100
AcDbEntity
  8
004
  6
CONTINUOUS
 62
     7
100
AcDbLine
 10
-120.089883
 20
109.590778
 30
0.0
 11
69.554661
 21
109.590778
 31
0.0
  0
LINE
  5
18C
100
AcDbEntity
  8
004
  6
CONTINUOUS
 62
     7
100
AcDbLine
 10
-120.089883
 20
119.590778
 30
0.0
 11
93.671054
 21
119.590778
 31
0.0
  0
LINE
  5
18D
100
AcDbEntity
  8
004
  6
CONTINUOUS
 62
     7
100
AcDbLine
 10
172.464982
 20
119.590778
 30
0.0
 11
259.203018
 21
119.590778
 31
0.0
  0
LINE
  5
18E
100
AcDbEntity
  8
004
  6
CONTINUOUS
 62
     7
100
AcDbLine
 10
196.581375
 20
109.590778
 30
0.0
 11
249.432026
 21
109.590778
 31
0.0
  0
LINE
  5
18F
100
AcDbEntity
  8
004
  6
CONTINUOUS
 62
     7
100
AcDbLine
 10
212.539852
 20
99.590778
 30
0.0
 11
239.661034
 21
99.590778
 31
0.0
  0
ENDBLK
  5
190
100
AcDbEntity
  8
0
100
AcDbBlockEnd
  0
BLOCK
  5
191
100
AcDbEntity
  8
0
100
AcDbBlockBegin
  2
2
 70
     0
 10
0.0
 20
0.0
 30
0.0
  3
2
  1

  0
INSERT
  5
192
100
AcDbEntity
  8
004
  6
CONTINUOUS
 62
     7
100
AcDbBlockReference
  2
1
 10
-26.613604
 20
1.900102
 30
0.0
 41
0.2
 42
0.2
  0
ENDBLK
  5
193
100
AcDbEntity
  8
0
100
AcDbBlockEnd
  0
BLOCK
  5
194
100
AcDbEntity
  8
0
100
AcDbBlockBegin
  2
3
 70
     0
 10
0.0
 20
0.0
 30
0.0
  3
3
  1

  0
INSERT
  5
195
100
AcDbEntity
  8
003
  6
CONTINUOUS
 62
     7
100
AcDbBlockReference
  2
2
 10
187.309635
 20
61.739262
 30
0.0
  0
ENDBLK
  5
196
100
AcDbEntity
  8
0
100
AcDbBlockEnd
  0
BLOCK
  5
B47
100
AcDbEntity
  8
0
100
AcDbBlockBegin
  2
*D4
 70
     1
 10
0.0
 20
0.0
 30
0.0
  3
*D4
  1

  0
LINE
  5
B48
100
AcDbEntity
  8
0
  6
ByBlock
 62
     0
100
AcDbLine
 10
7184.467105
 20
-19293.64019
 30
0.0
 11
7184.467105
 21
-19174.185535
 31
0.0
  0
LINE
  5
B49
100
AcDbEntity
  8
0
  6
ByBlock
 62
     0
100
AcDbLine
 10
7744.467105
 20
-19293.64019
 30
0.0
 11
7744.467105
 21
-19174.185535
 31
0.0
  0
LINE
  5
B4A
100
AcDbEntity
  8
0
  6
ByBlock
 62
     0
100
AcDbLine
 10
7184.467105
 20
-19174.185535
 30
0.0
 11
7744.467105
 21
-19174.185535
 31
0.0
  0
INSERT
  5
B4B
100
AcDbEntity
  8
0
  6
ByBlock
 62
     0
100
AcDbBlockReference
  2
_ORIGIN
 10
7184.467105
 20
-19174.185535
 30
0.0
 41
10.0
 42
10.0
 43
10.0
 50
180.0
  0
INSERT
  5
B4C
100
AcDbEntity
  8
0
  6
ByBlock
 62
     0
100
AcDbBlockReference
  2
_ORIGIN
 10
7744.467105
 20
-19174.185535
 30
0.0
 41
10.0
 42
10.0
 43
10.0
  0
MTEXT
  5
B4D
100
AcDbEntity
  8
0
  6
ByBlock
 62
     0
100
AcDbMText
 10
7464.967105
 20
-19161.685535
 30
0.0
 40
25.0
 41
0.0
 71
     5
 72
     1
  1
{\A1;560}
  7
DRACAD
  0
ENDBLK
  5
B4E
100
AcDbEntity
  8
0
100
AcDbBlockEnd
  0
BLOCK
  5
B6B
100
AcDbEntity
  8
0
100
AcDbBlockBegin
  2
*D5
 70
     1
 10
0.0
 20
0.0
 30
0.0
  3
*D5
  1

  0
LINE
  5
B6C
100
AcDbEntity
  8
0
  6
ByBlock
 62
     0
100
AcDbLine
 10
7123.220865
 20
-19465.057515
 30
0.0
 11
7001.257776
 21
-19465.057515
 31
0.0
  0
LINE
  5
B6D
100
AcDbEntity
  8
0
  6
ByBlock
 62
     0
100
AcDbLine
 10
7123.23322
 20
-19642.567659
 30
0.0
 11
7001.257776
 21
-19642.567659
 31
0.0
  0
LINE
  5
B6E
100
AcDbEntity
  8
0
  6
ByBlock
 62
     0
100
AcDbLine
 10
7001.257776
 20
-19465.057515
 30
0.0
 11
7001.257776
 21
-19642.567659
 31
0.0
  0
INSERT
  5
B6F
100
AcDbEntity
  8
0
  6
ByBlock
 62
     0
100
AcDbBlockReference
  2
_ORIGIN
 10
7001.257776
 20
-19465.057515
 30
0.0
 41
10.0
 42
10.0
 43
10.0
 50
90.0
  0
INSERT
  5
B70
100
AcDbEntity
  8
0
  6
ByBlock
 62
     0
100
AcDbBlockReference
  2
_ORIGIN
 10
7001.257776
 20
-19642.567659
 30
0.0
 41
10.0
 42
10.0
 43
10.0
 50
270.0
  0
MTEXT
  5
B71
100
AcDbEntity
  8
0
  6
ByBlock
 62
     0
100
AcDbMText
 10
6988.757776
 20
-19553.812587
 30
0.0
 40
25.0
 41
0.0
 71
     5
 72
     1
  1
{\A1;178}
  7
DRACAD
 11
0.0
 21
1.0
 31
0.0
  0
ENDBLK
  5
B72
100
AcDbEntity
  8
0
100
AcDbBlockEnd
  0
BLOCK
  5
B77
100
AcDbEntity
  8
0
100
AcDbBlockBegin
  2
*D6
 70
     1
 10
0.0
 20
0.0
 30
0.0
  3
*D6
  1

  0
LINE
  5
B78
100
AcDbEntity
  8
0
  6
ByBlock
 62
     0
100
AcDbLine
 10
7284.69666
 20
-20377.620897
 30
0.0
 11
7264.618018
 21
-20328.739716
 31
0.0
  0
LINE
  5
B79
100
AcDbEntity
  8
0
  6
ByBlock
 62
     0
100
AcDbLine
 10
7524.869044
 20
-20278.966668
 30
0.0
 11
7504.790403
 21
-20230.085487
 31
0.0
  0
LINE
  5
B7A
100
AcDbEntity
  8
0
  6
ByBlock
 62
     0
100
AcDbLine
 10
7264.618018
 20
-20328.739716
 30
0.0
 11
7504.790403
 21
-20230.085487
 31
0.0
  0
INSERT
  5
B7B
100
AcDbEntity
  8
0
  6
ByBlock
 62
     0
100
AcDbBlockReference
  2
_ORIGIN
 10
7264.618018
 20
-20328.739716
 30
0.0
 41
10.0
 42
10.0
 43
10.0
 50
202.331106
  0
INSERT
  5
B7C
100
AcDbEntity
  8
0
  6
ByBlock
 62
     0
100
AcDbBlockReference
  2
_ORIGIN
 10
7504.790403
 20
-20230.085487
 30
0.0
 41
10.0
 42
10.0
 43
10.0
 50
22.331106
  0
MTEXT
  5
B7D
100
AcDbEntity
  8
0
  6
ByBlock
 62
     0
100
AcDbMText
 10
7379.95473
 20
-20267.850057
 30
0.0
 40
25.0
 41
0.0
 71
     5
 72
     1
  1
{\A1;260}
  7
DRACAD
 11
0.925004
 21
0.379958
 31
0.0
  0
ENDBLK
  5
B7E
100
AcDbEntity
  8
0
100
AcDbBlockEnd
  0
BLOCK
  5
B81
100
AcDbEntity
  8
0
100
AcDbBlockBegin
  2
*D7
 70
     1
 10
0.0
 20
0.0
 30
0.0
  3
*D7
  1

  0
LINE
  5
B82
100
AcDbEntity
  8
0
  6
ByBlock
 62
     0
100
AcDbLine
 10
7184.467105
 20
-20525.765551
 30
0.0
 11
7184.467105
 21
-20645.220207
 31
0.0
  0
LINE
  5
B83
100
AcDbEntity
  8
0
  6
ByBlock
 62
     0
100
AcDbLine
 10
7744.467105
 20
-20525.765551
 30
0.0
 11
7744.467105
 21
-20645.220207
 31
0.0
  0
LINE
  5
B84
100
AcDbEntity
  8
0
  6
ByBlock
 62
     0
100
AcDbLine
 10
7184.467105
 20
-20645.220207
 30
0.0
 11
7744.467105
 21
-20645.220207
 31
0.0
  0
INSERT
  5
B85
100
AcDbEntity
  8
0
  6
ByBlock
 62
     0
100
AcDbBlockReference
  2
_ORIGIN
 10
7184.467105
 20
-20645.220207
 30
0.0
 41
10.0
 42
10.0
 43
10.0
 50
180.0
  0
INSERT
  5
B86
100
AcDbEntity
  8
0
  6
ByBlock
 62
     0
100
AcDbBlockReference
  2
_ORIGIN
 10
7744.467105
 20
-20645.220207
 30
0.0
 41
10.0
 42
10.0
 43
10.0
  0
MTEXT
  5
B87
100
AcDbEntity
  8
0
  6
ByBlock
 62
     0
100
AcDbMText
 10
7464.967105
 20
-20632.720207
 30
0.0
 40
25.0
 41
0.0
 71
     5
 72
     1
  1
{\A1;560}
  7
DRACAD
  0
ENDBLK
  5
B88
100
AcDbEntity
  8
0
100
AcDbBlockEnd
  0
BLOCK
  5
B8B
100
AcDbEntity
  8
0
100
AcDbBlockBegin
  2
*D8
 70
     1
 10
0.0
 20
0.0
 30
0.0
  3
*D8
  1

  0
LINE
  5
B8C
100
AcDbEntity
  8
0
  6
ByBlock
 62
     0
100
AcDbLine
 10
7189.073169
 20
-20411.965125
 30
0.0
 11
7143.243777
 21
-20411.965125
 31
0.0
  0
LINE
  5
B8D
100
AcDbEntity
  8
0
  6
ByBlock
 62
     0
100
AcDbLine
 10
7189.073169
 20
-20477.078291
 30
0.0
 11
7143.243777
 21
-20477.078291
 31
0.0
  0
LINE
  5
B8E
100
AcDbEntity
  8
0
  6
ByBlock
 62
     0
100
AcDbLine
 10
7143.243777
 20
-20411.965125
 30
0.0
 11
7143.243777
 21
-20477.078291
 31
0.0
  0
INSERT
  5
B8F
100
AcDbEntity
  8
0
  6
ByBlock
 62
     0
100
AcDbBlockReference
  2
_ORIGIN
 10
7143.243777
 20
-20411.965125
 30
0.0
 41
10.0
 42
10.0
 43
10.0
 50
90.0
  0
INSERT
  5
B90
100
AcDbEntity
  8
0
  6
ByBlock
 62
     0
100
AcDbBlockReference
  2
_ORIGIN
 10
7143.243777
 20
-20477.078291
 30
0.0
 41
10.0
 42
10.0
 43
10.0
 50
270.0
  0
MTEXT
  5
B91
100
AcDbEntity
  8
0
  6
ByBlock
 62
     0
100
AcDbMText
 10
7130.743777
 20
-20444.521708
 30
0.0
 40
25.0
 41
0.0
 71
     5
 72
     1
  1
{\A1;65}
  7
DRACAD
 11
0.0
 21
1.0
 31
0.0
  0
ENDBLK
  5
B92
100
AcDbEntity
  8
0
100
AcDbBlockEnd
  0
BLOCK
  5
B95
100
AcDbEntity
  8
0
100
AcDbBlockBegin
  2
*D9
 70
     1
 10
0.0
 20
0.0
 30
0.0
  3
*D9
  1

  0
LINE
  5
B96
100
AcDbEntity
  8
0
  6
ByBlock
 62
     0
100
AcDbLine
 10
7763.646451
 20
-20312.310896
 30
0.0
 11
7849.644239
 21
-20312.310896
 31
0.0
  0
LINE
  5
B97
100
AcDbEntity
  8
0
  6
ByBlock
 62
     0
100
AcDbLine
 10
7763.646505
 20
-20477.07829
 30
0.0
 11
7849.644239
 21
-20477.07829
 31
0.0
  0
LINE
  5
B98
100
AcDbEntity
  8
0
  6
ByBlock
 62
     0
100
AcDbLine
 10
7849.644239
 20
-20312.310896
 30
0.0
 11
7849.644239
 21
-20477.07829
 31
0.0
  0
INSERT
  5
B99
100
AcDbEntity
  8
0
  6
ByBlock
 62
     0
100
AcDbBlockReference
  2
_ORIGIN
 10
7849.644239
 20
-20312.310896
 30
0.0
 41
10.0
 42
10.0
 43
10.0
 50
90.0
  0
INSERT
  5
B9A
100
AcDbEntity
  8
0
  6
ByBlock
 62
     0
100
AcDbBlockReference
  2
_ORIGIN
 10
7849.644239
 20
-20477.07829
 30
0.0
 41
10.0
 42
10.0
 43
10.0
 50
270.0
  0
MTEXT
  5
B9B
100
AcDbEntity
  8
0
  6
ByBlock
 62
     0
100
AcDbMText
 10
7837.144239
 20
-20394.694593
 30
0.0
 40
25.0
 41
0.0
 71
     5
 72
     1
  1
{\A1;165}
  7
DRACAD
 11
0.0
 21
1.0
 31
0.0
  0
ENDBLK
  5
B9C
100
AcDbEntity
  8
0
100
AcDbBlockEnd
  0
BLOCK
  5
B9F
100
AcDbEntity
  8
0
100
AcDbBlockBegin
  2
*D10
 70
     1
 10
0.0
 20
0.0
 30
0.0
  3
*D10
  1

  0
LINE
  5
BA0
100
AcDbEntity
  8
0
  6
ByBlock
 62
     0
100
AcDbLine
 10
7183.96712
 20
-19870.090552
 30
0.0
 11
7183.96712
 21
-19960.694112
 31
0.0
  0
LINE
  5
BA1
100
AcDbEntity
  8
0
  6
ByBlock
 62
     0
100
AcDbLine
 10
7418.8897
 20
-19903.027469
 30
0.0
 11
7418.8897
 21
-19960.694112
 31
0.0
  0
LINE
  5
BA2
100
AcDbEntity
  8
0
  6
ByBlock
 62
     0
100
AcDbLine
 10
7183.96712
 20
-19960.694112
 30
0.0
 11
7418.8897
 21
-19960.694112
 31
0.0
  0
INSERT
  5
BA3
100
AcDbEntity
  8
0
  6
ByBlock
 62
     0
100
AcDbBlockReference
  2
_ORIGIN
 10
7183.96712
 20
-19960.694112
 30
0.0
 41
10.0
 42
10.0
 43
10.0
 50
180.0
  0
INSERT
  5
BA4
100
AcDbEntity
  8
0
  6
ByBlock
 62
     0
100
AcDbBlockReference
  2
_ORIGIN
 10
7418.8897
 20
-19960.694112
 30
0.0
 41
10.0
 42
10.0
 43
10.0
  0
MTEXT
  5
BA5
100
AcDbEntity
  8
0
  6
ByBlock
 62
     0
100
AcDbMText
 10
7301.42841
 20
-19948.194112
 30
0.0
 40
25.0
 41
0.0
 71
     5
 72
     1
  1
{\A1;235}
  7
DRACAD
  0
ENDBLK
  5
BA6
100
AcDbEntity
  8
0
100
AcDbBlockEnd
  0
BLOCK
  5
BA9
100
AcDbEntity
  8
0
100
AcDbBlockBegin
  2
*D11
 70
     1
 10
0.0
 20
0.0
 30
0.0
  3
*D11
  1

  0
LINE
  5
BAA
100
AcDbEntity
  8
0
  6
ByBlock
 62
     0
100
AcDbLine
 10
7183.96712
 20
-20227.72588
 30
0.0
 11
7183.96712
 21
-20137.12232
 31
0.0
  0
LINE
  5
BAB
100
AcDbEntity
  8
0
  6
ByBlock
 62
     0
100
AcDbLine
 10
7418.8897
 20
-20194.788963
 30
0.0
 11
7418.8897
 21
-20137.12232
 31
0.0
  0
LINE
  5
BAC
100
AcDbEntity
  8
0
  6
ByBlock
 62
     0
100
AcDbLine
 10
7183.96712
 20
-20137.12232
 30
0.0
 11
7418.8897
 21
-20137.12232
 31
0.0
  0
INSERT
  5
BAD
100
AcDbEntity
  8
0
  6
ByBlock
 62
     0
100
AcDbBlockReference
  2
_ORIGIN
 10
7183.96712
 20
-20137.12232
 30
0.0
 41
10.0
 42
10.0
 43
10.0
 50
180.0
  0
INSERT
  5
BAE
100
AcDbEntity
  8
0
  6
ByBlock
 62
     0
100
AcDbBlockReference
  2
_ORIGIN
 10
7418.8897
 20
-20137.12232
 30
0.0
 41
10.0
 42
10.0
 43
10.0
  0
MTEXT
  5
BAF
100
AcDbEntity
  8
0
  6
ByBlock
 62
     0
100
AcDbMText
 10
7301.42841
 20
-20124.62232
 30
0.0
 40
25.0
 41
0.0
 71
     5
 72
     1
  1
{\A1;235}
  7
DRACAD
  0
ENDBLK
  5
BB0
100
AcDbEntity
  8
0
100
AcDbBlockEnd
  0
BLOCK
  5
BB5
100
AcDbEntity
  8
0
100
AcDbBlockBegin
  2
*D12
 70
     1
 10
0.0
 20
0.0
 30
0.0
  3
*D12
  1

  0
LINE
  5
BB6
100
AcDbEntity
  8
0
  6
ByBlock
 62
     0
100
AcDbLine
 10
7841.314452
 20
-19834.134403
 30
0.0
 11
7952.169755
 21
-19834.134403
 31
0.0
  0
LINE
  5
BB7
100
AcDbEntity
  8
0
  6
ByBlock
 62
     0
100
AcDbLine
 10
7851.674144
 20
-19273.642585
 30
0.0
 11
7952.169755
 21
-19273.642585
 31
0.0
  0
LINE
  5
BB8
100
AcDbEntity
  8
0
  6
ByBlock
 62
     0
100
AcDbLine
 10
7952.169755
 20
-19834.134403
 30
0.0
 11
7952.169755
 21
-19273.642585
 31
0.0
  0
INSERT
  5
BB9
100
AcDbEntity
  8
0
  6
ByBlock
 62
     0
100
AcDbBlockReference
  2
_ORIGIN
 10
7952.169755
 20
-19834.134403
 30
0.0
 41
10.0
 42
10.0
 43
10.0
 50
270.0
  0
INSERT
  5
BBA
100
AcDbEntity
  8
0
  6
ByBlock
 62
     0
100
AcDbBlockReference
  2
_ORIGIN
 10
7952.169755
 20
-19273.642585
 30
0.0
 41
10.0
 42
10.0
 43
10.0
 50
90.0
  0
MTEXT
  5
BBB
100
AcDbEntity
  8
0
  6
ByBlock
 62
     0
100
AcDbMText
 10
7939.669755
 20
-19553.888494
 30
0.0
 40
25.0
 41
0.0
 71
     5
 72
     1
  1
{\A1;560}
  7
DRACAD
 11
0.0
 21
1.0
 31
0.0
  0
ENDBLK
  5
BBC
100
AcDbEntity
  8
0
100
AcDbBlockEnd
  0
ENDSEC
  0
SECTION
  2
ENTITIES
  0
TEXT
  5
197
100
AcDbEntity
  8
002
  6
CONTINUOUS
 62
     7
100
AcDbText
 10
8605.626196
 20
-20871.904641
 30
0.0
 40
17.219965
  1
1/10
 41
1.176471
  7
DRACAD
 72
     5
 11
8686.661326
 21
-20871.904641
 31
0.0
100
AcDbText
  0
POLYLINE
  5
198
100
AcDbEntity
  8
002
  6
CONTINUOUS
 62
     6
100
AcDb2dPolyline
 66
     1
 10
0.0
 20
0.0
 30
0.0
 70
   129
  0
VERTEX
  5
199
100
AcDbEntity
  8
002
  6
CONTINUOUS
 62
     6
100
AcDbVertex
100
AcDb2dVertex
 10
6002.202784
 20
-18868.610282
 30
0.0
  0
VERTEX
  5
19A
100
AcDbEntity
  8
002
  6
CONTINUOUS
 62
     6
100
AcDbVertex
100
AcDb2dVertex
 10
8895.452784
 20
-18868.610282
 30
0.0
  0
VERTEX
  5
19B
100
AcDbEntity
  8
002
  6
CONTINUOUS
 62
     6
100
AcDbVertex
100
AcDb2dVertex
 10
8895.452784
 20
-20877.910282
 30
0.0
  0
VERTEX
  5
19C
100
AcDbEntity
  8
002
  6
CONTINUOUS
 62
     6
100
AcDbVertex
100
AcDb2dVertex
 10
6002.202784
 20
-20877.910282
 30
0.0
  0
SEQEND
  5
19D
100
AcDbEntity
  8
002
  6
CONTINUOUS
 62
     6
  0
LINE
  5
19E
100
AcDbEntity
  8
002
  6
CONTINUOUS
 62
     6
100
AcDbLine
 10
6051.902784
 20
-20784.51203
 30
0.0
 11
8895.452784
 21
-20784.51203
 31
0.0
  0
LINE
  5
19F
100
AcDbEntity
  8
002
  6
CONTINUOUS
 62
     6
100
AcDbLine
 10
6002.202784
 20
-20784.51203
 30
0.0
 11
8895.452784
 21
-20784.51203
 31
0.0
  0
LINE
  5
1A0
100
AcDbEntity
  8
002
  6
CONTINUOUS
 62
     6
100
AcDbLine
 10
8895.452784
 20
-20784.51203
 30
0.0
 11
8895.452784
 21
-20876.54223
 31
0.0
  0
LINE
  5
1A1
100
AcDbEntity
  8
002
  6
CONTINUOUS
 62
     6
100
AcDbLine
 10
6716.462784
 20
-20784.51203
 30
0.0
 11
6716.462784
 21
-20876.54223
 31
0.0
  0
TEXT
  5
1A2
100
AcDbEntity
  8
002
  6
CONTINUOUS
 62
     7
100
AcDbText
 10
8757.357784
 20
-20805.699614
 30
0.0
 40
10.762478
  1
No.
 41
1.176471
  7
DRACAD
 72
     5
 11
8795.343002
 21
-20805.699614
 31
0.0
100
AcDbText
  0
LINE
  5
1A3
100
AcDbEntity
  8
002
  6
CONTINUOUS
 62
     7
100
AcDbLine
 10
8575.952784
 20
-20784.51203
 30
0.0
 11
8575.952784
 21
-20876.54223
 31
0.0
  0
TEXT
  5
1A4
100
AcDbEntity
  8
002
  6
CONTINUOUS
 62
     7
100
AcDbText
 10
8578.211176
 20
-20842.498322
 30
0.0
 40
10.762478
  1
SCALE
 41
1.176471
  7
DRACAD
 72
     5
 11
8641.519872
 21
-20842.498322
 31
0.0
100
AcDbText
  0
LINE
  5
1A5
100
AcDbEntity
  8
002
  6
CONTINUOUS
 62
     6
100
AcDbLine
 10
8753.452784
 20
-20784.51203
 30
0.0
 11
8753.452784
 21
-20876.54223
 31
0.0
  0
LINE
  5
1A6
100
AcDbEntity
  8
002
  6
CONTINUOUS
 62
     6
100
AcDbLine
 10
8220.952784
 20
-20784.51203
 30
0.0
 11
8220.952784
 21
-20876.54223
 31
0.0
  0
TEXT
  5
1A7
100
AcDbEntity
  8
002
  6
CONTINUOUS
 62
     7
100
AcDbText
 10
8578.417671
 20
-20803.90826
 30
0.0
 40
10.762478
  1
Date
 41
1.176471
  7
DRACAD
 72
     5
 11
8629.064627
 21
-20803.90826
 31
0.0
100
AcDbText
  0
LINE
  5
1A8
100
AcDbEntity
  8
002
  6
CONTINUOUS
 62
     7
100
AcDbLine
 10
8575.952784
 20
-20823.42713
 30
0.0
 11
8753.452784
 21
-20823.42713
 31
0.0
  0
TEXT
  5
1A9
100
AcDbEntity
  8
002
  6
CONTINUOUS
 62
     7
100
AcDbText
 10
8225.014578
 20
-20808.773322
 30
0.0
 40
10.762478
  1
Drawing Title
 41
1.176471
  7
DRACAD
 72
     5
 11
8389.617188
 21
-20808.773322
 31
0.0
100
AcDbText
  0
LINE
  5
1AA
100
AcDbEntity
  8
002
  6
CONTINUOUS
 62
     4
100
AcDbLine
 10
6717.444831
 20
-20830.52713
 30
0.0
 11
7716.852784
 21
-20830.52713
 31
0.0
  0
LINE
  5
1AB
100
AcDbEntity
  8
002
  6
CONTINUOUS
 62
     4
100
AcDbLine
 10
6716.561891
 20
-20807.51958
 30
0.0
 11
7716.852784
 21
-20807.51958
 31
0.0
  0
LINE
  5
1AC
100
AcDbEntity
  8
002
  6
CONTINUOUS
 62
     4
100
AcDbLine
 10
6716.561891
 20
-20853.53468
 30
0.0
 11
7716.852784
 21
-20853.53468
 31
0.0
  0
TEXT
  5
1AD
100
AcDbEntity
  8
002
  6
CONTINUOUS
 62
     7
100
AcDbText
 10
6722.489222
 20
-20804.271419
 30
0.0
 40
10.054993
  1
Memo
 41
1.176471
  7
DRACAD
 72
     5
 11
6769.806834
 21
-20804.271419
 31
0.0
100
AcDbText
  0
LINE
  5
1AE
100
AcDbEntity
  8
002
  6
CONTINUOUS
 62
     6
100
AcDbLine
 10
7716.852784
 20
-20784.51203
 30
0.0
 11
7716.852784
 21
-20876.54223
 31
0.0
  0
TEXT
  5
1AF
100
AcDbEntity
  8
002
  6
CONTINUOUS
 62
     7
100
AcDbText
 10
7722.879222
 20
-20803.90826
 30
0.0
 40
10.270983
  1
Project
 41
1.176471
  7
DRACAD
 72
     5
 11
7807.463785
 21
-20803.90826
 31
0.0
100
AcDbText
  0
TEXT
  5
1B0
100
AcDbEntity
  8
002
  6
CONTINUOUS
 62
     7
100
AcDbText
 10
7764.007867
 20
-20847.742121
 30
0.0
 40
19.410192
  1
SLT　CAD部品図面
 41
0.984706
  7
DRACAD
 72
     5
 11
8015.198593
 21
-20847.742121
 31
0.0
100
AcDbText
  0
TEXT
  5
1B1
100
AcDbEntity
  8
002
  6
CONTINUOUS
 62
     7
100
AcDbText
 10
8615.018561
 20
-20821.021532
 30
0.0
 40
15.497969
  1
11/2/10
 41
1.176471
  7
DRACAD
 72
     5
 11
8742.648892
 21
-20821.021532
 31
0.0
100
AcDbText
  0
TEXT
  5
1B2
100
AcDbEntity
  8
002
  6
CONTINUOUS
 62
     7
100
AcDbText
 10
8278.02055
 20
-20854.715168
 30
0.0
 40
19.811038
  1
ＲＢ-2Ｐ
 41
0.984706
  7
DRACAD
 72
     5
 11
8394.556064
 21
-20854.715168
 31
0.0
100
AcDbText
  0
TEXT
  5
1B3
100
AcDbEntity
  8
002
  6
CONTINUOUS
 62
     4
100
AcDbText
 10
6170.739027
 20
-20851.747619
 30
0.0
 40
18.941962
  1
ス カ イ ラ イ ト チ ュ ー ブ
 41
0.984706
  7
DRACAD
 72
     5
 11
6594.147585
 21
-20851.747619
 31
0.0
100
AcDbText
  0
INSERT
  5
1B4
100
AcDbEntity
  8
003
  6
CONTINUOUS
 62
     4
100
AcDbBlockReference
  2
3
 10
6002.202784
 20
-20877.910282
 30
0.0
 41
0.71
 42
0.71
  0
ARC
  5
1B5
100
AcDbEntity
  8
0
  6
CONTINUOUS
 62
     7
100
AcDbCircle
 10
7286.627218
 20
-20463.586007
 30
0.0
 40
13.49229
100
AcDbArc
 50
269.990344
 51
350.106662
  0
LINE
  5
1B6
100
AcDbEntity
  8
0
  6
CONTINUOUS
 62
     7
100
AcDbLine
 10
7286.624938
 20
-20476.290609
 30
0.0
 11
7286.627293
 21
-20476.290609
 31
0.0
  0
ARC
  5
1B7
100
AcDbEntity
  8
0
  6
CONTINUOUS
 62
     7
100
AcDbCircle
 10
7286.627272
 20
-20463.585999
 30
0.0
 40
13.492285
100
AcDbArc
 50
270.000169
 51
350.117511
  0
POLYLINE
  5
1B8
100
AcDbEntity
  8
0
  6
CONTINUOUS
 62
     7
100
AcDb2dPolyline
 66
     1
 10
0.0
 20
0.0
 30
0.0
 70
   128
  0
VERTEX
  5
1B9
100
AcDbEntity
  8
0
  6
CONTINUOUS
 62
     7
100
AcDbVertex
100
AcDb2dVertex
 10
7300.164789
 20
-20465.893766
 30
0.0
  0
VERTEX
  5
1BA
100
AcDbEntity
  8
0
  6
CONTINUOUS
 62
     7
100
AcDbVertex
100
AcDb2dVertex
 10
7299.921559
 20
-20465.900934
 30
0.0
  0
VERTEX
  5
1BB
100
AcDbEntity
  8
0
  6
CONTINUOUS
 62
     7
100
AcDbVertex
100
AcDb2dVertex
 10
7299.919356
 20
-20465.901653
 30
0.0
  0
SEQEND
  5
1BC
100
AcDbEntity
  8
0
  6
CONTINUOUS
 62
     7
  0
ARC
  5
1BD
100
AcDbEntity
  8
0
  6
CONTINUOUS
 62
     7
100
AcDbCircle
 10
7637.103742
 20
-20463.586134
 30
0.0
 40
13.492169
100
AcDbArc
 50
209.039013
 51
270.00014
  0
ARC
  5
1BE
100
AcDbEntity
  8
0
  6
CONTINUOUS
 62
     7
100
AcDbCircle
 10
7286.627364
 20
-20463.586109
 30
0.0
 40
12.704485
100
AcDbArc
 50
269.999706
 51
350.117884
  0
ARC
  5
1BF
100
AcDbEntity
  8
0
  6
CONTINUOUS
 62
     7
100
AcDbCircle
 10
7637.103759
 20
-20463.586086
 30
0.0
 40
12.704524
100
AcDbArc
 50
209.039272
 51
270.000046
  0
POLYLINE
  5
1C0
100
AcDbEntity
  8
0
  6
CONTINUOUS
 62
     7
100
AcDb2dPolyline
 66
     1
 10
0.0
 20
0.0
 30
0.0
 70
   128
  0
VERTEX
  5
1C1
100
AcDbEntity
  8
0
  6
CONTINUOUS
 62
     7
100
AcDbVertex
100
AcDb2dVertex
 10
7299.143352
 20
-20465.766473
 30
0.0
  0
VERTEX
  5
1C2
100
AcDbEntity
  8
0
  6
CONTINUOUS
 62
     7
100
AcDbVertex
100
AcDb2dVertex
 10
7301.188577
 20
-20454.009176
 30
0.0
  0
VERTEX
  5
1C3
100
AcDbEntity
  8
0
  6
CONTINUOUS
 62
     7
100
AcDbVertex
100
AcDb2dVertex
 10
7304.749071
 20
-20433.429628
 30
0.0
  0
SEQEND
  5
1C4
100
AcDbEntity
  8
0
  6
CONTINUOUS
 62
     7
  0
POLYLINE
  5
1C5
100
AcDbEntity
  8
0
  6
CONTINUOUS
 62
     7
100
AcDb2dPolyline
 66
     1
 10
0.0
 20
0.0
 30
0.0
 70
   128
  0
VERTEX
  5
1C6
100
AcDbEntity
  8
0
  6
CONTINUOUS
 62
     7
100
AcDbVertex
100
AcDb2dVertex
 10
7549.949442
 20
-20332.692739
 30
0.0
  0
VERTEX
  5
1C7
100
AcDbEntity
  8
0
  6
CONTINUOUS
 62
     7
100
AcDbVertex
100
AcDb2dVertex
 10
7581.845729
 20
-20390.20288
 30
0.0
  0
VERTEX
  5
1C8
100
AcDbEntity
  8
0
  6
CONTINUOUS
 62
     7
100
AcDbVertex
100
AcDb2dVertex
 10
7604.147045
 20
-20430.392589
 30
0.0
  0
VERTEX
  5
1C9
100
AcDbEntity
  8
0
  6
CONTINUOUS
 62
     7
100
AcDbVertex
100
AcDb2dVertex
 10
7625.996356
 20
-20469.752976
 30
0.0
  0
SEQEND
  5
1CA
100
AcDbEntity
  8
0
  6
CONTINUOUS
 62
     7
  0
POLYLINE
  5
1CB
100
AcDbEntity
  8
0
  6
CONTINUOUS
 62
     7
100
AcDb2dPolyline
 66
     1
 10
0.0
 20
0.0
 30
0.0
 70
   128
  0
VERTEX
  5
1CC
100
AcDbEntity
  8
0
  6
CONTINUOUS
 62
     7
100
AcDbVertex
100
AcDb2dVertex
 10
7299.919356
 20
-20465.901653
 30
0.0
  0
VERTEX
  5
1CD
100
AcDbEntity
  8
0
  6
CONTINUOUS
 62
     7
100
AcDbVertex
100
AcDb2dVertex
 10
7302.004655
 20
-20453.913553
 30
0.0
  0
VERTEX
  5
1CE
100
AcDbEntity
  8
0
  6
CONTINUOUS
 62
     7
100
AcDbVertex
100
AcDb2dVertex
 10
7305.562752
 20
-20433.346098
 30
0.0
  0
SEQEND
  5
1CF
100
AcDbEntity
  8
0
  6
CONTINUOUS
 62
     7
  0
POLYLINE
  5
1D0
100
AcDbEntity
  8
0
  6
CONTINUOUS
 62
     7
100
AcDb2dPolyline
 66
     1
 10
0.0
 20
0.0
 30
0.0
 70
   128
  0
VERTEX
  5
1D1
100
AcDbEntity
  8
0
  6
CONTINUOUS
 62
     7
100
AcDbVertex
100
AcDb2dVertex
 10
7549.242195
 20
-20333.04158
 30
0.0
  0
VERTEX
  5
1D2
100
AcDbEntity
  8
0
  6
CONTINUOUS
 62
     7
100
AcDbVertex
100
AcDb2dVertex
 10
7579.993084
 20
-20388.487145
 30
0.0
  0
VERTEX
  5
1D3
100
AcDbEntity
  8
0
  6
CONTINUOUS
 62
     7
100
AcDbVertex
100
AcDb2dVertex
 10
7602.882563
 20
-20429.737427
 30
0.0
  0
VERTEX
  5
1D4
100
AcDbEntity
  8
0
  6
CONTINUOUS
 62
     7
100
AcDbVertex
100
AcDb2dVertex
 10
7625.307682
 20
-20470.1353
 30
0.0
  0
SEQEND
  5
1D5
100
AcDbEntity
  8
0
  6
CONTINUOUS
 62
     7
  0
LINE
  5
1D6
100
AcDbEntity
  8
0
  6
CONTINUOUS
 62
     7
100
AcDbLine
 10
7549.242195
 20
-20333.04158
 30
0.0
 11
7543.141579
 21
-20319.011114
 31
0.0
  0
LINE
  5
1D7
100
AcDbEntity
  8
0
  6
CONTINUOUS
 62
     7
100
AcDbLine
 10
7299.888586
 20
-20418.941373
 30
0.0
 11
7305.562752
 21
-20433.346098
 31
0.0
  0
ARC
  5
1D8
100
AcDbEntity
  8
0
  6
CONTINUOUS
 62
     7
100
AcDbCircle
 10
7533.122696
 20
-20323.367449
 30
0.0
 40
10.925002
100
AcDbArc
 50
23.499999
 51
59.942399
  0
LINE
  5
1D9
100
AcDbEntity
  8
0
  6
CONTINUOUS
 62
     7
100
AcDbLine
 10
7538.975892
 20
-20313.310896
 30
0.0
 11
7538.594706
 21
-20313.911616
 31
0.0
  0
ARC
  5
1DA
100
AcDbEntity
  8
0
  6
CONTINUOUS
 62
     7
100
AcDbCircle
 10
7533.443013
 20
-20323.243163
 30
0.0
 40
11.369375
100
AcDbArc
 50
23.499999
 51
60.879523
  0
LINE
  5
1DB
100
AcDbEntity
  8
0
  6
CONTINUOUS
 62
     7
100
AcDbLine
 10
7549.949442
 20
-20332.692739
 30
0.0
 11
7543.869413
 21
-20318.709636
 31
0.0
  0
LINE
  5
1DC
100
AcDbEntity
  8
0
  6
CONTINUOUS
 62
     7
100
AcDbLine
 10
7743.967101
 20
-20477.078267
 30
0.0
 11
7743.967102
 21
-20476.290623
 31
0.0
  0
LINE
  5
1DD
100
AcDbEntity
  8
0
  6
CONTINUOUS
 62
     7
100
AcDbLine
 10
7637.103769
 20
-20476.29061
 30
0.0
 11
7743.967102
 21
-20476.290623
 31
0.0
  0
LINE
  5
1DE
100
AcDbEntity
  8
0
  6
CONTINUOUS
 62
     7
100
AcDbLine
 10
7637.103775
 20
-20477.078302
 30
0.0
 11
7743.967101
 21
-20477.078267
 31
0.0
  0
LINE
  5
1DF
100
AcDbEntity
  8
0
  6
CONTINUOUS
 62
     7
100
AcDbLine
 10
7299.160752
 20
-20419.242852
 30
0.0
 11
7304.749071
 21
-20433.429628
 31
0.0
  0
ARC
  5
1E0
100
AcDbEntity
  8
0
  6
CONTINUOUS
 62
     7
100
AcDbCircle
 10
7309.739018
 20
-20415.075962
 30
0.0
 40
11.369375
100
AcDbArc
 50
164.120476
 51
201.499999
  0
LINE
  5
1E1
100
AcDbEntity
  8
0
  6
CONTINUOUS
 62
     7
100
AcDbLine
 10
7299.497821
 20
-20412.120358
 30
0.0
 11
7298.803508
 21
-20411.965125
 31
0.0
  0
ARC
  5
1E2
100
AcDbEntity
  8
0
  6
CONTINUOUS
 62
     7
100
AcDbCircle
 10
7310.0534
 20
-20414.937347
 30
0.0
 40
10.925002
100
AcDbArc
 50
165.0576
 51
201.499999
  0
LINE
  5
1E3
100
AcDbEntity
  8
0
  6
CONTINUOUS
 62
     7
100
AcDbLine
 10
7184.967121
 20
-20476.290608
 30
0.0
 11
7184.967119
 21
-20477.078291
 31
0.0
  0
LINE
  5
1E4
100
AcDbEntity
  8
0
  6
CONTINUOUS
 62
     7
100
AcDbLine
 10
7184.967121
 20
-20476.290608
 30
0.0
 11
7286.627293
 21
-20476.290609
 31
0.0
  0
LINE
  5
1E5
100
AcDbEntity
  8
0
  6
CONTINUOUS
 62
     7
100
AcDbLine
 10
7184.967119
 20
-20477.078291
 30
0.0
 11
7286.624938
 21
-20477.078291
 31
0.0
  0
ARC
  5
1E6
100
AcDbEntity
  8
0
  6
CONTINUOUS
 62
     7
100
AcDbCircle
 10
7432.736136
 20
-19553.648018
 30
0.0
 40
155.94054
100
AcDbArc
 50
148.06205
 51
212.159777
  0
ARC
  5
1E7
100
AcDbEntity
  8
0
  6
CONTINUOUS
 62
     7
100
AcDbCircle
 10
7421.227907
 20
-19545.839135
 30
0.0
 40
142.044529
100
AcDbArc
 50
113.385971
 51
148.279435
  0
ARC
  5
1E8
100
AcDbEntity
  8
0
  6
CONTINUOUS
 62
     7
100
AcDbCircle
 10
7421.562915
 20
-19561.050367
 30
0.0
 40
142.54188
100
AcDbArc
 50
212.03144
 51
246.364482
  0
CIRCLE
  5
1E9
100
AcDbEntity
  8
0
  6
CONTINUOUS
 62
     7
100
AcDbCircle
 10
7718.562903
 20
-19464.70259
 30
0.0
 40
3.557271
  0
POLYLINE
  5
1EA
100
AcDbEntity
  8
0
  6
CONTINUOUS
 62
     7
100
AcDb2dPolyline
 66
     1
 10
0.0
 20
0.0
 30
0.0
 70
   128
  0
VERTEX
  5
1EB
100
AcDbEntity
  8
0
  6
CONTINUOUS
 62
     7
100
AcDbVertex
100
AcDb2dVertex
 10
7718.4661
 20
-19465.45947
 30
0.0
  0
VERTEX
  5
1EC
100
AcDbEntity
  8
0
  6
CONTINUOUS
 62
     7
100
AcDbVertex
100
AcDb2dVertex
 10
7718.277339
 20
-19465.590222
 30
0.0
  0
VERTEX
  5
1ED
100
AcDbEntity
  8
0
  6
CONTINUOUS
 62
     7
100
AcDbVertex
100
AcDb2dVertex
 10
7718.089025
 20
-19465.720676
 30
0.0
  0
VERTEX
  5
1EE
100
AcDbEntity
  8
0
  6
CONTINUOUS
 62
     7
100
AcDbVertex
100
AcDb2dVertex
 10
7717.901263
 20
-19465.850743
 30
0.0
  0
VERTEX
  5
1EF
100
AcDbEntity
  8
0
  6
CONTINUOUS
 62
     7
100
AcDbVertex
100
AcDb2dVertex
 10
7717.714202
 20
-19465.980325
 30
0.0
  0
VERTEX
  5
1F0
100
AcDbEntity
  8
0
  6
CONTINUOUS
 62
     7
100
AcDbVertex
100
AcDb2dVertex
 10
7717.52796
 20
-19466.109333
 30
0.0
  0
VERTEX
  5
1F1
100
AcDbEntity
  8
0
  6
CONTINUOUS
 62
     7
100
AcDbVertex
100
AcDb2dVertex
 10
7717.342687
 20
-19466.237678
 30
0.0
  0
VERTEX
  5
1F2
100
AcDbEntity
  8
0
  6
CONTINUOUS
 62
     7
100
AcDbVertex
100
AcDb2dVertex
 10
7717.158487
 20
-19466.36527
 30
0.0
  0
VERTEX
  5
1F3
100
AcDbEntity
  8
0
  6
CONTINUOUS
 62
     7
100
AcDbVertex
100
AcDb2dVertex
 10
7716.975525
 20
-19466.492013
 30
0.0
  0
SEQEND
  5
1F4
100
AcDbEntity
  8
0
  6
CONTINUOUS
 62
     7
  0
POLYLINE
  5
1F5
100
AcDbEntity
  8
0
  6
CONTINUOUS
 62
     7
100
AcDb2dPolyline
 66
     1
 10
0.0
 20
0.0
 30
0.0
 70
   128
  0
VERTEX
  5
1F6
100
AcDbEntity
  8
0
  6
CONTINUOUS
 62
     7
100
AcDbVertex
100
AcDb2dVertex
 10
7718.4661
 20
-19465.45947
 30
0.0
  0
VERTEX
  5
1F7
100
AcDbEntity
  8
0
  6
CONTINUOUS
 62
     7
100
AcDbVertex
100
AcDb2dVertex
 10
7718.615866
 20
-19465.633518
 30
0.0
  0
VERTEX
  5
1F8
100
AcDbEntity
  8
0
  6
CONTINUOUS
 62
     7
100
AcDbVertex
100
AcDb2dVertex
 10
7718.765288
 20
-19465.807171
 30
0.0
  0
VERTEX
  5
1F9
100
AcDbEntity
  8
0
  6
CONTINUOUS
 62
     7
100
AcDbVertex
100
AcDb2dVertex
 10
7718.914264
 20
-19465.98031
 30
0.0
  0
VERTEX
  5
1FA
100
AcDbEntity
  8
0
  6
CONTINUOUS
 62
     7
100
AcDbVertex
100
AcDb2dVertex
 10
7719.062688
 20
-19466.1528
 30
0.0
  0
VERTEX
  5
1FB
100
AcDbEntity
  8
0
  6
CONTINUOUS
 62
     7
100
AcDbVertex
100
AcDb2dVertex
 10
7719.210456
 20
-19466.324538
 30
0.0
  0
VERTEX
  5
1FC
100
AcDbEntity
  8
0
  6
CONTINUOUS
 62
     7
100
AcDbVertex
100
AcDb2dVertex
 10
7719.357464
 20
-19466.495382
 30
0.0
  0
VERTEX
  5
1FD
100
AcDbEntity
  8
0
  6
CONTINUOUS
 62
     7
100
AcDbVertex
100
AcDb2dVertex
 10
7719.503607
 20
-19466.665226
 30
0.0
  0
VERTEX
  5
1FE
100
AcDbEntity
  8
0
  6
CONTINUOUS
 62
     7
100
AcDbVertex
100
AcDb2dVertex
 10
7719.648781
 20
-19466.833945
 30
0.0
  0
SEQEND
  5
1FF
100
AcDbEntity
  8
0
  6
CONTINUOUS
 62
     7
  0
POLYLINE
  5
200
100
AcDbEntity
  8
0
  6
CONTINUOUS
 62
     7
100
AcDb2dPolyline
 66
     1
 10
0.0
 20
0.0
 30
0.0
 70
   128
  0
VERTEX
  5
201
100
AcDbEntity
  8
0
  6
CONTINUOUS
 62
     7
100
AcDbVertex
100
AcDb2dVertex
 10
7719.648781
 20
-19466.833945
 30
0.0
  0
VERTEX
  5
202
100
AcDbEntity
  8
0
  6
CONTINUOUS
 62
     7
100
AcDbVertex
100
AcDb2dVertex
 10
7719.73667
 20
-19466.765987
 30
0.0
  0
VERTEX
  5
203
100
AcDbEntity
  8
0
  6
CONTINUOUS
 62
     7
100
AcDbVertex
100
AcDb2dVertex
 10
7719.824618
 20
-19466.697998
 30
0.0
  0
VERTEX
  5
204
100
AcDbEntity
  8
0
  6
CONTINUOUS
 62
     7
100
AcDbVertex
100
AcDb2dVertex
 10
7719.912581
 20
-19466.62998
 30
0.0
  0
VERTEX
  5
205
100
AcDbEntity
  8
0
  6
CONTINUOUS
 62
     7
100
AcDbVertex
100
AcDb2dVertex
 10
7720.00056
 20
-19466.561954
 30
0.0
  0
VERTEX
  5
206
100
AcDbEntity
  8
0
  6
CONTINUOUS
 62
     7
100
AcDbVertex
100
AcDb2dVertex
 10
7720.088538
 20
-19466.493928
 30
0.0
  0
VERTEX
  5
207
100
AcDbEntity
  8
0
  6
CONTINUOUS
 62
     7
100
AcDbVertex
100
AcDb2dVertex
 10
7720.176516
 20
-19466.42591
 30
0.0
  0
VERTEX
  5
208
100
AcDbEntity
  8
0
  6
CONTINUOUS
 62
     7
100
AcDbVertex
100
AcDb2dVertex
 10
7720.264449
 20
-19466.357921
 30
0.0
  0
VERTEX
  5
209
100
AcDbEntity
  8
0
  6
CONTINUOUS
 62
     7
100
AcDbVertex
100
AcDb2dVertex
 10
7720.352338
 20
-19466.289963
 30
0.0
  0
SEQEND
  5
20A
100
AcDbEntity
  8
0
  6
CONTINUOUS
 62
     7
  0
POLYLINE
  5
20B
100
AcDbEntity
  8
0
  6
CONTINUOUS
 62
     7
100
AcDb2dPolyline
 66
     1
 10
0.0
 20
0.0
 30
0.0
 70
   128
  0
VERTEX
  5
20C
100
AcDbEntity
  8
0
  6
CONTINUOUS
 62
     7
100
AcDbVertex
100
AcDb2dVertex
 10
7720.352338
 20
-19466.289963
 30
0.0
  0
VERTEX
  5
20D
100
AcDbEntity
  8
0
  6
CONTINUOUS
 62
     7
100
AcDbVertex
100
AcDb2dVertex
 10
7720.227243
 20
-19466.109378
 30
0.0
  0
VERTEX
  5
20E
100
AcDbEntity
  8
0
  6
CONTINUOUS
 62
     7
100
AcDbVertex
100
AcDb2dVertex
 10
7720.101313
 20
-19465.927608
 30
0.0
  0
VERTEX
  5
20F
100
AcDbEntity
  8
0
  6
CONTINUOUS
 62
     7
100
AcDbVertex
100
AcDb2dVertex
 10
7719.974667
 20
-19465.744765
 30
0.0
  0
VERTEX
  5
210
100
AcDbEntity
  8
0
  6
CONTINUOUS
 62
     7
100
AcDbVertex
100
AcDb2dVertex
 10
7719.847351
 20
-19465.56099
 30
0.0
  0
VERTEX
  5
211
100
AcDbEntity
  8
0
  6
CONTINUOUS
 62
     7
100
AcDbVertex
100
AcDb2dVertex
 10
7719.719483
 20
-19465.376396
 30
0.0
  0
VERTEX
  5
212
100
AcDbEntity
  8
0
  6
CONTINUOUS
 62
     7
100
AcDbVertex
100
AcDb2dVertex
 10
7719.591138
 20
-19465.191115
 30
0.0
  0
VERTEX
  5
213
100
AcDbEntity
  8
0
  6
CONTINUOUS
 62
     7
100
AcDbVertex
100
AcDb2dVertex
 10
7719.462405
 20
-19465.005284
 30
0.0
  0
VERTEX
  5
214
100
AcDbEntity
  8
0
  6
CONTINUOUS
 62
     7
100
AcDbVertex
100
AcDb2dVertex
 10
7719.333375
 20
-19464.81902
 30
0.0
  0
SEQEND
  5
215
100
AcDbEntity
  8
0
  6
CONTINUOUS
 62
     7
  0
POLYLINE
  5
216
100
AcDbEntity
  8
0
  6
CONTINUOUS
 62
     7
100
AcDb2dPolyline
 66
     1
 10
0.0
 20
0.0
 30
0.0
 70
   128
  0
VERTEX
  5
217
100
AcDbEntity
  8
0
  6
CONTINUOUS
 62
     7
100
AcDbVertex
100
AcDb2dVertex
 10
7719.333375
 20
-19464.81902
 30
0.0
  0
VERTEX
  5
218
100
AcDbEntity
  8
0
  6
CONTINUOUS
 62
     7
100
AcDbVertex
100
AcDb2dVertex
 10
7719.505694
 20
-19464.666779
 30
0.0
  0
VERTEX
  5
219
100
AcDbEntity
  8
0
  6
CONTINUOUS
 62
     7
100
AcDbVertex
100
AcDb2dVertex
 10
7719.677625
 20
-19464.514882
 30
0.0
  0
VERTEX
  5
21A
100
AcDbEntity
  8
0
  6
CONTINUOUS
 62
     7
100
AcDbVertex
100
AcDb2dVertex
 10
7719.84905
 20
-19464.36344
 30
0.0
  0
VERTEX
  5
21B
100
AcDbEntity
  8
0
  6
CONTINUOUS
 62
     7
100
AcDbVertex
100
AcDb2dVertex
 10
7720.019834
 20
-19464.212549
 30
0.0
  0
VERTEX
  5
21C
100
AcDbEntity
  8
0
  6
CONTINUOUS
 62
     7
100
AcDbVertex
100
AcDb2dVertex
 10
7720.189872
 20
-19464.062329
 30
0.0
  0
VERTEX
  5
21D
100
AcDbEntity
  8
0
  6
CONTINUOUS
 62
     7
100
AcDbVertex
100
AcDb2dVertex
 10
7720.359031
 20
-19463.912876
 30
0.0
  0
VERTEX
  5
21E
100
AcDbEntity
  8
0
  6
CONTINUOUS
 62
     7
100
AcDbVertex
100
AcDb2dVertex
 10
7720.527206
 20
-19463.764296
 30
0.0
  0
VERTEX
  5
21F
100
AcDbEntity
  8
0
  6
CONTINUOUS
 62
     7
100
AcDbVertex
100
AcDb2dVertex
 10
7720.694263
 20
-19463.616699
 30
0.0
  0
SEQEND
  5
220
100
AcDbEntity
  8
0
  6
CONTINUOUS
 62
     7
  0
POLYLINE
  5
221
100
AcDbEntity
  8
0
  6
CONTINUOUS
 62
     7
100
AcDb2dPolyline
 66
     1
 10
0.0
 20
0.0
 30
0.0
 70
   128
  0
VERTEX
  5
222
100
AcDbEntity
  8
0
  6
CONTINUOUS
 62
     7
100
AcDbVertex
100
AcDb2dVertex
 10
7720.694263
 20
-19463.616699
 30
0.0
  0
VERTEX
  5
223
100
AcDbEntity
  8
0
  6
CONTINUOUS
 62
     7
100
AcDbVertex
100
AcDb2dVertex
 10
7720.626304
 20
-19463.52881
 30
0.0
  0
VERTEX
  5
224
100
AcDbEntity
  8
0
  6
CONTINUOUS
 62
     7
100
AcDbVertex
100
AcDb2dVertex
 10
7720.558316
 20
-19463.440877
 30
0.0
  0
VERTEX
  5
225
100
AcDbEntity
  8
0
  6
CONTINUOUS
 62
     7
100
AcDbVertex
100
AcDb2dVertex
 10
7720.490298
 20
-19463.352914
 30
0.0
  0
VERTEX
  5
226
100
AcDbEntity
  8
0
  6
CONTINUOUS
 62
     7
100
AcDbVertex
100
AcDb2dVertex
 10
7720.422279
 20
-19463.264928
 30
0.0
  0
VERTEX
  5
227
100
AcDbEntity
  8
0
  6
CONTINUOUS
 62
     7
100
AcDbVertex
100
AcDb2dVertex
 10
7720.354246
 20
-19463.17695
 30
0.0
  0
VERTEX
  5
228
100
AcDbEntity
  8
0
  6
CONTINUOUS
 62
     7
100
AcDbVertex
100
AcDb2dVertex
 10
7720.286228
 20
-19463.088979
 30
0.0
  0
VERTEX
  5
229
100
AcDbEntity
  8
0
  6
CONTINUOUS
 62
     7
100
AcDbVertex
100
AcDb2dVertex
 10
7720.218239
 20
-19463.001046
 30
0.0
  0
VERTEX
  5
22A
100
AcDbEntity
  8
0
  6
CONTINUOUS
 62
     7
100
AcDbVertex
100
AcDb2dVertex
 10
7720.15028
 20
-19462.913157
 30
0.0
  0
SEQEND
  5
22B
100
AcDbEntity
  8
0
  6
CONTINUOUS
 62
     7
  0
POLYLINE
  5
22C
100
AcDbEntity
  8
0
  6
CONTINUOUS
 62
     7
100
AcDb2dPolyline
 66
     1
 10
0.0
 20
0.0
 30
0.0
 70
   128
  0
VERTEX
  5
22D
100
AcDbEntity
  8
0
  6
CONTINUOUS
 62
     7
100
AcDbVertex
100
AcDb2dVertex
 10
7720.15028
 20
-19462.913157
 30
0.0
  0
VERTEX
  5
22E
100
AcDbEntity
  8
0
  6
CONTINUOUS
 62
     7
100
AcDbVertex
100
AcDb2dVertex
 10
7719.965395
 20
-19463.037693
 30
0.0
  0
VERTEX
  5
22F
100
AcDbEntity
  8
0
  6
CONTINUOUS
 62
     7
100
AcDbVertex
100
AcDb2dVertex
 10
7719.779273
 20
-19463.16305
 30
0.0
  0
VERTEX
  5
230
100
AcDbEntity
  8
0
  6
CONTINUOUS
 62
     7
100
AcDbVertex
100
AcDb2dVertex
 10
7719.592047
 20
-19463.289151
 30
0.0
  0
VERTEX
  5
231
100
AcDbEntity
  8
0
  6
CONTINUOUS
 62
     7
100
AcDbVertex
100
AcDb2dVertex
 10
7719.403868
 20
-19463.415901
 30
0.0
  0
VERTEX
  5
232
100
AcDbEntity
  8
0
  6
CONTINUOUS
 62
     7
100
AcDbVertex
100
AcDb2dVertex
 10
7719.214853
 20
-19463.543217
 30
0.0
  0
VERTEX
  5
233
100
AcDbEntity
  8
0
  6
CONTINUOUS
 62
     7
100
AcDbVertex
100
AcDb2dVertex
 10
7719.025138
 20
-19463.670996
 30
0.0
  0
VERTEX
  5
234
100
AcDbEntity
  8
0
  6
CONTINUOUS
 62
     7
100
AcDbVertex
100
AcDb2dVertex
 10
7718.834857
 20
-19463.799154
 30
0.0
  0
VERTEX
  5
235
100
AcDbEntity
  8
0
  6
CONTINUOUS
 62
     7
100
AcDbVertex
100
AcDb2dVertex
 10
7718.644143
 20
-19463.927611
 30
0.0
  0
SEQEND
  5
236
100
AcDbEntity
  8
0
  6
CONTINUOUS
 62
     7
  0
POLYLINE
  5
237
100
AcDbEntity
  8
0
  6
CONTINUOUS
 62
     7
100
AcDb2dPolyline
 66
     1
 10
0.0
 20
0.0
 30
0.0
 70
   128
  0
VERTEX
  5
238
100
AcDbEntity
  8
0
  6
CONTINUOUS
 62
     7
100
AcDbVertex
100
AcDb2dVertex
 10
7717.477024
 20
-19462.571224
 30
0.0
  0
VERTEX
  5
239
100
AcDbEntity
  8
0
  6
CONTINUOUS
 62
     7
100
AcDbVertex
100
AcDb2dVertex
 10
7717.620305
 20
-19462.737745
 30
0.0
  0
VERTEX
  5
23A
100
AcDbEntity
  8
0
  6
CONTINUOUS
 62
     7
100
AcDbVertex
100
AcDb2dVertex
 10
7717.764541
 20
-19462.905361
 30
0.0
  0
VERTEX
  5
23B
100
AcDbEntity
  8
0
  6
CONTINUOUS
 62
     7
100
AcDbVertex
100
AcDb2dVertex
 10
7717.909611
 20
-19463.073961
 30
0.0
  0
VERTEX
  5
23C
100
AcDbEntity
  8
0
  6
CONTINUOUS
 62
     7
100
AcDbVertex
100
AcDb2dVertex
 10
7718.055426
 20
-19463.243425
 30
0.0
  0
VERTEX
  5
23D
100
AcDbEntity
  8
0
  6
CONTINUOUS
 62
     7
100
AcDbVertex
100
AcDb2dVertex
 10
7718.201897
 20
-19463.413643
 30
0.0
  0
VERTEX
  5
23E
100
AcDbEntity
  8
0
  6
CONTINUOUS
 62
     7
100
AcDbVertex
100
AcDb2dVertex
 10
7718.348905
 20
-19463.584486
 30
0.0
  0
VERTEX
  5
23F
100
AcDbEntity
  8
0
  6
CONTINUOUS
 62
     7
100
AcDbVertex
100
AcDb2dVertex
 10
7718.49636
 20
-19463.755851
 30
0.0
  0
VERTEX
  5
240
100
AcDbEntity
  8
0
  6
CONTINUOUS
 62
     7
100
AcDbVertex
100
AcDb2dVertex
 10
7718.644143
 20
-19463.927611
 30
0.0
  0
SEQEND
  5
241
100
AcDbEntity
  8
0
  6
CONTINUOUS
 62
     7
  0
POLYLINE
  5
242
100
AcDbEntity
  8
0
  6
CONTINUOUS
 62
     7
100
AcDb2dPolyline
 66
     1
 10
0.0
 20
0.0
 30
0.0
 70
   128
  0
VERTEX
  5
243
100
AcDbEntity
  8
0
  6
CONTINUOUS
 62
     7
100
AcDbVertex
100
AcDb2dVertex
 10
7716.773482
 20
-19463.115207
 30
0.0
  0
VERTEX
  5
244
100
AcDbEntity
  8
0
  6
CONTINUOUS
 62
     7
100
AcDbVertex
100
AcDb2dVertex
 10
7716.861371
 20
-19463.047248
 30
0.0
  0
VERTEX
  5
245
100
AcDbEntity
  8
0
  6
CONTINUOUS
 62
     7
100
AcDbVertex
100
AcDb2dVertex
 10
7716.949305
 20
-19462.97926
 30
0.0
  0
VERTEX
  5
246
100
AcDbEntity
  8
0
  6
CONTINUOUS
 62
     7
100
AcDbVertex
100
AcDb2dVertex
 10
7717.037268
 20
-19462.911242
 30
0.0
  0
VERTEX
  5
247
100
AcDbEntity
  8
0
  6
CONTINUOUS
 62
     7
100
AcDbVertex
100
AcDb2dVertex
 10
7717.125246
 20
-19462.843216
 30
0.0
  0
VERTEX
  5
248
100
AcDbEntity
  8
0
  6
CONTINUOUS
 62
     7
100
AcDbVertex
100
AcDb2dVertex
 10
7717.213239
 20
-19462.77519
 30
0.0
  0
VERTEX
  5
249
100
AcDbEntity
  8
0
  6
CONTINUOUS
 62
     7
100
AcDbVertex
100
AcDb2dVertex
 10
7717.301202
 20
-19462.707172
 30
0.0
  0
VERTEX
  5
24A
100
AcDbEntity
  8
0
  6
CONTINUOUS
 62
     7
100
AcDbVertex
100
AcDb2dVertex
 10
7717.389136
 20
-19462.639183
 30
0.0
  0
VERTEX
  5
24B
100
AcDbEntity
  8
0
  6
CONTINUOUS
 62
     7
100
AcDbVertex
100
AcDb2dVertex
 10
7717.477024
 20
-19462.571224
 30
0.0
  0
SEQEND
  5
24C
100
AcDbEntity
  8
0
  6
CONTINUOUS
 62
     7
  0
POLYLINE
  5
24D
100
AcDbEntity
  8
0
  6
CONTINUOUS
 62
     7
100
AcDb2dPolyline
 66
     1
 10
0.0
 20
0.0
 30
0.0
 70
   128
  0
VERTEX
  5
24E
100
AcDbEntity
  8
0
  6
CONTINUOUS
 62
     7
100
AcDbVertex
100
AcDb2dVertex
 10
7716.975525
 20
-19466.492013
 30
0.0
  0
VERTEX
  5
24F
100
AcDbEntity
  8
0
  6
CONTINUOUS
 62
     7
100
AcDbVertex
100
AcDb2dVertex
 10
7716.907566
 20
-19466.404124
 30
0.0
  0
VERTEX
  5
250
100
AcDbEntity
  8
0
  6
CONTINUOUS
 62
     7
100
AcDbVertex
100
AcDb2dVertex
 10
7716.839578
 20
-19466.316191
 30
0.0
  0
VERTEX
  5
251
100
AcDbEntity
  8
0
  6
CONTINUOUS
 62
     7
100
AcDbVertex
100
AcDb2dVertex
 10
7716.77156
 20
-19466.22822
 30
0.0
  0
VERTEX
  5
252
100
AcDbEntity
  8
0
  6
CONTINUOUS
 62
     7
100
AcDbVertex
100
AcDb2dVertex
 10
7716.703541
 20
-19466.140242
 30
0.0
  0
VERTEX
  5
253
100
AcDbEntity
  8
0
  6
CONTINUOUS
 62
     7
100
AcDbVertex
100
AcDb2dVertex
 10
7716.635508
 20
-19466.052256
 30
0.0
  0
VERTEX
  5
254
100
AcDbEntity
  8
0
  6
CONTINUOUS
 62
     7
100
AcDbVertex
100
AcDb2dVertex
 10
7716.56749
 20
-19465.964293
 30
0.0
  0
VERTEX
  5
255
100
AcDbEntity
  8
0
  6
CONTINUOUS
 62
     7
100
AcDbVertex
100
AcDb2dVertex
 10
7716.499501
 20
-19465.87636
 30
0.0
  0
VERTEX
  5
256
100
AcDbEntity
  8
0
  6
CONTINUOUS
 62
     7
100
AcDbVertex
100
AcDb2dVertex
 10
7716.431542
 20
-19465.788471
 30
0.0
  0
SEQEND
  5
257
100
AcDbEntity
  8
0
  6
CONTINUOUS
 62
     7
  0
POLYLINE
  5
258
100
AcDbEntity
  8
0
  6
CONTINUOUS
 62
     7
100
AcDb2dPolyline
 66
     1
 10
0.0
 20
0.0
 30
0.0
 70
   128
  0
VERTEX
  5
259
100
AcDbEntity
  8
0
  6
CONTINUOUS
 62
     7
100
AcDbVertex
100
AcDb2dVertex
 10
7717.806026
 20
-19464.605775
 30
0.0
  0
VERTEX
  5
25A
100
AcDbEntity
  8
0
  6
CONTINUOUS
 62
     7
100
AcDbVertex
100
AcDb2dVertex
 10
7717.675266
 20
-19464.417021
 30
0.0
  0
VERTEX
  5
25B
100
AcDbEntity
  8
0
  6
CONTINUOUS
 62
     7
100
AcDbVertex
100
AcDb2dVertex
 10
7717.544819
 20
-19464.2287
 30
0.0
  0
VERTEX
  5
25C
100
AcDbEntity
  8
0
  6
CONTINUOUS
 62
     7
100
AcDbVertex
100
AcDb2dVertex
 10
7717.414745
 20
-19464.040938
 30
0.0
  0
VERTEX
  5
25D
100
AcDbEntity
  8
0
  6
CONTINUOUS
 62
     7
100
AcDbVertex
100
AcDb2dVertex
 10
7717.285163
 20
-19463.853876
 30
0.0
  0
VERTEX
  5
25E
100
AcDbEntity
  8
0
  6
CONTINUOUS
 62
     7
100
AcDbVertex
100
AcDb2dVertex
 10
7717.156162
 20
-19463.667642
 30
0.0
  0
VERTEX
  5
25F
100
AcDbEntity
  8
0
  6
CONTINUOUS
 62
     7
100
AcDbVertex
100
AcDb2dVertex
 10
7717.027817
 20
-19463.482362
 30
0.0
  0
VERTEX
  5
260
100
AcDbEntity
  8
0
  6
CONTINUOUS
 62
     7
100
AcDbVertex
100
AcDb2dVertex
 10
7716.900217
 20
-19463.298177
 30
0.0
  0
VERTEX
  5
261
100
AcDbEntity
  8
0
  6
CONTINUOUS
 62
     7
100
AcDbVertex
100
AcDb2dVertex
 10
7716.773482
 20
-19463.115207
 30
0.0
  0
SEQEND
  5
262
100
AcDbEntity
  8
0
  6
CONTINUOUS
 62
     7
  0
POLYLINE
  5
263
100
AcDbEntity
  8
0
  6
CONTINUOUS
 62
     7
100
AcDb2dPolyline
 66
     1
 10
0.0
 20
0.0
 30
0.0
 70
   128
  0
VERTEX
  5
264
100
AcDbEntity
  8
0
  6
CONTINUOUS
 62
     7
100
AcDbVertex
100
AcDb2dVertex
 10
7716.431542
 20
-19465.788471
 30
0.0
  0
VERTEX
  5
265
100
AcDbEntity
  8
0
  6
CONTINUOUS
 62
     7
100
AcDbVertex
100
AcDb2dVertex
 10
7716.600269
 20
-19465.643289
 30
0.0
  0
VERTEX
  5
266
100
AcDbEntity
  8
0
  6
CONTINUOUS
 62
     7
100
AcDbVertex
100
AcDb2dVertex
 10
7716.770114
 20
-19465.497146
 30
0.0
  0
VERTEX
  5
267
100
AcDbEntity
  8
0
  6
CONTINUOUS
 62
     7
100
AcDbVertex
100
AcDb2dVertex
 10
7716.940957
 20
-19465.350138
 30
0.0
  0
VERTEX
  5
268
100
AcDbEntity
  8
0
  6
CONTINUOUS
 62
     7
100
AcDbVertex
100
AcDb2dVertex
 10
7717.11268
 20
-19465.20237
 30
0.0
  0
VERTEX
  5
269
100
AcDbEntity
  8
0
  6
CONTINUOUS
 62
     7
100
AcDbVertex
100
AcDb2dVertex
 10
7717.285178
 20
-19465.053938
 30
0.0
  0
VERTEX
  5
26A
100
AcDbEntity
  8
0
  6
CONTINUOUS
 62
     7
100
AcDbVertex
100
AcDb2dVertex
 10
7717.458317
 20
-19464.904963
 30
0.0
  0
VERTEX
  5
26B
100
AcDbEntity
  8
0
  6
CONTINUOUS
 62
     7
100
AcDbVertex
100
AcDb2dVertex
 10
7717.631977
 20
-19464.75554
 30
0.0
  0
VERTEX
  5
26C
100
AcDbEntity
  8
0
  6
CONTINUOUS
 62
     7
100
AcDbVertex
100
AcDb2dVertex
 10
7717.806026
 20
-19464.605775
 30
0.0
  0
SEQEND
  5
26D
100
AcDbEntity
  8
0
  6
CONTINUOUS
 62
     7
  0
LINE
  5
26E
100
AcDbEntity
  8
0
  6
CONTINUOUS
 62
     7
100
AcDbLine
 10
7717.016891
 20
-19466.224426
 30
0.0
 11
7716.975525
 21
-19466.492013
 31
0.0
  0
LINE
  5
26F
100
AcDbEntity
  8
0
  6
CONTINUOUS
 62
     7
100
AcDbLine
 10
7717.558339
 20
-19465.849356
 30
0.0
 11
7717.016891
 21
-19466.224426
 31
0.0
  0
LINE
  5
270
100
AcDbEntity
  8
0
  6
CONTINUOUS
 62
     7
100
AcDbLine
 10
7718.220262
 20
-19465.390833
 30
0.0
 11
7717.558339
 21
-19465.849356
 31
0.0
  0
LINE
  5
271
100
AcDbEntity
  8
0
  6
CONTINUOUS
 62
     7
100
AcDbLine
 10
7718.186737
 20
-19465.652986
 30
0.0
 11
7718.220262
 21
-19465.390833
 31
0.0
  0
LINE
  5
272
100
AcDbEntity
  8
0
  6
CONTINUOUS
 62
     7
100
AcDbLine
 10
7719.246485
 20
-19466.065284
 30
0.0
 11
7719.676105
 21
-19466.564555
 31
0.0
  0
LINE
  5
273
100
AcDbEntity
  8
0
  6
CONTINUOUS
 62
     7
100
AcDbLine
 10
7719.676105
 20
-19466.564555
 30
0.0
 11
7719.648781
 21
-19466.833945
 31
0.0
  0
LINE
  5
274
100
AcDbEntity
  8
0
  6
CONTINUOUS
 62
     7
100
AcDbLine
 10
7718.721284
 20
-19465.454916
 30
0.0
 11
7718.687745
 21
-19465.717069
 31
0.0
  0
LINE
  5
275
100
AcDbEntity
  8
0
  6
CONTINUOUS
 62
     7
100
AcDbLine
 10
7718.721284
 20
-19465.454916
 30
0.0
 11
7719.246485
 21
-19466.065284
 31
0.0
  0
LINE
  5
276
100
AcDbEntity
  8
0
  6
CONTINUOUS
 62
     7
100
AcDbLine
 10
7719.676105
 20
-19466.564555
 30
0.0
 11
7720.084752
 21
-19466.24859
 31
0.0
  0
LINE
  5
277
100
AcDbEntity
  8
0
  6
CONTINUOUS
 62
     7
100
AcDbLine
 10
7720.084752
 20
-19466.24859
 30
0.0
 11
7720.352338
 21
-19466.289963
 31
0.0
  0
LINE
  5
278
100
AcDbEntity
  8
0
  6
CONTINUOUS
 62
     7
100
AcDbLine
 10
7716.700933
 20
-19465.81578
 30
0.0
 11
7716.431542
 21
-19465.788471
 31
0.0
  0
LINE
  5
279
100
AcDbEntity
  8
0
  6
CONTINUOUS
 62
     7
100
AcDbLine
 10
7717.016891
 20
-19466.224426
 30
0.0
 11
7716.700933
 21
-19465.81578
 31
0.0
  0
ARC
  5
27A
100
AcDbEntity
  8
0
  6
CONTINUOUS
 62
     7
100
AcDbCircle
 10
7718.435365
 20
-19465.699706
 30
0.0
 40
0.376393
100
AcDbArc
 50
40.568541
 51
124.853828
  0
LINE
  5
27B
100
AcDbEntity
  8
0
  6
CONTINUOUS
 62
     7
100
AcDbLine
 10
7717.810572
 20
-19464.860959
 30
0.0
 11
7717.548426
 21
-19464.827427
 31
0.0
  0
LINE
  5
27C
100
AcDbEntity
  8
0
  6
CONTINUOUS
 62
     7
100
AcDbLine
 10
7717.612509
 20
-19464.32642
 30
0.0
 11
7717.874655
 21
-19464.359944
 31
0.0
  0
ARC
  5
27D
100
AcDbEntity
  8
0
  6
CONTINUOUS
 62
     7
100
AcDbCircle
 10
7717.565816
 20
-19464.575047
 30
0.0
 40
0.376366
100
AcDbArc
 50
310.565357
 51
34.856797
  0
LINE
  5
27E
100
AcDbEntity
  8
0
  6
CONTINUOUS
 62
     7
100
AcDbLine
 10
7720.107424
 20
-19463.178828
 30
0.0
 11
7720.15028
 21
-19462.913157
 31
0.0
  0
LINE
  5
27F
100
AcDbEntity
  8
0
  6
CONTINUOUS
 62
     7
100
AcDbLine
 10
7720.107424
 20
-19463.178828
 30
0.0
 11
7719.55885
 21
-19463.548315
 31
0.0
  0
LINE
  5
280
100
AcDbEntity
  8
0
  6
CONTINUOUS
 62
     7
100
AcDbLine
 10
7719.55885
 20
-19463.548315
 30
0.0
 11
7718.887283
 21
-19464.000646
 31
0.0
  0
LINE
  5
281
100
AcDbEntity
  8
0
  6
CONTINUOUS
 62
     7
100
AcDbLine
 10
7718.922328
 20
-19463.740244
 30
0.0
 11
7718.887283
 21
-19464.000646
 31
0.0
  0
LINE
  5
282
100
AcDbEntity
  8
0
  6
CONTINUOUS
 62
     7
100
AcDbLine
 10
7718.390345
 20
-19463.933775
 30
0.0
 11
7718.42539
 21
-19463.673373
 31
0.0
  0
ARC
  5
283
100
AcDbEntity
  8
0
  6
CONTINUOUS
 62
     7
100
AcDbCircle
 10
7718.67626
 20
-19463.688936
 30
0.0
 40
0.376422
100
AcDbArc
 50
220.574557
 51
304.097484
  0
LINE
  5
284
100
AcDbEntity
  8
0
  6
CONTINUOUS
 62
     7
100
AcDbLine
 10
7717.449716
 20
-19462.840615
 30
0.0
 11
7717.879321
 21
-19463.339885
 31
0.0
  0
LINE
  5
285
100
AcDbEntity
  8
0
  6
CONTINUOUS
 62
     7
100
AcDbLine
 10
7717.449716
 20
-19462.840615
 30
0.0
 11
7717.477024
 21
-19462.571224
 31
0.0
  0
LINE
  5
286
100
AcDbEntity
  8
0
  6
CONTINUOUS
 62
     7
100
AcDbLine
 10
7717.879321
 20
-19463.339885
 30
0.0
 11
7718.390345
 21
-19463.933775
 31
0.0
  0
LINE
  5
287
100
AcDbEntity
  8
0
  6
CONTINUOUS
 62
     7
100
AcDbLine
 10
7716.700933
 20
-19465.81578
 30
0.0
 11
7717.200211
 21
-19465.386167
 31
0.0
  0
LINE
  5
288
100
AcDbEntity
  8
0
  6
CONTINUOUS
 62
     7
100
AcDbLine
 10
7717.200211
 20
-19465.386167
 30
0.0
 11
7717.810572
 21
-19464.860959
 31
0.0
  0
CIRCLE
  5
289
100
AcDbEntity
  8
0
  6
CONTINUOUS
 62
     7
100
AcDbCircle
 10
7718.562904
 20
-19464.702586
 30
0.0
 40
5.399432
  0
LINE
  5
28A
100
AcDbEntity
  8
0
  6
CONTINUOUS
 62
     7
100
AcDbLine
 10
7720.084752
 20
-19466.24859
 30
0.0
 11
7719.709674
 21
-19465.707148
 31
0.0
  0
LINE
  5
28B
100
AcDbEntity
  8
0
  6
CONTINUOUS
 62
     7
100
AcDbLine
 10
7719.709674
 20
-19465.707148
 30
0.0
 11
7719.263523
 21
-19465.063091
 31
0.0
  0
LINE
  5
28C
100
AcDbEntity
  8
0
  6
CONTINUOUS
 62
     7
100
AcDbLine
 10
7719.524372
 20
-19465.094723
 30
0.0
 11
7719.263523
 21
-19465.063091
 31
0.0
  0
LINE
  5
28D
100
AcDbEntity
  8
0
  6
CONTINUOUS
 62
     7
100
AcDbLine
 10
7717.041069
 20
-19463.15658
 30
0.0
 11
7717.449716
 21
-19462.840615
 31
0.0
  0
LINE
  5
28E
100
AcDbEntity
  8
0
  6
CONTINUOUS
 62
     7
100
AcDbLine
 10
7717.041069
 20
-19463.15658
 30
0.0
 11
7716.773482
 21
-19463.115207
 31
0.0
  0
LINE
  5
28F
100
AcDbEntity
  8
0
  6
CONTINUOUS
 62
     7
100
AcDbLine
 10
7717.416131
 20
-19463.698021
 30
0.0
 11
7717.041069
 21
-19463.15658
 31
0.0
  0
LINE
  5
290
100
AcDbEntity
  8
0
  6
CONTINUOUS
 62
     7
100
AcDbLine
 10
7717.874655
 20
-19464.359944
 30
0.0
 11
7717.416131
 21
-19463.698021
 31
0.0
  0
LINE
  5
291
100
AcDbEntity
  8
0
  6
CONTINUOUS
 62
     7
100
AcDbLine
 10
7719.323894
 20
-19464.565318
 30
0.0
 11
7719.584728
 21
-19464.59695
 31
0.0
  0
ARC
  5
292
100
AcDbEntity
  8
0
  6
CONTINUOUS
 62
     7
100
AcDbCircle
 10
7719.572459
 20
-19464.848012
 30
0.0
 40
0.376431
100
AcDbArc
 50
131.324212
 51
214.84534
  0
LINE
  5
293
100
AcDbEntity
  8
0
  6
CONTINUOUS
 62
     7
100
AcDbLine
 10
7719.930693
 20
-19464.029229
 30
0.0
 11
7720.426364
 21
-19463.591313
 31
0.0
  0
LINE
  5
294
100
AcDbEntity
  8
0
  6
CONTINUOUS
 62
     7
100
AcDbLine
 10
7720.426364
 20
-19463.591313
 30
0.0
 11
7720.694263
 21
-19463.616699
 31
0.0
  0
LINE
  5
295
100
AcDbEntity
  8
0
  6
CONTINUOUS
 62
     7
100
AcDbLine
 10
7719.323894
 20
-19464.565318
 30
0.0
 11
7719.930693
 21
-19464.029229
 31
0.0
  0
LINE
  5
296
100
AcDbEntity
  8
0
  6
CONTINUOUS
 62
     7
100
AcDbLine
 10
7720.426364
 20
-19463.591313
 30
0.0
 11
7720.107424
 21
-19463.178828
 31
0.0
  0
ARC
  5
297
100
AcDbEntity
  8
0
  6
CONTINUOUS
 62
     7
100
AcDbCircle
 10
7718.562877
 20
-19464.702625
 30
0.0
 40
1.524497
100
AcDbArc
 50
206.639302
 51
228.781604
  0
ARC
  5
298
100
AcDbEntity
  8
0
  6
CONTINUOUS
 62
     7
100
AcDbCircle
 10
7718.563013
 20
-19464.70273
 30
0.0
 40
1.524365
100
AcDbArc
 50
296.638821
 51
318.783238
  0
ARC
  5
299
100
AcDbEntity
  8
0
  6
CONTINUOUS
 62
     7
100
AcDbCircle
 10
7718.56301
 20
-19464.702511
 30
0.0
 40
1.524423
100
AcDbArc
 50
26.210077
 51
49.212362
  0
ARC
  5
29A
100
AcDbEntity
  8
0
  6
CONTINUOUS
 62
     7
100
AcDbCircle
 10
7718.562792
 20
-19464.70244
 30
0.0
 40
1.524365
100
AcDbArc
 50
116.638821
 51
138.783238
  0
CIRCLE
  5
29B
100
AcDbEntity
  8
0
  6
CONTINUOUS
 62
     7
100
AcDbCircle
 10
7210.371314
 20
-19642.566224
 30
0.0
 40
3.557277
  0
POLYLINE
  5
29C
100
AcDbEntity
  8
0
  6
CONTINUOUS
 62
     7
100
AcDb2dPolyline
 66
     1
 10
0.0
 20
0.0
 30
0.0
 70
   128
  0
VERTEX
  5
29D
100
AcDbEntity
  8
0
  6
CONTINUOUS
 62
     7
100
AcDbVertex
100
AcDb2dVertex
 10
7210.468107
 20
-19641.809336
 30
0.0
  0
VERTEX
  5
29E
100
AcDbEntity
  8
0
  6
CONTINUOUS
 62
     7
100
AcDbVertex
100
AcDb2dVertex
 10
7210.656883
 20
-19641.678584
 30
0.0
  0
VERTEX
  5
29F
100
AcDbEntity
  8
0
  6
CONTINUOUS
 62
     7
100
AcDbVertex
100
AcDb2dVertex
 10
7210.845182
 20
-19641.54813
 30
0.0
  0
VERTEX
  5
2A0
100
AcDbEntity
  8
0
  6
CONTINUOUS
 62
     7
100
AcDbVertex
100
AcDb2dVertex
 10
7211.032944
 20
-19641.418063
 30
0.0
  0
VERTEX
  5
2A1
100
AcDbEntity
  8
0
  6
CONTINUOUS
 62
     7
100
AcDbVertex
100
AcDb2dVertex
 10
7211.220021
 20
-19641.288481
 30
0.0
  0
VERTEX
  5
2A2
100
AcDbEntity
  8
0
  6
CONTINUOUS
 62
     7
100
AcDbVertex
100
AcDb2dVertex
 10
7211.406263
 20
-19641.159473
 30
0.0
  0
VERTEX
  5
2A3
100
AcDbEntity
  8
0
  6
CONTINUOUS
 62
     7
100
AcDbVertex
100
AcDb2dVertex
 10
7211.59152
 20
-19641.031128
 30
0.0
  0
VERTEX
  5
2A4
100
AcDbEntity
  8
0
  6
CONTINUOUS
 62
     7
100
AcDbVertex
100
AcDb2dVertex
 10
7211.775705
 20
-19640.903536
 30
0.0
  0
VERTEX
  5
2A5
100
AcDbEntity
  8
0
  6
CONTINUOUS
 62
     7
100
AcDbVertex
100
AcDb2dVertex
 10
7211.958697
 20
-19640.776793
 30
0.0
  0
SEQEND
  5
2A6
100
AcDbEntity
  8
0
  6
CONTINUOUS
 62
     7
  0
POLYLINE
  5
2A7
100
AcDbEntity
  8
0
  6
CONTINUOUS
 62
     7
100
AcDb2dPolyline
 66
     1
 10
0.0
 20
0.0
 30
0.0
 70
   128
  0
VERTEX
  5
2A8
100
AcDbEntity
  8
0
  6
CONTINUOUS
 62
     7
100
AcDbVertex
100
AcDb2dVertex
 10
7210.468107
 20
-19641.809336
 30
0.0
  0
VERTEX
  5
2A9
100
AcDbEntity
  8
0
  6
CONTINUOUS
 62
     7
100
AcDbVertex
100
AcDb2dVertex
 10
7210.318357
 20
-19641.635288
 30
0.0
  0
VERTEX
  5
2AA
100
AcDbEntity
  8
0
  6
CONTINUOUS
 62
     7
100
AcDbVertex
100
AcDb2dVertex
 10
7210.168934
 20
-19641.461635
 30
0.0
  0
VERTEX
  5
2AB
100
AcDbEntity
  8
0
  6
CONTINUOUS
 62
     7
100
AcDbVertex
100
AcDb2dVertex
 10
7210.019959
 20
-19641.288496
 30
0.0
  0
VERTEX
  5
2AC
100
AcDbEntity
  8
0
  6
CONTINUOUS
 62
     7
100
AcDbVertex
100
AcDb2dVertex
 10
7209.87152
 20
-19641.116005
 30
0.0
  0
VERTEX
  5
2AD
100
AcDbEntity
  8
0
  6
CONTINUOUS
 62
     7
100
AcDbVertex
100
AcDb2dVertex
 10
7209.723766
 20
-19640.944268
 30
0.0
  0
VERTEX
  5
2AE
100
AcDbEntity
  8
0
  6
CONTINUOUS
 62
     7
100
AcDbVertex
100
AcDb2dVertex
 10
7209.576759
 20
-19640.773424
 30
0.0
  0
VERTEX
  5
2AF
100
AcDbEntity
  8
0
  6
CONTINUOUS
 62
     7
100
AcDbVertex
100
AcDb2dVertex
 10
7209.430586
 20
-19640.60358
 30
0.0
  0
VERTEX
  5
2B0
100
AcDbEntity
  8
0
  6
CONTINUOUS
 62
     7
100
AcDbVertex
100
AcDb2dVertex
 10
7209.285426
 20
-19640.434861
 30
0.0
  0
SEQEND
  5
2B1
100
AcDbEntity
  8
0
  6
CONTINUOUS
 62
     7
  0
POLYLINE
  5
2B2
100
AcDbEntity
  8
0
  6
CONTINUOUS
 62
     7
100
AcDb2dPolyline
 66
     1
 10
0.0
 20
0.0
 30
0.0
 70
   128
  0
VERTEX
  5
2B3
100
AcDbEntity
  8
0
  6
CONTINUOUS
 62
     7
100
AcDbVertex
100
AcDb2dVertex
 10
7209.285426
 20
-19640.434861
 30
0.0
  0
VERTEX
  5
2B4
100
AcDbEntity
  8
0
  6
CONTINUOUS
 62
     7
100
AcDbVertex
100
AcDb2dVertex
 10
7209.197537
 20
-19640.502819
 30
0.0
  0
VERTEX
  5
2B5
100
AcDbEntity
  8
0
  6
CONTINUOUS
 62
     7
100
AcDbVertex
100
AcDb2dVertex
 10
7209.109589
 20
-19640.570808
 30
0.0
  0
VERTEX
  5
2B6
100
AcDbEntity
  8
0
  6
CONTINUOUS
 62
     7
100
AcDbVertex
100
AcDb2dVertex
 10
7209.021641
 20
-19640.638826
 30
0.0
  0
VERTEX
  5
2B7
100
AcDbEntity
  8
0
  6
CONTINUOUS
 62
     7
100
AcDbVertex
100
AcDb2dVertex
 10
7208.933663
 20
-19640.706852
 30
0.0
  0
VERTEX
  5
2B8
100
AcDbEntity
  8
0
  6
CONTINUOUS
 62
     7
100
AcDbVertex
100
AcDb2dVertex
 10
7208.845655
 20
-19640.774878
 30
0.0
  0
VERTEX
  5
2B9
100
AcDbEntity
  8
0
  6
CONTINUOUS
 62
     7
100
AcDbVertex
100
AcDb2dVertex
 10
7208.757706
 20
-19640.842896
 30
0.0
  0
VERTEX
  5
2BA
100
AcDbEntity
  8
0
  6
CONTINUOUS
 62
     7
100
AcDbVertex
100
AcDb2dVertex
 10
7208.669758
 20
-19640.910885
 30
0.0
  0
VERTEX
  5
2BB
100
AcDbEntity
  8
0
  6
CONTINUOUS
 62
     7
100
AcDbVertex
100
AcDb2dVertex
 10
7208.581869
 20
-19640.978843
 30
0.0
  0
SEQEND
  5
2BC
100
AcDbEntity
  8
0
  6
CONTINUOUS
 62
     7
  0
POLYLINE
  5
2BD
100
AcDbEntity
  8
0
  6
CONTINUOUS
 62
     7
100
AcDb2dPolyline
 66
     1
 10
0.0
 20
0.0
 30
0.0
 70
   128
  0
VERTEX
  5
2BE
100
AcDbEntity
  8
0
  6
CONTINUOUS
 62
     7
100
AcDbVertex
100
AcDb2dVertex
 10
7208.581869
 20
-19640.978843
 30
0.0
  0
VERTEX
  5
2BF
100
AcDbEntity
  8
0
  6
CONTINUOUS
 62
     7
100
AcDbVertex
100
AcDb2dVertex
 10
7208.706965
 20
-19641.159428
 30
0.0
  0
VERTEX
  5
2C0
100
AcDbEntity
  8
0
  6
CONTINUOUS
 62
     7
100
AcDbVertex
100
AcDb2dVertex
 10
7208.832895
 20
-19641.341198
 30
0.0
  0
VERTEX
  5
2C1
100
AcDbEntity
  8
0
  6
CONTINUOUS
 62
     7
100
AcDbVertex
100
AcDb2dVertex
 10
7208.95954
 20
-19641.524041
 30
0.0
  0
VERTEX
  5
2C2
100
AcDbEntity
  8
0
  6
CONTINUOUS
 62
     7
100
AcDbVertex
100
AcDb2dVertex
 10
7209.086842
 20
-19641.707816
 30
0.0
  0
VERTEX
  5
2C3
100
AcDbEntity
  8
0
  6
CONTINUOUS
 62
     7
100
AcDbVertex
100
AcDb2dVertex
 10
7209.21471
 20
-19641.89241
 30
0.0
  0
VERTEX
  5
2C4
100
AcDbEntity
  8
0
  6
CONTINUOUS
 62
     7
100
AcDbVertex
100
AcDb2dVertex
 10
7209.343055
 20
-19642.07769
 30
0.0
  0
VERTEX
  5
2C5
100
AcDbEntity
  8
0
  6
CONTINUOUS
 62
     7
100
AcDbVertex
100
AcDb2dVertex
 10
7209.471787
 20
-19642.263522
 30
0.0
  0
VERTEX
  5
2C6
100
AcDbEntity
  8
0
  6
CONTINUOUS
 62
     7
100
AcDbVertex
100
AcDb2dVertex
 10
7209.600818
 20
-19642.449786
 30
0.0
  0
SEQEND
  5
2C7
100
AcDbEntity
  8
0
  6
CONTINUOUS
 62
     7
  0
POLYLINE
  5
2C8
100
AcDbEntity
  8
0
  6
CONTINUOUS
 62
     7
100
AcDb2dPolyline
 66
     1
 10
0.0
 20
0.0
 30
0.0
 70
   128
  0
VERTEX
  5
2C9
100
AcDbEntity
  8
0
  6
CONTINUOUS
 62
     7
100
AcDbVertex
100
AcDb2dVertex
 10
7209.600818
 20
-19642.449786
 30
0.0
  0
VERTEX
  5
2CA
100
AcDbEntity
  8
0
  6
CONTINUOUS
 62
     7
100
AcDbVertex
100
AcDb2dVertex
 10
7209.428528
 20
-19642.602026
 30
0.0
  0
VERTEX
  5
2CB
100
AcDbEntity
  8
0
  6
CONTINUOUS
 62
     7
100
AcDbVertex
100
AcDb2dVertex
 10
7209.256597
 20
-19642.753924
 30
0.0
  0
VERTEX
  5
2CC
100
AcDbEntity
  8
0
  6
CONTINUOUS
 62
     7
100
AcDbVertex
100
AcDb2dVertex
 10
7209.085172
 20
-19642.905366
 30
0.0
  0
VERTEX
  5
2CD
100
AcDbEntity
  8
0
  6
CONTINUOUS
 62
     7
100
AcDbVertex
100
AcDb2dVertex
 10
7208.914374
 20
-19643.056257
 30
0.0
  0
VERTEX
  5
2CE
100
AcDbEntity
  8
0
  6
CONTINUOUS
 62
     7
100
AcDbVertex
100
AcDb2dVertex
 10
7208.74435
 20
-19643.206477
 30
0.0
  0
VERTEX
  5
2CF
100
AcDbEntity
  8
0
  6
CONTINUOUS
 62
     7
100
AcDbVertex
100
AcDb2dVertex
 10
7208.575191
 20
-19643.35593
 30
0.0
  0
VERTEX
  5
2D0
100
AcDbEntity
  8
0
  6
CONTINUOUS
 62
     7
100
AcDbVertex
100
AcDb2dVertex
 10
7208.407016
 20
-19643.50451
 30
0.0
  0
VERTEX
  5
2D1
100
AcDbEntity
  8
0
  6
CONTINUOUS
 62
     7
100
AcDbVertex
100
AcDb2dVertex
 10
7208.239944
 20
-19643.652107
 30
0.0
  0
SEQEND
  5
2D2
100
AcDbEntity
  8
0
  6
CONTINUOUS
 62
     7
  0
POLYLINE
  5
2D3
100
AcDbEntity
  8
0
  6
CONTINUOUS
 62
     7
100
AcDb2dPolyline
 66
     1
 10
0.0
 20
0.0
 30
0.0
 70
   128
  0
VERTEX
  5
2D4
100
AcDbEntity
  8
0
  6
CONTINUOUS
 62
     7
100
AcDbVertex
100
AcDb2dVertex
 10
7208.239944
 20
-19643.652107
 30
0.0
  0
VERTEX
  5
2D5
100
AcDbEntity
  8
0
  6
CONTINUOUS
 62
     7
100
AcDbVertex
100
AcDb2dVertex
 10
7208.307918
 20
-19643.739996
 30
0.0
  0
VERTEX
  5
2D6
100
AcDbEntity
  8
0
  6
CONTINUOUS
 62
     7
100
AcDbVertex
100
AcDb2dVertex
 10
7208.375891
 20
-19643.827929
 30
0.0
  0
VERTEX
  5
2D7
100
AcDbEntity
  8
0
  6
CONTINUOUS
 62
     7
100
AcDbVertex
100
AcDb2dVertex
 10
7208.443925
 20
-19643.915892
 30
0.0
  0
VERTEX
  5
2D8
100
AcDbEntity
  8
0
  6
CONTINUOUS
 62
     7
100
AcDbVertex
100
AcDb2dVertex
 10
7208.511928
 20
-19644.003878
 30
0.0
  0
VERTEX
  5
2D9
100
AcDbEntity
  8
0
  6
CONTINUOUS
 62
     7
100
AcDbVertex
100
AcDb2dVertex
 10
7208.579961
 20
-19644.091856
 30
0.0
  0
VERTEX
  5
2DA
100
AcDbEntity
  8
0
  6
CONTINUOUS
 62
     7
100
AcDbVertex
100
AcDb2dVertex
 10
7208.647995
 20
-19644.179827
 30
0.0
  0
VERTEX
  5
2DB
100
AcDbEntity
  8
0
  6
CONTINUOUS
 62
     7
100
AcDbVertex
100
AcDb2dVertex
 10
7208.715968
 20
-19644.26776
 30
0.0
  0
VERTEX
  5
2DC
100
AcDbEntity
  8
0
  6
CONTINUOUS
 62
     7
100
AcDbVertex
100
AcDb2dVertex
 10
7208.783912
 20
-19644.355649
 30
0.0
  0
SEQEND
  5
2DD
100
AcDbEntity
  8
0
  6
CONTINUOUS
 62
     7
  0
POLYLINE
  5
2DE
100
AcDbEntity
  8
0
  6
CONTINUOUS
 62
     7
100
AcDb2dPolyline
 66
     1
 10
0.0
 20
0.0
 30
0.0
 70
   128
  0
VERTEX
  5
2DF
100
AcDbEntity
  8
0
  6
CONTINUOUS
 62
     7
100
AcDbVertex
100
AcDb2dVertex
 10
7208.783912
 20
-19644.355649
 30
0.0
  0
VERTEX
  5
2E0
100
AcDbEntity
  8
0
  6
CONTINUOUS
 62
     7
100
AcDbVertex
100
AcDb2dVertex
 10
7208.968812
 20
-19644.231112
 30
0.0
  0
VERTEX
  5
2E1
100
AcDbEntity
  8
0
  6
CONTINUOUS
 62
     7
100
AcDbVertex
100
AcDb2dVertex
 10
7209.154935
 20
-19644.105756
 30
0.0
  0
VERTEX
  5
2E2
100
AcDbEntity
  8
0
  6
CONTINUOUS
 62
     7
100
AcDbVertex
100
AcDb2dVertex
 10
7209.34216
 20
-19643.979655
 30
0.0
  0
VERTEX
  5
2E3
100
AcDbEntity
  8
0
  6
CONTINUOUS
 62
     7
100
AcDbVertex
100
AcDb2dVertex
 10
7209.53034
 20
-19643.852905
 30
0.0
  0
VERTEX
  5
2E4
100
AcDbEntity
  8
0
  6
CONTINUOUS
 62
     7
100
AcDbVertex
100
AcDb2dVertex
 10
7209.719354
 20
-19643.725588
 30
0.0
  0
VERTEX
  5
2E5
100
AcDbEntity
  8
0
  6
CONTINUOUS
 62
     7
100
AcDbVertex
100
AcDb2dVertex
 10
7209.909084
 20
-19643.59781
 30
0.0
  0
VERTEX
  5
2E6
100
AcDbEntity
  8
0
  6
CONTINUOUS
 62
     7
100
AcDbVertex
100
AcDb2dVertex
 10
7210.099351
 20
-19643.469651
 30
0.0
  0
VERTEX
  5
2E7
100
AcDbEntity
  8
0
  6
CONTINUOUS
 62
     7
100
AcDbVertex
100
AcDb2dVertex
 10
7210.290064
 20
-19643.341195
 30
0.0
  0
SEQEND
  5
2E8
100
AcDbEntity
  8
0
  6
CONTINUOUS
 62
     7
  0
POLYLINE
  5
2E9
100
AcDbEntity
  8
0
  6
CONTINUOUS
 62
     7
100
AcDb2dPolyline
 66
     1
 10
0.0
 20
0.0
 30
0.0
 70
   128
  0
VERTEX
  5
2EA
100
AcDbEntity
  8
0
  6
CONTINUOUS
 62
     7
100
AcDbVertex
100
AcDb2dVertex
 10
7211.457183
 20
-19644.697581
 30
0.0
  0
VERTEX
  5
2EB
100
AcDbEntity
  8
0
  6
CONTINUOUS
 62
     7
100
AcDbVertex
100
AcDb2dVertex
 10
7211.313902
 20
-19644.531061
 30
0.0
  0
VERTEX
  5
2EC
100
AcDbEntity
  8
0
  6
CONTINUOUS
 62
     7
100
AcDbVertex
100
AcDb2dVertex
 10
7211.169667
 20
-19644.363445
 30
0.0
  0
VERTEX
  5
2ED
100
AcDbEntity
  8
0
  6
CONTINUOUS
 62
     7
100
AcDbVertex
100
AcDb2dVertex
 10
7211.024597
 20
-19644.194845
 30
0.0
  0
VERTEX
  5
2EE
100
AcDbEntity
  8
0
  6
CONTINUOUS
 62
     7
100
AcDbVertex
100
AcDb2dVertex
 10
7210.878781
 20
-19644.02538
 30
0.0
  0
VERTEX
  5
2EF
100
AcDbEntity
  8
0
  6
CONTINUOUS
 62
     7
100
AcDbVertex
100
AcDb2dVertex
 10
7210.73231
 20
-19643.855163
 30
0.0
  0
VERTEX
  5
2F0
100
AcDbEntity
  8
0
  6
CONTINUOUS
 62
     7
100
AcDbVertex
100
AcDb2dVertex
 10
7210.585302
 20
-19643.68432
 30
0.0
  0
VERTEX
  5
2F1
100
AcDbEntity
  8
0
  6
CONTINUOUS
 62
     7
100
AcDbVertex
100
AcDb2dVertex
 10
7210.437847
 20
-19643.512955
 30
0.0
  0
VERTEX
  5
2F2
100
AcDbEntity
  8
0
  6
CONTINUOUS
 62
     7
100
AcDbVertex
100
AcDb2dVertex
 10
7210.290064
 20
-19643.341195
 30
0.0
  0
SEQEND
  5
2F3
100
AcDbEntity
  8
0
  6
CONTINUOUS
 62
     7
  0
POLYLINE
  5
2F4
100
AcDbEntity
  8
0
  6
CONTINUOUS
 62
     7
100
AcDb2dPolyline
 66
     1
 10
0.0
 20
0.0
 30
0.0
 70
   128
  0
VERTEX
  5
2F5
100
AcDbEntity
  8
0
  6
CONTINUOUS
 62
     7
100
AcDbVertex
100
AcDb2dVertex
 10
7212.16074
 20
-19644.153599
 30
0.0
  0
VERTEX
  5
2F6
100
AcDbEntity
  8
0
  6
CONTINUOUS
 62
     7
100
AcDbVertex
100
AcDb2dVertex
 10
7212.072851
 20
-19644.221557
 30
0.0
  0
VERTEX
  5
2F7
100
AcDbEntity
  8
0
  6
CONTINUOUS
 62
     7
100
AcDbVertex
100
AcDb2dVertex
 10
7211.984903
 20
-19644.289546
 30
0.0
  0
VERTEX
  5
2F8
100
AcDbEntity
  8
0
  6
CONTINUOUS
 62
     7
100
AcDbVertex
100
AcDb2dVertex
 10
7211.896955
 20
-19644.357564
 30
0.0
  0
VERTEX
  5
2F9
100
AcDbEntity
  8
0
  6
CONTINUOUS
 62
     7
100
AcDbVertex
100
AcDb2dVertex
 10
7211.808947
 20
-19644.42559
 30
0.0
  0
VERTEX
  5
2FA
100
AcDbEntity
  8
0
  6
CONTINUOUS
 62
     7
100
AcDbVertex
100
AcDb2dVertex
 10
7211.720968
 20
-19644.493616
 30
0.0
  0
VERTEX
  5
2FB
100
AcDbEntity
  8
0
  6
CONTINUOUS
 62
     7
100
AcDbVertex
100
AcDb2dVertex
 10
7211.63302
 20
-19644.561634
 30
0.0
  0
VERTEX
  5
2FC
100
AcDbEntity
  8
0
  6
CONTINUOUS
 62
     7
100
AcDbVertex
100
AcDb2dVertex
 10
7211.545072
 20
-19644.629623
 30
0.0
  0
VERTEX
  5
2FD
100
AcDbEntity
  8
0
  6
CONTINUOUS
 62
     7
100
AcDbVertex
100
AcDb2dVertex
 10
7211.457183
 20
-19644.697581
 30
0.0
  0
SEQEND
  5
2FE
100
AcDbEntity
  8
0
  6
CONTINUOUS
 62
     7
  0
POLYLINE
  5
2FF
100
AcDbEntity
  8
0
  6
CONTINUOUS
 62
     7
100
AcDb2dPolyline
 66
     1
 10
0.0
 20
0.0
 30
0.0
 70
   128
  0
VERTEX
  5
300
100
AcDbEntity
  8
0
  6
CONTINUOUS
 62
     7
100
AcDbVertex
100
AcDb2dVertex
 10
7211.128197
 20
-19642.663031
 30
0.0
  0
VERTEX
  5
301
100
AcDbEntity
  8
0
  6
CONTINUOUS
 62
     7
100
AcDbVertex
100
AcDb2dVertex
 10
7211.258957
 20
-19642.851785
 30
0.0
  0
VERTEX
  5
302
100
AcDbEntity
  8
0
  6
CONTINUOUS
 62
     7
100
AcDbVertex
100
AcDb2dVertex
 10
7211.389388
 20
-19643.040106
 30
0.0
  0
VERTEX
  5
303
100
AcDbEntity
  8
0
  6
CONTINUOUS
 62
     7
100
AcDbVertex
100
AcDb2dVertex
 10
7211.519462
 20
-19643.227868
 30
0.0
  0
VERTEX
  5
304
100
AcDbEntity
  8
0
  6
CONTINUOUS
 62
     7
100
AcDbVertex
100
AcDb2dVertex
 10
7211.64903
 20
-19643.41493
 30
0.0
  0
VERTEX
  5
305
100
AcDbEntity
  8
0
  6
CONTINUOUS
 62
     7
100
AcDbVertex
100
AcDb2dVertex
 10
7211.77806
 20
-19643.601164
 30
0.0
  0
VERTEX
  5
306
100
AcDbEntity
  8
0
  6
CONTINUOUS
 62
     7
100
AcDbVertex
100
AcDb2dVertex
 10
7211.906405
 20
-19643.786444
 30
0.0
  0
VERTEX
  5
307
100
AcDbEntity
  8
0
  6
CONTINUOUS
 62
     7
100
AcDbVertex
100
AcDb2dVertex
 10
7212.033975
 20
-19643.970629
 30
0.0
  0
VERTEX
  5
308
100
AcDbEntity
  8
0
  6
CONTINUOUS
 62
     7
100
AcDbVertex
100
AcDb2dVertex
 10
7212.16074
 20
-19644.153599
 30
0.0
  0
SEQEND
  5
309
100
AcDbEntity
  8
0
  6
CONTINUOUS
 62
     7
  0
POLYLINE
  5
30A
100
AcDbEntity
  8
0
  6
CONTINUOUS
 62
     7
100
AcDb2dPolyline
 66
     1
 10
0.0
 20
0.0
 30
0.0
 70
   128
  0
VERTEX
  5
30B
100
AcDbEntity
  8
0
  6
CONTINUOUS
 62
     7
100
AcDbVertex
100
AcDb2dVertex
 10
7211.958697
 20
-19640.776793
 30
0.0
  0
VERTEX
  5
30C
100
AcDbEntity
  8
0
  6
CONTINUOUS
 62
     7
100
AcDbVertex
100
AcDb2dVertex
 10
7212.026641
 20
-19640.864682
 30
0.0
  0
VERTEX
  5
30D
100
AcDbEntity
  8
0
  6
CONTINUOUS
 62
     7
100
AcDbVertex
100
AcDb2dVertex
 10
7212.094644
 20
-19640.952615
 30
0.0
  0
VERTEX
  5
30E
100
AcDbEntity
  8
0
  6
CONTINUOUS
 62
     7
100
AcDbVertex
100
AcDb2dVertex
 10
7212.162648
 20
-19641.040586
 30
0.0
  0
VERTEX
  5
30F
100
AcDbEntity
  8
0
  6
CONTINUOUS
 62
     7
100
AcDbVertex
100
AcDb2dVertex
 10
7212.230681
 20
-19641.128564
 30
0.0
  0
VERTEX
  5
310
100
AcDbEntity
  8
0
  6
CONTINUOUS
 62
     7
100
AcDbVertex
100
AcDb2dVertex
 10
7212.298714
 20
-19641.21655
 30
0.0
  0
VERTEX
  5
311
100
AcDbEntity
  8
0
  6
CONTINUOUS
 62
     7
100
AcDbVertex
100
AcDb2dVertex
 10
7212.366718
 20
-19641.304513
 30
0.0
  0
VERTEX
  5
312
100
AcDbEntity
  8
0
  6
CONTINUOUS
 62
     7
100
AcDbVertex
100
AcDb2dVertex
 10
7212.434721
 20
-19641.392446
 30
0.0
  0
VERTEX
  5
313
100
AcDbEntity
  8
0
  6
CONTINUOUS
 62
     7
100
AcDbVertex
100
AcDb2dVertex
 10
7212.502665
 20
-19641.480335
 30
0.0
  0
SEQEND
  5
314
100
AcDbEntity
  8
0
  6
CONTINUOUS
 62
     7
  0
POLYLINE
  5
315
100
AcDbEntity
  8
0
  6
CONTINUOUS
 62
     7
100
AcDb2dPolyline
 66
     1
 10
0.0
 20
0.0
 30
0.0
 70
   128
  0
VERTEX
  5
316
100
AcDbEntity
  8
0
  6
CONTINUOUS
 62
     7
100
AcDbVertex
100
AcDb2dVertex
 10
7212.502665
 20
-19641.480335
 30
0.0
  0
VERTEX
  5
317
100
AcDbEntity
  8
0
  6
CONTINUOUS
 62
     7
100
AcDbVertex
100
AcDb2dVertex
 10
7212.333953
 20
-19641.625517
 30
0.0
  0
VERTEX
  5
318
100
AcDbEntity
  8
0
  6
CONTINUOUS
 62
     7
100
AcDbVertex
100
AcDb2dVertex
 10
7212.164109
 20
-19641.77166
 30
0.0
  0
VERTEX
  5
319
100
AcDbEntity
  8
0
  6
CONTINUOUS
 62
     7
100
AcDbVertex
100
AcDb2dVertex
 10
7211.99325
 20
-19641.918668
 30
0.0
  0
VERTEX
  5
31A
100
AcDbEntity
  8
0
  6
CONTINUOUS
 62
     7
100
AcDbVertex
100
AcDb2dVertex
 10
7211.821528
 20
-19642.066436
 30
0.0
  0
VERTEX
  5
31B
100
AcDbEntity
  8
0
  6
CONTINUOUS
 62
     7
100
AcDbVertex
100
AcDb2dVertex
 10
7211.64903
 20
-19642.214867
 30
0.0
  0
VERTEX
  5
31C
100
AcDbEntity
  8
0
  6
CONTINUOUS
 62
     7
100
AcDbVertex
100
AcDb2dVertex
 10
7211.475906
 20
-19642.363843
 30
0.0
  0
VERTEX
  5
31D
100
AcDbEntity
  8
0
  6
CONTINUOUS
 62
     7
100
AcDbVertex
100
AcDb2dVertex
 10
7211.302245
 20
-19642.513266
 30
0.0
  0
VERTEX
  5
31E
100
AcDbEntity
  8
0
  6
CONTINUOUS
 62
     7
100
AcDbVertex
100
AcDb2dVertex
 10
7211.128197
 20
-19642.663031
 30
0.0
  0
SEQEND
  5
31F
100
AcDbEntity
  8
0
  6
CONTINUOUS
 62
     7
  0
LINE
  5
320
100
AcDbEntity
  8
0
  6
CONTINUOUS
 62
     7
100
AcDbLine
 10
7209.687723
 20
-19641.203521
 30
0.0
 11
7209.258117
 21
-19640.704251
 31
0.0
  0
LINE
  5
321
100
AcDbEntity
  8
0
  6
CONTINUOUS
 62
     7
100
AcDbLine
 10
7209.258117
 20
-19640.704251
 30
0.0
 11
7209.285426
 21
-19640.434861
 31
0.0
  0
LINE
  5
322
100
AcDbEntity
  8
0
  6
CONTINUOUS
 62
     7
100
AcDbLine
 10
7210.212938
 20
-19641.81389
 30
0.0
 11
7210.246448
 21
-19641.551737
 31
0.0
  0
LINE
  5
323
100
AcDbEntity
  8
0
  6
CONTINUOUS
 62
     7
100
AcDbLine
 10
7210.212938
 20
-19641.81389
 30
0.0
 11
7209.687723
 21
-19641.203521
 31
0.0
  0
LINE
  5
324
100
AcDbEntity
  8
0
  6
CONTINUOUS
 62
     7
100
AcDbLine
 10
7209.258117
 20
-19640.704251
 30
0.0
 11
7208.849471
 21
-19641.020216
 31
0.0
  0
LINE
  5
325
100
AcDbEntity
  8
0
  6
CONTINUOUS
 62
     7
100
AcDbLine
 10
7208.849471
 20
-19641.020216
 30
0.0
 11
7208.581869
 21
-19640.978843
 31
0.0
  0
LINE
  5
326
100
AcDbEntity
  8
0
  6
CONTINUOUS
 62
     7
100
AcDbLine
 10
7211.917317
 20
-19641.04438
 30
0.0
 11
7211.958697
 21
-19640.776793
 31
0.0
  0
LINE
  5
327
100
AcDbEntity
  8
0
  6
CONTINUOUS
 62
     7
100
AcDbLine
 10
7211.375883
 20
-19641.419449
 30
0.0
 11
7211.917317
 21
-19641.04438
 31
0.0
  0
LINE
  5
328
100
AcDbEntity
  8
0
  6
CONTINUOUS
 62
     7
100
AcDbLine
 10
7210.713945
 20
-19641.877973
 30
0.0
 11
7211.375883
 21
-19641.419449
 31
0.0
  0
LINE
  5
329
100
AcDbEntity
  8
0
  6
CONTINUOUS
 62
     7
100
AcDbLine
 10
7210.747485
 20
-19641.61582
 30
0.0
 11
7210.713945
 21
-19641.877973
 31
0.0
  0
LINE
  5
32A
100
AcDbEntity
  8
0
  6
CONTINUOUS
 62
     7
100
AcDbLine
 10
7211.123635
 20
-19642.407847
 30
0.0
 11
7211.385781
 21
-19642.441379
 31
0.0
  0
LINE
  5
32B
100
AcDbEntity
  8
0
  6
CONTINUOUS
 62
     7
100
AcDbLine
 10
7211.321713
 20
-19642.942386
 30
0.0
 11
7211.059537
 21
-19642.908862
 31
0.0
  0
ARC
  5
32C
100
AcDbEntity
  8
0
  6
CONTINUOUS
 62
     7
100
AcDbCircle
 10
7211.368444
 20
-19642.693774
 30
0.0
 40
0.376412
100
AcDbArc
 50
130.569874
 51
214.848925
  0
LINE
  5
32D
100
AcDbEntity
  8
0
  6
CONTINUOUS
 62
     7
100
AcDbLine
 10
7212.233275
 20
-19641.453026
 30
0.0
 11
7212.502665
 21
-19641.480335
 31
0.0
  0
LINE
  5
32E
100
AcDbEntity
  8
0
  6
CONTINUOUS
 62
     7
100
AcDbLine
 10
7211.917317
 20
-19641.04438
 30
0.0
 11
7212.233275
 21
-19641.453026
 31
0.0
  0
ARC
  5
32F
100
AcDbEntity
  8
0
  6
CONTINUOUS
 62
     7
100
AcDbCircle
 10
7210.498846
 20
-19641.569134
 30
0.0
 40
0.376363
100
AcDbArc
 50
220.565682
 51
304.856258
  0
LINE
  5
330
100
AcDbEntity
  8
0
  6
CONTINUOUS
 62
     7
100
AcDbLine
 10
7212.233275
 20
-19641.453026
 30
0.0
 11
7211.733997
 21
-19641.882639
 31
0.0
  0
LINE
  5
331
100
AcDbEntity
  8
0
  6
CONTINUOUS
 62
     7
100
AcDbLine
 10
7211.733997
 20
-19641.882639
 30
0.0
 11
7211.123635
 21
-19642.407847
 31
0.0
  0
LINE
  5
332
100
AcDbEntity
  8
0
  6
CONTINUOUS
 62
     7
100
AcDbLine
 10
7208.826783
 20
-19644.089978
 30
0.0
 11
7208.783912
 21
-19644.355649
 31
0.0
  0
LINE
  5
333
100
AcDbEntity
  8
0
  6
CONTINUOUS
 62
     7
100
AcDbLine
 10
7208.826783
 20
-19644.089978
 30
0.0
 11
7209.375372
 21
-19643.72049
 31
0.0
  0
LINE
  5
334
100
AcDbEntity
  8
0
  6
CONTINUOUS
 62
     7
100
AcDbLine
 10
7209.375372
 20
-19643.72049
 30
0.0
 11
7210.046909
 21
-19643.26816
 31
0.0
  0
LINE
  5
335
100
AcDbEntity
  8
0
  6
CONTINUOUS
 62
     7
100
AcDbLine
 10
7210.011879
 20
-19643.528562
 30
0.0
 11
7210.046909
 21
-19643.26816
 31
0.0
  0
LINE
  5
336
100
AcDbEntity
  8
0
  6
CONTINUOUS
 62
     7
100
AcDbLine
 10
7211.484492
 20
-19644.428191
 30
0.0
 11
7211.054887
 21
-19643.928921
 31
0.0
  0
LINE
  5
337
100
AcDbEntity
  8
0
  6
CONTINUOUS
 62
     7
100
AcDbLine
 10
7211.484492
 20
-19644.428191
 30
0.0
 11
7211.457183
 21
-19644.697581
 31
0.0
  0
LINE
  5
338
100
AcDbEntity
  8
0
  6
CONTINUOUS
 62
     7
100
AcDbLine
 10
7210.543862
 20
-19643.335031
 30
0.0
 11
7210.508832
 21
-19643.595432
 31
0.0
  0
LINE
  5
339
100
AcDbEntity
  8
0
  6
CONTINUOUS
 62
     7
100
AcDbLine
 10
7211.054887
 20
-19643.928921
 30
0.0
 11
7210.543862
 21
-19643.335031
 31
0.0
  0
ARC
  5
33A
100
AcDbEntity
  8
0
  6
CONTINUOUS
 62
     7
100
AcDbCircle
 10
7210.25794
 20
-19643.57988
 30
0.0
 40
0.376434
100
AcDbArc
 50
40.575024
 51
124.09747
  0
LINE
  5
33B
100
AcDbEntity
  8
0
  6
CONTINUOUS
 62
     7
100
AcDbLine
 10
7208.849471
 20
-19641.020216
 30
0.0
 11
7209.224518
 21
-19641.561657
 31
0.0
  0
LINE
  5
33C
100
AcDbEntity
  8
0
  6
CONTINUOUS
 62
     7
100
AcDbLine
 10
7209.224518
 20
-19641.561657
 30
0.0
 11
7209.67067
 21
-19642.205715
 31
0.0
  0
LINE
  5
33D
100
AcDbEntity
  8
0
  6
CONTINUOUS
 62
     7
100
AcDbLine
 10
7209.409836
 20
-19642.174083
 30
0.0
 11
7209.67067
 21
-19642.205715
 31
0.0
  0
CIRCLE
  5
33E
100
AcDbEntity
  8
0
  6
CONTINUOUS
 62
     7
100
AcDbCircle
 10
7210.371313
 20
-19642.566227
 30
0.0
 40
5.399432
  0
LINE
  5
33F
100
AcDbEntity
  8
0
  6
CONTINUOUS
 62
     7
100
AcDbLine
 10
7209.610328
 20
-19642.703487
 30
0.0
 11
7209.349464
 21
-19642.671856
 31
0.0
  0
ARC
  5
340
100
AcDbEntity
  8
0
  6
CONTINUOUS
 62
     7
100
AcDbCircle
 10
7209.361755
 20
-19642.420811
 30
0.0
 40
0.376424
100
AcDbArc
 50
311.326983
 51
34.849333
  0
LINE
  5
341
100
AcDbEntity
  8
0
  6
CONTINUOUS
 62
     7
100
AcDbLine
 10
7211.893138
 20
-19644.112226
 30
0.0
 11
7212.16074
 21
-19644.153599
 31
0.0
  0
LINE
  5
342
100
AcDbEntity
  8
0
  6
CONTINUOUS
 62
     7
100
AcDbLine
 10
7211.518091
 20
-19643.570785
 30
0.0
 11
7211.893138
 21
-19644.112226
 31
0.0
  0
LINE
  5
343
100
AcDbEntity
  8
0
  6
CONTINUOUS
 62
     7
100
AcDbLine
 10
7211.059537
 20
-19642.908862
 30
0.0
 11
7211.518091
 21
-19643.570785
 31
0.0
  0
LINE
  5
344
100
AcDbEntity
  8
0
  6
CONTINUOUS
 62
     7
100
AcDbLine
 10
7211.893138
 20
-19644.112226
 30
0.0
 11
7211.484492
 21
-19644.428191
 31
0.0
  0
LINE
  5
345
100
AcDbEntity
  8
0
  6
CONTINUOUS
 62
     7
100
AcDbLine
 10
7209.003514
 20
-19643.239577
 30
0.0
 11
7208.507844
 21
-19643.677493
 31
0.0
  0
LINE
  5
346
100
AcDbEntity
  8
0
  6
CONTINUOUS
 62
     7
100
AcDbLine
 10
7208.507844
 20
-19643.677493
 30
0.0
 11
7208.239944
 21
-19643.652107
 31
0.0
  0
LINE
  5
347
100
AcDbEntity
  8
0
  6
CONTINUOUS
 62
     7
100
AcDbLine
 10
7209.610328
 20
-19642.703487
 30
0.0
 11
7209.003514
 21
-19643.239577
 31
0.0
  0
LINE
  5
348
100
AcDbEntity
  8
0
  6
CONTINUOUS
 62
     7
100
AcDbLine
 10
7208.507844
 20
-19643.677493
 30
0.0
 11
7208.826783
 21
-19644.089978
 31
0.0
  0
ARC
  5
349
100
AcDbEntity
  8
0
  6
CONTINUOUS
 62
     7
100
AcDbCircle
 10
7210.371607
 20
-19642.565935
 30
0.0
 40
1.524139
100
AcDbArc
 50
26.63569
 51
48.782908
  0
ARC
  5
34A
100
AcDbEntity
  8
0
  6
CONTINUOUS
 62
     7
100
AcDbCircle
 10
7210.371655
 20
-19642.56672
 30
0.0
 40
1.525147
100
AcDbArc
 50
116.643454
 51
138.776821
  0
ARC
  5
34B
100
AcDbEntity
  8
0
  6
CONTINUOUS
 62
     7
100
AcDbCircle
 10
7210.370991
 20
-19642.566424
 30
0.0
 40
1.524181
100
AcDbArc
 50
206.209159
 51
229.215503
  0
ARC
  5
34C
100
AcDbEntity
  8
0
  6
CONTINUOUS
 62
     7
100
AcDbCircle
 10
7210.370954
 20
-19642.565722
 30
0.0
 40
1.525147
100
AcDbArc
 50
296.643454
 51
318.776821
  0
CIRCLE
  5
34D
100
AcDbEntity
  8
0
  6
CONTINUOUS
 62
     7
100
AcDbCircle
 10
7375.570654
 20
-19807.742577
 30
0.0
 40
3.557276
  0
POLYLINE
  5
34E
100
AcDbEntity
  8
0
  6
CONTINUOUS
 62
     7
100
AcDb2dPolyline
 66
     1
 10
0.0
 20
0.0
 30
0.0
 70
   128
  0
VERTEX
  5
34F
100
AcDbEntity
  8
0
  6
CONTINUOUS
 62
     7
100
AcDbVertex
100
AcDb2dVertex
 10
7375.039265
 20
-19807.194977
 30
0.0
  0
VERTEX
  5
350
100
AcDbEntity
  8
0
  6
CONTINUOUS
 62
     7
100
AcDbVertex
100
AcDb2dVertex
 10
7375.054723
 20
-19806.965894
 30
0.0
  0
VERTEX
  5
351
100
AcDbEntity
  8
0
  6
CONTINUOUS
 62
     7
100
AcDbVertex
100
AcDb2dVertex
 10
7375.070151
 20
-19806.737318
 30
0.0
  0
VERTEX
  5
352
100
AcDbEntity
  8
0
  6
CONTINUOUS
 62
     7
100
AcDbVertex
100
AcDb2dVertex
 10
7375.085519
 20
-19806.509427
 30
0.0
  0
VERTEX
  5
353
100
AcDbEntity
  8
0
  6
CONTINUOUS
 62
     7
100
AcDbVertex
100
AcDb2dVertex
 10
7375.100843
 20
-19806.282371
 30
0.0
  0
VERTEX
  5
354
100
AcDbEntity
  8
0
  6
CONTINUOUS
 62
     7
100
AcDbVertex
100
AcDb2dVertex
 10
7375.116108
 20
-19806.056329
 30
0.0
  0
VERTEX
  5
355
100
AcDbEntity
  8
0
  6
CONTINUOUS
 62
     7
100
AcDbVertex
100
AcDb2dVertex
 10
7375.131267
 20
-19805.83145
 30
0.0
  0
VERTEX
  5
356
100
AcDbEntity
  8
0
  6
CONTINUOUS
 62
     7
100
AcDbVertex
100
AcDb2dVertex
 10
7375.146353
 20
-19805.607912
 30
0.0
  0
VERTEX
  5
357
100
AcDbEntity
  8
0
  6
CONTINUOUS
 62
     7
100
AcDbVertex
100
AcDb2dVertex
 10
7375.161349
 20
-19805.385835
 30
0.0
  0
SEQEND
  5
358
100
AcDbEntity
  8
0
  6
CONTINUOUS
 62
     7
  0
POLYLINE
  5
359
100
AcDbEntity
  8
0
  6
CONTINUOUS
 62
     7
100
AcDb2dPolyline
 66
     1
 10
0.0
 20
0.0
 30
0.0
 70
   128
  0
VERTEX
  5
35A
100
AcDbEntity
  8
0
  6
CONTINUOUS
 62
     7
100
AcDbVertex
100
AcDb2dVertex
 10
7375.039265
 20
-19807.194977
 30
0.0
  0
VERTEX
  5
35B
100
AcDbEntity
  8
0
  6
CONTINUOUS
 62
     7
100
AcDbVertex
100
AcDb2dVertex
 10
7374.809809
 20
-19807.203563
 30
0.0
  0
VERTEX
  5
35C
100
AcDbEntity
  8
0
  6
CONTINUOUS
 62
     7
100
AcDbVertex
100
AcDb2dVertex
 10
7374.580875
 20
-19807.212119
 30
0.0
  0
VERTEX
  5
35D
100
AcDbEntity
  8
0
  6
CONTINUOUS
 62
     7
100
AcDbVertex
100
AcDb2dVertex
 10
7374.352627
 20
-19807.220646
 30
0.0
  0
VERTEX
  5
35E
100
AcDbEntity
  8
0
  6
CONTINUOUS
 62
     7
100
AcDbVertex
100
AcDb2dVertex
 10
7374.125228
 20
-19807.229143
 30
0.0
  0
VERTEX
  5
35F
100
AcDbEntity
  8
0
  6
CONTINUOUS
 62
     7
100
AcDbVertex
100
AcDb2dVertex
 10
7373.898828
 20
-19807.23758
 30
0.0
  0
VERTEX
  5
360
100
AcDbEntity
  8
0
  6
CONTINUOUS
 62
     7
100
AcDbVertex
100
AcDb2dVertex
 10
7373.673591
 20
-19807.246017
 30
0.0
  0
VERTEX
  5
361
100
AcDbEntity
  8
0
  6
CONTINUOUS
 62
     7
100
AcDbVertex
100
AcDb2dVertex
 10
7373.449681
 20
-19807.254364
 30
0.0
  0
VERTEX
  5
362
100
AcDbEntity
  8
0
  6
CONTINUOUS
 62
     7
100
AcDbVertex
100
AcDb2dVertex
 10
7373.227261
 20
-19807.262682
 30
0.0
  0
SEQEND
  5
363
100
AcDbEntity
  8
0
  6
CONTINUOUS
 62
     7
  0
POLYLINE
  5
364
100
AcDbEntity
  8
0
  6
CONTINUOUS
 62
     7
100
AcDb2dPolyline
 66
     1
 10
0.0
 20
0.0
 30
0.0
 70
   128
  0
VERTEX
  5
365
100
AcDbEntity
  8
0
  6
CONTINUOUS
 62
     7
100
AcDbVertex
100
AcDb2dVertex
 10
7373.227261
 20
-19807.262682
 30
0.0
  0
VERTEX
  5
366
100
AcDbEntity
  8
0
  6
CONTINUOUS
 62
     7
100
AcDbVertex
100
AcDb2dVertex
 10
7373.225591
 20
-19807.373765
 30
0.0
  0
VERTEX
  5
367
100
AcDbEntity
  8
0
  6
CONTINUOUS
 62
     7
100
AcDbVertex
100
AcDb2dVertex
 10
7373.223922
 20
-19807.484908
 30
0.0
  0
VERTEX
  5
368
100
AcDbEntity
  8
0
  6
CONTINUOUS
 62
     7
100
AcDbVertex
100
AcDb2dVertex
 10
7373.222252
 20
-19807.596081
 30
0.0
  0
VERTEX
  5
369
100
AcDbEntity
  8
0
  6
CONTINUOUS
 62
     7
100
AcDbVertex
100
AcDb2dVertex
 10
7373.220583
 20
-19807.707283
 30
0.0
  0
VERTEX
  5
36A
100
AcDbEntity
  8
0
  6
CONTINUOUS
 62
     7
100
AcDbVertex
100
AcDb2dVertex
 10
7373.218913
 20
-19807.818486
 30
0.0
  0
VERTEX
  5
36B
100
AcDbEntity
  8
0
  6
CONTINUOUS
 62
     7
100
AcDbVertex
100
AcDb2dVertex
 10
7373.217244
 20
-19807.929658
 30
0.0
  0
VERTEX
  5
36C
100
AcDbEntity
  8
0
  6
CONTINUOUS
 62
     7
100
AcDbVertex
100
AcDb2dVertex
 10
7373.215574
 20
-19808.040801
 30
0.0
  0
VERTEX
  5
36D
100
AcDbEntity
  8
0
  6
CONTINUOUS
 62
     7
100
AcDbVertex
100
AcDb2dVertex
 10
7373.213905
 20
-19808.151884
 30
0.0
  0
SEQEND
  5
36E
100
AcDbEntity
  8
0
  6
CONTINUOUS
 62
     7
  0
POLYLINE
  5
36F
100
AcDbEntity
  8
0
  6
CONTINUOUS
 62
     7
100
AcDb2dPolyline
 66
     1
 10
0.0
 20
0.0
 30
0.0
 70
   128
  0
VERTEX
  5
370
100
AcDbEntity
  8
0
  6
CONTINUOUS
 62
     7
100
AcDbVertex
100
AcDb2dVertex
 10
7373.213905
 20
-19808.151884
 30
0.0
  0
VERTEX
  5
371
100
AcDbEntity
  8
0
  6
CONTINUOUS
 62
     7
100
AcDbVertex
100
AcDb2dVertex
 10
7373.43309
 20
-19808.166672
 30
0.0
  0
VERTEX
  5
372
100
AcDbEntity
  8
0
  6
CONTINUOUS
 62
     7
100
AcDbVertex
100
AcDb2dVertex
 10
7373.653721
 20
-19808.181578
 30
0.0
  0
VERTEX
  5
373
100
AcDbEntity
  8
0
  6
CONTINUOUS
 62
     7
100
AcDbVertex
100
AcDb2dVertex
 10
7373.875634
 20
-19808.196544
 30
0.0
  0
VERTEX
  5
374
100
AcDbEntity
  8
0
  6
CONTINUOUS
 62
     7
100
AcDbVertex
100
AcDb2dVertex
 10
7374.098695
 20
-19808.2116
 30
0.0
  0
VERTEX
  5
375
100
AcDbEntity
  8
0
  6
CONTINUOUS
 62
     7
100
AcDbVertex
100
AcDb2dVertex
 10
7374.322739
 20
-19808.226715
 30
0.0
  0
VERTEX
  5
376
100
AcDbEntity
  8
0
  6
CONTINUOUS
 62
     7
100
AcDbVertex
100
AcDb2dVertex
 10
7374.547619
 20
-19808.24189
 30
0.0
  0
VERTEX
  5
377
100
AcDbEntity
  8
0
  6
CONTINUOUS
 62
     7
100
AcDbVertex
100
AcDb2dVertex
 10
7374.773169
 20
-19808.257124
 30
0.0
  0
VERTEX
  5
378
100
AcDbEntity
  8
0
  6
CONTINUOUS
 62
     7
100
AcDbVertex
100
AcDb2dVertex
 10
7374.999241
 20
-19808.272359
 30
0.0
  0
SEQEND
  5
379
100
AcDbEntity
  8
0
  6
CONTINUOUS
 62
     7
  0
POLYLINE
  5
37A
100
AcDbEntity
  8
0
  6
CONTINUOUS
 62
     7
100
AcDb2dPolyline
 66
     1
 10
0.0
 20
0.0
 30
0.0
 70
   128
  0
VERTEX
  5
37B
100
AcDbEntity
  8
0
  6
CONTINUOUS
 62
     7
100
AcDbVertex
100
AcDb2dVertex
 10
7374.999241
 20
-19808.272359
 30
0.0
  0
VERTEX
  5
37C
100
AcDbEntity
  8
0
  6
CONTINUOUS
 62
     7
100
AcDbVertex
100
AcDb2dVertex
 10
7375.010838
 20
-19808.502008
 30
0.0
  0
VERTEX
  5
37D
100
AcDbEntity
  8
0
  6
CONTINUOUS
 62
     7
100
AcDbVertex
100
AcDb2dVertex
 10
7375.02239
 20
-19808.731121
 30
0.0
  0
VERTEX
  5
37E
100
AcDbEntity
  8
0
  6
CONTINUOUS
 62
     7
100
AcDbVertex
100
AcDb2dVertex
 10
7375.033928
 20
-19808.959578
 30
0.0
  0
VERTEX
  5
37F
100
AcDbEntity
  8
0
  6
CONTINUOUS
 62
     7
100
AcDbVertex
100
AcDb2dVertex
 10
7375.045406
 20
-19809.18717
 30
0.0
  0
VERTEX
  5
380
100
AcDbEntity
  8
0
  6
CONTINUOUS
 62
     7
100
AcDbVertex
100
AcDb2dVertex
 10
7375.056839
 20
-19809.413779
 30
0.0
  0
VERTEX
  5
381
100
AcDbEntity
  8
0
  6
CONTINUOUS
 62
     7
100
AcDbVertex
100
AcDb2dVertex
 10
7375.068213
 20
-19809.639225
 30
0.0
  0
VERTEX
  5
382
100
AcDbEntity
  8
0
  6
CONTINUOUS
 62
     7
100
AcDbVertex
100
AcDb2dVertex
 10
7375.079527
 20
-19809.863329
 30
0.0
  0
VERTEX
  5
383
100
AcDbEntity
  8
0
  6
CONTINUOUS
 62
     7
100
AcDbVertex
100
AcDb2dVertex
 10
7375.090752
 20
-19810.085972
 30
0.0
  0
SEQEND
  5
384
100
AcDbEntity
  8
0
  6
CONTINUOUS
 62
     7
  0
POLYLINE
  5
385
100
AcDbEntity
  8
0
  6
CONTINUOUS
 62
     7
100
AcDb2dPolyline
 66
     1
 10
0.0
 20
0.0
 30
0.0
 70
   128
  0
VERTEX
  5
386
100
AcDbEntity
  8
0
  6
CONTINUOUS
 62
     7
100
AcDbVertex
100
AcDb2dVertex
 10
7375.090752
 20
-19810.085972
 30
0.0
  0
VERTEX
  5
387
100
AcDbEntity
  8
0
  6
CONTINUOUS
 62
     7
100
AcDbVertex
100
AcDb2dVertex
 10
7375.201835
 20
-19810.087642
 30
0.0
  0
VERTEX
  5
388
100
AcDbEntity
  8
0
  6
CONTINUOUS
 62
     7
100
AcDbVertex
100
AcDb2dVertex
 10
7375.312978
 20
-19810.089311
 30
0.0
  0
VERTEX
  5
389
100
AcDbEntity
  8
0
  6
CONTINUOUS
 62
     7
100
AcDbVertex
100
AcDb2dVertex
 10
7375.424165
 20
-19810.090981
 30
0.0
  0
VERTEX
  5
38A
100
AcDbEntity
  8
0
  6
CONTINUOUS
 62
     7
100
AcDbVertex
100
AcDb2dVertex
 10
7375.535368
 20
-19810.09265
 30
0.0
  0
VERTEX
  5
38B
100
AcDbEntity
  8
0
  6
CONTINUOUS
 62
     7
100
AcDbVertex
100
AcDb2dVertex
 10
7375.64657
 20
-19810.09432
 30
0.0
  0
VERTEX
  5
38C
100
AcDbEntity
  8
0
  6
CONTINUOUS
 62
     7
100
AcDbVertex
100
AcDb2dVertex
 10
7375.757758
 20
-19810.095989
 30
0.0
  0
VERTEX
  5
38D
100
AcDbEntity
  8
0
  6
CONTINUOUS
 62
     7
100
AcDbVertex
100
AcDb2dVertex
 10
7375.8689
 20
-19810.097659
 30
0.0
  0
VERTEX
  5
38E
100
AcDbEntity
  8
0
  6
CONTINUOUS
 62
     7
100
AcDbVertex
100
AcDb2dVertex
 10
7375.979984
 20
-19810.099328
 30
0.0
  0
SEQEND
  5
38F
100
AcDbEntity
  8
0
  6
CONTINUOUS
 62
     7
  0
POLYLINE
  5
390
100
AcDbEntity
  8
0
  6
CONTINUOUS
 62
     7
100
AcDb2dPolyline
 66
     1
 10
0.0
 20
0.0
 30
0.0
 70
   128
  0
VERTEX
  5
391
100
AcDbEntity
  8
0
  6
CONTINUOUS
 62
     7
100
AcDbVertex
100
AcDb2dVertex
 10
7375.979984
 20
-19810.099328
 30
0.0
  0
VERTEX
  5
392
100
AcDbEntity
  8
0
  6
CONTINUOUS
 62
     7
100
AcDbVertex
100
AcDb2dVertex
 10
7375.997886
 20
-19809.877132
 30
0.0
  0
VERTEX
  5
393
100
AcDbEntity
  8
0
  6
CONTINUOUS
 62
     7
100
AcDbVertex
100
AcDb2dVertex
 10
7376.015923
 20
-19809.653445
 30
0.0
  0
VERTEX
  5
394
100
AcDbEntity
  8
0
  6
CONTINUOUS
 62
     7
100
AcDbVertex
100
AcDb2dVertex
 10
7376.034064
 20
-19809.428447
 30
0.0
  0
VERTEX
  5
395
100
AcDbEntity
  8
0
  6
CONTINUOUS
 62
     7
100
AcDbVertex
100
AcDb2dVertex
 10
7376.052295
 20
-19809.202315
 30
0.0
  0
VERTEX
  5
396
100
AcDbEntity
  8
0
  6
CONTINUOUS
 62
     7
100
AcDbVertex
100
AcDb2dVertex
 10
7376.070615
 20
-19808.97514
 30
0.0
  0
VERTEX
  5
397
100
AcDbEntity
  8
0
  6
CONTINUOUS
 62
     7
100
AcDbVertex
100
AcDb2dVertex
 10
7376.088995
 20
-19808.74716
 30
0.0
  0
VERTEX
  5
398
100
AcDbEntity
  8
0
  6
CONTINUOUS
 62
     7
100
AcDbVertex
100
AcDb2dVertex
 10
7376.107434
 20
-19808.518465
 30
0.0
  0
VERTEX
  5
399
100
AcDbEntity
  8
0
  6
CONTINUOUS
 62
     7
100
AcDbVertex
100
AcDb2dVertex
 10
7376.125903
 20
-19808.289292
 30
0.0
  0
SEQEND
  5
39A
100
AcDbEntity
  8
0
  6
CONTINUOUS
 62
     7
  0
POLYLINE
  5
39B
100
AcDbEntity
  8
0
  6
CONTINUOUS
 62
     7
100
AcDb2dPolyline
 66
     1
 10
0.0
 20
0.0
 30
0.0
 70
   128
  0
VERTEX
  5
39C
100
AcDbEntity
  8
0
  6
CONTINUOUS
 62
     7
100
AcDbVertex
100
AcDb2dVertex
 10
7377.914057
 20
-19808.222482
 30
0.0
  0
VERTEX
  5
39D
100
AcDbEntity
  8
0
  6
CONTINUOUS
 62
     7
100
AcDbVertex
100
AcDb2dVertex
 10
7377.694529
 20
-19808.23068
 30
0.0
  0
VERTEX
  5
39E
100
AcDbEntity
  8
0
  6
CONTINUOUS
 62
     7
100
AcDbVertex
100
AcDb2dVertex
 10
7377.473555
 20
-19808.238938
 30
0.0
  0
VERTEX
  5
39F
100
AcDbEntity
  8
0
  6
CONTINUOUS
 62
     7
100
AcDbVertex
100
AcDb2dVertex
 10
7377.251284
 20
-19808.247256
 30
0.0
  0
VERTEX
  5
3A0
100
AcDbEntity
  8
0
  6
CONTINUOUS
 62
     7
100
AcDbVertex
100
AcDb2dVertex
 10
7377.02788
 20
-19808.255604
 30
0.0
  0
VERTEX
  5
3A1
100
AcDbEntity
  8
0
  6
CONTINUOUS
 62
     7
100
AcDbVertex
100
AcDb2dVertex
 10
7376.803478
 20
-19808.263981
 30
0.0
  0
VERTEX
  5
3A2
100
AcDbEntity
  8
0
  6
CONTINUOUS
 62
     7
100
AcDbVertex
100
AcDb2dVertex
 10
7376.578256
 20
-19808.272388
 30
0.0
  0
VERTEX
  5
3A3
100
AcDbEntity
  8
0
  6
CONTINUOUS
 62
     7
100
AcDbVertex
100
AcDb2dVertex
 10
7376.352348
 20
-19808.280826
 30
0.0
  0
VERTEX
  5
3A4
100
AcDbEntity
  8
0
  6
CONTINUOUS
 62
     7
100
AcDbVertex
100
AcDb2dVertex
 10
7376.125903
 20
-19808.289292
 30
0.0
  0
SEQEND
  5
3A5
100
AcDbEntity
  8
0
  6
CONTINUOUS
 62
     7
  0
POLYLINE
  5
3A6
100
AcDbEntity
  8
0
  6
CONTINUOUS
 62
     7
100
AcDb2dPolyline
 66
     1
 10
0.0
 20
0.0
 30
0.0
 70
   128
  0
VERTEX
  5
3A7
100
AcDbEntity
  8
0
  6
CONTINUOUS
 62
     7
100
AcDbVertex
100
AcDb2dVertex
 10
7377.927413
 20
-19807.333279
 30
0.0
  0
VERTEX
  5
3A8
100
AcDbEntity
  8
0
  6
CONTINUOUS
 62
     7
100
AcDbVertex
100
AcDb2dVertex
 10
7377.925743
 20
-19807.444363
 30
0.0
  0
VERTEX
  5
3A9
100
AcDbEntity
  8
0
  6
CONTINUOUS
 62
     7
100
AcDbVertex
100
AcDb2dVertex
 10
7377.924074
 20
-19807.555505
 30
0.0
  0
VERTEX
  5
3AA
100
AcDbEntity
  8
0
  6
CONTINUOUS
 62
     7
100
AcDbVertex
100
AcDb2dVertex
 10
7377.922404
 20
-19807.666678
 30
0.0
  0
VERTEX
  5
3AB
100
AcDbEntity
  8
0
  6
CONTINUOUS
 62
     7
100
AcDbVertex
100
AcDb2dVertex
 10
7377.920735
 20
-19807.77788
 30
0.0
  0
VERTEX
  5
3AC
100
AcDbEntity
  8
0
  6
CONTINUOUS
 62
     7
100
AcDbVertex
100
AcDb2dVertex
 10
7377.919065
 20
-19807.889083
 30
0.0
  0
VERTEX
  5
3AD
100
AcDbEntity
  8
0
  6
CONTINUOUS
 62
     7
100
AcDbVertex
100
AcDb2dVertex
 10
7377.917396
 20
-19808.000256
 30
0.0
  0
VERTEX
  5
3AE
100
AcDbEntity
  8
0
  6
CONTINUOUS
 62
     7
100
AcDbVertex
100
AcDb2dVertex
 10
7377.915726
 20
-19808.111398
 30
0.0
  0
VERTEX
  5
3AF
100
AcDbEntity
  8
0
  6
CONTINUOUS
 62
     7
100
AcDbVertex
100
AcDb2dVertex
 10
7377.914057
 20
-19808.222482
 30
0.0
  0
SEQEND
  5
3B0
100
AcDbEntity
  8
0
  6
CONTINUOUS
 62
     7
  0
POLYLINE
  5
3B1
100
AcDbEntity
  8
0
  6
CONTINUOUS
 62
     7
100
AcDb2dPolyline
 66
     1
 10
0.0
 20
0.0
 30
0.0
 70
   128
  0
VERTEX
  5
3B2
100
AcDbEntity
  8
0
  6
CONTINUOUS
 62
     7
100
AcDbVertex
100
AcDb2dVertex
 10
7376.118256
 20
-19807.211195
 30
0.0
  0
VERTEX
  5
3B3
100
AcDbEntity
  8
0
  6
CONTINUOUS
 62
     7
100
AcDbVertex
100
AcDb2dVertex
 10
7376.347354
 20
-19807.226638
 30
0.0
  0
VERTEX
  5
3B4
100
AcDbEntity
  8
0
  6
CONTINUOUS
 62
     7
100
AcDbVertex
100
AcDb2dVertex
 10
7376.57593
 20
-19807.242081
 30
0.0
  0
VERTEX
  5
3B5
100
AcDbEntity
  8
0
  6
CONTINUOUS
 62
     7
100
AcDbVertex
100
AcDb2dVertex
 10
7376.803821
 20
-19807.257435
 30
0.0
  0
VERTEX
  5
3B6
100
AcDbEntity
  8
0
  6
CONTINUOUS
 62
     7
100
AcDbVertex
100
AcDb2dVertex
 10
7377.030862
 20
-19807.272759
 30
0.0
  0
VERTEX
  5
3B7
100
AcDbEntity
  8
0
  6
CONTINUOUS
 62
     7
100
AcDbVertex
100
AcDb2dVertex
 10
7377.256904
 20
-19807.288023
 30
0.0
  0
VERTEX
  5
3B8
100
AcDbEntity
  8
0
  6
CONTINUOUS
 62
     7
100
AcDbVertex
100
AcDb2dVertex
 10
7377.481783
 20
-19807.303198
 30
0.0
  0
VERTEX
  5
3B9
100
AcDbEntity
  8
0
  6
CONTINUOUS
 62
     7
100
AcDbVertex
100
AcDb2dVertex
 10
7377.705336
 20
-19807.318283
 30
0.0
  0
VERTEX
  5
3BA
100
AcDbEntity
  8
0
  6
CONTINUOUS
 62
     7
100
AcDbVertex
100
AcDb2dVertex
 10
7377.927413
 20
-19807.333279
 30
0.0
  0
SEQEND
  5
3BB
100
AcDbEntity
  8
0
  6
CONTINUOUS
 62
     7
  0
POLYLINE
  5
3BC
100
AcDbEntity
  8
0
  6
CONTINUOUS
 62
     7
100
AcDb2dPolyline
 66
     1
 10
0.0
 20
0.0
 30
0.0
 70
   128
  0
VERTEX
  5
3BD
100
AcDbEntity
  8
0
  6
CONTINUOUS
 62
     7
100
AcDbVertex
100
AcDb2dVertex
 10
7376.050566
 20
-19805.399191
 30
0.0
  0
VERTEX
  5
3BE
100
AcDbEntity
  8
0
  6
CONTINUOUS
 62
     7
100
AcDbVertex
100
AcDb2dVertex
 10
7376.058869
 20
-19805.621596
 30
0.0
  0
VERTEX
  5
3BF
100
AcDbEntity
  8
0
  6
CONTINUOUS
 62
     7
100
AcDbVertex
100
AcDb2dVertex
 10
7376.067231
 20
-19805.845522
 30
0.0
  0
VERTEX
  5
3C0
100
AcDbEntity
  8
0
  6
CONTINUOUS
 62
     7
100
AcDbVertex
100
AcDb2dVertex
 10
7376.075654
 20
-19806.070759
 30
0.0
  0
VERTEX
  5
3C1
100
AcDbEntity
  8
0
  6
CONTINUOUS
 62
     7
100
AcDbVertex
100
AcDb2dVertex
 10
7376.084106
 20
-19806.297129
 30
0.0
  0
VERTEX
  5
3C2
100
AcDbEntity
  8
0
  6
CONTINUOUS
 62
     7
100
AcDbVertex
100
AcDb2dVertex
 10
7376.092602
 20
-19806.524542
 30
0.0
  0
VERTEX
  5
3C3
100
AcDbEntity
  8
0
  6
CONTINUOUS
 62
     7
100
AcDbVertex
100
AcDb2dVertex
 10
7376.101129
 20
-19806.752791
 30
0.0
  0
VERTEX
  5
3C4
100
AcDbEntity
  8
0
  6
CONTINUOUS
 62
     7
100
AcDbVertex
100
AcDb2dVertex
 10
7376.109685
 20
-19806.981725
 30
0.0
  0
VERTEX
  5
3C5
100
AcDbEntity
  8
0
  6
CONTINUOUS
 62
     7
100
AcDbVertex
100
AcDb2dVertex
 10
7376.118256
 20
-19807.211195
 30
0.0
  0
SEQEND
  5
3C6
100
AcDbEntity
  8
0
  6
CONTINUOUS
 62
     7
  0
POLYLINE
  5
3C7
100
AcDbEntity
  8
0
  6
CONTINUOUS
 62
     7
100
AcDb2dPolyline
 66
     1
 10
0.0
 20
0.0
 30
0.0
 70
   128
  0
VERTEX
  5
3C8
100
AcDbEntity
  8
0
  6
CONTINUOUS
 62
     7
100
AcDbVertex
100
AcDb2dVertex
 10
7375.161349
 20
-19805.385835
 30
0.0
  0
VERTEX
  5
3C9
100
AcDbEntity
  8
0
  6
CONTINUOUS
 62
     7
100
AcDbVertex
100
AcDb2dVertex
 10
7375.272432
 20
-19805.387505
 30
0.0
  0
VERTEX
  5
3CA
100
AcDbEntity
  8
0
  6
CONTINUOUS
 62
     7
100
AcDbVertex
100
AcDb2dVertex
 10
7375.383575
 20
-19805.389174
 30
0.0
  0
VERTEX
  5
3CB
100
AcDbEntity
  8
0
  6
CONTINUOUS
 62
     7
100
AcDbVertex
100
AcDb2dVertex
 10
7375.494747
 20
-19805.390844
 30
0.0
  0
VERTEX
  5
3CC
100
AcDbEntity
  8
0
  6
CONTINUOUS
 62
     7
100
AcDbVertex
100
AcDb2dVertex
 10
7375.60595
 20
-19805.392513
 30
0.0
  0
VERTEX
  5
3CD
100
AcDbEntity
  8
0
  6
CONTINUOUS
 62
     7
100
AcDbVertex
100
AcDb2dVertex
 10
7375.717152
 20
-19805.394183
 30
0.0
  0
VERTEX
  5
3CE
100
AcDbEntity
  8
0
  6
CONTINUOUS
 62
     7
100
AcDbVertex
100
AcDb2dVertex
 10
7375.82834
 20
-19805.395852
 30
0.0
  0
VERTEX
  5
3CF
100
AcDbEntity
  8
0
  6
CONTINUOUS
 62
     7
100
AcDbVertex
100
AcDb2dVertex
 10
7375.939483
 20
-19805.397522
 30
0.0
  0
VERTEX
  5
3D0
100
AcDbEntity
  8
0
  6
CONTINUOUS
 62
     7
100
AcDbVertex
100
AcDb2dVertex
 10
7376.050566
 20
-19805.399191
 30
0.0
  0
SEQEND
  5
3D1
100
AcDbEntity
  8
0
  6
CONTINUOUS
 62
     7
  0
LINE
  5
3D2
100
AcDbEntity
  8
0
  6
CONTINUOUS
 62
     7
100
AcDbLine
 10
7374.079048
 20
-19807.427399
 30
0.0
 11
7373.420852
 21
-19807.451995
 31
0.0
  0
LINE
  5
3D3
100
AcDbEntity
  8
0
  6
CONTINUOUS
 62
     7
100
AcDbLine
 10
7373.420852
 20
-19807.451995
 30
0.0
 11
7373.227261
 21
-19807.262682
 31
0.0
  0
LINE
  5
3D4
100
AcDbEntity
  8
0
  6
CONTINUOUS
 62
     7
100
AcDbLine
 10
7374.883715
 20
-19807.397347
 30
0.0
 11
7374.699665
 21
-19807.207677
 31
0.0
  0
LINE
  5
3D5
100
AcDbEntity
  8
0
  6
CONTINUOUS
 62
     7
100
AcDbLine
 10
7374.883715
 20
-19807.397347
 30
0.0
 11
7374.079048
 21
-19807.427399
 31
0.0
  0
LINE
  5
3D6
100
AcDbEntity
  8
0
  6
CONTINUOUS
 62
     7
100
AcDbLine
 10
7373.420852
 20
-19807.451995
 30
0.0
 11
7373.413085
 21
-19807.968475
 31
0.0
  0
LINE
  5
3D7
100
AcDbEntity
  8
0
  6
CONTINUOUS
 62
     7
100
AcDbLine
 10
7373.413085
 20
-19807.968475
 30
0.0
 11
7373.213905
 21
-19808.151884
 31
0.0
  0
LINE
  5
3D8
100
AcDbEntity
  8
0
  6
CONTINUOUS
 62
     7
100
AcDbLine
 10
7375.344758
 20
-19805.585016
 30
0.0
 11
7375.161349
 21
-19805.385835
 31
0.0
  0
LINE
  5
3D9
100
AcDbEntity
  8
0
  6
CONTINUOUS
 62
     7
100
AcDbLine
 10
7375.300411
 20
-19806.242184
 30
0.0
 11
7375.344758
 21
-19805.585016
 31
0.0
  0
LINE
  5
3DA
100
AcDbEntity
  8
0
  6
CONTINUOUS
 62
     7
100
AcDbLine
 10
7375.246197
 20
-19807.045584
 30
0.0
 11
7375.300411
 21
-19806.242184
 31
0.0
  0
LINE
  5
3DB
100
AcDbEntity
  8
0
  6
CONTINUOUS
 62
     7
100
AcDbLine
 10
7375.062146
 20
-19806.855914
 30
0.0
 11
7375.246197
 21
-19807.045584
 31
0.0
  0
LINE
  5
3DC
100
AcDbEntity
  8
0
  6
CONTINUOUS
 62
     7
100
AcDbLine
 10
7375.915901
 20
-19807.055631
 30
0.0
 11
7376.105571
 21
-19806.871595
 31
0.0
  0
LINE
  5
3DD
100
AcDbEntity
  8
0
  6
CONTINUOUS
 62
     7
100
AcDbLine
 10
7376.457319
 20
-19807.234062
 30
0.0
 11
7376.267664
 21
-19807.418127
 31
0.0
  0
ARC
  5
3DE
100
AcDbEntity
  8
0
  6
CONTINUOUS
 62
     7
100
AcDbCircle
 10
7376.292101
 20
-19807.042492
 30
0.0
 40
0.37643
100
AcDbArc
 50
182.000342
 51
266.2779
  0
LINE
  5
3DF
100
AcDbEntity
  8
0
  6
CONTINUOUS
 62
     7
100
AcDbLine
 10
7375.861253
 20
-19805.592767
 30
0.0
 11
7376.050566
 21
-19805.399191
 31
0.0
  0
LINE
  5
3E0
100
AcDbEntity
  8
0
  6
CONTINUOUS
 62
     7
100
AcDbLine
 10
7375.344758
 20
-19805.585016
 30
0.0
 11
7375.861253
 21
-19805.592767
 31
0.0
  0
ARC
  5
3E1
100
AcDbEntity
  8
0
  6
CONTINUOUS
 62
     7
100
AcDbCircle
 10
7374.870575
 20
-19807.021163
 30
0.0
 40
0.376414
100
AcDbArc
 50
272.000494
 51
356.280104
  0
LINE
  5
3E2
100
AcDbEntity
  8
0
  6
CONTINUOUS
 62
     7
100
AcDbLine
 10
7375.861253
 20
-19805.592767
 30
0.0
 11
7375.885849
 21
-19806.250978
 31
0.0
  0
LINE
  5
3E3
100
AcDbEntity
  8
0
  6
CONTINUOUS
 62
     7
100
AcDbLine
 10
7375.885849
 20
-19806.250978
 30
0.0
 11
7375.915901
 21
-19807.055631
 31
0.0
  0
LINE
  5
3E4
100
AcDbEntity
  8
0
  6
CONTINUOUS
 62
     7
100
AcDbLine
 10
7375.798989
 20
-19809.900178
 30
0.0
 11
7375.979984
 21
-19810.099328
 31
0.0
  0
LINE
  5
3E5
100
AcDbEntity
  8
0
  6
CONTINUOUS
 62
     7
100
AcDbLine
 10
7375.798989
 20
-19809.900178
 30
0.0
 11
7375.852146
 21
-19809.240923
 31
0.0
  0
LINE
  5
3E6
100
AcDbEntity
  8
0
  6
CONTINUOUS
 62
     7
100
AcDbLine
 10
7375.852146
 20
-19809.240923
 30
0.0
 11
7375.917212
 21
-19808.433856
 31
0.0
  0
LINE
  5
3E7
100
AcDbEntity
  8
0
  6
CONTINUOUS
 62
     7
100
AcDbLine
 10
7376.098952
 20
-19808.623585
 30
0.0
 11
7375.917212
 21
-19808.433856
 31
0.0
  0
LINE
  5
3E8
100
AcDbEntity
  8
0
  6
CONTINUOUS
 62
     7
100
AcDbLine
 10
7377.720481
 20
-19808.033169
 30
0.0
 11
7377.06227
 21
-19808.057765
 31
0.0
  0
LINE
  5
3E9
100
AcDbEntity
  8
0
  6
CONTINUOUS
 62
     7
100
AcDbLine
 10
7377.720481
 20
-19808.033169
 30
0.0
 11
7377.914057
 21
-19808.222482
 31
0.0
  0
LINE
  5
3EA
100
AcDbEntity
  8
0
  6
CONTINUOUS
 62
     7
100
AcDbLine
 10
7376.279321
 20
-19808.087011
 30
0.0
 11
7376.461076
 21
-19808.276771
 31
0.0
  0
LINE
  5
3EB
100
AcDbEntity
  8
0
  6
CONTINUOUS
 62
     7
100
AcDbLine
 10
7377.06227
 20
-19808.057765
 30
0.0
 11
7376.279321
 21
-19808.087011
 31
0.0
  0
ARC
  5
3EC
100
AcDbEntity
  8
0
  6
CONTINUOUS
 62
     7
100
AcDbCircle
 10
7376.292481
 20
-19808.463195
 30
0.0
 40
0.376413
100
AcDbArc
 50
92.003515
 51
175.52963
  0
LINE
  5
3ED
100
AcDbEntity
  8
0
  6
CONTINUOUS
 62
     7
100
AcDbLine
 10
7373.413085
 20
-19807.968475
 30
0.0
 11
7374.070253
 21
-19808.012837
 31
0.0
  0
LINE
  5
3EE
100
AcDbEntity
  8
0
  6
CONTINUOUS
 62
     7
100
AcDbLine
 10
7374.070253
 20
-19808.012837
 30
0.0
 11
7374.851979
 21
-19808.065576
 31
0.0
  0
LINE
  5
3EF
100
AcDbEntity
  8
0
  6
CONTINUOUS
 62
     7
100
AcDbLine
 10
7374.66462
 20
-19808.24979
 30
0.0
 11
7374.851979
 21
-19808.065576
 31
0.0
  0
CIRCLE
  5
3F0
100
AcDbEntity
  8
0
  6
CONTINUOUS
 62
     7
100
AcDbCircle
 10
7375.57067
 20
-19807.742581
 30
0.0
 40
5.399431
  0
LINE
  5
3F1
100
AcDbEntity
  8
0
  6
CONTINUOUS
 62
     7
100
AcDbLine
 10
7377.728232
 20
-19807.516689
 30
0.0
 11
7377.927413
 21
-19807.333279
 31
0.0
  0
LINE
  5
3F2
100
AcDbEntity
  8
0
  6
CONTINUOUS
 62
     7
100
AcDbLine
 10
7377.071065
 20
-19807.472327
 30
0.0
 11
7377.728232
 21
-19807.516689
 31
0.0
  0
LINE
  5
3F3
100
AcDbEntity
  8
0
  6
CONTINUOUS
 62
     7
100
AcDbLine
 10
7376.267664
 20
-19807.418127
 30
0.0
 11
7377.071065
 21
-19807.472327
 31
0.0
  0
LINE
  5
3F4
100
AcDbEntity
  8
0
  6
CONTINUOUS
 62
     7
100
AcDbLine
 10
7375.203504
 20
-19808.423123
 30
0.0
 11
7375.016145
 21
-19808.607337
 31
0.0
  0
ARC
  5
3F5
100
AcDbEntity
  8
0
  6
CONTINUOUS
 62
     7
100
AcDbCircle
 10
7374.827517
 20
-19808.441202
 30
0.0
 40
0.376422
100
AcDbArc
 50
2.75294
 51
86.273846
  0
LINE
  5
3F6
100
AcDbEntity
  8
0
  6
CONTINUOUS
 62
     7
100
AcDbLine
 10
7377.728232
 20
-19807.516689
 30
0.0
 11
7377.720481
 21
-19808.033169
 31
0.0
  0
LINE
  5
3F7
100
AcDbEntity
  8
0
  6
CONTINUOUS
 62
     7
100
AcDbLine
 10
7375.277649
 20
-19809.892367
 30
0.0
 11
7375.090752
 21
-19810.085972
 31
0.0
  0
LINE
  5
3F8
100
AcDbEntity
  8
0
  6
CONTINUOUS
 62
     7
100
AcDbLine
 10
7375.277649
 20
-19809.892367
 30
0.0
 11
7375.798989
 21
-19809.900178
 31
0.0
  0
LINE
  5
3F9
100
AcDbEntity
  8
0
  6
CONTINUOUS
 62
     7
100
AcDbLine
 10
7375.244318
 20
-19809.2318
 30
0.0
 11
7375.277649
 21
-19809.892367
 31
0.0
  0
LINE
  5
3FA
100
AcDbEntity
  8
0
  6
CONTINUOUS
 62
     7
100
AcDbLine
 10
7375.203504
 20
-19808.423123
 30
0.0
 11
7375.244318
 21
-19809.2318
 31
0.0
  0
ARC
  5
3FB
100
AcDbEntity
  8
0
  6
CONTINUOUS
 62
     7
100
AcDbCircle
 10
7375.570655
 20
-19807.742683
 30
0.0
 40
1.524641
100
AcDbArc
 50
78.069008
 51
100.209651
  0
ARC
  5
3FC
100
AcDbEntity
  8
0
  6
CONTINUOUS
 62
     7
100
AcDbCircle
 10
7375.57074
 20
-19807.742593
 30
0.0
 40
1.524629
100
AcDbArc
 50
168.068921
 51
190.209738
  0
ARC
  5
3FD
100
AcDbEntity
  8
0
  6
CONTINUOUS
 62
     7
100
AcDbCircle
 10
7375.570663
 20
-19807.741865
 30
0.0
 40
1.525257
100
AcDbArc
 50
257.645467
 51
280.634777
  0
ARC
  5
3FE
100
AcDbEntity
  8
0
  6
CONTINUOUS
 62
     7
100
AcDbCircle
 10
7375.570577
 20
-19807.742571
 30
0.0
 40
1.524629
100
AcDbArc
 50
348.068921
 51
10.209738
  0
CIRCLE
  5
3FF
100
AcDbEntity
  8
0
  6
CONTINUOUS
 62
     7
100
AcDbCircle
 10
7553.398926
 20
-19807.7302
 30
0.0
 40
3.557277
  0
POLYLINE
  5
400
100
AcDbEntity
  8
0
  6
CONTINUOUS
 62
     7
100
AcDb2dPolyline
 66
     1
 10
0.0
 20
0.0
 30
0.0
 70
   128
  0
VERTEX
  5
401
100
AcDbEntity
  8
0
  6
CONTINUOUS
 62
     7
100
AcDbVertex
100
AcDb2dVertex
 10
7552.642039
 20
-19807.633377
 30
0.0
  0
VERTEX
  5
402
100
AcDbEntity
  8
0
  6
CONTINUOUS
 62
     7
100
AcDbVertex
100
AcDb2dVertex
 10
7552.511288
 20
-19807.444631
 30
0.0
  0
VERTEX
  5
403
100
AcDbEntity
  8
0
  6
CONTINUOUS
 62
     7
100
AcDbVertex
100
AcDb2dVertex
 10
7552.380833
 20
-19807.256332
 30
0.0
  0
VERTEX
  5
404
100
AcDbEntity
  8
0
  6
CONTINUOUS
 62
     7
100
AcDbVertex
100
AcDb2dVertex
 10
7552.250769
 20
-19807.06857
 30
0.0
  0
VERTEX
  5
405
100
AcDbEntity
  8
0
  6
CONTINUOUS
 62
     7
100
AcDbVertex
100
AcDb2dVertex
 10
7552.121186
 20
-19806.881493
 30
0.0
  0
VERTEX
  5
406
100
AcDbEntity
  8
0
  6
CONTINUOUS
 62
     7
100
AcDbVertex
100
AcDb2dVertex
 10
7551.992177
 20
-19806.695252
 30
0.0
  0
VERTEX
  5
407
100
AcDbEntity
  8
0
  6
CONTINUOUS
 62
     7
100
AcDbVertex
100
AcDb2dVertex
 10
7551.863832
 20
-19806.509994
 30
0.0
  0
VERTEX
  5
408
100
AcDbEntity
  8
0
  6
CONTINUOUS
 62
     7
100
AcDbVertex
100
AcDb2dVertex
 10
7551.736242
 20
-19806.325779
 30
0.0
  0
VERTEX
  5
409
100
AcDbEntity
  8
0
  6
CONTINUOUS
 62
     7
100
AcDbVertex
100
AcDb2dVertex
 10
7551.609496
 20
-19806.142817
 30
0.0
  0
SEQEND
  5
40A
100
AcDbEntity
  8
0
  6
CONTINUOUS
 62
     7
  0
POLYLINE
  5
40B
100
AcDbEntity
  8
0
  6
CONTINUOUS
 62
     7
100
AcDb2dPolyline
 66
     1
 10
0.0
 20
0.0
 30
0.0
 70
   128
  0
VERTEX
  5
40C
100
AcDbEntity
  8
0
  6
CONTINUOUS
 62
     7
100
AcDbVertex
100
AcDb2dVertex
 10
7552.642039
 20
-19807.633377
 30
0.0
  0
VERTEX
  5
40D
100
AcDbEntity
  8
0
  6
CONTINUOUS
 62
     7
100
AcDbVertex
100
AcDb2dVertex
 10
7552.467989
 20
-19807.783157
 30
0.0
  0
VERTEX
  5
40E
100
AcDbEntity
  8
0
  6
CONTINUOUS
 62
     7
100
AcDbVertex
100
AcDb2dVertex
 10
7552.294334
 20
-19807.93258
 30
0.0
  0
VERTEX
  5
40F
100
AcDbEntity
  8
0
  6
CONTINUOUS
 62
     7
100
AcDbVertex
100
AcDb2dVertex
 10
7552.121199
 20
-19808.081556
 30
0.0
  0
VERTEX
  5
410
100
AcDbEntity
  8
0
  6
CONTINUOUS
 62
     7
100
AcDbVertex
100
AcDb2dVertex
 10
7551.948704
 20
-19808.229994
 30
0.0
  0
VERTEX
  5
411
100
AcDbEntity
  8
0
  6
CONTINUOUS
 62
     7
100
AcDbVertex
100
AcDb2dVertex
 10
7551.776973
 20
-19808.377748
 30
0.0
  0
VERTEX
  5
412
100
AcDbEntity
  8
0
  6
CONTINUOUS
 62
     7
100
AcDbVertex
100
AcDb2dVertex
 10
7551.606126
 20
-19808.524755
 30
0.0
  0
VERTEX
  5
413
100
AcDbEntity
  8
0
  6
CONTINUOUS
 62
     7
100
AcDbVertex
100
AcDb2dVertex
 10
7551.436284
 20
-19808.670899
 30
0.0
  0
VERTEX
  5
414
100
AcDbEntity
  8
0
  6
CONTINUOUS
 62
     7
100
AcDbVertex
100
AcDb2dVertex
 10
7551.267566
 20
-19808.816088
 30
0.0
  0
SEQEND
  5
415
100
AcDbEntity
  8
0
  6
CONTINUOUS
 62
     7
  0
POLYLINE
  5
416
100
AcDbEntity
  8
0
  6
CONTINUOUS
 62
     7
100
AcDb2dPolyline
 66
     1
 10
0.0
 20
0.0
 30
0.0
 70
   128
  0
VERTEX
  5
417
100
AcDbEntity
  8
0
  6
CONTINUOUS
 62
     7
100
AcDbVertex
100
AcDb2dVertex
 10
7551.267566
 20
-19808.816088
 30
0.0
  0
VERTEX
  5
418
100
AcDbEntity
  8
0
  6
CONTINUOUS
 62
     7
100
AcDbVertex
100
AcDb2dVertex
 10
7551.335521
 20
-19808.903977
 30
0.0
  0
VERTEX
  5
419
100
AcDbEntity
  8
0
  6
CONTINUOUS
 62
     7
100
AcDbVertex
100
AcDb2dVertex
 10
7551.403513
 20
-19808.991895
 30
0.0
  0
VERTEX
  5
41A
100
AcDbEntity
  8
0
  6
CONTINUOUS
 62
     7
100
AcDbVertex
100
AcDb2dVertex
 10
7551.471528
 20
-19809.079873
 30
0.0
  0
VERTEX
  5
41B
100
AcDbEntity
  8
0
  6
CONTINUOUS
 62
     7
100
AcDbVertex
100
AcDb2dVertex
 10
7551.539555
 20
-19809.167851
 30
0.0
  0
VERTEX
  5
41C
100
AcDbEntity
  8
0
  6
CONTINUOUS
 62
     7
100
AcDbVertex
100
AcDb2dVertex
 10
7551.607583
 20
-19809.25583
 30
0.0
  0
VERTEX
  5
41D
100
AcDbEntity
  8
0
  6
CONTINUOUS
 62
     7
100
AcDbVertex
100
AcDb2dVertex
 10
7551.675598
 20
-19809.343808
 30
0.0
  0
VERTEX
  5
41E
100
AcDbEntity
  8
0
  6
CONTINUOUS
 62
     7
100
AcDbVertex
100
AcDb2dVertex
 10
7551.743589
 20
-19809.431756
 30
0.0
  0
VERTEX
  5
41F
100
AcDbEntity
  8
0
  6
CONTINUOUS
 62
     7
100
AcDbVertex
100
AcDb2dVertex
 10
7551.811544
 20
-19809.519645
 30
0.0
  0
SEQEND
  5
420
100
AcDbEntity
  8
0
  6
CONTINUOUS
 62
     7
  0
POLYLINE
  5
421
100
AcDbEntity
  8
0
  6
CONTINUOUS
 62
     7
100
AcDb2dPolyline
 66
     1
 10
0.0
 20
0.0
 30
0.0
 70
   128
  0
VERTEX
  5
422
100
AcDbEntity
  8
0
  6
CONTINUOUS
 62
     7
100
AcDbVertex
100
AcDb2dVertex
 10
7551.811544
 20
-19809.519645
 30
0.0
  0
VERTEX
  5
423
100
AcDbEntity
  8
0
  6
CONTINUOUS
 62
     7
100
AcDbVertex
100
AcDb2dVertex
 10
7551.992129
 20
-19809.394549
 30
0.0
  0
VERTEX
  5
424
100
AcDbEntity
  8
0
  6
CONTINUOUS
 62
     7
100
AcDbVertex
100
AcDb2dVertex
 10
7552.173903
 20
-19809.268619
 30
0.0
  0
VERTEX
  5
425
100
AcDbEntity
  8
0
  6
CONTINUOUS
 62
     7
100
AcDbVertex
100
AcDb2dVertex
 10
7552.356743
 20
-19809.141974
 30
0.0
  0
VERTEX
  5
426
100
AcDbEntity
  8
0
  6
CONTINUOUS
 62
     7
100
AcDbVertex
100
AcDb2dVertex
 10
7552.540521
 20
-19809.014642
 30
0.0
  0
VERTEX
  5
427
100
AcDbEntity
  8
0
  6
CONTINUOUS
 62
     7
100
AcDbVertex
100
AcDb2dVertex
 10
7552.725113
 20
-19808.886775
 30
0.0
  0
VERTEX
  5
428
100
AcDbEntity
  8
0
  6
CONTINUOUS
 62
     7
100
AcDbVertex
100
AcDb2dVertex
 10
7552.910391
 20
-19808.75843
 30
0.0
  0
VERTEX
  5
429
100
AcDbEntity
  8
0
  6
CONTINUOUS
 62
     7
100
AcDbVertex
100
AcDb2dVertex
 10
7553.096226
 20
-19808.629697
 30
0.0
  0
VERTEX
  5
42A
100
AcDbEntity
  8
0
  6
CONTINUOUS
 62
     7
100
AcDbVertex
100
AcDb2dVertex
 10
7553.282492
 20
-19808.500667
 30
0.0
  0
SEQEND
  5
42B
100
AcDbEntity
  8
0
  6
CONTINUOUS
 62
     7
  0
POLYLINE
  5
42C
100
AcDbEntity
  8
0
  6
CONTINUOUS
 62
     7
100
AcDb2dPolyline
 66
     1
 10
0.0
 20
0.0
 30
0.0
 70
   128
  0
VERTEX
  5
42D
100
AcDbEntity
  8
0
  6
CONTINUOUS
 62
     7
100
AcDbVertex
100
AcDb2dVertex
 10
7553.282492
 20
-19808.500667
 30
0.0
  0
VERTEX
  5
42E
100
AcDbEntity
  8
0
  6
CONTINUOUS
 62
     7
100
AcDbVertex
100
AcDb2dVertex
 10
7553.43473
 20
-19808.672986
 30
0.0
  0
VERTEX
  5
42F
100
AcDbEntity
  8
0
  6
CONTINUOUS
 62
     7
100
AcDbVertex
100
AcDb2dVertex
 10
7553.586626
 20
-19808.844917
 30
0.0
  0
VERTEX
  5
430
100
AcDbEntity
  8
0
  6
CONTINUOUS
 62
     7
100
AcDbVertex
100
AcDb2dVertex
 10
7553.738071
 20
-19809.016342
 30
0.0
  0
VERTEX
  5
431
100
AcDbEntity
  8
0
  6
CONTINUOUS
 62
     7
100
AcDbVertex
100
AcDb2dVertex
 10
7553.888959
 20
-19809.18714
 30
0.0
  0
VERTEX
  5
432
100
AcDbEntity
  8
0
  6
CONTINUOUS
 62
     7
100
AcDbVertex
100
AcDb2dVertex
 10
7554.039182
 20
-19809.357164
 30
0.0
  0
VERTEX
  5
433
100
AcDbEntity
  8
0
  6
CONTINUOUS
 62
     7
100
AcDbVertex
100
AcDb2dVertex
 10
7554.188635
 20
-19809.526323
 30
0.0
  0
VERTEX
  5
434
100
AcDbEntity
  8
0
  6
CONTINUOUS
 62
     7
100
AcDbVertex
100
AcDb2dVertex
 10
7554.337211
 20
-19809.694498
 30
0.0
  0
VERTEX
  5
435
100
AcDbEntity
  8
0
  6
CONTINUOUS
 62
     7
100
AcDbVertex
100
AcDb2dVertex
 10
7554.484806
 20
-19809.86157
 30
0.0
  0
SEQEND
  5
436
100
AcDbEntity
  8
0
  6
CONTINUOUS
 62
     7
  0
POLYLINE
  5
437
100
AcDbEntity
  8
0
  6
CONTINUOUS
 62
     7
100
AcDb2dPolyline
 66
     1
 10
0.0
 20
0.0
 30
0.0
 70
   128
  0
VERTEX
  5
438
100
AcDbEntity
  8
0
  6
CONTINUOUS
 62
     7
100
AcDbVertex
100
AcDb2dVertex
 10
7554.484806
 20
-19809.86157
 30
0.0
  0
VERTEX
  5
439
100
AcDbEntity
  8
0
  6
CONTINUOUS
 62
     7
100
AcDbVertex
100
AcDb2dVertex
 10
7554.572695
 20
-19809.793596
 30
0.0
  0
VERTEX
  5
43A
100
AcDbEntity
  8
0
  6
CONTINUOUS
 62
     7
100
AcDbVertex
100
AcDb2dVertex
 10
7554.66063
 20
-19809.725623
 30
0.0
  0
VERTEX
  5
43B
100
AcDbEntity
  8
0
  6
CONTINUOUS
 62
     7
100
AcDbVertex
100
AcDb2dVertex
 10
7554.748597
 20
-19809.657589
 30
0.0
  0
VERTEX
  5
43C
100
AcDbEntity
  8
0
  6
CONTINUOUS
 62
     7
100
AcDbVertex
100
AcDb2dVertex
 10
7554.836579
 20
-19809.589556
 30
0.0
  0
VERTEX
  5
43D
100
AcDbEntity
  8
0
  6
CONTINUOUS
 62
     7
100
AcDbVertex
100
AcDb2dVertex
 10
7554.92456
 20
-19809.521553
 30
0.0
  0
VERTEX
  5
43E
100
AcDbEntity
  8
0
  6
CONTINUOUS
 62
     7
100
AcDbVertex
100
AcDb2dVertex
 10
7555.012527
 20
-19809.453519
 30
0.0
  0
VERTEX
  5
43F
100
AcDbEntity
  8
0
  6
CONTINUOUS
 62
     7
100
AcDbVertex
100
AcDb2dVertex
 10
7555.100462
 20
-19809.385546
 30
0.0
  0
VERTEX
  5
440
100
AcDbEntity
  8
0
  6
CONTINUOUS
 62
     7
100
AcDbVertex
100
AcDb2dVertex
 10
7555.188351
 20
-19809.317572
 30
0.0
  0
SEQEND
  5
441
100
AcDbEntity
  8
0
  6
CONTINUOUS
 62
     7
  0
POLYLINE
  5
442
100
AcDbEntity
  8
0
  6
CONTINUOUS
 62
     7
100
AcDb2dPolyline
 66
     1
 10
0.0
 20
0.0
 30
0.0
 70
   128
  0
VERTEX
  5
443
100
AcDbEntity
  8
0
  6
CONTINUOUS
 62
     7
100
AcDbVertex
100
AcDb2dVertex
 10
7555.188351
 20
-19809.317572
 30
0.0
  0
VERTEX
  5
444
100
AcDbEntity
  8
0
  6
CONTINUOUS
 62
     7
100
AcDbVertex
100
AcDb2dVertex
 10
7555.063818
 20
-19809.132702
 30
0.0
  0
VERTEX
  5
445
100
AcDbEntity
  8
0
  6
CONTINUOUS
 62
     7
100
AcDbVertex
100
AcDb2dVertex
 10
7554.938457
 20
-19808.946579
 30
0.0
  0
VERTEX
  5
446
100
AcDbEntity
  8
0
  6
CONTINUOUS
 62
     7
100
AcDbVertex
100
AcDb2dVertex
 10
7554.812356
 20
-19808.759354
 30
0.0
  0
VERTEX
  5
447
100
AcDbEntity
  8
0
  6
CONTINUOUS
 62
     7
100
AcDbVertex
100
AcDb2dVertex
 10
7554.685605
 20
-19808.571174
 30
0.0
  0
VERTEX
  5
448
100
AcDbEntity
  8
0
  6
CONTINUOUS
 62
     7
100
AcDbVertex
100
AcDb2dVertex
 10
7554.558294
 20
-19808.38216
 30
0.0
  0
VERTEX
  5
449
100
AcDbEntity
  8
0
  6
CONTINUOUS
 62
     7
100
AcDbVertex
100
AcDb2dVertex
 10
7554.430512
 20
-19808.19243
 30
0.0
  0
VERTEX
  5
44A
100
AcDbEntity
  8
0
  6
CONTINUOUS
 62
     7
100
AcDbVertex
100
AcDb2dVertex
 10
7554.30235
 20
-19808.002164
 30
0.0
  0
VERTEX
  5
44B
100
AcDbEntity
  8
0
  6
CONTINUOUS
 62
     7
100
AcDbVertex
100
AcDb2dVertex
 10
7554.1739
 20
-19807.81145
 30
0.0
  0
SEQEND
  5
44C
100
AcDbEntity
  8
0
  6
CONTINUOUS
 62
     7
  0
POLYLINE
  5
44D
100
AcDbEntity
  8
0
  6
CONTINUOUS
 62
     7
100
AcDb2dPolyline
 66
     1
 10
0.0
 20
0.0
 30
0.0
 70
   128
  0
VERTEX
  5
44E
100
AcDbEntity
  8
0
  6
CONTINUOUS
 62
     7
100
AcDbVertex
100
AcDb2dVertex
 10
7555.530281
 20
-19806.644331
 30
0.0
  0
VERTEX
  5
44F
100
AcDbEntity
  8
0
  6
CONTINUOUS
 62
     7
100
AcDbVertex
100
AcDb2dVertex
 10
7555.363761
 20
-19806.787612
 30
0.0
  0
VERTEX
  5
450
100
AcDbEntity
  8
0
  6
CONTINUOUS
 62
     7
100
AcDbVertex
100
AcDb2dVertex
 10
7555.196144
 20
-19806.931847
 30
0.0
  0
VERTEX
  5
451
100
AcDbEntity
  8
0
  6
CONTINUOUS
 62
     7
100
AcDbVertex
100
AcDb2dVertex
 10
7555.027546
 20
-19807.076917
 30
0.0
  0
VERTEX
  5
452
100
AcDbEntity
  8
0
  6
CONTINUOUS
 62
     7
100
AcDbVertex
100
AcDb2dVertex
 10
7554.858081
 20
-19807.222733
 30
0.0
  0
VERTEX
  5
453
100
AcDbEntity
  8
0
  6
CONTINUOUS
 62
     7
100
AcDbVertex
100
AcDb2dVertex
 10
7554.687867
 20
-19807.369204
 30
0.0
  0
VERTEX
  5
454
100
AcDbEntity
  8
0
  6
CONTINUOUS
 62
     7
100
AcDbVertex
100
AcDb2dVertex
 10
7554.51702
 20
-19807.516212
 30
0.0
  0
VERTEX
  5
455
100
AcDbEntity
  8
0
  6
CONTINUOUS
 62
     7
100
AcDbVertex
100
AcDb2dVertex
 10
7554.345658
 20
-19807.663667
 30
0.0
  0
VERTEX
  5
456
100
AcDbEntity
  8
0
  6
CONTINUOUS
 62
     7
100
AcDbVertex
100
AcDb2dVertex
 10
7554.1739
 20
-19807.81145
 30
0.0
  0
SEQEND
  5
457
100
AcDbEntity
  8
0
  6
CONTINUOUS
 62
     7
  0
POLYLINE
  5
458
100
AcDbEntity
  8
0
  6
CONTINUOUS
 62
     7
100
AcDb2dPolyline
 66
     1
 10
0.0
 20
0.0
 30
0.0
 70
   128
  0
VERTEX
  5
459
100
AcDbEntity
  8
0
  6
CONTINUOUS
 62
     7
100
AcDbVertex
100
AcDb2dVertex
 10
7554.986303
 20
-19805.940774
 30
0.0
  0
VERTEX
  5
45A
100
AcDbEntity
  8
0
  6
CONTINUOUS
 62
     7
100
AcDbVertex
100
AcDb2dVertex
 10
7555.054258
 20
-19806.028663
 30
0.0
  0
VERTEX
  5
45B
100
AcDbEntity
  8
0
  6
CONTINUOUS
 62
     7
100
AcDbVertex
100
AcDb2dVertex
 10
7555.122249
 20
-19806.116611
 30
0.0
  0
VERTEX
  5
45C
100
AcDbEntity
  8
0
  6
CONTINUOUS
 62
     7
100
AcDbVertex
100
AcDb2dVertex
 10
7555.190265
 20
-19806.20456
 30
0.0
  0
VERTEX
  5
45D
100
AcDbEntity
  8
0
  6
CONTINUOUS
 62
     7
100
AcDbVertex
100
AcDb2dVertex
 10
7555.258292
 20
-19806.292538
 30
0.0
  0
VERTEX
  5
45E
100
AcDbEntity
  8
0
  6
CONTINUOUS
 62
     7
100
AcDbVertex
100
AcDb2dVertex
 10
7555.326319
 20
-19806.380516
 30
0.0
  0
VERTEX
  5
45F
100
AcDbEntity
  8
0
  6
CONTINUOUS
 62
     7
100
AcDbVertex
100
AcDb2dVertex
 10
7555.394335
 20
-19806.468494
 30
0.0
  0
VERTEX
  5
460
100
AcDbEntity
  8
0
  6
CONTINUOUS
 62
     7
100
AcDbVertex
100
AcDb2dVertex
 10
7555.462326
 20
-19806.556442
 30
0.0
  0
VERTEX
  5
461
100
AcDbEntity
  8
0
  6
CONTINUOUS
 62
     7
100
AcDbVertex
100
AcDb2dVertex
 10
7555.530281
 20
-19806.644331
 30
0.0
  0
SEQEND
  5
462
100
AcDbEntity
  8
0
  6
CONTINUOUS
 62
     7
  0
POLYLINE
  5
463
100
AcDbEntity
  8
0
  6
CONTINUOUS
 62
     7
100
AcDb2dPolyline
 66
     1
 10
0.0
 20
0.0
 30
0.0
 70
   128
  0
VERTEX
  5
464
100
AcDbEntity
  8
0
  6
CONTINUOUS
 62
     7
100
AcDbVertex
100
AcDb2dVertex
 10
7553.495735
 20
-19806.973317
 30
0.0
  0
VERTEX
  5
465
100
AcDbEntity
  8
0
  6
CONTINUOUS
 62
     7
100
AcDbVertex
100
AcDb2dVertex
 10
7553.684487
 20
-19806.842558
 30
0.0
  0
VERTEX
  5
466
100
AcDbEntity
  8
0
  6
CONTINUOUS
 62
     7
100
AcDbVertex
100
AcDb2dVertex
 10
7553.872809
 20
-19806.712126
 30
0.0
  0
VERTEX
  5
467
100
AcDbEntity
  8
0
  6
CONTINUOUS
 62
     7
100
AcDbVertex
100
AcDb2dVertex
 10
7554.060568
 20
-19806.582052
 30
0.0
  0
VERTEX
  5
468
100
AcDbEntity
  8
0
  6
CONTINUOUS
 62
     7
100
AcDbVertex
100
AcDb2dVertex
 10
7554.247632
 20
-19806.452455
 30
0.0
  0
VERTEX
  5
469
100
AcDbEntity
  8
0
  6
CONTINUOUS
 62
     7
100
AcDbVertex
100
AcDb2dVertex
 10
7554.433869
 20
-19806.323454
 30
0.0
  0
VERTEX
  5
46A
100
AcDbEntity
  8
0
  6
CONTINUOUS
 62
     7
100
AcDbVertex
100
AcDb2dVertex
 10
7554.619147
 20
-19806.195109
 30
0.0
  0
VERTEX
  5
46B
100
AcDbEntity
  8
0
  6
CONTINUOUS
 62
     7
100
AcDbVertex
100
AcDb2dVertex
 10
7554.803335
 20
-19806.067509
 30
0.0
  0
VERTEX
  5
46C
100
AcDbEntity
  8
0
  6
CONTINUOUS
 62
     7
100
AcDbVertex
100
AcDb2dVertex
 10
7554.986303
 20
-19805.940774
 30
0.0
  0
SEQEND
  5
46D
100
AcDbEntity
  8
0
  6
CONTINUOUS
 62
     7
  0
POLYLINE
  5
46E
100
AcDbEntity
  8
0
  6
CONTINUOUS
 62
     7
100
AcDb2dPolyline
 66
     1
 10
0.0
 20
0.0
 30
0.0
 70
   128
  0
VERTEX
  5
46F
100
AcDbEntity
  8
0
  6
CONTINUOUS
 62
     7
100
AcDbVertex
100
AcDb2dVertex
 10
7551.609496
 20
-19806.142817
 30
0.0
  0
VERTEX
  5
470
100
AcDbEntity
  8
0
  6
CONTINUOUS
 62
     7
100
AcDbVertex
100
AcDb2dVertex
 10
7551.697385
 20
-19806.074873
 30
0.0
  0
VERTEX
  5
471
100
AcDbEntity
  8
0
  6
CONTINUOUS
 62
     7
100
AcDbVertex
100
AcDb2dVertex
 10
7551.78532
 20
-19806.00687
 30
0.0
  0
VERTEX
  5
472
100
AcDbEntity
  8
0
  6
CONTINUOUS
 62
     7
100
AcDbVertex
100
AcDb2dVertex
 10
7551.873287
 20
-19805.938866
 30
0.0
  0
VERTEX
  5
473
100
AcDbEntity
  8
0
  6
CONTINUOUS
 62
     7
100
AcDbVertex
100
AcDb2dVertex
 10
7551.961269
 20
-19805.870833
 30
0.0
  0
VERTEX
  5
474
100
AcDbEntity
  8
0
  6
CONTINUOUS
 62
     7
100
AcDbVertex
100
AcDb2dVertex
 10
7552.049251
 20
-19805.8028
 30
0.0
  0
VERTEX
  5
475
100
AcDbEntity
  8
0
  6
CONTINUOUS
 62
     7
100
AcDbVertex
100
AcDb2dVertex
 10
7552.137217
 20
-19805.734796
 30
0.0
  0
VERTEX
  5
476
100
AcDbEntity
  8
0
  6
CONTINUOUS
 62
     7
100
AcDbVertex
100
AcDb2dVertex
 10
7552.225153
 20
-19805.666793
 30
0.0
  0
VERTEX
  5
477
100
AcDbEntity
  8
0
  6
CONTINUOUS
 62
     7
100
AcDbVertex
100
AcDb2dVertex
 10
7552.313041
 20
-19805.598849
 30
0.0
  0
SEQEND
  5
478
100
AcDbEntity
  8
0
  6
CONTINUOUS
 62
     7
  0
POLYLINE
  5
479
100
AcDbEntity
  8
0
  6
CONTINUOUS
 62
     7
100
AcDb2dPolyline
 66
     1
 10
0.0
 20
0.0
 30
0.0
 70
   128
  0
VERTEX
  5
47A
100
AcDbEntity
  8
0
  6
CONTINUOUS
 62
     7
100
AcDbVertex
100
AcDb2dVertex
 10
7552.313041
 20
-19805.598849
 30
0.0
  0
VERTEX
  5
47B
100
AcDbEntity
  8
0
  6
CONTINUOUS
 62
     7
100
AcDbVertex
100
AcDb2dVertex
 10
7552.458218
 20
-19805.767561
 30
0.0
  0
VERTEX
  5
47C
100
AcDbEntity
  8
0
  6
CONTINUOUS
 62
     7
100
AcDbVertex
100
AcDb2dVertex
 10
7552.604362
 20
-19805.937405
 30
0.0
  0
VERTEX
  5
47D
100
AcDbEntity
  8
0
  6
CONTINUOUS
 62
     7
100
AcDbVertex
100
AcDb2dVertex
 10
7552.751371
 20
-19806.108264
 30
0.0
  0
VERTEX
  5
47E
100
AcDbEntity
  8
0
  6
CONTINUOUS
 62
     7
100
AcDbVertex
100
AcDb2dVertex
 10
7552.899141
 20
-19806.279986
 30
0.0
  0
VERTEX
  5
47F
100
AcDbEntity
  8
0
  6
CONTINUOUS
 62
     7
100
AcDbVertex
100
AcDb2dVertex
 10
7553.047567
 20
-19806.452484
 30
0.0
  0
VERTEX
  5
480
100
AcDbEntity
  8
0
  6
CONTINUOUS
 62
     7
100
AcDbVertex
100
AcDb2dVertex
 10
7553.196545
 20
-19806.625608
 30
0.0
  0
VERTEX
  5
481
100
AcDbEntity
  8
0
  6
CONTINUOUS
 62
     7
100
AcDbVertex
100
AcDb2dVertex
 10
7553.345969
 20
-19806.799269
 30
0.0
  0
VERTEX
  5
482
100
AcDbEntity
  8
0
  6
CONTINUOUS
 62
     7
100
AcDbVertex
100
AcDb2dVertex
 10
7553.495735
 20
-19806.973317
 30
0.0
  0
SEQEND
  5
483
100
AcDbEntity
  8
0
  6
CONTINUOUS
 62
     7
  0
LINE
  5
484
100
AcDbEntity
  8
0
  6
CONTINUOUS
 62
     7
100
AcDbLine
 10
7552.646594
 20
-19807.888576
 30
0.0
 11
7552.38444
 21
-19807.855036
 31
0.0
  0
LINE
  5
485
100
AcDbEntity
  8
0
  6
CONTINUOUS
 62
     7
100
AcDbLine
 10
7552.448523
 20
-19807.354029
 30
0.0
 11
7552.710678
 21
-19807.387569
 31
0.0
  0
ARC
  5
486
100
AcDbEntity
  8
0
  6
CONTINUOUS
 62
     7
100
AcDbCircle
 10
7552.401823
 20
-19807.602666
 30
0.0
 40
0.376374
100
AcDbArc
 50
310.567152
 51
34.854683
  0
LINE
  5
487
100
AcDbEntity
  8
0
  6
CONTINUOUS
 62
     7
100
AcDbLine
 10
7553.240546
 20
-19806.977879
 30
0.0
 11
7553.274078
 21
-19806.715733
 31
0.0
  0
LINE
  5
488
100
AcDbEntity
  8
0
  6
CONTINUOUS
 62
     7
100
AcDbLine
 10
7553.775092
 20
-19806.779801
 30
0.0
 11
7553.741561
 21
-19807.041947
 31
0.0
  0
ARC
  5
489
100
AcDbEntity
  8
0
  6
CONTINUOUS
 62
     7
100
AcDbCircle
 10
7553.526453
 20
-19806.733085
 30
0.0
 40
0.376386
100
AcDbArc
 50
220.570116
 51
304.855393
  0
LINE
  5
48A
100
AcDbEntity
  8
0
  6
CONTINUOUS
 62
     7
100
AcDbLine
 10
7551.536951
 20
-19808.843397
 30
0.0
 11
7551.267566
 21
-19808.816088
 31
0.0
  0
LINE
  5
48B
100
AcDbEntity
  8
0
  6
CONTINUOUS
 62
     7
100
AcDbLine
 10
7551.536951
 20
-19808.843397
 30
0.0
 11
7551.852916
 21
-19809.252043
 31
0.0
  0
LINE
  5
48C
100
AcDbEntity
  8
0
  6
CONTINUOUS
 62
     7
100
AcDbLine
 10
7551.852916
 20
-19809.252043
 30
0.0
 11
7551.811544
 21
-19809.519645
 31
0.0
  0
LINE
  5
48D
100
AcDbEntity
  8
0
  6
CONTINUOUS
 62
     7
100
AcDbLine
 10
7551.877082
 20
-19806.184197
 30
0.0
 11
7551.609496
 21
-19806.142817
 31
0.0
  0
LINE
  5
48E
100
AcDbEntity
  8
0
  6
CONTINUOUS
 62
     7
100
AcDbLine
 10
7552.25215
 20
-19806.725631
 30
0.0
 11
7551.877082
 21
-19806.184197
 31
0.0
  0
LINE
  5
48F
100
AcDbEntity
  8
0
  6
CONTINUOUS
 62
     7
100
AcDbLine
 10
7552.710678
 20
-19807.387569
 30
0.0
 11
7552.25215
 21
-19806.725631
 31
0.0
  0
LINE
  5
490
100
AcDbEntity
  8
0
  6
CONTINUOUS
 62
     7
100
AcDbLine
 10
7552.28573
 20
-19805.868239
 30
0.0
 11
7552.313041
 21
-19805.598849
 31
0.0
  0
LINE
  5
491
100
AcDbEntity
  8
0
  6
CONTINUOUS
 62
     7
100
AcDbLine
 10
7551.877082
 20
-19806.184197
 30
0.0
 11
7552.28573
 21
-19805.868239
 31
0.0
  0
LINE
  5
492
100
AcDbEntity
  8
0
  6
CONTINUOUS
 62
     7
100
AcDbLine
 10
7552.036223
 20
-19808.413791
 30
0.0
 11
7551.536951
 21
-19808.843397
 31
0.0
  0
LINE
  5
493
100
AcDbEntity
  8
0
  6
CONTINUOUS
 62
     7
100
AcDbLine
 10
7552.646594
 20
-19807.888576
 30
0.0
 11
7552.036223
 21
-19808.413791
 31
0.0
  0
LINE
  5
494
100
AcDbEntity
  8
0
  6
CONTINUOUS
 62
     7
100
AcDbLine
 10
7554.922684
 20
-19809.274731
 30
0.0
 11
7555.188351
 21
-19809.317572
 31
0.0
  0
LINE
  5
495
100
AcDbEntity
  8
0
  6
CONTINUOUS
 62
     7
100
AcDbLine
 10
7554.922684
 20
-19809.274731
 30
0.0
 11
7554.553191
 21
-19808.726142
 31
0.0
  0
LINE
  5
496
100
AcDbEntity
  8
0
  6
CONTINUOUS
 62
     7
100
AcDbLine
 10
7554.553191
 20
-19808.726142
 30
0.0
 11
7554.100864
 21
-19808.054575
 31
0.0
  0
LINE
  5
497
100
AcDbEntity
  8
0
  6
CONTINUOUS
 62
     7
100
AcDbLine
 10
7554.361267
 20
-19808.089635
 30
0.0
 11
7554.100864
 21
-19808.054575
 31
0.0
  0
LINE
  5
498
100
AcDbEntity
  8
0
  6
CONTINUOUS
 62
     7
100
AcDbLine
 10
7551.852916
 20
-19809.252043
 30
0.0
 11
7552.39436
 21
-19808.876966
 31
0.0
  0
LINE
  5
499
100
AcDbEntity
  8
0
  6
CONTINUOUS
 62
     7
100
AcDbLine
 10
7552.39436
 20
-19808.876966
 30
0.0
 11
7553.038417
 21
-19808.430815
 31
0.0
  0
LINE
  5
49A
100
AcDbEntity
  8
0
  6
CONTINUOUS
 62
     7
100
AcDbLine
 10
7553.006785
 20
-19808.691678
 30
0.0
 11
7553.038417
 21
-19808.430815
 31
0.0
  0
CIRCLE
  5
49B
100
AcDbEntity
  8
0
  6
CONTINUOUS
 62
     7
100
AcDbCircle
 10
7553.398931
 20
-19807.730201
 30
0.0
 40
5.399434
  0
LINE
  5
49C
100
AcDbEntity
  8
0
  6
CONTINUOUS
 62
     7
100
AcDbLine
 10
7554.167731
 20
-19807.557652
 30
0.0
 11
7554.428133
 21
-19807.592682
 31
0.0
  0
ARC
  5
49D
100
AcDbEntity
  8
0
  6
CONTINUOUS
 62
     7
100
AcDbCircle
 10
7554.412549
 20
-19807.843555
 30
0.0
 40
0.376399
100
AcDbArc
 50
130.573355
 51
214.099181
  0
LINE
  5
49E
100
AcDbEntity
  8
0
  6
CONTINUOUS
 62
     7
100
AcDbLine
 10
7552.28573
 20
-19805.868239
 30
0.0
 11
7552.71534
 21
-19806.367488
 31
0.0
  0
LINE
  5
49F
100
AcDbEntity
  8
0
  6
CONTINUOUS
 62
     7
100
AcDbLine
 10
7552.71534
 20
-19806.367488
 30
0.0
 11
7553.240546
 21
-19806.977879
 31
0.0
  0
LINE
  5
4A0
100
AcDbEntity
  8
0
  6
CONTINUOUS
 62
     7
100
AcDbLine
 10
7555.260897
 20
-19806.617022
 30
0.0
 11
7554.761624
 21
-19807.046627
 31
0.0
  0
LINE
  5
4A1
100
AcDbEntity
  8
0
  6
CONTINUOUS
 62
     7
100
AcDbLine
 10
7555.260897
 20
-19806.617022
 30
0.0
 11
7555.530281
 21
-19806.644331
 31
0.0
  0
LINE
  5
4A2
100
AcDbEntity
  8
0
  6
CONTINUOUS
 62
     7
100
AcDbLine
 10
7554.761624
 20
-19807.046627
 30
0.0
 11
7554.167731
 21
-19807.557652
 31
0.0
  0
LINE
  5
4A3
100
AcDbEntity
  8
0
  6
CONTINUOUS
 62
     7
100
AcDbLine
 10
7554.944932
 20
-19806.208346
 30
0.0
 11
7554.986303
 21
-19805.940774
 31
0.0
  0
LINE
  5
4A4
100
AcDbEntity
  8
0
  6
CONTINUOUS
 62
     7
100
AcDbLine
 10
7554.403487
 20
-19806.583423
 30
0.0
 11
7554.944932
 21
-19806.208346
 31
0.0
  0
LINE
  5
4A5
100
AcDbEntity
  8
0
  6
CONTINUOUS
 62
     7
100
AcDbLine
 10
7553.741561
 20
-19807.041947
 30
0.0
 11
7554.403487
 21
-19806.583423
 31
0.0
  0
LINE
  5
4A6
100
AcDbEntity
  8
0
  6
CONTINUOUS
 62
     7
100
AcDbLine
 10
7554.944932
 20
-19806.208346
 30
0.0
 11
7555.260897
 21
-19806.617022
 31
0.0
  0
LINE
  5
4A7
100
AcDbEntity
  8
0
  6
CONTINUOUS
 62
     7
100
AcDbLine
 10
7553.536189
 20
-19808.491186
 30
0.0
 11
7553.504557
 21
-19808.75202
 31
0.0
  0
ARC
  5
4A8
100
AcDbEntity
  8
0
  6
CONTINUOUS
 62
     7
100
AcDbCircle
 10
7553.253493
 20
-19808.73977
 30
0.0
 40
0.376445
100
AcDbArc
 50
41.326192
 51
124.843348
  0
LINE
  5
4A9
100
AcDbEntity
  8
0
  6
CONTINUOUS
 62
     7
100
AcDbLine
 10
7554.510199
 20
-19809.59367
 30
0.0
 11
7554.484806
 21
-19809.86157
 31
0.0
  0
LINE
  5
4AA
100
AcDbEntity
  8
0
  6
CONTINUOUS
 62
     7
100
AcDbLine
 10
7554.510199
 20
-19809.59367
 30
0.0
 11
7554.922684
 21
-19809.274731
 31
0.0
  0
LINE
  5
4AB
100
AcDbEntity
  8
0
  6
CONTINUOUS
 62
     7
100
AcDbLine
 10
7554.07228
 20
-19809.098
 30
0.0
 11
7554.510199
 21
-19809.59367
 31
0.0
  0
LINE
  5
4AC
100
AcDbEntity
  8
0
  6
CONTINUOUS
 62
     7
100
AcDbLine
 10
7553.536189
 20
-19808.491186
 30
0.0
 11
7554.07228
 21
-19809.098
 31
0.0
  0
ARC
  5
4AD
100
AcDbEntity
  8
0
  6
CONTINUOUS
 62
     7
100
AcDbCircle
 10
7553.399176
 20
-19807.729982
 30
0.0
 40
1.524218
100
AcDbArc
 50
26.63668
 51
48.78374
  0
ARC
  5
4AE
100
AcDbEntity
  8
0
  6
CONTINUOUS
 62
     7
100
AcDbCircle
 10
7553.399105
 20
-19807.730505
 30
0.0
 40
1.524207
100
AcDbArc
 50
296.209581
 51
319.21543
  0
ARC
  5
4AF
100
AcDbEntity
  8
0
  6
CONTINUOUS
 62
     7
100
AcDbCircle
 10
7553.398942
 20
-19807.730154
 30
0.0
 40
1.524586
100
AcDbArc
 50
206.641629
 51
228.78236
  0
ARC
  5
4B0
100
AcDbEntity
  8
0
  6
CONTINUOUS
 62
     7
100
AcDbCircle
 10
7553.399214
 20
-19807.730544
 30
0.0
 40
1.524994
100
AcDbArc
 50
116.643866
 51
138.779236
  0
CIRCLE
  5
4B1
100
AcDbEntity
  8
0
  6
CONTINUOUS
 62
     7
100
AcDbCircle
 10
7718.575288
 20
-19642.530847
 30
0.0
 40
3.557275
  0
POLYLINE
  5
4B2
100
AcDbEntity
  8
0
  6
CONTINUOUS
 62
     7
100
AcDb2dPolyline
 66
     1
 10
0.0
 20
0.0
 30
0.0
 70
   128
  0
VERTEX
  5
4B3
100
AcDbEntity
  8
0
  6
CONTINUOUS
 62
     7
100
AcDbVertex
100
AcDb2dVertex
 10
7718.027685
 20
-19643.062242
 30
0.0
  0
VERTEX
  5
4B4
100
AcDbEntity
  8
0
  6
CONTINUOUS
 62
     7
100
AcDbVertex
100
AcDb2dVertex
 10
7717.798587
 20
-19643.046784
 30
0.0
  0
VERTEX
  5
4B5
100
AcDbEntity
  8
0
  6
CONTINUOUS
 62
     7
100
AcDbVertex
100
AcDb2dVertex
 10
7717.570011
 20
-19643.031363
 30
0.0
  0
VERTEX
  5
4B6
100
AcDbEntity
  8
0
  6
CONTINUOUS
 62
     7
100
AcDbVertex
100
AcDb2dVertex
 10
7717.34212
 20
-19643.01598
 30
0.0
  0
VERTEX
  5
4B7
100
AcDbEntity
  8
0
  6
CONTINUOUS
 62
     7
100
AcDbVertex
100
AcDb2dVertex
 10
7717.11508
 20
-19643.000663
 30
0.0
  0
VERTEX
  5
4B8
100
AcDbEntity
  8
0
  6
CONTINUOUS
 62
     7
100
AcDbVertex
100
AcDb2dVertex
 10
7716.889038
 20
-19642.985406
 30
0.0
  0
VERTEX
  5
4B9
100
AcDbEntity
  8
0
  6
CONTINUOUS
 62
     7
100
AcDbVertex
100
AcDb2dVertex
 10
7716.664158
 20
-19642.970232
 30
0.0
  0
VERTEX
  5
4BA
100
AcDbEntity
  8
0
  6
CONTINUOUS
 62
     7
100
AcDbVertex
100
AcDb2dVertex
 10
7716.440606
 20
-19642.955146
 30
0.0
  0
VERTEX
  5
4BB
100
AcDbEntity
  8
0
  6
CONTINUOUS
 62
     7
100
AcDbVertex
100
AcDb2dVertex
 10
7716.218529
 20
-19642.940165
 30
0.0
  0
SEQEND
  5
4BC
100
AcDbEntity
  8
0
  6
CONTINUOUS
 62
     7
  0
POLYLINE
  5
4BD
100
AcDbEntity
  8
0
  6
CONTINUOUS
 62
     7
100
AcDb2dPolyline
 66
     1
 10
0.0
 20
0.0
 30
0.0
 70
   128
  0
VERTEX
  5
4BE
100
AcDbEntity
  8
0
  6
CONTINUOUS
 62
     7
100
AcDbVertex
100
AcDb2dVertex
 10
7718.027685
 20
-19643.062242
 30
0.0
  0
VERTEX
  5
4BF
100
AcDbEntity
  8
0
  6
CONTINUOUS
 62
     7
100
AcDbVertex
100
AcDb2dVertex
 10
7718.036256
 20
-19643.291698
 30
0.0
  0
VERTEX
  5
4C0
100
AcDbEntity
  8
0
  6
CONTINUOUS
 62
     7
100
AcDbVertex
100
AcDb2dVertex
 10
7718.044813
 20
-19643.520632
 30
0.0
  0
VERTEX
  5
4C1
100
AcDbEntity
  8
0
  6
CONTINUOUS
 62
     7
100
AcDbVertex
100
AcDb2dVertex
 10
7718.053339
 20
-19643.74888
 30
0.0
  0
VERTEX
  5
4C2
100
AcDbEntity
  8
0
  6
CONTINUOUS
 62
     7
100
AcDbVertex
100
AcDb2dVertex
 10
7718.061836
 20
-19643.976286
 30
0.0
  0
VERTEX
  5
4C3
100
AcDbEntity
  8
0
  6
CONTINUOUS
 62
     7
100
AcDbVertex
100
AcDb2dVertex
 10
7718.070288
 20
-19644.202686
 30
0.0
  0
VERTEX
  5
4C4
100
AcDbEntity
  8
0
  6
CONTINUOUS
 62
     7
100
AcDbVertex
100
AcDb2dVertex
 10
7718.07871
 20
-19644.427915
 30
0.0
  0
VERTEX
  5
4C5
100
AcDbEntity
  8
0
  6
CONTINUOUS
 62
     7
100
AcDbVertex
100
AcDb2dVertex
 10
7718.087073
 20
-19644.651818
 30
0.0
  0
VERTEX
  5
4C6
100
AcDbEntity
  8
0
  6
CONTINUOUS
 62
     7
100
AcDbVertex
100
AcDb2dVertex
 10
7718.095375
 20
-19644.874246
 30
0.0
  0
SEQEND
  5
4C7
100
AcDbEntity
  8
0
  6
CONTINUOUS
 62
     7
  0
POLYLINE
  5
4C8
100
AcDbEntity
  8
0
  6
CONTINUOUS
 62
     7
100
AcDb2dPolyline
 66
     1
 10
0.0
 20
0.0
 30
0.0
 70
   128
  0
VERTEX
  5
4C9
100
AcDbEntity
  8
0
  6
CONTINUOUS
 62
     7
100
AcDbVertex
100
AcDb2dVertex
 10
7718.095375
 20
-19644.874246
 30
0.0
  0
VERTEX
  5
4CA
100
AcDbEntity
  8
0
  6
CONTINUOUS
 62
     7
100
AcDbVertex
100
AcDb2dVertex
 10
7718.206459
 20
-19644.875915
 30
0.0
  0
VERTEX
  5
4CB
100
AcDbEntity
  8
0
  6
CONTINUOUS
 62
     7
100
AcDbVertex
100
AcDb2dVertex
 10
7718.317601
 20
-19644.877585
 30
0.0
  0
VERTEX
  5
4CC
100
AcDbEntity
  8
0
  6
CONTINUOUS
 62
     7
100
AcDbVertex
100
AcDb2dVertex
 10
7718.428789
 20
-19644.879254
 30
0.0
  0
VERTEX
  5
4CD
100
AcDbEntity
  8
0
  6
CONTINUOUS
 62
     7
100
AcDbVertex
100
AcDb2dVertex
 10
7718.539991
 20
-19644.880924
 30
0.0
  0
VERTEX
  5
4CE
100
AcDbEntity
  8
0
  6
CONTINUOUS
 62
     7
100
AcDbVertex
100
AcDb2dVertex
 10
7718.651194
 20
-19644.882593
 30
0.0
  0
VERTEX
  5
4CF
100
AcDbEntity
  8
0
  6
CONTINUOUS
 62
     7
100
AcDbVertex
100
AcDb2dVertex
 10
7718.762367
 20
-19644.884263
 30
0.0
  0
VERTEX
  5
4D0
100
AcDbEntity
  8
0
  6
CONTINUOUS
 62
     7
100
AcDbVertex
100
AcDb2dVertex
 10
7718.873509
 20
-19644.885932
 30
0.0
  0
VERTEX
  5
4D1
100
AcDbEntity
  8
0
  6
CONTINUOUS
 62
     7
100
AcDbVertex
100
AcDb2dVertex
 10
7718.984593
 20
-19644.887602
 30
0.0
  0
SEQEND
  5
4D2
100
AcDbEntity
  8
0
  6
CONTINUOUS
 62
     7
  0
POLYLINE
  5
4D3
100
AcDbEntity
  8
0
  6
CONTINUOUS
 62
     7
100
AcDb2dPolyline
 66
     1
 10
0.0
 20
0.0
 30
0.0
 70
   128
  0
VERTEX
  5
4D4
100
AcDbEntity
  8
0
  6
CONTINUOUS
 62
     7
100
AcDbVertex
100
AcDb2dVertex
 10
7718.984593
 20
-19644.887602
 30
0.0
  0
VERTEX
  5
4D5
100
AcDbEntity
  8
0
  6
CONTINUOUS
 62
     7
100
AcDbVertex
100
AcDb2dVertex
 10
7718.999395
 20
-19644.668417
 30
0.0
  0
VERTEX
  5
4D6
100
AcDbEntity
  8
0
  6
CONTINUOUS
 62
     7
100
AcDbVertex
100
AcDb2dVertex
 10
7719.014271
 20
-19644.447793
 30
0.0
  0
VERTEX
  5
4D7
100
AcDbEntity
  8
0
  6
CONTINUOUS
 62
     7
100
AcDbVertex
100
AcDb2dVertex
 10
7719.029252
 20
-19644.225873
 30
0.0
  0
VERTEX
  5
4D8
100
AcDbEntity
  8
0
  6
CONTINUOUS
 62
     7
100
AcDbVertex
100
AcDb2dVertex
 10
7719.044308
 20
-19644.002812
 30
0.0
  0
VERTEX
  5
4D9
100
AcDbEntity
  8
0
  6
CONTINUOUS
 62
     7
100
AcDbVertex
100
AcDb2dVertex
 10
7719.059423
 20
-19643.778767
 30
0.0
  0
VERTEX
  5
4DA
100
AcDbEntity
  8
0
  6
CONTINUOUS
 62
     7
100
AcDbVertex
100
AcDb2dVertex
 10
7719.074598
 20
-19643.553895
 30
0.0
  0
VERTEX
  5
4DB
100
AcDbEntity
  8
0
  6
CONTINUOUS
 62
     7
100
AcDbVertex
100
AcDb2dVertex
 10
7719.089818
 20
-19643.328338
 30
0.0
  0
VERTEX
  5
4DC
100
AcDbEntity
  8
0
  6
CONTINUOUS
 62
     7
100
AcDbVertex
100
AcDb2dVertex
 10
7719.105067
 20
-19643.102259
 30
0.0
  0
SEQEND
  5
4DD
100
AcDbEntity
  8
0
  6
CONTINUOUS
 62
     7
  0
POLYLINE
  5
4DE
100
AcDbEntity
  8
0
  6
CONTINUOUS
 62
     7
100
AcDb2dPolyline
 66
     1
 10
0.0
 20
0.0
 30
0.0
 70
   128
  0
VERTEX
  5
4DF
100
AcDbEntity
  8
0
  6
CONTINUOUS
 62
     7
100
AcDbVertex
100
AcDb2dVertex
 10
7719.105067
 20
-19643.102259
 30
0.0
  0
VERTEX
  5
4E0
100
AcDbEntity
  8
0
  6
CONTINUOUS
 62
     7
100
AcDbVertex
100
AcDb2dVertex
 10
7719.334716
 20
-19643.090676
 30
0.0
  0
VERTEX
  5
4E1
100
AcDbEntity
  8
0
  6
CONTINUOUS
 62
     7
100
AcDbVertex
100
AcDb2dVertex
 10
7719.563829
 20
-19643.079116
 30
0.0
  0
VERTEX
  5
4E2
100
AcDbEntity
  8
0
  6
CONTINUOUS
 62
     7
100
AcDbVertex
100
AcDb2dVertex
 10
7719.792286
 20
-19643.067586
 30
0.0
  0
VERTEX
  5
4E3
100
AcDbEntity
  8
0
  6
CONTINUOUS
 62
     7
100
AcDbVertex
100
AcDb2dVertex
 10
7720.019878
 20
-19643.056101
 30
0.0
  0
VERTEX
  5
4E4
100
AcDbEntity
  8
0
  6
CONTINUOUS
 62
     7
100
AcDbVertex
100
AcDb2dVertex
 10
7720.246487
 20
-19643.044667
 30
0.0
  0
VERTEX
  5
4E5
100
AcDbEntity
  8
0
  6
CONTINUOUS
 62
     7
100
AcDbVertex
100
AcDb2dVertex
 10
7720.471933
 20
-19643.033294
 30
0.0
  0
VERTEX
  5
4E6
100
AcDbEntity
  8
0
  6
CONTINUOUS
 62
     7
100
AcDbVertex
100
AcDb2dVertex
 10
7720.696052
 20
-19643.021987
 30
0.0
  0
VERTEX
  5
4E7
100
AcDbEntity
  8
0
  6
CONTINUOUS
 62
     7
100
AcDbVertex
100
AcDb2dVertex
 10
7720.91868
 20
-19643.010748
 30
0.0
  0
SEQEND
  5
4E8
100
AcDbEntity
  8
0
  6
CONTINUOUS
 62
     7
  0
POLYLINE
  5
4E9
100
AcDbEntity
  8
0
  6
CONTINUOUS
 62
     7
100
AcDb2dPolyline
 66
     1
 10
0.0
 20
0.0
 30
0.0
 70
   128
  0
VERTEX
  5
4EA
100
AcDbEntity
  8
0
  6
CONTINUOUS
 62
     7
100
AcDbVertex
100
AcDb2dVertex
 10
7720.91868
 20
-19643.010748
 30
0.0
  0
VERTEX
  5
4EB
100
AcDbEntity
  8
0
  6
CONTINUOUS
 62
     7
100
AcDbVertex
100
AcDb2dVertex
 10
7720.92035
 20
-19642.899664
 30
0.0
  0
VERTEX
  5
4EC
100
AcDbEntity
  8
0
  6
CONTINUOUS
 62
     7
100
AcDbVertex
100
AcDb2dVertex
 10
7720.922019
 20
-19642.788522
 30
0.0
  0
VERTEX
  5
4ED
100
AcDbEntity
  8
0
  6
CONTINUOUS
 62
     7
100
AcDbVertex
100
AcDb2dVertex
 10
7720.923689
 20
-19642.677341
 30
0.0
  0
VERTEX
  5
4EE
100
AcDbEntity
  8
0
  6
CONTINUOUS
 62
     7
100
AcDbVertex
100
AcDb2dVertex
 10
7720.925359
 20
-19642.566139
 30
0.0
  0
VERTEX
  5
4EF
100
AcDbEntity
  8
0
  6
CONTINUOUS
 62
     7
100
AcDbVertex
100
AcDb2dVertex
 10
7720.927028
 20
-19642.454937
 30
0.0
  0
VERTEX
  5
4F0
100
AcDbEntity
  8
0
  6
CONTINUOUS
 62
     7
100
AcDbVertex
100
AcDb2dVertex
 10
7720.928698
 20
-19642.343756
 30
0.0
  0
VERTEX
  5
4F1
100
AcDbEntity
  8
0
  6
CONTINUOUS
 62
     7
100
AcDbVertex
100
AcDb2dVertex
 10
7720.930367
 20
-19642.232614
 30
0.0
  0
VERTEX
  5
4F2
100
AcDbEntity
  8
0
  6
CONTINUOUS
 62
     7
100
AcDbVertex
100
AcDb2dVertex
 10
7720.932037
 20
-19642.12153
 30
0.0
  0
SEQEND
  5
4F3
100
AcDbEntity
  8
0
  6
CONTINUOUS
 62
     7
  0
POLYLINE
  5
4F4
100
AcDbEntity
  8
0
  6
CONTINUOUS
 62
     7
100
AcDb2dPolyline
 66
     1
 10
0.0
 20
0.0
 30
0.0
 70
   128
  0
VERTEX
  5
4F5
100
AcDbEntity
  8
0
  6
CONTINUOUS
 62
     7
100
AcDbVertex
100
AcDb2dVertex
 10
7720.932037
 20
-19642.12153
 30
0.0
  0
VERTEX
  5
4F6
100
AcDbEntity
  8
0
  6
CONTINUOUS
 62
     7
100
AcDbVertex
100
AcDb2dVertex
 10
7720.70984
 20
-19642.10362
 30
0.0
  0
VERTEX
  5
4F7
100
AcDbEntity
  8
0
  6
CONTINUOUS
 62
     7
100
AcDbVertex
100
AcDb2dVertex
 10
7720.486154
 20
-19642.085583
 30
0.0
  0
VERTEX
  5
4F8
100
AcDbEntity
  8
0
  6
CONTINUOUS
 62
     7
100
AcDbVertex
100
AcDb2dVertex
 10
7720.26117
 20
-19642.067442
 30
0.0
  0
VERTEX
  5
4F9
100
AcDbEntity
  8
0
  6
CONTINUOUS
 62
     7
100
AcDbVertex
100
AcDb2dVertex
 10
7720.035009
 20
-19642.049212
 30
0.0
  0
VERTEX
  5
4FA
100
AcDbEntity
  8
0
  6
CONTINUOUS
 62
     7
100
AcDbVertex
100
AcDb2dVertex
 10
7719.807848
 20
-19642.030899
 30
0.0
  0
VERTEX
  5
4FB
100
AcDbEntity
  8
0
  6
CONTINUOUS
 62
     7
100
AcDbVertex
100
AcDb2dVertex
 10
7719.579854
 20
-19642.012512
 30
0.0
  0
VERTEX
  5
4FC
100
AcDbEntity
  8
0
  6
CONTINUOUS
 62
     7
100
AcDbVertex
100
AcDb2dVertex
 10
7719.351173
 20
-19641.99408
 30
0.0
  0
VERTEX
  5
4FD
100
AcDbEntity
  8
0
  6
CONTINUOUS
 62
     7
100
AcDbVertex
100
AcDb2dVertex
 10
7719.121986
 20
-19641.975603
 30
0.0
  0
SEQEND
  5
4FE
100
AcDbEntity
  8
0
  6
CONTINUOUS
 62
     7
  0
POLYLINE
  5
4FF
100
AcDbEntity
  8
0
  6
CONTINUOUS
 62
     7
100
AcDb2dPolyline
 66
     1
 10
0.0
 20
0.0
 30
0.0
 70
   128
  0
VERTEX
  5
500
100
AcDbEntity
  8
0
  6
CONTINUOUS
 62
     7
100
AcDbVertex
100
AcDb2dVertex
 10
7719.05519
 20
-19640.18745
 30
0.0
  0
VERTEX
  5
501
100
AcDbEntity
  8
0
  6
CONTINUOUS
 62
     7
100
AcDbVertex
100
AcDb2dVertex
 10
7719.063388
 20
-19640.406978
 30
0.0
  0
VERTEX
  5
502
100
AcDbEntity
  8
0
  6
CONTINUOUS
 62
     7
100
AcDbVertex
100
AcDb2dVertex
 10
7719.071647
 20
-19640.627952
 30
0.0
  0
VERTEX
  5
503
100
AcDbEntity
  8
0
  6
CONTINUOUS
 62
     7
100
AcDbVertex
100
AcDb2dVertex
 10
7719.079949
 20
-19640.850215
 30
0.0
  0
VERTEX
  5
504
100
AcDbEntity
  8
0
  6
CONTINUOUS
 62
     7
100
AcDbVertex
100
AcDb2dVertex
 10
7719.088297
 20
-19641.073626
 30
0.0
  0
VERTEX
  5
505
100
AcDbEntity
  8
0
  6
CONTINUOUS
 62
     7
100
AcDbVertex
100
AcDb2dVertex
 10
7719.096675
 20
-19641.298029
 30
0.0
  0
VERTEX
  5
506
100
AcDbEntity
  8
0
  6
CONTINUOUS
 62
     7
100
AcDbVertex
100
AcDb2dVertex
 10
7719.105097
 20
-19641.523258
 30
0.0
  0
VERTEX
  5
507
100
AcDbEntity
  8
0
  6
CONTINUOUS
 62
     7
100
AcDbVertex
100
AcDb2dVertex
 10
7719.113534
 20
-19641.749166
 30
0.0
  0
VERTEX
  5
508
100
AcDbEntity
  8
0
  6
CONTINUOUS
 62
     7
100
AcDbVertex
100
AcDb2dVertex
 10
7719.121986
 20
-19641.975603
 30
0.0
  0
SEQEND
  5
509
100
AcDbEntity
  8
0
  6
CONTINUOUS
 62
     7
  0
POLYLINE
  5
50A
100
AcDbEntity
  8
0
  6
CONTINUOUS
 62
     7
100
AcDb2dPolyline
 66
     1
 10
0.0
 20
0.0
 30
0.0
 70
   128
  0
VERTEX
  5
50B
100
AcDbEntity
  8
0
  6
CONTINUOUS
 62
     7
100
AcDbVertex
100
AcDb2dVertex
 10
7718.165973
 20
-19640.174094
 30
0.0
  0
VERTEX
  5
50C
100
AcDbEntity
  8
0
  6
CONTINUOUS
 62
     7
100
AcDbVertex
100
AcDb2dVertex
 10
7718.277056
 20
-19640.175763
 30
0.0
  0
VERTEX
  5
50D
100
AcDbEntity
  8
0
  6
CONTINUOUS
 62
     7
100
AcDbVertex
100
AcDb2dVertex
 10
7718.388199
 20
-19640.177433
 30
0.0
  0
VERTEX
  5
50E
100
AcDbEntity
  8
0
  6
CONTINUOUS
 62
     7
100
AcDbVertex
100
AcDb2dVertex
 10
7718.499371
 20
-19640.179102
 30
0.0
  0
VERTEX
  5
50F
100
AcDbEntity
  8
0
  6
CONTINUOUS
 62
     7
100
AcDbVertex
100
AcDb2dVertex
 10
7718.610574
 20
-19640.180772
 30
0.0
  0
VERTEX
  5
510
100
AcDbEntity
  8
0
  6
CONTINUOUS
 62
     7
100
AcDbVertex
100
AcDb2dVertex
 10
7718.721776
 20
-19640.182441
 30
0.0
  0
VERTEX
  5
511
100
AcDbEntity
  8
0
  6
CONTINUOUS
 62
     7
100
AcDbVertex
100
AcDb2dVertex
 10
7718.832964
 20
-19640.184111
 30
0.0
  0
VERTEX
  5
512
100
AcDbEntity
  8
0
  6
CONTINUOUS
 62
     7
100
AcDbVertex
100
AcDb2dVertex
 10
7718.944107
 20
-19640.185781
 30
0.0
  0
VERTEX
  5
513
100
AcDbEntity
  8
0
  6
CONTINUOUS
 62
     7
100
AcDbVertex
100
AcDb2dVertex
 10
7719.05519
 20
-19640.18745
 30
0.0
  0
SEQEND
  5
514
100
AcDbEntity
  8
0
  6
CONTINUOUS
 62
     7
  0
POLYLINE
  5
515
100
AcDbEntity
  8
0
  6
CONTINUOUS
 62
     7
100
AcDb2dPolyline
 66
     1
 10
0.0
 20
0.0
 30
0.0
 70
   128
  0
VERTEX
  5
516
100
AcDbEntity
  8
0
  6
CONTINUOUS
 62
     7
100
AcDbVertex
100
AcDb2dVertex
 10
7718.043888
 20
-19641.98325
 30
0.0
  0
VERTEX
  5
517
100
AcDbEntity
  8
0
  6
CONTINUOUS
 62
     7
100
AcDbVertex
100
AcDb2dVertex
 10
7718.059346
 20
-19641.754152
 30
0.0
  0
VERTEX
  5
518
100
AcDbEntity
  8
0
  6
CONTINUOUS
 62
     7
100
AcDbVertex
100
AcDb2dVertex
 10
7718.074775
 20
-19641.525584
 30
0.0
  0
VERTEX
  5
519
100
AcDbEntity
  8
0
  6
CONTINUOUS
 62
     7
100
AcDbVertex
100
AcDb2dVertex
 10
7718.090143
 20
-19641.297693
 30
0.0
  0
VERTEX
  5
51A
100
AcDbEntity
  8
0
  6
CONTINUOUS
 62
     7
100
AcDbVertex
100
AcDb2dVertex
 10
7718.105467
 20
-19641.070645
 30
0.0
  0
VERTEX
  5
51B
100
AcDbEntity
  8
0
  6
CONTINUOUS
 62
     7
100
AcDbVertex
100
AcDb2dVertex
 10
7718.120717
 20
-19640.844603
 30
0.0
  0
VERTEX
  5
51C
100
AcDbEntity
  8
0
  6
CONTINUOUS
 62
     7
100
AcDbVertex
100
AcDb2dVertex
 10
7718.135891
 20
-19640.619723
 30
0.0
  0
VERTEX
  5
51D
100
AcDbEntity
  8
0
  6
CONTINUOUS
 62
     7
100
AcDbVertex
100
AcDb2dVertex
 10
7718.150977
 20
-19640.396171
 30
0.0
  0
VERTEX
  5
51E
100
AcDbEntity
  8
0
  6
CONTINUOUS
 62
     7
100
AcDbVertex
100
AcDb2dVertex
 10
7718.165973
 20
-19640.174094
 30
0.0
  0
SEQEND
  5
51F
100
AcDbEntity
  8
0
  6
CONTINUOUS
 62
     7
  0
POLYLINE
  5
520
100
AcDbEntity
  8
0
  6
CONTINUOUS
 62
     7
100
AcDb2dPolyline
 66
     1
 10
0.0
 20
0.0
 30
0.0
 70
   128
  0
VERTEX
  5
521
100
AcDbEntity
  8
0
  6
CONTINUOUS
 62
     7
100
AcDbVertex
100
AcDb2dVertex
 10
7716.231885
 20
-19642.050948
 30
0.0
  0
VERTEX
  5
522
100
AcDbEntity
  8
0
  6
CONTINUOUS
 62
     7
100
AcDbVertex
100
AcDb2dVertex
 10
7716.454305
 20
-19642.042638
 30
0.0
  0
VERTEX
  5
523
100
AcDbEntity
  8
0
  6
CONTINUOUS
 62
     7
100
AcDbVertex
100
AcDb2dVertex
 10
7716.678215
 20
-19642.034268
 30
0.0
  0
VERTEX
  5
524
100
AcDbEntity
  8
0
  6
CONTINUOUS
 62
     7
100
AcDbVertex
100
AcDb2dVertex
 10
7716.903452
 20
-19642.025853
 30
0.0
  0
VERTEX
  5
525
100
AcDbEntity
  8
0
  6
CONTINUOUS
 62
     7
100
AcDbVertex
100
AcDb2dVertex
 10
7717.129852
 20
-19642.017394
 30
0.0
  0
VERTEX
  5
526
100
AcDbEntity
  8
0
  6
CONTINUOUS
 62
     7
100
AcDbVertex
100
AcDb2dVertex
 10
7717.357251
 20
-19642.008904
 30
0.0
  0
VERTEX
  5
527
100
AcDbEntity
  8
0
  6
CONTINUOUS
 62
     7
100
AcDbVertex
100
AcDb2dVertex
 10
7717.585499
 20
-19642.00037
 30
0.0
  0
VERTEX
  5
528
100
AcDbEntity
  8
0
  6
CONTINUOUS
 62
     7
100
AcDbVertex
100
AcDb2dVertex
 10
7717.814433
 20
-19641.991822
 30
0.0
  0
VERTEX
  5
529
100
AcDbEntity
  8
0
  6
CONTINUOUS
 62
     7
100
AcDbVertex
100
AcDb2dVertex
 10
7718.043888
 20
-19641.98325
 30
0.0
  0
SEQEND
  5
52A
100
AcDbEntity
  8
0
  6
CONTINUOUS
 62
     7
  0
POLYLINE
  5
52B
100
AcDbEntity
  8
0
  6
CONTINUOUS
 62
     7
100
AcDb2dPolyline
 66
     1
 10
0.0
 20
0.0
 30
0.0
 70
   128
  0
VERTEX
  5
52C
100
AcDbEntity
  8
0
  6
CONTINUOUS
 62
     7
100
AcDbVertex
100
AcDb2dVertex
 10
7716.218529
 20
-19642.940165
 30
0.0
  0
VERTEX
  5
52D
100
AcDbEntity
  8
0
  6
CONTINUOUS
 62
     7
100
AcDbVertex
100
AcDb2dVertex
 10
7716.220198
 20
-19642.829082
 30
0.0
  0
VERTEX
  5
52E
100
AcDbEntity
  8
0
  6
CONTINUOUS
 62
     7
100
AcDbVertex
100
AcDb2dVertex
 10
7716.221868
 20
-19642.717939
 30
0.0
  0
VERTEX
  5
52F
100
AcDbEntity
  8
0
  6
CONTINUOUS
 62
     7
100
AcDbVertex
100
AcDb2dVertex
 10
7716.223537
 20
-19642.606759
 30
0.0
  0
VERTEX
  5
530
100
AcDbEntity
  8
0
  6
CONTINUOUS
 62
     7
100
AcDbVertex
100
AcDb2dVertex
 10
7716.225207
 20
-19642.495557
 30
0.0
  0
VERTEX
  5
531
100
AcDbEntity
  8
0
  6
CONTINUOUS
 62
     7
100
AcDbVertex
100
AcDb2dVertex
 10
7716.226876
 20
-19642.384354
 30
0.0
  0
VERTEX
  5
532
100
AcDbEntity
  8
0
  6
CONTINUOUS
 62
     7
100
AcDbVertex
100
AcDb2dVertex
 10
7716.228546
 20
-19642.273174
 30
0.0
  0
VERTEX
  5
533
100
AcDbEntity
  8
0
  6
CONTINUOUS
 62
     7
100
AcDbVertex
100
AcDb2dVertex
 10
7716.230215
 20
-19642.162031
 30
0.0
  0
VERTEX
  5
534
100
AcDbEntity
  8
0
  6
CONTINUOUS
 62
     7
100
AcDbVertex
100
AcDb2dVertex
 10
7716.231885
 20
-19642.050948
 30
0.0
  0
SEQEND
  5
535
100
AcDbEntity
  8
0
  6
CONTINUOUS
 62
     7
  0
LINE
  5
536
100
AcDbEntity
  8
0
  6
CONTINUOUS
 62
     7
100
AcDbLine
 10
7718.284688
 20
-19644.680662
 30
0.0
 11
7718.095375
 21
-19644.874246
 31
0.0
  0
LINE
  5
537
100
AcDbEntity
  8
0
  6
CONTINUOUS
 62
     7
100
AcDbLine
 10
7718.284688
 20
-19644.680662
 30
0.0
 11
7718.801183
 21
-19644.688421
 31
0.0
  0
LINE
  5
538
100
AcDbEntity
  8
0
  6
CONTINUOUS
 62
     7
100
AcDbLine
 10
7718.801183
 20
-19644.688421
 30
0.0
 11
7718.984593
 21
-19644.887602
 31
0.0
  0
LINE
  5
539
100
AcDbEntity
  8
0
  6
CONTINUOUS
 62
     7
100
AcDbLine
 10
7718.260107
 20
-19644.022459
 30
0.0
 11
7718.284688
 21
-19644.680662
 31
0.0
  0
LINE
  5
53A
100
AcDbEntity
  8
0
  6
CONTINUOUS
 62
     7
100
AcDbLine
 10
7718.230041
 20
-19643.217791
 30
0.0
 11
7718.040371
 21
-19643.401842
 31
0.0
  0
LINE
  5
53B
100
AcDbEntity
  8
0
  6
CONTINUOUS
 62
     7
100
AcDbLine
 10
7718.230041
 20
-19643.217791
 30
0.0
 11
7718.260107
 21
-19644.022459
 31
0.0
  0
LINE
  5
53C
100
AcDbEntity
  8
0
  6
CONTINUOUS
 62
     7
100
AcDbLine
 10
7716.417709
 20
-19642.756748
 30
0.0
 11
7716.218529
 21
-19642.940165
 31
0.0
  0
LINE
  5
53D
100
AcDbEntity
  8
0
  6
CONTINUOUS
 62
     7
100
AcDbLine
 10
7717.074877
 20
-19642.801095
 30
0.0
 11
7716.417709
 21
-19642.756748
 31
0.0
  0
LINE
  5
53E
100
AcDbEntity
  8
0
  6
CONTINUOUS
 62
     7
100
AcDbLine
 10
7717.878277
 20
-19642.85531
 30
0.0
 11
7717.074877
 21
-19642.801095
 31
0.0
  0
LINE
  5
53F
100
AcDbEntity
  8
0
  6
CONTINUOUS
 62
     7
100
AcDbLine
 10
7717.688622
 20
-19643.039361
 30
0.0
 11
7717.878277
 21
-19642.85531
 31
0.0
  0
LINE
  5
540
100
AcDbEntity
  8
0
  6
CONTINUOUS
 62
     7
100
AcDbLine
 10
7716.425475
 20
-19642.240253
 30
0.0
 11
7716.231885
 21
-19642.050948
 31
0.0
  0
LINE
  5
541
100
AcDbEntity
  8
0
  6
CONTINUOUS
 62
     7
100
AcDbLine
 10
7716.417709
 20
-19642.756748
 30
0.0
 11
7716.425475
 21
-19642.240253
 31
0.0
  0
ARC
  5
542
100
AcDbEntity
  8
0
  6
CONTINUOUS
 62
     7
100
AcDbCircle
 10
7717.853862
 20
-19643.230926
 30
0.0
 40
0.376408
100
AcDbArc
 50
1.999695
 51
86.280903
  0
LINE
  5
543
100
AcDbEntity
  8
0
  6
CONTINUOUS
 62
     7
100
AcDbLine
 10
7717.888339
 20
-19642.185599
 30
0.0
 11
7717.704289
 21
-19641.995936
 31
0.0
  0
LINE
  5
544
100
AcDbEntity
  8
0
  6
CONTINUOUS
 62
     7
100
AcDbLine
 10
7718.06677
 20
-19641.64418
 30
0.0
 11
7718.25082
 21
-19641.83385
 31
0.0
  0
ARC
  5
545
100
AcDbEntity
  8
0
  6
CONTINUOUS
 62
     7
100
AcDbCircle
 10
7717.875228
 20
-19641.809442
 30
0.0
 40
0.376385
100
AcDbArc
 50
271.996282
 51
356.281889
  0
LINE
  5
546
100
AcDbEntity
  8
0
  6
CONTINUOUS
 62
     7
100
AcDbLine
 10
7718.91972
 20
-19641.822186
 30
0.0
 11
7719.109464
 21
-19641.640438
 31
0.0
  0
LINE
  5
547
100
AcDbEntity
  8
0
  6
CONTINUOUS
 62
     7
100
AcDbLine
 10
7719.456309
 20
-19642.002554
 30
0.0
 11
7719.266549
 21
-19642.184302
 31
0.0
  0
ARC
  5
548
100
AcDbEntity
  8
0
  6
CONTINUOUS
 62
     7
100
AcDbCircle
 10
7719.295908
 20
-19641.80903
 30
0.0
 40
0.376419
100
AcDbArc
 50
182.002894
 51
265.526613
  0
LINE
  5
549
100
AcDbEntity
  8
0
  6
CONTINUOUS
 62
     7
100
AcDbLine
 10
7718.801183
 20
-19644.688421
 30
0.0
 11
7718.84553
 21
-19644.031246
 31
0.0
  0
LINE
  5
54A
100
AcDbEntity
  8
0
  6
CONTINUOUS
 62
     7
100
AcDbLine
 10
7718.84553
 20
-19644.031246
 30
0.0
 11
7718.898284
 21
-19643.249535
 31
0.0
  0
LINE
  5
54B
100
AcDbEntity
  8
0
  6
CONTINUOUS
 62
     7
100
AcDbLine
 10
7719.082484
 20
-19643.436894
 30
0.0
 11
7718.898284
 21
-19643.249535
 31
0.0
  0
LINE
  5
54C
100
AcDbEntity
  8
0
  6
CONTINUOUS
 62
     7
100
AcDbLine
 10
7720.732886
 20
-19642.302518
 30
0.0
 11
7720.932037
 21
-19642.12153
 31
0.0
  0
LINE
  5
54D
100
AcDbEntity
  8
0
  6
CONTINUOUS
 62
     7
100
AcDbLine
 10
7720.732886
 20
-19642.302518
 30
0.0
 11
7720.073616
 21
-19642.249369
 31
0.0
  0
LINE
  5
54E
100
AcDbEntity
  8
0
  6
CONTINUOUS
 62
     7
100
AcDbLine
 10
7720.073616
 20
-19642.249369
 30
0.0
 11
7719.266549
 21
-19642.184302
 31
0.0
  0
CIRCLE
  5
54F
100
AcDbEntity
  8
0
  6
CONTINUOUS
 62
     7
100
AcDbCircle
 10
7718.575281
 20
-19642.530843
 30
0.0
 40
5.399438
  0
LINE
  5
550
100
AcDbEntity
  8
0
  6
CONTINUOUS
 62
     7
100
AcDbLine
 10
7716.425475
 20
-19642.240253
 30
0.0
 11
7717.083672
 21
-19642.215665
 31
0.0
  0
LINE
  5
551
100
AcDbEntity
  8
0
  6
CONTINUOUS
 62
     7
100
AcDbLine
 10
7717.083672
 20
-19642.215665
 30
0.0
 11
7717.888339
 21
-19642.185599
 31
0.0
  0
LINE
  5
552
100
AcDbEntity
  8
0
  6
CONTINUOUS
 62
     7
100
AcDbLine
 10
7718.865877
 20
-19640.381033
 30
0.0
 11
7718.890458
 21
-19641.039237
 31
0.0
  0
LINE
  5
553
100
AcDbEntity
  8
0
  6
CONTINUOUS
 62
     7
100
AcDbLine
 10
7718.865877
 20
-19640.381033
 30
0.0
 11
7719.05519
 21
-19640.18745
 31
0.0
  0
LINE
  5
554
100
AcDbEntity
  8
0
  6
CONTINUOUS
 62
     7
100
AcDbLine
 10
7718.890458
 20
-19641.039237
 30
0.0
 11
7718.91972
 21
-19641.822186
 31
0.0
  0
LINE
  5
555
100
AcDbEntity
  8
0
  6
CONTINUOUS
 62
     7
100
AcDbLine
 10
7718.349382
 20
-19640.373274
 30
0.0
 11
7718.865877
 21
-19640.381033
 31
0.0
  0
LINE
  5
556
100
AcDbEntity
  8
0
  6
CONTINUOUS
 62
     7
100
AcDbLine
 10
7718.349382
 20
-19640.373274
 30
0.0
 11
7718.165973
 21
-19640.174094
 31
0.0
  0
LINE
  5
557
100
AcDbEntity
  8
0
  6
CONTINUOUS
 62
     7
100
AcDbLine
 10
7718.305035
 20
-19641.03045
 30
0.0
 11
7718.349382
 21
-19640.373274
 31
0.0
  0
LINE
  5
558
100
AcDbEntity
  8
0
  6
CONTINUOUS
 62
     7
100
AcDbLine
 10
7718.25082
 20
-19641.83385
 30
0.0
 11
7718.305035
 21
-19641.03045
 31
0.0
  0
LINE
  5
559
100
AcDbEntity
  8
0
  6
CONTINUOUS
 62
     7
100
AcDbLine
 10
7719.255831
 20
-19642.897995
 30
0.0
 11
7719.440046
 21
-19643.085362
 31
0.0
  0
ARC
  5
55A
100
AcDbEntity
  8
0
  6
CONTINUOUS
 62
     7
100
AcDbCircle
 10
7719.273905
 20
-19643.273976
 30
0.0
 40
0.376415
100
AcDbArc
 50
92.75216
 51
176.277054
  0
LINE
  5
55B
100
AcDbEntity
  8
0
  6
CONTINUOUS
 62
     7
100
AcDbLine
 10
7720.72506
 20
-19642.823865
 30
0.0
 11
7720.91868
 21
-19643.010748
 31
0.0
  0
LINE
  5
55C
100
AcDbEntity
  8
0
  6
CONTINUOUS
 62
     7
100
AcDbLine
 10
7720.72506
 20
-19642.823865
 30
0.0
 11
7720.732886
 21
-19642.302518
 31
0.0
  0
LINE
  5
55D
100
AcDbEntity
  8
0
  6
CONTINUOUS
 62
     7
100
AcDbLine
 10
7720.064494
 20
-19642.857196
 30
0.0
 11
7720.72506
 21
-19642.823865
 31
0.0
  0
LINE
  5
55E
100
AcDbEntity
  8
0
  6
CONTINUOUS
 62
     7
100
AcDbLine
 10
7719.255831
 20
-19642.897995
 30
0.0
 11
7720.064494
 21
-19642.857196
 31
0.0
  0
ARC
  5
55F
100
AcDbEntity
  8
0
  6
CONTINUOUS
 62
     7
100
AcDbCircle
 10
7718.575329
 20
-19642.530855
 30
0.0
 40
1.524594
100
AcDbArc
 50
168.068792
 51
190.209845
  0
ARC
  5
560
100
AcDbEntity
  8
0
  6
CONTINUOUS
 62
     7
100
AcDbCircle
 10
7718.575271
 20
-19642.531034
 30
0.0
 40
1.524361
100
AcDbArc
 50
258.067945
 51
280.212129
  0
ARC
  5
561
100
AcDbEntity
  8
0
  6
CONTINUOUS
 62
     7
100
AcDbCircle
 10
7718.575295
 20
-19642.530863
 30
0.0
 40
1.524534
100
AcDbArc
 50
347.639946
 51
10.640298
  0
ARC
  5
562
100
AcDbEntity
  8
0
  6
CONTINUOUS
 62
     7
100
AcDbCircle
 10
7718.575294
 20
-19642.530662
 30
0.0
 40
1.524361
100
AcDbArc
 50
78.067945
 51
100.212129
  0
CIRCLE
  5
563
100
AcDbEntity
  8
0
  6
CONTINUOUS
 62
     7
100
AcDbCircle
 10
7210.35893
 20
-19464.73797
 30
0.0
 40
3.557274
  0
POLYLINE
  5
564
100
AcDbEntity
  8
0
  6
CONTINUOUS
 62
     7
100
AcDb2dPolyline
 66
     1
 10
0.0
 20
0.0
 30
0.0
 70
   128
  0
VERTEX
  5
565
100
AcDbEntity
  8
0
  6
CONTINUOUS
 62
     7
100
AcDbVertex
100
AcDb2dVertex
 10
7210.906537
 20
-19464.206564
 30
0.0
  0
VERTEX
  5
566
100
AcDbEntity
  8
0
  6
CONTINUOUS
 62
     7
100
AcDbVertex
100
AcDb2dVertex
 10
7211.13562
 20
-19464.222022
 30
0.0
  0
VERTEX
  5
567
100
AcDbEntity
  8
0
  6
CONTINUOUS
 62
     7
100
AcDbVertex
100
AcDb2dVertex
 10
7211.364196
 20
-19464.237443
 30
0.0
  0
VERTEX
  5
568
100
AcDbEntity
  8
0
  6
CONTINUOUS
 62
     7
100
AcDbVertex
100
AcDb2dVertex
 10
7211.592087
 20
-19464.252826
 30
0.0
  0
VERTEX
  5
569
100
AcDbEntity
  8
0
  6
CONTINUOUS
 62
     7
100
AcDbVertex
100
AcDb2dVertex
 10
7211.819143
 20
-19464.268143
 30
0.0
  0
VERTEX
  5
56A
100
AcDbEntity
  8
0
  6
CONTINUOUS
 62
     7
100
AcDbVertex
100
AcDb2dVertex
 10
7212.045185
 20
-19464.283399
 30
0.0
  0
VERTEX
  5
56B
100
AcDbEntity
  8
0
  6
CONTINUOUS
 62
     7
100
AcDbVertex
100
AcDb2dVertex
 10
7212.270064
 20
-19464.298574
 30
0.0
  0
VERTEX
  5
56C
100
AcDbEntity
  8
0
  6
CONTINUOUS
 62
     7
100
AcDbVertex
100
AcDb2dVertex
 10
7212.493602
 20
-19464.31366
 30
0.0
  0
VERTEX
  5
56D
100
AcDbEntity
  8
0
  6
CONTINUOUS
 62
     7
100
AcDbVertex
100
AcDb2dVertex
 10
7212.715679
 20
-19464.328641
 30
0.0
  0
SEQEND
  5
56E
100
AcDbEntity
  8
0
  6
CONTINUOUS
 62
     7
  0
POLYLINE
  5
56F
100
AcDbEntity
  8
0
  6
CONTINUOUS
 62
     7
100
AcDb2dPolyline
 66
     1
 10
0.0
 20
0.0
 30
0.0
 70
   128
  0
VERTEX
  5
570
100
AcDbEntity
  8
0
  6
CONTINUOUS
 62
     7
100
AcDbVertex
100
AcDb2dVertex
 10
7210.906537
 20
-19464.206564
 30
0.0
  0
VERTEX
  5
571
100
AcDbEntity
  8
0
  6
CONTINUOUS
 62
     7
100
AcDbVertex
100
AcDb2dVertex
 10
7210.897951
 20
-19463.977108
 30
0.0
  0
VERTEX
  5
572
100
AcDbEntity
  8
0
  6
CONTINUOUS
 62
     7
100
AcDbVertex
100
AcDb2dVertex
 10
7210.889395
 20
-19463.748174
 30
0.0
  0
VERTEX
  5
573
100
AcDbEntity
  8
0
  6
CONTINUOUS
 62
     7
100
AcDbVertex
100
AcDb2dVertex
 10
7210.880868
 20
-19463.519926
 30
0.0
  0
VERTEX
  5
574
100
AcDbEntity
  8
0
  6
CONTINUOUS
 62
     7
100
AcDbVertex
100
AcDb2dVertex
 10
7210.872372
 20
-19463.29252
 30
0.0
  0
VERTEX
  5
575
100
AcDbEntity
  8
0
  6
CONTINUOUS
 62
     7
100
AcDbVertex
100
AcDb2dVertex
 10
7210.863934
 20
-19463.06612
 30
0.0
  0
VERTEX
  5
576
100
AcDbEntity
  8
0
  6
CONTINUOUS
 62
     7
100
AcDbVertex
100
AcDb2dVertex
 10
7210.855497
 20
-19462.84089
 30
0.0
  0
VERTEX
  5
577
100
AcDbEntity
  8
0
  6
CONTINUOUS
 62
     7
100
AcDbVertex
100
AcDb2dVertex
 10
7210.84715
 20
-19462.616987
 30
0.0
  0
VERTEX
  5
578
100
AcDbEntity
  8
0
  6
CONTINUOUS
 62
     7
100
AcDbVertex
100
AcDb2dVertex
 10
7210.838832
 20
-19462.39456
 30
0.0
  0
SEQEND
  5
579
100
AcDbEntity
  8
0
  6
CONTINUOUS
 62
     7
  0
POLYLINE
  5
57A
100
AcDbEntity
  8
0
  6
CONTINUOUS
 62
     7
100
AcDb2dPolyline
 66
     1
 10
0.0
 20
0.0
 30
0.0
 70
   128
  0
VERTEX
  5
57B
100
AcDbEntity
  8
0
  6
CONTINUOUS
 62
     7
100
AcDbVertex
100
AcDb2dVertex
 10
7210.838832
 20
-19462.39456
 30
0.0
  0
VERTEX
  5
57C
100
AcDbEntity
  8
0
  6
CONTINUOUS
 62
     7
100
AcDbVertex
100
AcDb2dVertex
 10
7210.727749
 20
-19462.392891
 30
0.0
  0
VERTEX
  5
57D
100
AcDbEntity
  8
0
  6
CONTINUOUS
 62
     7
100
AcDbVertex
100
AcDb2dVertex
 10
7210.616606
 20
-19462.391221
 30
0.0
  0
VERTEX
  5
57E
100
AcDbEntity
  8
0
  6
CONTINUOUS
 62
     7
100
AcDbVertex
100
AcDb2dVertex
 10
7210.505433
 20
-19462.389552
 30
0.0
  0
VERTEX
  5
57F
100
AcDbEntity
  8
0
  6
CONTINUOUS
 62
     7
100
AcDbVertex
100
AcDb2dVertex
 10
7210.394231
 20
-19462.387882
 30
0.0
  0
VERTEX
  5
580
100
AcDbEntity
  8
0
  6
CONTINUOUS
 62
     7
100
AcDbVertex
100
AcDb2dVertex
 10
7210.283028
 20
-19462.386213
 30
0.0
  0
VERTEX
  5
581
100
AcDbEntity
  8
0
  6
CONTINUOUS
 62
     7
100
AcDbVertex
100
AcDb2dVertex
 10
7210.171826
 20
-19462.384543
 30
0.0
  0
VERTEX
  5
582
100
AcDbEntity
  8
0
  6
CONTINUOUS
 62
     7
100
AcDbVertex
100
AcDb2dVertex
 10
7210.060683
 20
-19462.382873
 30
0.0
  0
VERTEX
  5
583
100
AcDbEntity
  8
0
  6
CONTINUOUS
 62
     7
100
AcDbVertex
100
AcDb2dVertex
 10
7209.9496
 20
-19462.381204
 30
0.0
  0
SEQEND
  5
584
100
AcDbEntity
  8
0
  6
CONTINUOUS
 62
     7
  0
POLYLINE
  5
585
100
AcDbEntity
  8
0
  6
CONTINUOUS
 62
     7
100
AcDb2dPolyline
 66
     1
 10
0.0
 20
0.0
 30
0.0
 70
   128
  0
VERTEX
  5
586
100
AcDbEntity
  8
0
  6
CONTINUOUS
 62
     7
100
AcDbVertex
100
AcDb2dVertex
 10
7209.9496
 20
-19462.381204
 30
0.0
  0
VERTEX
  5
587
100
AcDbEntity
  8
0
  6
CONTINUOUS
 62
     7
100
AcDbVertex
100
AcDb2dVertex
 10
7209.934813
 20
-19462.600389
 30
0.0
  0
VERTEX
  5
588
100
AcDbEntity
  8
0
  6
CONTINUOUS
 62
     7
100
AcDbVertex
100
AcDb2dVertex
 10
7209.919936
 20
-19462.821013
 30
0.0
  0
VERTEX
  5
589
100
AcDbEntity
  8
0
  6
CONTINUOUS
 62
     7
100
AcDbVertex
100
AcDb2dVertex
 10
7209.90497
 20
-19463.042933
 30
0.0
  0
VERTEX
  5
58A
100
AcDbEntity
  8
0
  6
CONTINUOUS
 62
     7
100
AcDbVertex
100
AcDb2dVertex
 10
7209.889914
 20
-19463.265994
 30
0.0
  0
VERTEX
  5
58B
100
AcDbEntity
  8
0
  6
CONTINUOUS
 62
     7
100
AcDbVertex
100
AcDb2dVertex
 10
7209.874799
 20
-19463.490038
 30
0.0
  0
VERTEX
  5
58C
100
AcDbEntity
  8
0
  6
CONTINUOUS
 62
     7
100
AcDbVertex
100
AcDb2dVertex
 10
7209.859624
 20
-19463.71491
 30
0.0
  0
VERTEX
  5
58D
100
AcDbEntity
  8
0
  6
CONTINUOUS
 62
     7
100
AcDbVertex
100
AcDb2dVertex
 10
7209.84439
 20
-19463.940468
 30
0.0
  0
VERTEX
  5
58E
100
AcDbEntity
  8
0
  6
CONTINUOUS
 62
     7
100
AcDbVertex
100
AcDb2dVertex
 10
7209.829126
 20
-19464.166547
 30
0.0
  0
SEQEND
  5
58F
100
AcDbEntity
  8
0
  6
CONTINUOUS
 62
     7
  0
POLYLINE
  5
590
100
AcDbEntity
  8
0
  6
CONTINUOUS
 62
     7
100
AcDb2dPolyline
 66
     1
 10
0.0
 20
0.0
 30
0.0
 70
   128
  0
VERTEX
  5
591
100
AcDbEntity
  8
0
  6
CONTINUOUS
 62
     7
100
AcDbVertex
100
AcDb2dVertex
 10
7209.829126
 20
-19464.166547
 30
0.0
  0
VERTEX
  5
592
100
AcDbEntity
  8
0
  6
CONTINUOUS
 62
     7
100
AcDbVertex
100
AcDb2dVertex
 10
7209.599506
 20
-19464.17813
 30
0.0
  0
VERTEX
  5
593
100
AcDbEntity
  8
0
  6
CONTINUOUS
 62
     7
100
AcDbVertex
100
AcDb2dVertex
 10
7209.370363
 20
-19464.18969
 30
0.0
  0
VERTEX
  5
594
100
AcDbEntity
  8
0
  6
CONTINUOUS
 62
     7
100
AcDbVertex
100
AcDb2dVertex
 10
7209.141936
 20
-19464.20122
 30
0.0
  0
VERTEX
  5
595
100
AcDbEntity
  8
0
  6
CONTINUOUS
 62
     7
100
AcDbVertex
100
AcDb2dVertex
 10
7208.914314
 20
-19464.212705
 30
0.0
  0
VERTEX
  5
596
100
AcDbEntity
  8
0
  6
CONTINUOUS
 62
     7
100
AcDbVertex
100
AcDb2dVertex
 10
7208.687735
 20
-19464.224139
 30
0.0
  0
VERTEX
  5
597
100
AcDbEntity
  8
0
  6
CONTINUOUS
 62
     7
100
AcDbVertex
100
AcDb2dVertex
 10
7208.462289
 20
-19464.235512
 30
0.0
  0
VERTEX
  5
598
100
AcDbEntity
  8
0
  6
CONTINUOUS
 62
     7
100
AcDbVertex
100
AcDb2dVertex
 10
7208.238155
 20
-19464.246819
 30
0.0
  0
VERTEX
  5
599
100
AcDbEntity
  8
0
  6
CONTINUOUS
 62
     7
100
AcDbVertex
100
AcDb2dVertex
 10
7208.015542
 20
-19464.258058
 30
0.0
  0
SEQEND
  5
59A
100
AcDbEntity
  8
0
  6
CONTINUOUS
 62
     7
  0
POLYLINE
  5
59B
100
AcDbEntity
  8
0
  6
CONTINUOUS
 62
     7
100
AcDb2dPolyline
 66
     1
 10
0.0
 20
0.0
 30
0.0
 70
   128
  0
VERTEX
  5
59C
100
AcDbEntity
  8
0
  6
CONTINUOUS
 62
     7
100
AcDbVertex
100
AcDb2dVertex
 10
7208.015542
 20
-19464.258058
 30
0.0
  0
VERTEX
  5
59D
100
AcDbEntity
  8
0
  6
CONTINUOUS
 62
     7
100
AcDbVertex
100
AcDb2dVertex
 10
7208.013872
 20
-19464.369142
 30
0.0
  0
VERTEX
  5
59E
100
AcDbEntity
  8
0
  6
CONTINUOUS
 62
     7
100
AcDbVertex
100
AcDb2dVertex
 10
7208.012203
 20
-19464.480284
 30
0.0
  0
VERTEX
  5
59F
100
AcDbEntity
  8
0
  6
CONTINUOUS
 62
     7
100
AcDbVertex
100
AcDb2dVertex
 10
7208.010533
 20
-19464.591464
 30
0.0
  0
VERTEX
  5
5A0
100
AcDbEntity
  8
0
  6
CONTINUOUS
 62
     7
100
AcDbVertex
100
AcDb2dVertex
 10
7208.008864
 20
-19464.702667
 30
0.0
  0
VERTEX
  5
5A1
100
AcDbEntity
  8
0
  6
CONTINUOUS
 62
     7
100
AcDbVertex
100
AcDb2dVertex
 10
7208.007194
 20
-19464.813869
 30
0.0
  0
VERTEX
  5
5A2
100
AcDbEntity
  8
0
  6
CONTINUOUS
 62
     7
100
AcDbVertex
100
AcDb2dVertex
 10
7208.005525
 20
-19464.925049
 30
0.0
  0
VERTEX
  5
5A3
100
AcDbEntity
  8
0
  6
CONTINUOUS
 62
     7
100
AcDbVertex
100
AcDb2dVertex
 10
7208.003855
 20
-19465.036192
 30
0.0
  0
VERTEX
  5
5A4
100
AcDbEntity
  8
0
  6
CONTINUOUS
 62
     7
100
AcDbVertex
100
AcDb2dVertex
 10
7208.002186
 20
-19465.147275
 30
0.0
  0
SEQEND
  5
5A5
100
AcDbEntity
  8
0
  6
CONTINUOUS
 62
     7
  0
POLYLINE
  5
5A6
100
AcDbEntity
  8
0
  6
CONTINUOUS
 62
     7
100
AcDb2dPolyline
 66
     1
 10
0.0
 20
0.0
 30
0.0
 70
   128
  0
VERTEX
  5
5A7
100
AcDbEntity
  8
0
  6
CONTINUOUS
 62
     7
100
AcDbVertex
100
AcDb2dVertex
 10
7208.002186
 20
-19465.147275
 30
0.0
  0
VERTEX
  5
5A8
100
AcDbEntity
  8
0
  6
CONTINUOUS
 62
     7
100
AcDbVertex
100
AcDb2dVertex
 10
7208.224382
 20
-19465.165186
 30
0.0
  0
VERTEX
  5
5A9
100
AcDbEntity
  8
0
  6
CONTINUOUS
 62
     7
100
AcDbVertex
100
AcDb2dVertex
 10
7208.448039
 20
-19465.183222
 30
0.0
  0
VERTEX
  5
5AA
100
AcDbEntity
  8
0
  6
CONTINUOUS
 62
     7
100
AcDbVertex
100
AcDb2dVertex
 10
7208.673038
 20
-19465.201364
 30
0.0
  0
VERTEX
  5
5AB
100
AcDbEntity
  8
0
  6
CONTINUOUS
 62
     7
100
AcDbVertex
100
AcDb2dVertex
 10
7208.899199
 20
-19465.219594
 30
0.0
  0
VERTEX
  5
5AC
100
AcDbEntity
  8
0
  6
CONTINUOUS
 62
     7
100
AcDbVertex
100
AcDb2dVertex
 10
7209.126374
 20
-19465.237907
 30
0.0
  0
VERTEX
  5
5AD
100
AcDbEntity
  8
0
  6
CONTINUOUS
 62
     7
100
AcDbVertex
100
AcDb2dVertex
 10
7209.354354
 20
-19465.256294
 30
0.0
  0
VERTEX
  5
5AE
100
AcDbEntity
  8
0
  6
CONTINUOUS
 62
     7
100
AcDbVertex
100
AcDb2dVertex
 10
7209.583019
 20
-19465.274726
 30
0.0
  0
VERTEX
  5
5AF
100
AcDbEntity
  8
0
  6
CONTINUOUS
 62
     7
100
AcDbVertex
100
AcDb2dVertex
 10
7209.812222
 20
-19465.293203
 30
0.0
  0
SEQEND
  5
5B0
100
AcDbEntity
  8
0
  6
CONTINUOUS
 62
     7
  0
POLYLINE
  5
5B1
100
AcDbEntity
  8
0
  6
CONTINUOUS
 62
     7
100
AcDb2dPolyline
 66
     1
 10
0.0
 20
0.0
 30
0.0
 70
   128
  0
VERTEX
  5
5B2
100
AcDbEntity
  8
0
  6
CONTINUOUS
 62
     7
100
AcDbVertex
100
AcDb2dVertex
 10
7209.879033
 20
-19467.081356
 30
0.0
  0
VERTEX
  5
5B3
100
AcDbEntity
  8
0
  6
CONTINUOUS
 62
     7
100
AcDbVertex
100
AcDb2dVertex
 10
7209.870834
 20
-19466.861828
 30
0.0
  0
VERTEX
  5
5B4
100
AcDbEntity
  8
0
  6
CONTINUOUS
 62
     7
100
AcDbVertex
100
AcDb2dVertex
 10
7209.862576
 20
-19466.640854
 30
0.0
  0
VERTEX
  5
5B5
100
AcDbEntity
  8
0
  6
CONTINUOUS
 62
     7
100
AcDbVertex
100
AcDb2dVertex
 10
7209.854258
 20
-19466.418591
 30
0.0
  0
VERTEX
  5
5B6
100
AcDbEntity
  8
0
  6
CONTINUOUS
 62
     7
100
AcDbVertex
100
AcDb2dVertex
 10
7209.84591
 20
-19466.19518
 30
0.0
  0
VERTEX
  5
5B7
100
AcDbEntity
  8
0
  6
CONTINUOUS
 62
     7
100
AcDbVertex
100
AcDb2dVertex
 10
7209.837533
 20
-19465.970777
 30
0.0
  0
VERTEX
  5
5B8
100
AcDbEntity
  8
0
  6
CONTINUOUS
 62
     7
100
AcDbVertex
100
AcDb2dVertex
 10
7209.829126
 20
-19465.745548
 30
0.0
  0
VERTEX
  5
5B9
100
AcDbEntity
  8
0
  6
CONTINUOUS
 62
     7
100
AcDbVertex
100
AcDb2dVertex
 10
7209.820689
 20
-19465.51964
 30
0.0
  0
VERTEX
  5
5BA
100
AcDbEntity
  8
0
  6
CONTINUOUS
 62
     7
100
AcDbVertex
100
AcDb2dVertex
 10
7209.812222
 20
-19465.293203
 30
0.0
  0
SEQEND
  5
5BB
100
AcDbEntity
  8
0
  6
CONTINUOUS
 62
     7
  0
POLYLINE
  5
5BC
100
AcDbEntity
  8
0
  6
CONTINUOUS
 62
     7
100
AcDb2dPolyline
 66
     1
 10
0.0
 20
0.0
 30
0.0
 70
   128
  0
VERTEX
  5
5BD
100
AcDbEntity
  8
0
  6
CONTINUOUS
 62
     7
100
AcDbVertex
100
AcDb2dVertex
 10
7210.768235
 20
-19467.094712
 30
0.0
  0
VERTEX
  5
5BE
100
AcDbEntity
  8
0
  6
CONTINUOUS
 62
     7
100
AcDbVertex
100
AcDb2dVertex
 10
7210.657152
 20
-19467.093043
 30
0.0
  0
VERTEX
  5
5BF
100
AcDbEntity
  8
0
  6
CONTINUOUS
 62
     7
100
AcDbVertex
100
AcDb2dVertex
 10
7210.546009
 20
-19467.091373
 30
0.0
  0
VERTEX
  5
5C0
100
AcDbEntity
  8
0
  6
CONTINUOUS
 62
     7
100
AcDbVertex
100
AcDb2dVertex
 10
7210.434836
 20
-19467.089703
 30
0.0
  0
VERTEX
  5
5C1
100
AcDbEntity
  8
0
  6
CONTINUOUS
 62
     7
100
AcDbVertex
100
AcDb2dVertex
 10
7210.323634
 20
-19467.088034
 30
0.0
  0
VERTEX
  5
5C2
100
AcDbEntity
  8
0
  6
CONTINUOUS
 62
     7
100
AcDbVertex
100
AcDb2dVertex
 10
7210.212431
 20
-19467.086364
 30
0.0
  0
VERTEX
  5
5C3
100
AcDbEntity
  8
0
  6
CONTINUOUS
 62
     7
100
AcDbVertex
100
AcDb2dVertex
 10
7210.101259
 20
-19467.084695
 30
0.0
  0
VERTEX
  5
5C4
100
AcDbEntity
  8
0
  6
CONTINUOUS
 62
     7
100
AcDbVertex
100
AcDb2dVertex
 10
7209.990116
 20
-19467.083025
 30
0.0
  0
VERTEX
  5
5C5
100
AcDbEntity
  8
0
  6
CONTINUOUS
 62
     7
100
AcDbVertex
100
AcDb2dVertex
 10
7209.879033
 20
-19467.081356
 30
0.0
  0
SEQEND
  5
5C6
100
AcDbEntity
  8
0
  6
CONTINUOUS
 62
     7
  0
POLYLINE
  5
5C7
100
AcDbEntity
  8
0
  6
CONTINUOUS
 62
     7
100
AcDb2dPolyline
 66
     1
 10
0.0
 20
0.0
 30
0.0
 70
   128
  0
VERTEX
  5
5C8
100
AcDbEntity
  8
0
  6
CONTINUOUS
 62
     7
100
AcDbVertex
100
AcDb2dVertex
 10
7210.890319
 20
-19465.285556
 30
0.0
  0
VERTEX
  5
5C9
100
AcDbEntity
  8
0
  6
CONTINUOUS
 62
     7
100
AcDbVertex
100
AcDb2dVertex
 10
7210.874876
 20
-19465.514653
 30
0.0
  0
VERTEX
  5
5CA
100
AcDbEntity
  8
0
  6
CONTINUOUS
 62
     7
100
AcDbVertex
100
AcDb2dVertex
 10
7210.859433
 20
-19465.743222
 30
0.0
  0
VERTEX
  5
5CB
100
AcDbEntity
  8
0
  6
CONTINUOUS
 62
     7
100
AcDbVertex
100
AcDb2dVertex
 10
7210.844049
 20
-19465.971113
 30
0.0
  0
VERTEX
  5
5CC
100
AcDbEntity
  8
0
  6
CONTINUOUS
 62
     7
100
AcDbVertex
100
AcDb2dVertex
 10
7210.828755
 20
-19466.198161
 30
0.0
  0
VERTEX
  5
5CD
100
AcDbEntity
  8
0
  6
CONTINUOUS
 62
     7
100
AcDbVertex
100
AcDb2dVertex
 10
7210.813491
 20
-19466.424203
 30
0.0
  0
VERTEX
  5
5CE
100
AcDbEntity
  8
0
  6
CONTINUOUS
 62
     7
100
AcDbVertex
100
AcDb2dVertex
 10
7210.798316
 20
-19466.649082
 30
0.0
  0
VERTEX
  5
5CF
100
AcDbEntity
  8
0
  6
CONTINUOUS
 62
     7
100
AcDbVertex
100
AcDb2dVertex
 10
7210.783231
 20
-19466.872635
 30
0.0
  0
VERTEX
  5
5D0
100
AcDbEntity
  8
0
  6
CONTINUOUS
 62
     7
100
AcDbVertex
100
AcDb2dVertex
 10
7210.768235
 20
-19467.094712
 30
0.0
  0
SEQEND
  5
5D1
100
AcDbEntity
  8
0
  6
CONTINUOUS
 62
     7
  0
POLYLINE
  5
5D2
100
AcDbEntity
  8
0
  6
CONTINUOUS
 62
     7
100
AcDb2dPolyline
 66
     1
 10
0.0
 20
0.0
 30
0.0
 70
   128
  0
VERTEX
  5
5D3
100
AcDbEntity
  8
0
  6
CONTINUOUS
 62
     7
100
AcDbVertex
100
AcDb2dVertex
 10
7212.702323
 20
-19465.217858
 30
0.0
  0
VERTEX
  5
5D4
100
AcDbEntity
  8
0
  6
CONTINUOUS
 62
     7
100
AcDbVertex
100
AcDb2dVertex
 10
7212.479888
 20
-19465.226168
 30
0.0
  0
VERTEX
  5
5D5
100
AcDbEntity
  8
0
  6
CONTINUOUS
 62
     7
100
AcDbVertex
100
AcDb2dVertex
 10
7212.255992
 20
-19465.234538
 30
0.0
  0
VERTEX
  5
5D6
100
AcDbEntity
  8
0
  6
CONTINUOUS
 62
     7
100
AcDbVertex
100
AcDb2dVertex
 10
7212.030755
 20
-19465.242953
 30
0.0
  0
VERTEX
  5
5D7
100
AcDbEntity
  8
0
  6
CONTINUOUS
 62
     7
100
AcDbVertex
100
AcDb2dVertex
 10
7211.804355
 20
-19465.251412
 30
0.0
  0
VERTEX
  5
5D8
100
AcDbEntity
  8
0
  6
CONTINUOUS
 62
     7
100
AcDbVertex
100
AcDb2dVertex
 10
7211.576972
 20
-19465.259901
 30
0.0
  0
VERTEX
  5
5D9
100
AcDbEntity
  8
0
  6
CONTINUOUS
 62
     7
100
AcDbVertex
100
AcDb2dVertex
 10
7211.348723
 20
-19465.268435
 30
0.0
  0
VERTEX
  5
5DA
100
AcDbEntity
  8
0
  6
CONTINUOUS
 62
     7
100
AcDbVertex
100
AcDb2dVertex
 10
7211.11979
 20
-19465.276984
 30
0.0
  0
VERTEX
  5
5DB
100
AcDbEntity
  8
0
  6
CONTINUOUS
 62
     7
100
AcDbVertex
100
AcDb2dVertex
 10
7210.890319
 20
-19465.285556
 30
0.0
  0
SEQEND
  5
5DC
100
AcDbEntity
  8
0
  6
CONTINUOUS
 62
     7
  0
POLYLINE
  5
5DD
100
AcDbEntity
  8
0
  6
CONTINUOUS
 62
     7
100
AcDb2dPolyline
 66
     1
 10
0.0
 20
0.0
 30
0.0
 70
   128
  0
VERTEX
  5
5DE
100
AcDbEntity
  8
0
  6
CONTINUOUS
 62
     7
100
AcDbVertex
100
AcDb2dVertex
 10
7212.715679
 20
-19464.328641
 30
0.0
  0
VERTEX
  5
5DF
100
AcDbEntity
  8
0
  6
CONTINUOUS
 62
     7
100
AcDbVertex
100
AcDb2dVertex
 10
7212.714009
 20
-19464.439724
 30
0.0
  0
VERTEX
  5
5E0
100
AcDbEntity
  8
0
  6
CONTINUOUS
 62
     7
100
AcDbVertex
100
AcDb2dVertex
 10
7212.71234
 20
-19464.550867
 30
0.0
  0
VERTEX
  5
5E1
100
AcDbEntity
  8
0
  6
CONTINUOUS
 62
     7
100
AcDbVertex
100
AcDb2dVertex
 10
7212.71067
 20
-19464.662047
 30
0.0
  0
VERTEX
  5
5E2
100
AcDbEntity
  8
0
  6
CONTINUOUS
 62
     7
100
AcDbVertex
100
AcDb2dVertex
 10
7212.709001
 20
-19464.773249
 30
0.0
  0
VERTEX
  5
5E3
100
AcDbEntity
  8
0
  6
CONTINUOUS
 62
     7
100
AcDbVertex
100
AcDb2dVertex
 10
7212.707331
 20
-19464.884452
 30
0.0
  0
VERTEX
  5
5E4
100
AcDbEntity
  8
0
  6
CONTINUOUS
 62
     7
100
AcDbVertex
100
AcDb2dVertex
 10
7212.705662
 20
-19464.995632
 30
0.0
  0
VERTEX
  5
5E5
100
AcDbEntity
  8
0
  6
CONTINUOUS
 62
     7
100
AcDbVertex
100
AcDb2dVertex
 10
7212.703992
 20
-19465.106774
 30
0.0
  0
VERTEX
  5
5E6
100
AcDbEntity
  8
0
  6
CONTINUOUS
 62
     7
100
AcDbVertex
100
AcDb2dVertex
 10
7212.702323
 20
-19465.217858
 30
0.0
  0
SEQEND
  5
5E7
100
AcDbEntity
  8
0
  6
CONTINUOUS
 62
     7
  0
LINE
  5
5E8
100
AcDbEntity
  8
0
  6
CONTINUOUS
 62
     7
100
AcDbLine
 10
7210.674115
 20
-19463.246347
 30
0.0
 11
7210.649519
 21
-19462.588143
 31
0.0
  0
LINE
  5
5E9
100
AcDbEntity
  8
0
  6
CONTINUOUS
 62
     7
100
AcDbLine
 10
7210.649519
 20
-19462.588143
 30
0.0
 11
7210.838832
 21
-19462.39456
 31
0.0
  0
LINE
  5
5EA
100
AcDbEntity
  8
0
  6
CONTINUOUS
 62
     7
100
AcDbLine
 10
7210.704167
 20
-19464.051015
 30
0.0
 11
7210.893837
 21
-19463.866964
 31
0.0
  0
LINE
  5
5EB
100
AcDbEntity
  8
0
  6
CONTINUOUS
 62
     7
100
AcDbLine
 10
7210.704167
 20
-19464.051015
 30
0.0
 11
7210.674115
 21
-19463.246347
 31
0.0
  0
LINE
  5
5EC
100
AcDbEntity
  8
0
  6
CONTINUOUS
 62
     7
100
AcDbLine
 10
7210.649519
 20
-19462.588143
 30
0.0
 11
7210.133039
 21
-19462.580385
 31
0.0
  0
LINE
  5
5ED
100
AcDbEntity
  8
0
  6
CONTINUOUS
 62
     7
100
AcDbLine
 10
7210.133039
 20
-19462.580385
 30
0.0
 11
7209.9496
 21
-19462.381204
 31
0.0
  0
LINE
  5
5EE
100
AcDbEntity
  8
0
  6
CONTINUOUS
 62
     7
100
AcDbLine
 10
7211.2456
 20
-19464.229445
 30
0.0
 11
7211.05593
 21
-19464.413496
 31
0.0
  0
ARC
  5
5EF
100
AcDbEntity
  8
0
  6
CONTINUOUS
 62
     7
100
AcDbCircle
 10
7211.080348
 20
-19464.037878
 30
0.0
 40
0.376411
100
AcDbArc
 50
181.999991
 51
266.280607
  0
LINE
  5
5F0
100
AcDbEntity
  8
0
  6
CONTINUOUS
 62
     7
100
AcDbLine
 10
7212.516498
 20
-19464.512058
 30
0.0
 11
7212.715679
 21
-19464.328641
 31
0.0
  0
LINE
  5
5F1
100
AcDbEntity
  8
0
  6
CONTINUOUS
 62
     7
100
AcDbLine
 10
7211.859331
 20
-19464.467711
 30
0.0
 11
7212.516498
 21
-19464.512058
 31
0.0
  0
LINE
  5
5F2
100
AcDbEntity
  8
0
  6
CONTINUOUS
 62
     7
100
AcDbLine
 10
7211.05593
 20
-19464.413496
 30
0.0
 11
7211.859331
 21
-19464.467711
 31
0.0
  0
LINE
  5
5F3
100
AcDbEntity
  8
0
  6
CONTINUOUS
 62
     7
100
AcDbLine
 10
7212.508747
 20
-19465.028553
 30
0.0
 11
7212.702323
 21
-19465.217858
 31
0.0
  0
LINE
  5
5F4
100
AcDbEntity
  8
0
  6
CONTINUOUS
 62
     7
100
AcDbLine
 10
7212.516498
 20
-19464.512058
 30
0.0
 11
7212.508747
 21
-19465.028553
 31
0.0
  0
LINE
  5
5F5
100
AcDbEntity
  8
0
  6
CONTINUOUS
 62
     7
100
AcDbLine
 10
7211.045883
 20
-19465.083207
 30
0.0
 11
7211.229919
 21
-19465.27287
 31
0.0
  0
LINE
  5
5F6
100
AcDbEntity
  8
0
  6
CONTINUOUS
 62
     7
100
AcDbLine
 10
7210.867452
 20
-19465.624626
 30
0.0
 11
7210.683387
 21
-19465.434956
 31
0.0
  0
ARC
  5
5F7
100
AcDbEntity
  8
0
  6
CONTINUOUS
 62
     7
100
AcDbCircle
 10
7211.058995
 20
-19465.45938
 30
0.0
 40
0.376401
100
AcDbArc
 50
91.996248
 51
176.279568
  0
LINE
  5
5F8
100
AcDbEntity
  8
0
  6
CONTINUOUS
 62
     7
100
AcDbLine
 10
7210.068345
 20
-19466.887773
 30
0.0
 11
7210.043749
 21
-19466.229569
 31
0.0
  0
LINE
  5
5F9
100
AcDbEntity
  8
0
  6
CONTINUOUS
 62
     7
100
AcDbLine
 10
7210.068345
 20
-19466.887773
 30
0.0
 11
7209.879033
 21
-19467.081356
 31
0.0
  0
LINE
  5
5FA
100
AcDbEntity
  8
0
  6
CONTINUOUS
 62
     7
100
AcDbLine
 10
7210.014503
 20
-19465.44662
 30
0.0
 11
7209.824743
 21
-19465.628368
 31
0.0
  0
LINE
  5
5FB
100
AcDbEntity
  8
0
  6
CONTINUOUS
 62
     7
100
AcDbLine
 10
7210.043749
 20
-19466.229569
 30
0.0
 11
7210.014503
 21
-19465.44662
 31
0.0
  0
LINE
  5
5FC
100
AcDbEntity
  8
0
  6
CONTINUOUS
 62
     7
100
AcDbLine
 10
7209.477899
 20
-19465.266252
 30
0.0
 11
7209.667658
 21
-19465.084504
 31
0.0
  0
ARC
  5
5FD
100
AcDbEntity
  8
0
  6
CONTINUOUS
 62
     7
100
AcDbCircle
 10
7209.638271
 20
-19465.459819
 30
0.0
 40
0.376463
100
AcDbArc
 50
2.009173
 51
85.522793
  0
LINE
  5
5FE
100
AcDbEntity
  8
0
  6
CONTINUOUS
 62
     7
100
AcDbLine
 10
7208.201307
 20
-19464.966288
 30
0.0
 11
7208.002186
 21
-19465.147275
 31
0.0
  0
LINE
  5
5FF
100
AcDbEntity
  8
0
  6
CONTINUOUS
 62
     7
100
AcDbLine
 10
7208.201307
 20
-19464.966288
 30
0.0
 11
7208.860591
 21
-19465.019437
 31
0.0
  0
LINE
  5
600
100
AcDbEntity
  8
0
  6
CONTINUOUS
 62
     7
100
AcDbLine
 10
7208.860591
 20
-19465.019437
 30
0.0
 11
7209.667658
 21
-19465.084504
 31
0.0
  0
LINE
  5
601
100
AcDbEntity
  8
0
  6
CONTINUOUS
 62
     7
100
AcDbLine
 10
7212.508747
 20
-19465.028553
 30
0.0
 11
7211.850536
 21
-19465.053141
 31
0.0
  0
LINE
  5
602
100
AcDbEntity
  8
0
  6
CONTINUOUS
 62
     7
100
AcDbLine
 10
7211.850536
 20
-19465.053141
 30
0.0
 11
7211.045883
 21
-19465.083207
 31
0.0
  0
LINE
  5
603
100
AcDbEntity
  8
0
  6
CONTINUOUS
 62
     7
100
AcDbLine
 10
7210.133039
 20
-19462.580385
 30
0.0
 11
7210.088677
 21
-19463.23756
 31
0.0
  0
LINE
  5
604
100
AcDbEntity
  8
0
  6
CONTINUOUS
 62
     7
100
AcDbLine
 10
7210.088677
 20
-19463.23756
 30
0.0
 11
7210.035938
 21
-19464.019271
 31
0.0
  0
LINE
  5
605
100
AcDbEntity
  8
0
  6
CONTINUOUS
 62
     7
100
AcDbLine
 10
7209.851724
 20
-19463.831911
 30
0.0
 11
7210.035938
 21
-19464.019271
 31
0.0
  0
CIRCLE
  5
606
100
AcDbEntity
  8
0
  6
CONTINUOUS
 62
     7
100
AcDbCircle
 10
7210.358931
 20
-19464.737954
 30
0.0
 40
5.399431
  0
LINE
  5
607
100
AcDbEntity
  8
0
  6
CONTINUOUS
 62
     7
100
AcDbLine
 10
7210.584825
 20
-19466.895531
 30
0.0
 11
7210.768235
 21
-19467.094712
 31
0.0
  0
LINE
  5
608
100
AcDbEntity
  8
0
  6
CONTINUOUS
 62
     7
100
AcDbLine
 10
7210.629187
 20
-19466.238356
 30
0.0
 11
7210.584825
 21
-19466.895531
 31
0.0
  0
LINE
  5
609
100
AcDbEntity
  8
0
  6
CONTINUOUS
 62
     7
100
AcDbLine
 10
7210.683387
 20
-19465.434956
 30
0.0
 11
7210.629187
 21
-19466.238356
 31
0.0
  0
LINE
  5
60A
100
AcDbEntity
  8
0
  6
CONTINUOUS
 62
     7
100
AcDbLine
 10
7210.584825
 20
-19466.895531
 30
0.0
 11
7210.068345
 21
-19466.887773
 31
0.0
  0
LINE
  5
60B
100
AcDbEntity
  8
0
  6
CONTINUOUS
 62
     7
100
AcDbLine
 10
7209.678391
 20
-19464.370811
 30
0.0
 11
7209.494177
 21
-19464.183444
 31
0.0
  0
ARC
  5
60C
100
AcDbEntity
  8
0
  6
CONTINUOUS
 62
     7
100
AcDbCircle
 10
7209.660276
 20
-19463.994788
 30
0.0
 40
0.376459
100
AcDbArc
 50
272.758123
 51
356.271092
  0
LINE
  5
60D
100
AcDbEntity
  8
0
  6
CONTINUOUS
 62
     7
100
AcDbLine
 10
7208.209147
 20
-19464.444941
 30
0.0
 11
7208.015542
 21
-19464.258058
 31
0.0
  0
LINE
  5
60E
100
AcDbEntity
  8
0
  6
CONTINUOUS
 62
     7
100
AcDbLine
 10
7208.209147
 20
-19464.444941
 30
0.0
 11
7208.201307
 21
-19464.966288
 31
0.0
  0
LINE
  5
60F
100
AcDbEntity
  8
0
  6
CONTINUOUS
 62
     7
100
AcDbLine
 10
7208.869714
 20
-19464.41161
 30
0.0
 11
7208.209147
 21
-19464.444941
 31
0.0
  0
LINE
  5
610
100
AcDbEntity
  8
0
  6
CONTINUOUS
 62
     7
100
AcDbLine
 10
7209.678391
 20
-19464.370811
 30
0.0
 11
7208.869714
 21
-19464.41161
 31
0.0
  0
ARC
  5
611
100
AcDbEntity
  8
0
  6
CONTINUOUS
 62
     7
100
AcDbCircle
 10
7210.358879
 20
-19464.737951
 30
0.0
 40
1.524594
100
AcDbArc
 50
348.068792
 51
10.209845
  0
ARC
  5
612
100
AcDbEntity
  8
0
  6
CONTINUOUS
 62
     7
100
AcDbCircle
 10
7210.358943
 20
-19464.737843
 30
0.0
 40
1.524432
100
AcDbArc
 50
78.068203
 51
100.211914
  0
ARC
  5
613
100
AcDbEntity
  8
0
  6
CONTINUOUS
 62
     7
100
AcDbCircle
 10
7210.359655
 20
-19464.737954
 30
0.0
 40
1.525262
100
AcDbArc
 50
167.645509
 51
190.634735
  0
ARC
  5
614
100
AcDbEntity
  8
0
  6
CONTINUOUS
 62
     7
100
AcDbCircle
 10
7210.358921
 20
-19464.738073
 30
0.0
 40
1.524432
100
AcDbArc
 50
258.068203
 51
280.211914
  0
CIRCLE
  5
615
100
AcDbEntity
  8
0
  6
CONTINUOUS
 62
     7
100
AcDbCircle
 10
7375.535284
 20
-19299.538606
 30
0.0
 40
3.557276
  0
POLYLINE
  5
616
100
AcDbEntity
  8
0
  6
CONTINUOUS
 62
     7
100
AcDb2dPolyline
 66
     1
 10
0.0
 20
0.0
 30
0.0
 70
   128
  0
VERTEX
  5
617
100
AcDbEntity
  8
0
  6
CONTINUOUS
 62
     7
100
AcDbVertex
100
AcDb2dVertex
 10
7376.29217
 20
-19299.635429
 30
0.0
  0
VERTEX
  5
618
100
AcDbEntity
  8
0
  6
CONTINUOUS
 62
     7
100
AcDbVertex
100
AcDb2dVertex
 10
7376.42293
 20
-19299.824175
 30
0.0
  0
VERTEX
  5
619
100
AcDbEntity
  8
0
  6
CONTINUOUS
 62
     7
100
AcDbVertex
100
AcDb2dVertex
 10
7376.553377
 20
-19300.012474
 30
0.0
  0
VERTEX
  5
61A
100
AcDbEntity
  8
0
  6
CONTINUOUS
 62
     7
100
AcDbVertex
100
AcDb2dVertex
 10
7376.683436
 20
-19300.200236
 30
0.0
  0
VERTEX
  5
61B
100
AcDbEntity
  8
0
  6
CONTINUOUS
 62
     7
100
AcDbVertex
100
AcDb2dVertex
 10
7376.813018
 20
-19300.387313
 30
0.0
  0
VERTEX
  5
61C
100
AcDbEntity
  8
0
  6
CONTINUOUS
 62
     7
100
AcDbVertex
100
AcDb2dVertex
 10
7376.942034
 20
-19300.573554
 30
0.0
  0
VERTEX
  5
61D
100
AcDbEntity
  8
0
  6
CONTINUOUS
 62
     7
100
AcDbVertex
100
AcDb2dVertex
 10
7377.070379
 20
-19300.758812
 30
0.0
  0
VERTEX
  5
61E
100
AcDbEntity
  8
0
  6
CONTINUOUS
 62
     7
100
AcDbVertex
100
AcDb2dVertex
 10
7377.197964
 20
-19300.943027
 30
0.0
  0
VERTEX
  5
61F
100
AcDbEntity
  8
0
  6
CONTINUOUS
 62
     7
100
AcDbVertex
100
AcDb2dVertex
 10
7377.324713
 20
-19301.125989
 30
0.0
  0
SEQEND
  5
620
100
AcDbEntity
  8
0
  6
CONTINUOUS
 62
     7
  0
POLYLINE
  5
621
100
AcDbEntity
  8
0
  6
CONTINUOUS
 62
     7
100
AcDb2dPolyline
 66
     1
 10
0.0
 20
0.0
 30
0.0
 70
   128
  0
VERTEX
  5
622
100
AcDbEntity
  8
0
  6
CONTINUOUS
 62
     7
100
AcDbVertex
100
AcDb2dVertex
 10
7376.29217
 20
-19299.635429
 30
0.0
  0
VERTEX
  5
623
100
AcDbEntity
  8
0
  6
CONTINUOUS
 62
     7
100
AcDbVertex
100
AcDb2dVertex
 10
7376.466219
 20
-19299.485649
 30
0.0
  0
VERTEX
  5
624
100
AcDbEntity
  8
0
  6
CONTINUOUS
 62
     7
100
AcDbVertex
100
AcDb2dVertex
 10
7376.639879
 20
-19299.336226
 30
0.0
  0
VERTEX
  5
625
100
AcDbEntity
  8
0
  6
CONTINUOUS
 62
     7
100
AcDbVertex
100
AcDb2dVertex
 10
7376.813018
 20
-19299.18725
 30
0.0
  0
VERTEX
  5
626
100
AcDbEntity
  8
0
  6
CONTINUOUS
 62
     7
100
AcDbVertex
100
AcDb2dVertex
 10
7376.985501
 20
-19299.038811
 30
0.0
  0
VERTEX
  5
627
100
AcDbEntity
  8
0
  6
CONTINUOUS
 62
     7
100
AcDbVertex
100
AcDb2dVertex
 10
7377.157239
 20
-19298.891058
 30
0.0
  0
VERTEX
  5
628
100
AcDbEntity
  8
0
  6
CONTINUOUS
 62
     7
100
AcDbVertex
100
AcDb2dVertex
 10
7377.328082
 20
-19298.74405
 30
0.0
  0
VERTEX
  5
629
100
AcDbEntity
  8
0
  6
CONTINUOUS
 62
     7
100
AcDbVertex
100
AcDb2dVertex
 10
7377.497927
 20
-19298.597907
 30
0.0
  0
VERTEX
  5
62A
100
AcDbEntity
  8
0
  6
CONTINUOUS
 62
     7
100
AcDbVertex
100
AcDb2dVertex
 10
7377.666639
 20
-19298.452718
 30
0.0
  0
SEQEND
  5
62B
100
AcDbEntity
  8
0
  6
CONTINUOUS
 62
     7
  0
POLYLINE
  5
62C
100
AcDbEntity
  8
0
  6
CONTINUOUS
 62
     7
100
AcDb2dPolyline
 66
     1
 10
0.0
 20
0.0
 30
0.0
 70
   128
  0
VERTEX
  5
62D
100
AcDbEntity
  8
0
  6
CONTINUOUS
 62
     7
100
AcDbVertex
100
AcDb2dVertex
 10
7377.666639
 20
-19298.452718
 30
0.0
  0
VERTEX
  5
62E
100
AcDbEntity
  8
0
  6
CONTINUOUS
 62
     7
100
AcDbVertex
100
AcDb2dVertex
 10
7377.598695
 20
-19298.364829
 30
0.0
  0
VERTEX
  5
62F
100
AcDbEntity
  8
0
  6
CONTINUOUS
 62
     7
100
AcDbVertex
100
AcDb2dVertex
 10
7377.530691
 20
-19298.276911
 30
0.0
  0
VERTEX
  5
630
100
AcDbEntity
  8
0
  6
CONTINUOUS
 62
     7
100
AcDbVertex
100
AcDb2dVertex
 10
7377.462688
 20
-19298.188933
 30
0.0
  0
VERTEX
  5
631
100
AcDbEntity
  8
0
  6
CONTINUOUS
 62
     7
100
AcDbVertex
100
AcDb2dVertex
 10
7377.394655
 20
-19298.100954
 30
0.0
  0
VERTEX
  5
632
100
AcDbEntity
  8
0
  6
CONTINUOUS
 62
     7
100
AcDbVertex
100
AcDb2dVertex
 10
7377.326621
 20
-19298.012976
 30
0.0
  0
VERTEX
  5
633
100
AcDbEntity
  8
0
  6
CONTINUOUS
 62
     7
100
AcDbVertex
100
AcDb2dVertex
 10
7377.258618
 20
-19297.924998
 30
0.0
  0
VERTEX
  5
634
100
AcDbEntity
  8
0
  6
CONTINUOUS
 62
     7
100
AcDbVertex
100
AcDb2dVertex
 10
7377.190615
 20
-19297.83705
 30
0.0
  0
VERTEX
  5
635
100
AcDbEntity
  8
0
  6
CONTINUOUS
 62
     7
100
AcDbVertex
100
AcDb2dVertex
 10
7377.122671
 20
-19297.749161
 30
0.0
  0
SEQEND
  5
636
100
AcDbEntity
  8
0
  6
CONTINUOUS
 62
     7
  0
POLYLINE
  5
637
100
AcDbEntity
  8
0
  6
CONTINUOUS
 62
     7
100
AcDb2dPolyline
 66
     1
 10
0.0
 20
0.0
 30
0.0
 70
   128
  0
VERTEX
  5
638
100
AcDbEntity
  8
0
  6
CONTINUOUS
 62
     7
100
AcDbVertex
100
AcDb2dVertex
 10
7377.122671
 20
-19297.749161
 30
0.0
  0
VERTEX
  5
639
100
AcDbEntity
  8
0
  6
CONTINUOUS
 62
     7
100
AcDbVertex
100
AcDb2dVertex
 10
7376.942079
 20
-19297.874256
 30
0.0
  0
VERTEX
  5
63A
100
AcDbEntity
  8
0
  6
CONTINUOUS
 62
     7
100
AcDbVertex
100
AcDb2dVertex
 10
7376.760309
 20
-19298.000187
 30
0.0
  0
VERTEX
  5
63B
100
AcDbEntity
  8
0
  6
CONTINUOUS
 62
     7
100
AcDbVertex
100
AcDb2dVertex
 10
7376.577466
 20
-19298.126832
 30
0.0
  0
VERTEX
  5
63C
100
AcDbEntity
  8
0
  6
CONTINUOUS
 62
     7
100
AcDbVertex
100
AcDb2dVertex
 10
7376.393684
 20
-19298.254163
 30
0.0
  0
VERTEX
  5
63D
100
AcDbEntity
  8
0
  6
CONTINUOUS
 62
     7
100
AcDbVertex
100
AcDb2dVertex
 10
7376.209096
 20
-19298.382031
 30
0.0
  0
VERTEX
  5
63E
100
AcDbEntity
  8
0
  6
CONTINUOUS
 62
     7
100
AcDbVertex
100
AcDb2dVertex
 10
7376.023824
 20
-19298.510376
 30
0.0
  0
VERTEX
  5
63F
100
AcDbEntity
  8
0
  6
CONTINUOUS
 62
     7
100
AcDbVertex
100
AcDb2dVertex
 10
7375.837984
 20
-19298.639109
 30
0.0
  0
VERTEX
  5
640
100
AcDbEntity
  8
0
  6
CONTINUOUS
 62
     7
100
AcDbVertex
100
AcDb2dVertex
 10
7375.651713
 20
-19298.768139
 30
0.0
  0
SEQEND
  5
641
100
AcDbEntity
  8
0
  6
CONTINUOUS
 62
     7
  0
POLYLINE
  5
642
100
AcDbEntity
  8
0
  6
CONTINUOUS
 62
     7
100
AcDb2dPolyline
 66
     1
 10
0.0
 20
0.0
 30
0.0
 70
   128
  0
VERTEX
  5
643
100
AcDbEntity
  8
0
  6
CONTINUOUS
 62
     7
100
AcDbVertex
100
AcDb2dVertex
 10
7375.651713
 20
-19298.768139
 30
0.0
  0
VERTEX
  5
644
100
AcDbEntity
  8
0
  6
CONTINUOUS
 62
     7
100
AcDbVertex
100
AcDb2dVertex
 10
7375.499488
 20
-19298.59582
 30
0.0
  0
VERTEX
  5
645
100
AcDbEntity
  8
0
  6
CONTINUOUS
 62
     7
100
AcDbVertex
100
AcDb2dVertex
 10
7375.347591
 20
-19298.423889
 30
0.0
  0
VERTEX
  5
646
100
AcDbEntity
  8
0
  6
CONTINUOUS
 62
     7
100
AcDbVertex
100
AcDb2dVertex
 10
7375.196141
 20
-19298.252464
 30
0.0
  0
VERTEX
  5
647
100
AcDbEntity
  8
0
  6
CONTINUOUS
 62
     7
100
AcDbVertex
100
AcDb2dVertex
 10
7375.045257
 20
-19298.081665
 30
0.0
  0
VERTEX
  5
648
100
AcDbEntity
  8
0
  6
CONTINUOUS
 62
     7
100
AcDbVertex
100
AcDb2dVertex
 10
7374.895029
 20
-19297.911642
 30
0.0
  0
VERTEX
  5
649
100
AcDbEntity
  8
0
  6
CONTINUOUS
 62
     7
100
AcDbVertex
100
AcDb2dVertex
 10
7374.745577
 20
-19297.742483
 30
0.0
  0
VERTEX
  5
64A
100
AcDbEntity
  8
0
  6
CONTINUOUS
 62
     7
100
AcDbVertex
100
AcDb2dVertex
 10
7374.597004
 20
-19297.574308
 30
0.0
  0
VERTEX
  5
64B
100
AcDbEntity
  8
0
  6
CONTINUOUS
 62
     7
100
AcDbVertex
100
AcDb2dVertex
 10
7374.4494
 20
-19297.407236
 30
0.0
  0
SEQEND
  5
64C
100
AcDbEntity
  8
0
  6
CONTINUOUS
 62
     7
  0
POLYLINE
  5
64D
100
AcDbEntity
  8
0
  6
CONTINUOUS
 62
     7
100
AcDb2dPolyline
 66
     1
 10
0.0
 20
0.0
 30
0.0
 70
   128
  0
VERTEX
  5
64E
100
AcDbEntity
  8
0
  6
CONTINUOUS
 62
     7
100
AcDbVertex
100
AcDb2dVertex
 10
7374.4494
 20
-19297.407236
 30
0.0
  0
VERTEX
  5
64F
100
AcDbEntity
  8
0
  6
CONTINUOUS
 62
     7
100
AcDbVertex
100
AcDb2dVertex
 10
7374.361511
 20
-19297.47521
 30
0.0
  0
VERTEX
  5
650
100
AcDbEntity
  8
0
  6
CONTINUOUS
 62
     7
100
AcDbVertex
100
AcDb2dVertex
 10
7374.273578
 20
-19297.543183
 30
0.0
  0
VERTEX
  5
651
100
AcDbEntity
  8
0
  6
CONTINUOUS
 62
     7
100
AcDbVertex
100
AcDb2dVertex
 10
7374.185614
 20
-19297.611216
 30
0.0
  0
VERTEX
  5
652
100
AcDbEntity
  8
0
  6
CONTINUOUS
 62
     7
100
AcDbVertex
100
AcDb2dVertex
 10
7374.097636
 20
-19297.67925
 30
0.0
  0
VERTEX
  5
653
100
AcDbEntity
  8
0
  6
CONTINUOUS
 62
     7
100
AcDbVertex
100
AcDb2dVertex
 10
7374.009643
 20
-19297.747253
 30
0.0
  0
VERTEX
  5
654
100
AcDbEntity
  8
0
  6
CONTINUOUS
 62
     7
100
AcDbVertex
100
AcDb2dVertex
 10
7373.92168
 20
-19297.815286
 30
0.0
  0
VERTEX
  5
655
100
AcDbEntity
  8
0
  6
CONTINUOUS
 62
     7
100
AcDbVertex
100
AcDb2dVertex
 10
7373.833747
 20
-19297.88326
 30
0.0
  0
VERTEX
  5
656
100
AcDbEntity
  8
0
  6
CONTINUOUS
 62
     7
100
AcDbVertex
100
AcDb2dVertex
 10
7373.745858
 20
-19297.951234
 30
0.0
  0
SEQEND
  5
657
100
AcDbEntity
  8
0
  6
CONTINUOUS
 62
     7
  0
POLYLINE
  5
658
100
AcDbEntity
  8
0
  6
CONTINUOUS
 62
     7
100
AcDb2dPolyline
 66
     1
 10
0.0
 20
0.0
 30
0.0
 70
   128
  0
VERTEX
  5
659
100
AcDbEntity
  8
0
  6
CONTINUOUS
 62
     7
100
AcDbVertex
100
AcDb2dVertex
 10
7373.745858
 20
-19297.951234
 30
0.0
  0
VERTEX
  5
65A
100
AcDbEntity
  8
0
  6
CONTINUOUS
 62
     7
100
AcDbVertex
100
AcDb2dVertex
 10
7373.870387
 20
-19298.136104
 30
0.0
  0
VERTEX
  5
65B
100
AcDbEntity
  8
0
  6
CONTINUOUS
 62
     7
100
AcDbVertex
100
AcDb2dVertex
 10
7373.99575
 20
-19298.322226
 30
0.0
  0
VERTEX
  5
65C
100
AcDbEntity
  8
0
  6
CONTINUOUS
 62
     7
100
AcDbVertex
100
AcDb2dVertex
 10
7374.121859
 20
-19298.509452
 30
0.0
  0
VERTEX
  5
65D
100
AcDbEntity
  8
0
  6
CONTINUOUS
 62
     7
100
AcDbVertex
100
AcDb2dVertex
 10
7374.248609
 20
-19298.697632
 30
0.0
  0
VERTEX
  5
65E
100
AcDbEntity
  8
0
  6
CONTINUOUS
 62
     7
100
AcDbVertex
100
AcDb2dVertex
 10
7374.375911
 20
-19298.886646
 30
0.0
  0
VERTEX
  5
65F
100
AcDbEntity
  8
0
  6
CONTINUOUS
 62
     7
100
AcDbVertex
100
AcDb2dVertex
 10
7374.503704
 20
-19299.076376
 30
0.0
  0
VERTEX
  5
660
100
AcDbEntity
  8
0
  6
CONTINUOUS
 62
     7
100
AcDbVertex
100
AcDb2dVertex
 10
7374.631855
 20
-19299.266642
 30
0.0
  0
VERTEX
  5
661
100
AcDbEntity
  8
0
  6
CONTINUOUS
 62
     7
100
AcDbVertex
100
AcDb2dVertex
 10
7374.760304
 20
-19299.457356
 30
0.0
  0
SEQEND
  5
662
100
AcDbEntity
  8
0
  6
CONTINUOUS
 62
     7
  0
POLYLINE
  5
663
100
AcDbEntity
  8
0
  6
CONTINUOUS
 62
     7
100
AcDb2dPolyline
 66
     1
 10
0.0
 20
0.0
 30
0.0
 70
   128
  0
VERTEX
  5
664
100
AcDbEntity
  8
0
  6
CONTINUOUS
 62
     7
100
AcDbVertex
100
AcDb2dVertex
 10
7373.403933
 20
-19300.624475
 30
0.0
  0
VERTEX
  5
665
100
AcDbEntity
  8
0
  6
CONTINUOUS
 62
     7
100
AcDbVertex
100
AcDb2dVertex
 10
7373.570453
 20
-19300.481194
 30
0.0
  0
VERTEX
  5
666
100
AcDbEntity
  8
0
  6
CONTINUOUS
 62
     7
100
AcDbVertex
100
AcDb2dVertex
 10
7373.738062
 20
-19300.336958
 30
0.0
  0
VERTEX
  5
667
100
AcDbEntity
  8
0
  6
CONTINUOUS
 62
     7
100
AcDbVertex
100
AcDb2dVertex
 10
7373.906669
 20
-19300.191888
 30
0.0
  0
VERTEX
  5
668
100
AcDbEntity
  8
0
  6
CONTINUOUS
 62
     7
100
AcDbVertex
100
AcDb2dVertex
 10
7374.076126
 20
-19300.046073
 30
0.0
  0
VERTEX
  5
669
100
AcDbEntity
  8
0
  6
CONTINUOUS
 62
     7
100
AcDbVertex
100
AcDb2dVertex
 10
7374.246343
 20
-19299.899602
 30
0.0
  0
VERTEX
  5
66A
100
AcDbEntity
  8
0
  6
CONTINUOUS
 62
     7
100
AcDbVertex
100
AcDb2dVertex
 10
7374.417187
 20
-19299.752594
 30
0.0
  0
VERTEX
  5
66B
100
AcDbEntity
  8
0
  6
CONTINUOUS
 62
     7
100
AcDbVertex
100
AcDb2dVertex
 10
7374.588552
 20
-19299.605139
 30
0.0
  0
VERTEX
  5
66C
100
AcDbEntity
  8
0
  6
CONTINUOUS
 62
     7
100
AcDbVertex
100
AcDb2dVertex
 10
7374.760304
 20
-19299.457356
 30
0.0
  0
SEQEND
  5
66D
100
AcDbEntity
  8
0
  6
CONTINUOUS
 62
     7
  0
POLYLINE
  5
66E
100
AcDbEntity
  8
0
  6
CONTINUOUS
 62
     7
100
AcDb2dPolyline
 66
     1
 10
0.0
 20
0.0
 30
0.0
 70
   128
  0
VERTEX
  5
66F
100
AcDbEntity
  8
0
  6
CONTINUOUS
 62
     7
100
AcDbVertex
100
AcDb2dVertex
 10
7373.947901
 20
-19301.328032
 30
0.0
  0
VERTEX
  5
670
100
AcDbEntity
  8
0
  6
CONTINUOUS
 62
     7
100
AcDbVertex
100
AcDb2dVertex
 10
7373.879957
 20
-19301.240143
 30
0.0
  0
VERTEX
  5
671
100
AcDbEntity
  8
0
  6
CONTINUOUS
 62
     7
100
AcDbVertex
100
AcDb2dVertex
 10
7373.811968
 20
-19301.152195
 30
0.0
  0
VERTEX
  5
672
100
AcDbEntity
  8
0
  6
CONTINUOUS
 62
     7
100
AcDbVertex
100
AcDb2dVertex
 10
7373.74395
 20
-19301.064246
 30
0.0
  0
VERTEX
  5
673
100
AcDbEntity
  8
0
  6
CONTINUOUS
 62
     7
100
AcDbVertex
100
AcDb2dVertex
 10
7373.675917
 20
-19300.976268
 30
0.0
  0
VERTEX
  5
674
100
AcDbEntity
  8
0
  6
CONTINUOUS
 62
     7
100
AcDbVertex
100
AcDb2dVertex
 10
7373.607898
 20
-19300.88829
 30
0.0
  0
VERTEX
  5
675
100
AcDbEntity
  8
0
  6
CONTINUOUS
 62
     7
100
AcDbVertex
100
AcDb2dVertex
 10
7373.53988
 20
-19300.800312
 30
0.0
  0
VERTEX
  5
676
100
AcDbEntity
  8
0
  6
CONTINUOUS
 62
     7
100
AcDbVertex
100
AcDb2dVertex
 10
7373.471891
 20
-19300.712364
 30
0.0
  0
VERTEX
  5
677
100
AcDbEntity
  8
0
  6
CONTINUOUS
 62
     7
100
AcDbVertex
100
AcDb2dVertex
 10
7373.403933
 20
-19300.624475
 30
0.0
  0
SEQEND
  5
678
100
AcDbEntity
  8
0
  6
CONTINUOUS
 62
     7
  0
POLYLINE
  5
679
100
AcDbEntity
  8
0
  6
CONTINUOUS
 62
     7
100
AcDb2dPolyline
 66
     1
 10
0.0
 20
0.0
 30
0.0
 70
   128
  0
VERTEX
  5
67A
100
AcDbEntity
  8
0
  6
CONTINUOUS
 62
     7
100
AcDbVertex
100
AcDb2dVertex
 10
7377.324713
 20
-19301.125989
 30
0.0
  0
VERTEX
  5
67B
100
AcDbEntity
  8
0
  6
CONTINUOUS
 62
     7
100
AcDbVertex
100
AcDb2dVertex
 10
7377.236825
 20
-19301.193933
 30
0.0
  0
VERTEX
  5
67C
100
AcDbEntity
  8
0
  6
CONTINUOUS
 62
     7
100
AcDbVertex
100
AcDb2dVertex
 10
7377.148891
 20
-19301.261936
 30
0.0
  0
VERTEX
  5
67D
100
AcDbEntity
  8
0
  6
CONTINUOUS
 62
     7
100
AcDbVertex
100
AcDb2dVertex
 10
7377.060928
 20
-19301.32994
 30
0.0
  0
VERTEX
  5
67E
100
AcDbEntity
  8
0
  6
CONTINUOUS
 62
     7
100
AcDbVertex
100
AcDb2dVertex
 10
7376.972935
 20
-19301.397973
 30
0.0
  0
VERTEX
  5
67F
100
AcDbEntity
  8
0
  6
CONTINUOUS
 62
     7
100
AcDbVertex
100
AcDb2dVertex
 10
7376.884957
 20
-19301.466006
 30
0.0
  0
VERTEX
  5
680
100
AcDbEntity
  8
0
  6
CONTINUOUS
 62
     7
100
AcDbVertex
100
AcDb2dVertex
 10
7376.796994
 20
-19301.53401
 30
0.0
  0
VERTEX
  5
681
100
AcDbEntity
  8
0
  6
CONTINUOUS
 62
     7
100
AcDbVertex
100
AcDb2dVertex
 10
7376.70906
 20
-19301.602013
 30
0.0
  0
VERTEX
  5
682
100
AcDbEntity
  8
0
  6
CONTINUOUS
 62
     7
100
AcDbVertex
100
AcDb2dVertex
 10
7376.621172
 20
-19301.669957
 30
0.0
  0
SEQEND
  5
683
100
AcDbEntity
  8
0
  6
CONTINUOUS
 62
     7
  0
POLYLINE
  5
684
100
AcDbEntity
  8
0
  6
CONTINUOUS
 62
     7
100
AcDb2dPolyline
 66
     1
 10
0.0
 20
0.0
 30
0.0
 70
   128
  0
VERTEX
  5
685
100
AcDbEntity
  8
0
  6
CONTINUOUS
 62
     7
100
AcDbVertex
100
AcDb2dVertex
 10
7376.621172
 20
-19301.669957
 30
0.0
  0
VERTEX
  5
686
100
AcDbEntity
  8
0
  6
CONTINUOUS
 62
     7
100
AcDbVertex
100
AcDb2dVertex
 10
7376.475997
 20
-19301.501245
 30
0.0
  0
VERTEX
  5
687
100
AcDbEntity
  8
0
  6
CONTINUOUS
 62
     7
100
AcDbVertex
100
AcDb2dVertex
 10
7376.329854
 20
-19301.3314
 30
0.0
  0
VERTEX
  5
688
100
AcDbEntity
  8
0
  6
CONTINUOUS
 62
     7
100
AcDbVertex
100
AcDb2dVertex
 10
7376.182846
 20
-19301.160542
 30
0.0
  0
VERTEX
  5
689
100
AcDbEntity
  8
0
  6
CONTINUOUS
 62
     7
100
AcDbVertex
100
AcDb2dVertex
 10
7376.035063
 20
-19300.988819
 30
0.0
  0
VERTEX
  5
68A
100
AcDbEntity
  8
0
  6
CONTINUOUS
 62
     7
100
AcDbVertex
100
AcDb2dVertex
 10
7375.886639
 20
-19300.816321
 30
0.0
  0
VERTEX
  5
68B
100
AcDbEntity
  8
0
  6
CONTINUOUS
 62
     7
100
AcDbVertex
100
AcDb2dVertex
 10
7375.737664
 20
-19300.643197
 30
0.0
  0
VERTEX
  5
68C
100
AcDbEntity
  8
0
  6
CONTINUOUS
 62
     7
100
AcDbVertex
100
AcDb2dVertex
 10
7375.588241
 20
-19300.469537
 30
0.0
  0
VERTEX
  5
68D
100
AcDbEntity
  8
0
  6
CONTINUOUS
 62
     7
100
AcDbVertex
100
AcDb2dVertex
 10
7375.438475
 20
-19300.295489
 30
0.0
  0
SEQEND
  5
68E
100
AcDbEntity
  8
0
  6
CONTINUOUS
 62
     7
  0
POLYLINE
  5
68F
100
AcDbEntity
  8
0
  6
CONTINUOUS
 62
     7
100
AcDb2dPolyline
 66
     1
 10
0.0
 20
0.0
 30
0.0
 70
   128
  0
VERTEX
  5
690
100
AcDbEntity
  8
0
  6
CONTINUOUS
 62
     7
100
AcDbVertex
100
AcDb2dVertex
 10
7375.438475
 20
-19300.295489
 30
0.0
  0
VERTEX
  5
691
100
AcDbEntity
  8
0
  6
CONTINUOUS
 62
     7
100
AcDbVertex
100
AcDb2dVertex
 10
7375.249729
 20
-19300.426248
 30
0.0
  0
VERTEX
  5
692
100
AcDbEntity
  8
0
  6
CONTINUOUS
 62
     7
100
AcDbVertex
100
AcDb2dVertex
 10
7375.061401
 20
-19300.55668
 30
0.0
  0
VERTEX
  5
693
100
AcDbEntity
  8
0
  6
CONTINUOUS
 62
     7
100
AcDbVertex
100
AcDb2dVertex
 10
7374.873639
 20
-19300.686754
 30
0.0
  0
VERTEX
  5
694
100
AcDbEntity
  8
0
  6
CONTINUOUS
 62
     7
100
AcDbVertex
100
AcDb2dVertex
 10
7374.686577
 20
-19300.816351
 30
0.0
  0
VERTEX
  5
695
100
AcDbEntity
  8
0
  6
CONTINUOUS
 62
     7
100
AcDbVertex
100
AcDb2dVertex
 10
7374.500335
 20
-19300.945352
 30
0.0
  0
VERTEX
  5
696
100
AcDbEntity
  8
0
  6
CONTINUOUS
 62
     7
100
AcDbVertex
100
AcDb2dVertex
 10
7374.315062
 20
-19301.073697
 30
0.0
  0
VERTEX
  5
697
100
AcDbEntity
  8
0
  6
CONTINUOUS
 62
     7
100
AcDbVertex
100
AcDb2dVertex
 10
7374.130878
 20
-19301.201297
 30
0.0
  0
VERTEX
  5
698
100
AcDbEntity
  8
0
  6
CONTINUOUS
 62
     7
100
AcDbVertex
100
AcDb2dVertex
 10
7373.947901
 20
-19301.328032
 30
0.0
  0
SEQEND
  5
699
100
AcDbEntity
  8
0
  6
CONTINUOUS
 62
     7
  0
LINE
  5
69A
100
AcDbEntity
  8
0
  6
CONTINUOUS
 62
     7
100
AcDbLine
 10
7377.057127
 20
-19301.084609
 30
0.0
 11
7377.324713
 21
-19301.125989
 31
0.0
  0
LINE
  5
69B
100
AcDbEntity
  8
0
  6
CONTINUOUS
 62
     7
100
AcDbLine
 10
7376.682065
 20
-19300.543175
 30
0.0
 11
7377.057127
 21
-19301.084609
 31
0.0
  0
LINE
  5
69C
100
AcDbEntity
  8
0
  6
CONTINUOUS
 62
     7
100
AcDbLine
 10
7376.223526
 20
-19299.881237
 30
0.0
 11
7376.682065
 21
-19300.543175
 31
0.0
  0
LINE
  5
69D
100
AcDbEntity
  8
0
  6
CONTINUOUS
 62
     7
100
AcDbLine
 10
7376.485686
 20
-19299.914777
 30
0.0
 11
7376.223526
 21
-19299.881237
 31
0.0
  0
LINE
  5
69E
100
AcDbEntity
  8
0
  6
CONTINUOUS
 62
     7
100
AcDbLine
 10
7376.897985
 20
-19298.855014
 30
0.0
 11
7377.397263
 21
-19298.425409
 31
0.0
  0
LINE
  5
69F
100
AcDbEntity
  8
0
  6
CONTINUOUS
 62
     7
100
AcDbLine
 10
7377.397263
 20
-19298.425409
 30
0.0
 11
7377.666639
 21
-19298.452718
 31
0.0
  0
LINE
  5
6A0
100
AcDbEntity
  8
0
  6
CONTINUOUS
 62
     7
100
AcDbLine
 10
7376.287624
 20
-19299.38023
 30
0.0
 11
7376.549769
 21
-19299.413769
 31
0.0
  0
LINE
  5
6A1
100
AcDbEntity
  8
0
  6
CONTINUOUS
 62
     7
100
AcDbLine
 10
7376.287624
 20
-19299.38023
 30
0.0
 11
7376.897985
 21
-19298.855014
 31
0.0
  0
LINE
  5
6A2
100
AcDbEntity
  8
0
  6
CONTINUOUS
 62
     7
100
AcDbLine
 10
7376.64848
 20
-19301.400567
 30
0.0
 11
7376.621172
 21
-19301.669957
 31
0.0
  0
LINE
  5
6A3
100
AcDbEntity
  8
0
  6
CONTINUOUS
 62
     7
100
AcDbLine
 10
7377.057127
 20
-19301.084609
 30
0.0
 11
7376.64848
 21
-19301.400567
 31
0.0
  0
LINE
  5
6A4
100
AcDbEntity
  8
0
  6
CONTINUOUS
 62
     7
100
AcDbLine
 10
7377.397263
 20
-19298.425409
 30
0.0
 11
7377.08129
 21
-19298.016763
 31
0.0
  0
LINE
  5
6A5
100
AcDbEntity
  8
0
  6
CONTINUOUS
 62
     7
100
AcDbLine
 10
7377.08129
 20
-19298.016763
 30
0.0
 11
7377.122671
 21
-19297.749161
 31
0.0
  0
ARC
  5
6A6
100
AcDbEntity
  8
0
  6
CONTINUOUS
 62
     7
100
AcDbCircle
 10
7376.532386
 20
-19299.666148
 30
0.0
 40
0.376374
100
AcDbArc
 50
130.565371
 51
214.853214
  0
LINE
  5
6A7
100
AcDbEntity
  8
0
  6
CONTINUOUS
 62
     7
100
AcDbLine
 10
7374.011521
 20
-19297.994075
 30
0.0
 11
7373.745858
 21
-19297.951234
 31
0.0
  0
LINE
  5
6A8
100
AcDbEntity
  8
0
  6
CONTINUOUS
 62
     7
100
AcDbLine
 10
7374.011521
 20
-19297.994075
 30
0.0
 11
7374.381024
 21
-19298.542664
 31
0.0
  0
LINE
  5
6A9
100
AcDbEntity
  8
0
  6
CONTINUOUS
 62
     7
100
AcDbLine
 10
7374.381024
 20
-19298.542664
 30
0.0
 11
7374.833346
 21
-19299.214231
 31
0.0
  0
LINE
  5
6AA
100
AcDbEntity
  8
0
  6
CONTINUOUS
 62
     7
100
AcDbLine
 10
7374.572945
 20
-19299.179171
 30
0.0
 11
7374.833346
 21
-19299.214231
 31
0.0
  0
LINE
  5
6AB
100
AcDbEntity
  8
0
  6
CONTINUOUS
 62
     7
100
AcDbLine
 10
7375.69366
 20
-19300.290927
 30
0.0
 11
7375.660135
 21
-19300.553073
 31
0.0
  0
LINE
  5
6AC
100
AcDbEntity
  8
0
  6
CONTINUOUS
 62
     7
100
AcDbLine
 10
7375.159113
 20
-19300.489005
 30
0.0
 11
7375.192652
 21
-19300.226859
 31
0.0
  0
ARC
  5
6AD
100
AcDbEntity
  8
0
  6
CONTINUOUS
 62
     7
100
AcDbCircle
 10
7375.407757
 20
-19300.535709
 30
0.0
 40
0.376375
100
AcDbArc
 50
40.569192
 51
124.856102
  0
LINE
  5
6AE
100
AcDbEntity
  8
0
  6
CONTINUOUS
 62
     7
100
AcDbLine
 10
7373.673308
 20
-19300.651784
 30
0.0
 11
7374.172586
 21
-19300.222178
 31
0.0
  0
LINE
  5
6AF
100
AcDbEntity
  8
0
  6
CONTINUOUS
 62
     7
100
AcDbLine
 10
7373.673308
 20
-19300.651784
 30
0.0
 11
7373.403933
 21
-19300.624475
 31
0.0
  0
LINE
  5
6B0
100
AcDbEntity
  8
0
  6
CONTINUOUS
 62
     7
100
AcDbLine
 10
7374.766476
 20
-19299.711154
 30
0.0
 11
7374.506074
 21
-19299.676124
 31
0.0
  0
LINE
  5
6B1
100
AcDbEntity
  8
0
  6
CONTINUOUS
 62
     7
100
AcDbLine
 10
7374.172586
 20
-19300.222178
 30
0.0
 11
7374.766476
 21
-19299.711154
 31
0.0
  0
CIRCLE
  5
6B2
100
AcDbEntity
  8
0
  6
CONTINUOUS
 62
     7
100
AcDbCircle
 10
7375.535279
 20
-19299.538605
 30
0.0
 40
5.399432
  0
LINE
  5
6B3
100
AcDbEntity
  8
0
  6
CONTINUOUS
 62
     7
100
AcDbLine
 10
7377.08129
 20
-19298.016763
 30
0.0
 11
7376.539857
 21
-19298.39184
 31
0.0
  0
LINE
  5
6B4
100
AcDbEntity
  8
0
  6
CONTINUOUS
 62
     7
100
AcDbLine
 10
7376.539857
 20
-19298.39184
 30
0.0
 11
7375.895792
 21
-19298.837991
 31
0.0
  0
LINE
  5
6B5
100
AcDbEntity
  8
0
  6
CONTINUOUS
 62
     7
100
AcDbLine
 10
7375.927423
 20
-19298.577128
 30
0.0
 11
7375.895792
 21
-19298.837991
 31
0.0
  0
ARC
  5
6B6
100
AcDbEntity
  8
0
  6
CONTINUOUS
 62
     7
100
AcDbCircle
 10
7374.521674
 20
-19299.42525
 30
0.0
 40
0.376389
100
AcDbArc
 50
310.571406
 51
34.10018
  0
LINE
  5
6B7
100
AcDbEntity
  8
0
  6
CONTINUOUS
 62
     7
100
AcDbLine
 10
7376.64848
 20
-19301.400567
 30
0.0
 11
7376.218875
 21
-19300.901318
 31
0.0
  0
LINE
  5
6B8
100
AcDbEntity
  8
0
  6
CONTINUOUS
 62
     7
100
AcDbLine
 10
7376.218875
 20
-19300.901318
 30
0.0
 11
7375.69366
 21
-19300.290927
 31
0.0
  0
LINE
  5
6B9
100
AcDbEntity
  8
0
  6
CONTINUOUS
 62
     7
100
AcDbLine
 10
7373.989281
 20
-19301.06046
 30
0.0
 11
7373.947901
 21
-19301.328032
 31
0.0
  0
LINE
  5
6BA
100
AcDbEntity
  8
0
  6
CONTINUOUS
 62
     7
100
AcDbLine
 10
7374.53073
 20
-19300.685383
 30
0.0
 11
7373.989281
 21
-19301.06046
 31
0.0
  0
LINE
  5
6BB
100
AcDbEntity
  8
0
  6
CONTINUOUS
 62
     7
100
AcDbLine
 10
7375.192652
 20
-19300.226859
 30
0.0
 11
7374.53073
 21
-19300.685383
 31
0.0
  0
LINE
  5
6BC
100
AcDbEntity
  8
0
  6
CONTINUOUS
 62
     7
100
AcDbLine
 10
7373.989281
 20
-19301.06046
 30
0.0
 11
7373.673308
 21
-19300.651784
 31
0.0
  0
LINE
  5
6BD
100
AcDbEntity
  8
0
  6
CONTINUOUS
 62
     7
100
AcDbLine
 10
7375.398019
 20
-19298.77762
 30
0.0
 11
7375.429651
 21
-19298.516786
 31
0.0
  0
ARC
  5
6BE
100
AcDbEntity
  8
0
  6
CONTINUOUS
 62
     7
100
AcDbCircle
 10
7375.680716
 20
-19298.529032
 30
0.0
 40
0.376448
100
AcDbArc
 50
221.326598
 51
304.842955
  0
LINE
  5
6BF
100
AcDbEntity
  8
0
  6
CONTINUOUS
 62
     7
100
AcDbLine
 10
7374.424014
 20
-19297.675136
 30
0.0
 11
7374.4494
 21
-19297.407236
 31
0.0
  0
LINE
  5
6C0
100
AcDbEntity
  8
0
  6
CONTINUOUS
 62
     7
100
AcDbLine
 10
7374.424014
 20
-19297.675136
 30
0.0
 11
7374.011521
 21
-19297.994075
 31
0.0
  0
LINE
  5
6C1
100
AcDbEntity
  8
0
  6
CONTINUOUS
 62
     7
100
AcDbLine
 10
7374.861937
 20
-19298.170806
 30
0.0
 11
7374.424014
 21
-19297.675136
 31
0.0
  0
LINE
  5
6C2
100
AcDbEntity
  8
0
  6
CONTINUOUS
 62
     7
100
AcDbLine
 10
7375.398019
 20
-19298.77762
 30
0.0
 11
7374.861937
 21
-19298.170806
 31
0.0
  0
ARC
  5
6C3
100
AcDbEntity
  8
0
  6
CONTINUOUS
 62
     7
100
AcDbCircle
 10
7375.534787
 20
-19299.537987
 30
0.0
 40
1.525336
100
AcDbArc
 50
296.64645
 51
318.776764
  0
ARC
  5
6C4
100
AcDbEntity
  8
0
  6
CONTINUOUS
 62
     7
100
AcDbCircle
 10
7375.535187
 20
-19299.538695
 30
0.0
 40
1.524676
100
AcDbArc
 50
26.64174
 51
48.78095
  0
ARC
  5
6C5
100
AcDbEntity
  8
0
  6
CONTINUOUS
 62
     7
100
AcDbCircle
 10
7375.53509
 20
-19299.538282
 30
0.0
 40
1.524181
100
AcDbArc
 50
116.209159
 51
139.215503
  0
ARC
  5
6C6
100
AcDbEntity
  8
0
  6
CONTINUOUS
 62
     7
100
AcDbCircle
 10
7375.534897
 20
-19299.538916
 30
0.0
 40
1.524054
100
AcDbArc
 50
206.635902
 51
228.785527
  0
CIRCLE
  5
6C7
100
AcDbEntity
  8
0
  6
CONTINUOUS
 62
     7
100
AcDbCircle
 10
7553.363552
 20
-19299.526227
 30
0.0
 40
3.557275
  0
POLYLINE
  5
6C8
100
AcDbEntity
  8
0
  6
CONTINUOUS
 62
     7
100
AcDb2dPolyline
 66
     1
 10
0.0
 20
0.0
 30
0.0
 70
   128
  0
VERTEX
  5
6C9
100
AcDbEntity
  8
0
  6
CONTINUOUS
 62
     7
100
AcDbVertex
100
AcDb2dVertex
 10
7553.894945
 20
-19300.073829
 30
0.0
  0
VERTEX
  5
6CA
100
AcDbEntity
  8
0
  6
CONTINUOUS
 62
     7
100
AcDbVertex
100
AcDb2dVertex
 10
7553.879486
 20
-19300.302912
 30
0.0
  0
VERTEX
  5
6CB
100
AcDbEntity
  8
0
  6
CONTINUOUS
 62
     7
100
AcDbVertex
100
AcDb2dVertex
 10
7553.864062
 20
-19300.531488
 30
0.0
  0
VERTEX
  5
6CC
100
AcDbEntity
  8
0
  6
CONTINUOUS
 62
     7
100
AcDbVertex
100
AcDb2dVertex
 10
7553.848685
 20
-19300.759379
 30
0.0
  0
VERTEX
  5
6CD
100
AcDbEntity
  8
0
  6
CONTINUOUS
 62
     7
100
AcDbVertex
100
AcDb2dVertex
 10
7553.833364
 20
-19300.986434
 30
0.0
  0
VERTEX
  5
6CE
100
AcDbEntity
  8
0
  6
CONTINUOUS
 62
     7
100
AcDbVertex
100
AcDb2dVertex
 10
7553.818111
 20
-19301.212476
 30
0.0
  0
VERTEX
  5
6CF
100
AcDbEntity
  8
0
  6
CONTINUOUS
 62
     7
100
AcDbVertex
100
AcDb2dVertex
 10
7553.802936
 20
-19301.437356
 30
0.0
  0
VERTEX
  5
6D0
100
AcDbEntity
  8
0
  6
CONTINUOUS
 62
     7
100
AcDbVertex
100
AcDb2dVertex
 10
7553.787851
 20
-19301.660894
 30
0.0
  0
VERTEX
  5
6D1
100
AcDbEntity
  8
0
  6
CONTINUOUS
 62
     7
100
AcDbVertex
100
AcDb2dVertex
 10
7553.772866
 20
-19301.882971
 30
0.0
  0
SEQEND
  5
6D2
100
AcDbEntity
  8
0
  6
CONTINUOUS
 62
     7
  0
POLYLINE
  5
6D3
100
AcDbEntity
  8
0
  6
CONTINUOUS
 62
     7
100
AcDb2dPolyline
 66
     1
 10
0.0
 20
0.0
 30
0.0
 70
   128
  0
VERTEX
  5
6D4
100
AcDbEntity
  8
0
  6
CONTINUOUS
 62
     7
100
AcDbVertex
100
AcDb2dVertex
 10
7553.894945
 20
-19300.073829
 30
0.0
  0
VERTEX
  5
6D5
100
AcDbEntity
  8
0
  6
CONTINUOUS
 62
     7
100
AcDbVertex
100
AcDb2dVertex
 10
7554.124401
 20
-19300.065243
 30
0.0
  0
VERTEX
  5
6D6
100
AcDbEntity
  8
0
  6
CONTINUOUS
 62
     7
100
AcDbVertex
100
AcDb2dVertex
 10
7554.353334
 20
-19300.056687
 30
0.0
  0
VERTEX
  5
6D7
100
AcDbEntity
  8
0
  6
CONTINUOUS
 62
     7
100
AcDbVertex
100
AcDb2dVertex
 10
7554.581583
 20
-19300.04816
 30
0.0
  0
VERTEX
  5
6D8
100
AcDbEntity
  8
0
  6
CONTINUOUS
 62
     7
100
AcDbVertex
100
AcDb2dVertex
 10
7554.808987
 20
-19300.039663
 30
0.0
  0
VERTEX
  5
6D9
100
AcDbEntity
  8
0
  6
CONTINUOUS
 62
     7
100
AcDbVertex
100
AcDb2dVertex
 10
7555.035385
 20
-19300.031226
 30
0.0
  0
VERTEX
  5
6DA
100
AcDbEntity
  8
0
  6
CONTINUOUS
 62
     7
100
AcDbVertex
100
AcDb2dVertex
 10
7555.260617
 20
-19300.022789
 30
0.0
  0
VERTEX
  5
6DB
100
AcDbEntity
  8
0
  6
CONTINUOUS
 62
     7
100
AcDbVertex
100
AcDb2dVertex
 10
7555.484524
 20
-19300.014442
 30
0.0
  0
VERTEX
  5
6DC
100
AcDbEntity
  8
0
  6
CONTINUOUS
 62
     7
100
AcDbVertex
100
AcDb2dVertex
 10
7555.706949
 20
-19300.006124
 30
0.0
  0
SEQEND
  5
6DD
100
AcDbEntity
  8
0
  6
CONTINUOUS
 62
     7
  0
LINE
  5
6DE
100
AcDbEntity
  8
0
  6
CONTINUOUS
 62
     7
100
AcDbLine
 10
7555.706949
 20
-19300.006124
 30
0.0
 11
7555.720303
 21
-19299.116921
 31
0.0
  0
POLYLINE
  5
6DF
100
AcDbEntity
  8
0
  6
CONTINUOUS
 62
     7
100
AcDb2dPolyline
 66
     1
 10
0.0
 20
0.0
 30
0.0
 70
   128
  0
VERTEX
  5
6E0
100
AcDbEntity
  8
0
  6
CONTINUOUS
 62
     7
100
AcDbVertex
100
AcDb2dVertex
 10
7555.720303
 20
-19299.116921
 30
0.0
  0
VERTEX
  5
6E1
100
AcDbEntity
  8
0
  6
CONTINUOUS
 62
     7
100
AcDbVertex
100
AcDb2dVertex
 10
7555.501121
 20
-19299.102134
 30
0.0
  0
VERTEX
  5
6E2
100
AcDbEntity
  8
0
  6
CONTINUOUS
 62
     7
100
AcDbVertex
100
AcDb2dVertex
 10
7555.280495
 20
-19299.087228
 30
0.0
  0
VERTEX
  5
6E3
100
AcDbEntity
  8
0
  6
CONTINUOUS
 62
     7
100
AcDbVertex
100
AcDb2dVertex
 10
7555.058577
 20
-19299.072262
 30
0.0
  0
VERTEX
  5
6E4
100
AcDbEntity
  8
0
  6
CONTINUOUS
 62
     7
100
AcDbVertex
100
AcDb2dVertex
 10
7554.835518
 20
-19299.057206
 30
0.0
  0
VERTEX
  5
6E5
100
AcDbEntity
  8
0
  6
CONTINUOUS
 62
     7
100
AcDbVertex
100
AcDb2dVertex
 10
7554.611473
 20
-19299.042091
 30
0.0
  0
VERTEX
  5
6E6
100
AcDbEntity
  8
0
  6
CONTINUOUS
 62
     7
100
AcDbVertex
100
AcDb2dVertex
 10
7554.386596
 20
-19299.026916
 30
0.0
  0
VERTEX
  5
6E7
100
AcDbEntity
  8
0
  6
CONTINUOUS
 62
     7
100
AcDbVertex
100
AcDb2dVertex
 10
7554.16104
 20
-19299.011682
 30
0.0
  0
VERTEX
  5
6E8
100
AcDbEntity
  8
0
  6
CONTINUOUS
 62
     7
100
AcDbVertex
100
AcDb2dVertex
 10
7553.934963
 20
-19298.996447
 30
0.0
  0
SEQEND
  5
6E9
100
AcDbEntity
  8
0
  6
CONTINUOUS
 62
     7
  0
POLYLINE
  5
6EA
100
AcDbEntity
  8
0
  6
CONTINUOUS
 62
     7
100
AcDb2dPolyline
 66
     1
 10
0.0
 20
0.0
 30
0.0
 70
   128
  0
VERTEX
  5
6EB
100
AcDbEntity
  8
0
  6
CONTINUOUS
 62
     7
100
AcDbVertex
100
AcDb2dVertex
 10
7553.934963
 20
-19298.996447
 30
0.0
  0
VERTEX
  5
6EC
100
AcDbEntity
  8
0
  6
CONTINUOUS
 62
     7
100
AcDbVertex
100
AcDb2dVertex
 10
7553.923376
 20
-19298.766798
 30
0.0
  0
VERTEX
  5
6ED
100
AcDbEntity
  8
0
  6
CONTINUOUS
 62
     7
100
AcDbVertex
100
AcDb2dVertex
 10
7553.911815
 20
-19298.537685
 30
0.0
  0
VERTEX
  5
6EE
100
AcDbEntity
  8
0
  6
CONTINUOUS
 62
     7
100
AcDbVertex
100
AcDb2dVertex
 10
7553.900288
 20
-19298.309228
 30
0.0
  0
VERTEX
  5
6EF
100
AcDbEntity
  8
0
  6
CONTINUOUS
 62
     7
100
AcDbVertex
100
AcDb2dVertex
 10
7553.888804
 20
-19298.081636
 30
0.0
  0
VERTEX
  5
6F0
100
AcDbEntity
  8
0
  6
CONTINUOUS
 62
     7
100
AcDbVertex
100
AcDb2dVertex
 10
7553.87737
 20
-19297.855027
 30
0.0
  0
VERTEX
  5
6F1
100
AcDbEntity
  8
0
  6
CONTINUOUS
 62
     7
100
AcDbVertex
100
AcDb2dVertex
 10
7553.865994
 20
-19297.629581
 30
0.0
  0
VERTEX
  5
6F2
100
AcDbEntity
  8
0
  6
CONTINUOUS
 62
     7
100
AcDbVertex
100
AcDb2dVertex
 10
7553.854686
 20
-19297.405477
 30
0.0
  0
VERTEX
  5
6F3
100
AcDbEntity
  8
0
  6
CONTINUOUS
 62
     7
100
AcDbVertex
100
AcDb2dVertex
 10
7553.843452
 20
-19297.182834
 30
0.0
  0
SEQEND
  5
6F4
100
AcDbEntity
  8
0
  6
CONTINUOUS
 62
     7
  0
POLYLINE
  5
6F5
100
AcDbEntity
  8
0
  6
CONTINUOUS
 62
     7
100
AcDb2dPolyline
 66
     1
 10
0.0
 20
0.0
 30
0.0
 70
   128
  0
VERTEX
  5
6F6
100
AcDbEntity
  8
0
  6
CONTINUOUS
 62
     7
100
AcDbVertex
100
AcDb2dVertex
 10
7553.843452
 20
-19297.182834
 30
0.0
  0
VERTEX
  5
6F7
100
AcDbEntity
  8
0
  6
CONTINUOUS
 62
     7
100
AcDbVertex
100
AcDb2dVertex
 10
7553.732369
 20
-19297.181164
 30
0.0
  0
VERTEX
  5
6F8
100
AcDbEntity
  8
0
  6
CONTINUOUS
 62
     7
100
AcDbVertex
100
AcDb2dVertex
 10
7553.621226
 20
-19297.179495
 30
0.0
  0
VERTEX
  5
6F9
100
AcDbEntity
  8
0
  6
CONTINUOUS
 62
     7
100
AcDbVertex
100
AcDb2dVertex
 10
7553.510045
 20
-19297.177825
 30
0.0
  0
VERTEX
  5
6FA
100
AcDbEntity
  8
0
  6
CONTINUOUS
 62
     7
100
AcDbVertex
100
AcDb2dVertex
 10
7553.398843
 20
-19297.176156
 30
0.0
  0
VERTEX
  5
6FB
100
AcDbEntity
  8
0
  6
CONTINUOUS
 62
     7
100
AcDbVertex
100
AcDb2dVertex
 10
7553.287642
 20
-19297.174486
 30
0.0
  0
VERTEX
  5
6FC
100
AcDbEntity
  8
0
  6
CONTINUOUS
 62
     7
100
AcDbVertex
100
AcDb2dVertex
 10
7553.17646
 20
-19297.172816
 30
0.0
  0
VERTEX
  5
6FD
100
AcDbEntity
  8
0
  6
CONTINUOUS
 62
     7
100
AcDbVertex
100
AcDb2dVertex
 10
7553.065318
 20
-19297.171147
 30
0.0
  0
VERTEX
  5
6FE
100
AcDbEntity
  8
0
  6
CONTINUOUS
 62
     7
100
AcDbVertex
100
AcDb2dVertex
 10
7552.954234
 20
-19297.169477
 30
0.0
  0
SEQEND
  5
6FF
100
AcDbEntity
  8
0
  6
CONTINUOUS
 62
     7
  0
POLYLINE
  5
700
100
AcDbEntity
  8
0
  6
CONTINUOUS
 62
     7
100
AcDb2dPolyline
 66
     1
 10
0.0
 20
0.0
 30
0.0
 70
   128
  0
VERTEX
  5
701
100
AcDbEntity
  8
0
  6
CONTINUOUS
 62
     7
100
AcDbVertex
100
AcDb2dVertex
 10
7552.954234
 20
-19297.169477
 30
0.0
  0
VERTEX
  5
702
100
AcDbEntity
  8
0
  6
CONTINUOUS
 62
     7
100
AcDbVertex
100
AcDb2dVertex
 10
7552.93632
 20
-19297.391674
 30
0.0
  0
VERTEX
  5
703
100
AcDbEntity
  8
0
  6
CONTINUOUS
 62
     7
100
AcDbVertex
100
AcDb2dVertex
 10
7552.918287
 20
-19297.61536
 30
0.0
  0
VERTEX
  5
704
100
AcDbEntity
  8
0
  6
CONTINUOUS
 62
     7
100
AcDbVertex
100
AcDb2dVertex
 10
7552.900147
 20
-19297.840359
 30
0.0
  0
VERTEX
  5
705
100
AcDbEntity
  8
0
  6
CONTINUOUS
 62
     7
100
AcDbVertex
100
AcDb2dVertex
 10
7552.881913
 20
-19298.066491
 30
0.0
  0
VERTEX
  5
706
100
AcDbEntity
  8
0
  6
CONTINUOUS
 62
     7
100
AcDbVertex
100
AcDb2dVertex
 10
7552.863599
 20
-19298.293666
 30
0.0
  0
VERTEX
  5
707
100
AcDbEntity
  8
0
  6
CONTINUOUS
 62
     7
100
AcDbVertex
100
AcDb2dVertex
 10
7552.845218
 20
-19298.521646
 30
0.0
  0
VERTEX
  5
708
100
AcDbEntity
  8
0
  6
CONTINUOUS
 62
     7
100
AcDbVertex
100
AcDb2dVertex
 10
7552.826781
 20
-19298.750341
 30
0.0
  0
VERTEX
  5
709
100
AcDbEntity
  8
0
  6
CONTINUOUS
 62
     7
100
AcDbVertex
100
AcDb2dVertex
 10
7552.808304
 20
-19298.979513
 30
0.0
  0
SEQEND
  5
70A
100
AcDbEntity
  8
0
  6
CONTINUOUS
 62
     7
  0
POLYLINE
  5
70B
100
AcDbEntity
  8
0
  6
CONTINUOUS
 62
     7
100
AcDb2dPolyline
 66
     1
 10
0.0
 20
0.0
 30
0.0
 70
   128
  0
VERTEX
  5
70C
100
AcDbEntity
  8
0
  6
CONTINUOUS
 62
     7
100
AcDbVertex
100
AcDb2dVertex
 10
7551.020151
 20
-19299.046324
 30
0.0
  0
VERTEX
  5
70D
100
AcDbEntity
  8
0
  6
CONTINUOUS
 62
     7
100
AcDbVertex
100
AcDb2dVertex
 10
7551.239678
 20
-19299.038126
 30
0.0
  0
VERTEX
  5
70E
100
AcDbEntity
  8
0
  6
CONTINUOUS
 62
     7
100
AcDbVertex
100
AcDb2dVertex
 10
7551.460652
 20
-19299.029868
 30
0.0
  0
VERTEX
  5
70F
100
AcDbEntity
  8
0
  6
CONTINUOUS
 62
     7
100
AcDbVertex
100
AcDb2dVertex
 10
7551.68292
 20
-19299.02155
 30
0.0
  0
VERTEX
  5
710
100
AcDbEntity
  8
0
  6
CONTINUOUS
 62
     7
100
AcDbVertex
100
AcDb2dVertex
 10
7551.90633
 20
-19299.013202
 30
0.0
  0
VERTEX
  5
711
100
AcDbEntity
  8
0
  6
CONTINUOUS
 62
     7
100
AcDbVertex
100
AcDb2dVertex
 10
7552.130728
 20
-19299.004825
 30
0.0
  0
VERTEX
  5
712
100
AcDbEntity
  8
0
  6
CONTINUOUS
 62
     7
100
AcDbVertex
100
AcDb2dVertex
 10
7552.35596
 20
-19298.996417
 30
0.0
  0
VERTEX
  5
713
100
AcDbEntity
  8
0
  6
CONTINUOUS
 62
     7
100
AcDbVertex
100
AcDb2dVertex
 10
7552.58187
 20
-19298.98798
 30
0.0
  0
VERTEX
  5
714
100
AcDbEntity
  8
0
  6
CONTINUOUS
 62
     7
100
AcDbVertex
100
AcDb2dVertex
 10
7552.808304
 20
-19298.979513
 30
0.0
  0
SEQEND
  5
715
100
AcDbEntity
  8
0
  6
CONTINUOUS
 62
     7
  0
POLYLINE
  5
716
100
AcDbEntity
  8
0
  6
CONTINUOUS
 62
     7
100
AcDb2dPolyline
 66
     1
 10
0.0
 20
0.0
 30
0.0
 70
   128
  0
VERTEX
  5
717
100
AcDbEntity
  8
0
  6
CONTINUOUS
 62
     7
100
AcDbVertex
100
AcDb2dVertex
 10
7551.006797
 20
-19299.935527
 30
0.0
  0
VERTEX
  5
718
100
AcDbEntity
  8
0
  6
CONTINUOUS
 62
     7
100
AcDbVertex
100
AcDb2dVertex
 10
7551.008465
 20
-19299.824443
 30
0.0
  0
VERTEX
  5
719
100
AcDbEntity
  8
0
  6
CONTINUOUS
 62
     7
100
AcDbVertex
100
AcDb2dVertex
 10
7551.010134
 20
-19299.713301
 30
0.0
  0
VERTEX
  5
71A
100
AcDbEntity
  8
0
  6
CONTINUOUS
 62
     7
100
AcDbVertex
100
AcDb2dVertex
 10
7551.011804
 20
-19299.602128
 30
0.0
  0
VERTEX
  5
71B
100
AcDbEntity
  8
0
  6
CONTINUOUS
 62
     7
100
AcDbVertex
100
AcDb2dVertex
 10
7551.013474
 20
-19299.490925
 30
0.0
  0
VERTEX
  5
71C
100
AcDbEntity
  8
0
  6
CONTINUOUS
 62
     7
100
AcDbVertex
100
AcDb2dVertex
 10
7551.015144
 20
-19299.379723
 30
0.0
  0
VERTEX
  5
71D
100
AcDbEntity
  8
0
  6
CONTINUOUS
 62
     7
100
AcDbVertex
100
AcDb2dVertex
 10
7551.016814
 20
-19299.26855
 30
0.0
  0
VERTEX
  5
71E
100
AcDbEntity
  8
0
  6
CONTINUOUS
 62
     7
100
AcDbVertex
100
AcDb2dVertex
 10
7551.018483
 20
-19299.157408
 30
0.0
  0
VERTEX
  5
71F
100
AcDbEntity
  8
0
  6
CONTINUOUS
 62
     7
100
AcDbVertex
100
AcDb2dVertex
 10
7551.020151
 20
-19299.046324
 30
0.0
  0
SEQEND
  5
720
100
AcDbEntity
  8
0
  6
CONTINUOUS
 62
     7
  0
POLYLINE
  5
721
100
AcDbEntity
  8
0
  6
CONTINUOUS
 62
     7
100
AcDb2dPolyline
 66
     1
 10
0.0
 20
0.0
 30
0.0
 70
   128
  0
VERTEX
  5
722
100
AcDbEntity
  8
0
  6
CONTINUOUS
 62
     7
100
AcDbVertex
100
AcDb2dVertex
 10
7552.815951
 20
-19300.057611
 30
0.0
  0
VERTEX
  5
723
100
AcDbEntity
  8
0
  6
CONTINUOUS
 62
     7
100
AcDbVertex
100
AcDb2dVertex
 10
7552.586856
 20
-19300.042168
 30
0.0
  0
VERTEX
  5
724
100
AcDbEntity
  8
0
  6
CONTINUOUS
 62
     7
100
AcDbVertex
100
AcDb2dVertex
 10
7552.358283
 20
-19300.026724
 30
0.0
  0
VERTEX
  5
725
100
AcDbEntity
  8
0
  6
CONTINUOUS
 62
     7
100
AcDbVertex
100
AcDb2dVertex
 10
7552.130393
 20
-19300.011371
 30
0.0
  0
VERTEX
  5
726
100
AcDbEntity
  8
0
  6
CONTINUOUS
 62
     7
100
AcDbVertex
100
AcDb2dVertex
 10
7551.903347
 20
-19299.996047
 30
0.0
  0
VERTEX
  5
727
100
AcDbEntity
  8
0
  6
CONTINUOUS
 62
     7
100
AcDbVertex
100
AcDb2dVertex
 10
7551.677305
 20
-19299.980783
 30
0.0
  0
VERTEX
  5
728
100
AcDbEntity
  8
0
  6
CONTINUOUS
 62
     7
100
AcDbVertex
100
AcDb2dVertex
 10
7551.452427
 20
-19299.965608
 30
0.0
  0
VERTEX
  5
729
100
AcDbEntity
  8
0
  6
CONTINUOUS
 62
     7
100
AcDbVertex
100
AcDb2dVertex
 10
7551.228872
 20
-19299.950522
 30
0.0
  0
VERTEX
  5
72A
100
AcDbEntity
  8
0
  6
CONTINUOUS
 62
     7
100
AcDbVertex
100
AcDb2dVertex
 10
7551.006797
 20
-19299.935527
 30
0.0
  0
SEQEND
  5
72B
100
AcDbEntity
  8
0
  6
CONTINUOUS
 62
     7
  0
POLYLINE
  5
72C
100
AcDbEntity
  8
0
  6
CONTINUOUS
 62
     7
100
AcDb2dPolyline
 66
     1
 10
0.0
 20
0.0
 30
0.0
 70
   128
  0
VERTEX
  5
72D
100
AcDbEntity
  8
0
  6
CONTINUOUS
 62
     7
100
AcDbVertex
100
AcDb2dVertex
 10
7552.883648
 20
-19301.869614
 30
0.0
  0
VERTEX
  5
72E
100
AcDbEntity
  8
0
  6
CONTINUOUS
 62
     7
100
AcDbVertex
100
AcDb2dVertex
 10
7552.875338
 20
-19301.647209
 30
0.0
  0
VERTEX
  5
72F
100
AcDbEntity
  8
0
  6
CONTINUOUS
 62
     7
100
AcDbVertex
100
AcDb2dVertex
 10
7552.866972
 20
-19301.423284
 30
0.0
  0
VERTEX
  5
730
100
AcDbEntity
  8
0
  6
CONTINUOUS
 62
     7
100
AcDbVertex
100
AcDb2dVertex
 10
7552.858558
 20
-19301.198047
 30
0.0
  0
VERTEX
  5
731
100
AcDbEntity
  8
0
  6
CONTINUOUS
 62
     7
100
AcDbVertex
100
AcDb2dVertex
 10
7552.8501
 20
-19300.971677
 30
0.0
  0
VERTEX
  5
732
100
AcDbEntity
  8
0
  6
CONTINUOUS
 62
     7
100
AcDbVertex
100
AcDb2dVertex
 10
7552.841603
 20
-19300.744263
 30
0.0
  0
VERTEX
  5
733
100
AcDbEntity
  8
0
  6
CONTINUOUS
 62
     7
100
AcDbVertex
100
AcDb2dVertex
 10
7552.833076
 20
-19300.516015
 30
0.0
  0
VERTEX
  5
734
100
AcDbEntity
  8
0
  6
CONTINUOUS
 62
     7
100
AcDbVertex
100
AcDb2dVertex
 10
7552.824523
 20
-19300.287081
 30
0.0
  0
VERTEX
  5
735
100
AcDbEntity
  8
0
  6
CONTINUOUS
 62
     7
100
AcDbVertex
100
AcDb2dVertex
 10
7552.815951
 20
-19300.057611
 30
0.0
  0
SEQEND
  5
736
100
AcDbEntity
  8
0
  6
CONTINUOUS
 62
     7
  0
POLYLINE
  5
737
100
AcDbEntity
  8
0
  6
CONTINUOUS
 62
     7
100
AcDb2dPolyline
 66
     1
 10
0.0
 20
0.0
 30
0.0
 70
   128
  0
VERTEX
  5
738
100
AcDbEntity
  8
0
  6
CONTINUOUS
 62
     7
100
AcDbVertex
100
AcDb2dVertex
 10
7553.772866
 20
-19301.882971
 30
0.0
  0
VERTEX
  5
739
100
AcDbEntity
  8
0
  6
CONTINUOUS
 62
     7
100
AcDbVertex
100
AcDb2dVertex
 10
7553.661782
 20
-19301.881301
 30
0.0
  0
VERTEX
  5
73A
100
AcDbEntity
  8
0
  6
CONTINUOUS
 62
     7
100
AcDbVertex
100
AcDb2dVertex
 10
7553.55064
 20
-19301.879632
 30
0.0
  0
VERTEX
  5
73B
100
AcDbEntity
  8
0
  6
CONTINUOUS
 62
     7
100
AcDbVertex
100
AcDb2dVertex
 10
7553.439458
 20
-19301.877962
 30
0.0
  0
VERTEX
  5
73C
100
AcDbEntity
  8
0
  6
CONTINUOUS
 62
     7
100
AcDbVertex
100
AcDb2dVertex
 10
7553.328257
 20
-19301.876292
 30
0.0
  0
VERTEX
  5
73D
100
AcDbEntity
  8
0
  6
CONTINUOUS
 62
     7
100
AcDbVertex
100
AcDb2dVertex
 10
7553.217055
 20
-19301.874623
 30
0.0
  0
VERTEX
  5
73E
100
AcDbEntity
  8
0
  6
CONTINUOUS
 62
     7
100
AcDbVertex
100
AcDb2dVertex
 10
7553.105873
 20
-19301.872953
 30
0.0
  0
VERTEX
  5
73F
100
AcDbEntity
  8
0
  6
CONTINUOUS
 62
     7
100
AcDbVertex
100
AcDb2dVertex
 10
7552.994731
 20
-19301.871284
 30
0.0
  0
VERTEX
  5
740
100
AcDbEntity
  8
0
  6
CONTINUOUS
 62
     7
100
AcDbVertex
100
AcDb2dVertex
 10
7552.883648
 20
-19301.869614
 30
0.0
  0
SEQEND
  5
741
100
AcDbEntity
  8
0
  6
CONTINUOUS
 62
     7
  0
LINE
  5
742
100
AcDbEntity
  8
0
  6
CONTINUOUS
 62
     7
100
AcDbLine
 10
7553.589454
 20
-19301.68379
 30
0.0
 11
7553.772866
 21
-19301.882971
 31
0.0
  0
LINE
  5
743
100
AcDbEntity
  8
0
  6
CONTINUOUS
 62
     7
100
AcDbLine
 10
7553.633799
 20
-19301.026622
 30
0.0
 11
7553.589454
 21
-19301.68379
 31
0.0
  0
LINE
  5
744
100
AcDbEntity
  8
0
  6
CONTINUOUS
 62
     7
100
AcDbLine
 10
7553.688011
 20
-19300.223222
 30
0.0
 11
7553.633799
 21
-19301.026622
 31
0.0
  0
LINE
  5
745
100
AcDbEntity
  8
0
  6
CONTINUOUS
 62
     7
100
AcDbLine
 10
7553.872066
 20
-19300.412892
 30
0.0
 11
7553.688011
 21
-19300.223222
 31
0.0
  0
LINE
  5
746
100
AcDbEntity
  8
0
  6
CONTINUOUS
 62
     7
100
AcDbLine
 10
7555.513364
 20
-19299.816811
 30
0.0
 11
7555.706949
 21
-19300.006124
 31
0.0
  0
LINE
  5
747
100
AcDbEntity
  8
0
  6
CONTINUOUS
 62
     7
100
AcDbLine
 10
7555.513364
 20
-19299.816811
 30
0.0
 11
7555.52112
 21
-19299.300331
 31
0.0
  0
LINE
  5
748
100
AcDbEntity
  8
0
  6
CONTINUOUS
 62
     7
100
AcDbLine
 10
7555.52112
 20
-19299.300331
 30
0.0
 11
7555.720303
 21
-19299.116921
 31
0.0
  0
LINE
  5
749
100
AcDbEntity
  8
0
  6
CONTINUOUS
 62
     7
100
AcDbLine
 10
7554.855159
 20
-19299.841407
 30
0.0
 11
7555.513364
 21
-19299.816811
 31
0.0
  0
LINE
  5
74A
100
AcDbEntity
  8
0
  6
CONTINUOUS
 62
     7
100
AcDbLine
 10
7554.050491
 20
-19299.871458
 30
0.0
 11
7554.234545
 21
-19300.061129
 31
0.0
  0
LINE
  5
74B
100
AcDbEntity
  8
0
  6
CONTINUOUS
 62
     7
100
AcDbLine
 10
7554.050491
 20
-19299.871458
 30
0.0
 11
7554.855159
 21
-19299.841407
 31
0.0
  0
LINE
  5
74C
100
AcDbEntity
  8
0
  6
CONTINUOUS
 62
     7
100
AcDbLine
 10
7553.072958
 20
-19301.676039
 30
0.0
 11
7552.883648
 21
-19301.869614
 31
0.0
  0
LINE
  5
74D
100
AcDbEntity
  8
0
  6
CONTINUOUS
 62
     7
100
AcDbLine
 10
7553.589454
 20
-19301.68379
 30
0.0
 11
7553.072958
 21
-19301.676039
 31
0.0
  0
LINE
  5
74E
100
AcDbEntity
  8
0
  6
CONTINUOUS
 62
     7
100
AcDbLine
 10
7553.018304
 20
-19300.213175
 30
0.0
 11
7552.828638
 21
-19300.39721
 31
0.0
  0
LINE
  5
74F
100
AcDbEntity
  8
0
  6
CONTINUOUS
 62
     7
100
AcDbLine
 10
7552.476885
 20
-19300.034744
 30
0.0
 11
7552.666551
 21
-19299.850679
 31
0.0
  0
ARC
  5
750
100
AcDbEntity
  8
0
  6
CONTINUOUS
 62
     7
100
AcDbCircle
 10
7552.642122
 20
-19300.226297
 30
0.0
 40
0.376411
100
AcDbArc
 50
1.997731
 51
86.278844
  0
ARC
  5
751
100
AcDbEntity
  8
0
  6
CONTINUOUS
 62
     7
100
AcDbCircle
 10
7554.063648
 20
-19300.247659
 30
0.0
 40
0.376431
100
AcDbArc
 50
92.003031
 51
176.277788
  0
LINE
  5
752
100
AcDbEntity
  8
0
  6
CONTINUOUS
 62
     7
100
AcDbLine
 10
7555.52112
 20
-19299.300331
 30
0.0
 11
7554.863951
 21
-19299.255969
 31
0.0
  0
LINE
  5
753
100
AcDbEntity
  8
0
  6
CONTINUOUS
 62
     7
100
AcDbLine
 10
7554.863951
 20
-19299.255969
 30
0.0
 11
7554.082238
 21
-19299.20323
 31
0.0
  0
LINE
  5
754
100
AcDbEntity
  8
0
  6
CONTINUOUS
 62
     7
100
AcDbLine
 10
7554.269598
 20
-19299.019016
 30
0.0
 11
7554.082238
 21
-19299.20323
 31
0.0
  0
LINE
  5
755
100
AcDbEntity
  8
0
  6
CONTINUOUS
 62
     7
100
AcDbLine
 10
7553.072958
 20
-19301.676039
 30
0.0
 11
7553.048367
 21
-19301.017827
 31
0.0
  0
LINE
  5
756
100
AcDbEntity
  8
0
  6
CONTINUOUS
 62
     7
100
AcDbLine
 10
7553.048367
 20
-19301.017827
 30
0.0
 11
7553.018304
 21
-19300.213175
 31
0.0
  0
LINE
  5
757
100
AcDbEntity
  8
0
  6
CONTINUOUS
 62
     7
100
AcDbLine
 10
7551.213736
 20
-19299.235637
 30
0.0
 11
7551.871941
 21
-19299.211041
 31
0.0
  0
LINE
  5
758
100
AcDbEntity
  8
0
  6
CONTINUOUS
 62
     7
100
AcDbLine
 10
7551.213736
 20
-19299.235637
 30
0.0
 11
7551.020151
 21
-19299.046324
 31
0.0
  0
LINE
  5
759
100
AcDbEntity
  8
0
  6
CONTINUOUS
 62
     7
100
AcDbLine
 10
7552.654886
 20
-19299.181795
 30
0.0
 11
7552.473141
 21
-19298.992035
 31
0.0
  0
LINE
  5
75A
100
AcDbEntity
  8
0
  6
CONTINUOUS
 62
     7
100
AcDbLine
 10
7551.871941
 20
-19299.211041
 30
0.0
 11
7552.654886
 21
-19299.181795
 31
0.0
  0
LINE
  5
75B
100
AcDbEntity
  8
0
  6
CONTINUOUS
 62
     7
100
AcDbLine
 10
7552.835256
 20
-19298.64522
 30
0.0
 11
7553.017001
 21
-19298.83495
 31
0.0
  0
ARC
  5
75C
100
AcDbEntity
  8
0
  6
CONTINUOUS
 62
     7
100
AcDbCircle
 10
7552.641729
 20
-19298.805607
 30
0.0
 40
0.376417
100
AcDbArc
 50
272.003021
 51
355.529093
  0
LINE
  5
75D
100
AcDbEntity
  8
0
  6
CONTINUOUS
 62
     7
100
AcDbLine
 10
7553.135222
 20
-19297.368628
 30
0.0
 11
7552.954234
 21
-19297.169477
 31
0.0
  0
LINE
  5
75E
100
AcDbEntity
  8
0
  6
CONTINUOUS
 62
     7
100
AcDbLine
 10
7553.135222
 20
-19297.368628
 30
0.0
 11
7553.082069
 21
-19298.027883
 31
0.0
  0
LINE
  5
75F
100
AcDbEntity
  8
0
  6
CONTINUOUS
 62
     7
100
AcDbLine
 10
7553.082069
 20
-19298.027883
 30
0.0
 11
7553.017001
 21
-19298.83495
 31
0.0
  0
CIRCLE
  5
760
100
AcDbEntity
  8
0
  6
CONTINUOUS
 62
     7
100
AcDbCircle
 10
7553.363547
 20
-19299.526225
 30
0.0
 40
5.399431
  0
LINE
  5
761
100
AcDbEntity
  8
0
  6
CONTINUOUS
 62
     7
100
AcDbLine
 10
7551.205979
 20
-19299.752117
 30
0.0
 11
7551.213736
 21
-19299.235637
 31
0.0
  0
LINE
  5
762
100
AcDbEntity
  8
0
  6
CONTINUOUS
 62
     7
100
AcDbLine
 10
7551.205979
 20
-19299.752117
 30
0.0
 11
7551.006797
 21
-19299.935527
 31
0.0
  0
LINE
  5
763
100
AcDbEntity
  8
0
  6
CONTINUOUS
 62
     7
100
AcDbLine
 10
7551.863148
 20
-19299.796479
 30
0.0
 11
7551.205979
 21
-19299.752117
 31
0.0
  0
LINE
  5
764
100
AcDbEntity
  8
0
  6
CONTINUOUS
 62
     7
100
AcDbLine
 10
7552.666551
 20
-19299.850679
 30
0.0
 11
7551.863148
 21
-19299.796479
 31
0.0
  0
LINE
  5
765
100
AcDbEntity
  8
0
  6
CONTINUOUS
 62
     7
100
AcDbLine
 10
7553.730701
 20
-19298.845683
 30
0.0
 11
7553.918061
 21
-19298.661468
 31
0.0
  0
ARC
  5
766
100
AcDbEntity
  8
0
  6
CONTINUOUS
 62
     7
100
AcDbCircle
 10
7554.106697
 20
-19298.827594
 30
0.0
 40
0.376431
100
AcDbArc
 50
182.754285
 51
266.274474
  0
LINE
  5
767
100
AcDbEntity
  8
0
  6
CONTINUOUS
 62
     7
100
AcDbLine
 10
7553.689897
 20
-19298.037006
 30
0.0
 11
7553.656567
 21
-19297.376439
 31
0.0
  0
LINE
  5
768
100
AcDbEntity
  8
0
  6
CONTINUOUS
 62
     7
100
AcDbLine
 10
7553.656567
 20
-19297.376439
 30
0.0
 11
7553.843452
 21
-19297.182834
 31
0.0
  0
LINE
  5
769
100
AcDbEntity
  8
0
  6
CONTINUOUS
 62
     7
100
AcDbLine
 10
7553.730701
 20
-19298.845683
 30
0.0
 11
7553.689897
 21
-19298.037006
 31
0.0
  0
LINE
  5
76A
100
AcDbEntity
  8
0
  6
CONTINUOUS
 62
     7
100
AcDbLine
 10
7553.656567
 20
-19297.376439
 30
0.0
 11
7553.135222
 21
-19297.368628
 31
0.0
  0
ARC
  5
76B
100
AcDbEntity
  8
0
  6
CONTINUOUS
 62
     7
100
AcDbCircle
 10
7553.363558
 20
-19299.526161
 30
0.0
 40
1.524603
100
AcDbArc
 50
258.068835
 51
280.209806
  0
ARC
  5
76C
100
AcDbEntity
  8
0
  6
CONTINUOUS
 62
     7
100
AcDbCircle
 10
7553.363528
 20
-19299.526221
 30
0.0
 40
1.524567
100
AcDbArc
 50
348.068742
 51
10.210464
  0
ARC
  5
76D
100
AcDbEntity
  8
0
  6
CONTINUOUS
 62
     7
100
AcDbCircle
 10
7553.363553
 20
-19299.526947
 30
0.0
 40
1.525263
100
AcDbArc
 50
77.645499
 51
100.634748
  0
ARC
  5
76E
100
AcDbEntity
  8
0
  6
CONTINUOUS
 62
     7
100
AcDbCircle
 10
7553.363584
 20
-19299.526227
 30
0.0
 40
1.52458
100
AcDbArc
 50
168.068833
 51
190.210374
  0
LINE
  5
76F
100
AcDbEntity
  8
0
  6
CONTINUOUS
 62
     7
100
AcDbLine
 10
7573.998267
 20
-19826.033685
 30
0.0
 11
7537.688963
 21
-19738.375269
 31
0.0
  0
POLYLINE
  5
770
100
AcDbEntity
  8
0
  6
CONTINUOUS
 62
     7
100
AcDb2dPolyline
 66
     1
 10
0.0
 20
0.0
 30
0.0
 70
   128
  0
VERTEX
  5
771
100
AcDbEntity
  8
0
  6
CONTINUOUS
 62
     7
100
AcDbVertex
100
AcDb2dVertex
 10
7543.322949
 20
-19736.041583
 30
0.0
  0
VERTEX
  5
772
100
AcDbEntity
  8
0
  6
CONTINUOUS
 62
     7
100
AcDbVertex
100
AcDb2dVertex
 10
7542.762182
 20
-19736.273871
 30
0.0
  0
VERTEX
  5
773
100
AcDbEntity
  8
0
  6
CONTINUOUS
 62
     7
100
AcDbVertex
100
AcDb2dVertex
 10
7542.080702
 20
-19736.556141
 30
0.0
  0
VERTEX
  5
774
100
AcDbEntity
  8
0
  6
CONTINUOUS
 62
     7
100
AcDbVertex
100
AcDb2dVertex
 10
7541.31497
 20
-19736.873321
 30
0.0
  0
VERTEX
  5
775
100
AcDbEntity
  8
0
  6
CONTINUOUS
 62
     7
100
AcDbVertex
100
AcDb2dVertex
 10
7540.505956
 20
-19737.208419
 30
0.0
  0
VERTEX
  5
776
100
AcDbEntity
  8
0
  6
CONTINUOUS
 62
     7
100
AcDbVertex
100
AcDb2dVertex
 10
7539.696941
 20
-19737.543532
 30
0.0
  0
VERTEX
  5
777
100
AcDbEntity
  8
0
  6
CONTINUOUS
 62
     7
100
AcDbVertex
100
AcDb2dVertex
 10
7538.931209
 20
-19737.860712
 30
0.0
  0
VERTEX
  5
778
100
AcDbEntity
  8
0
  6
CONTINUOUS
 62
     7
100
AcDbVertex
100
AcDb2dVertex
 10
7538.249729
 20
-19738.142982
 30
0.0
  0
VERTEX
  5
779
100
AcDbEntity
  8
0
  6
CONTINUOUS
 62
     7
100
AcDbVertex
100
AcDb2dVertex
 10
7537.688963
 20
-19738.375269
 30
0.0
  0
SEQEND
  5
77A
100
AcDbEntity
  8
0
  6
CONTINUOUS
 62
     7
  0
LINE
  5
77B
100
AcDbEntity
  8
0
  6
CONTINUOUS
 62
     7
100
AcDbLine
 10
7579.632252
 20
-19823.700014
 30
0.0
 11
7543.322949
 21
-19736.041583
 31
0.0
  0
ARC
  5
77C
100
AcDbEntity
  8
0
  6
CONTINUOUS
 62
     7
100
AcDbCircle
 10
7526.712219
 20
-19806.565684
 30
0.0
 40
55.624771
100
AcDbArc
 50
337.431539
 51
342.0592
  0
ARC
  5
77D
100
AcDbEntity
  8
0
  6
CONTINUOUS
 62
     7
100
AcDbCircle
 10
7599.34132
 20
-19776.41347
 30
0.0
 40
55.717467
100
AcDbArc
 50
242.944759
 51
247.564727
  0
ARC
  5
77E
100
AcDbEntity
  8
0
  6
CONTINUOUS
 62
     7
100
AcDbCircle
 10
7569.715213
 20
-19807.72567
 30
0.0
 40
18.802323
100
AcDbArc
 50
301.83244
 51
315.000343
  0
POLYLINE
  5
77F
100
AcDbEntity
  8
0
  6
CONTINUOUS
 62
     7
100
AcDb2dPolyline
 66
     1
 10
0.0
 20
0.0
 30
0.0
 70
   128
  0
VERTEX
  5
780
100
AcDbEntity
  8
0
  6
CONTINUOUS
 62
     7
100
AcDbVertex
100
AcDb2dVertex
 10
7583.010543
 20
-19821.02084
 30
0.0
  0
VERTEX
  5
781
100
AcDbEntity
  8
0
  6
CONTINUOUS
 62
     7
100
AcDbVertex
100
AcDb2dVertex
 10
7583.439734
 20
-19821.450028
 30
0.0
  0
VERTEX
  5
782
100
AcDbEntity
  8
0
  6
CONTINUOUS
 62
     7
100
AcDbVertex
100
AcDb2dVertex
 10
7583.961316
 20
-19821.971636
 30
0.0
  0
VERTEX
  5
783
100
AcDbEntity
  8
0
  6
CONTINUOUS
 62
     7
100
AcDbVertex
100
AcDb2dVertex
 10
7584.547382
 20
-19822.5577
 30
0.0
  0
VERTEX
  5
784
100
AcDbEntity
  8
0
  6
CONTINUOUS
 62
     7
100
AcDbVertex
100
AcDb2dVertex
 10
7585.166575
 20
-19823.176885
 30
0.0
  0
VERTEX
  5
785
100
AcDbEntity
  8
0
  6
CONTINUOUS
 62
     7
100
AcDbVertex
100
AcDb2dVertex
 10
7585.785768
 20
-19823.796071
 30
0.0
  0
VERTEX
  5
786
100
AcDbEntity
  8
0
  6
CONTINUOUS
 62
     7
100
AcDbVertex
100
AcDb2dVertex
 10
7586.371834
 20
-19824.382135
 30
0.0
  0
VERTEX
  5
787
100
AcDbEntity
  8
0
  6
CONTINUOUS
 62
     7
100
AcDbVertex
100
AcDb2dVertex
 10
7586.893416
 20
-19824.903713
 30
0.0
  0
VERTEX
  5
788
100
AcDbEntity
  8
0
  6
CONTINUOUS
 62
     7
100
AcDbVertex
100
AcDb2dVertex
 10
7587.322608
 20
-19825.332901
 30
0.0
  0
SEQEND
  5
789
100
AcDbEntity
  8
0
  6
CONTINUOUS
 62
     7
  0
ARC
  5
78A
100
AcDbEntity
  8
0
  6
CONTINUOUS
 62
     7
100
AcDbCircle
 10
7569.714974
 20
-19807.725301
 30
0.0
 40
24.90093
100
AcDbArc
 50
270.0
 51
315.000055
  0
LINE
  5
78B
100
AcDbEntity
  8
0
  6
CONTINUOUS
 62
     7
100
AcDbLine
 10
7569.715006
 20
-19826.528044
 30
0.0
 11
7569.715006
 21
-19832.626232
 31
0.0
  0
ARC
  5
78C
100
AcDbEntity
  8
0
  6
CONTINUOUS
 62
     7
100
AcDbCircle
 10
7569.715117
 20
-19807.726158
 30
0.0
 40
18.801886
100
AcDbArc
 50
270.0
 51
283.167834
  0
LINE
  5
78D
100
AcDbEntity
  8
0
  6
CONTINUOUS
 62
     7
100
AcDbLine
 10
7194.4015
 20
-19438.469256
 30
0.0
 11
7282.059916
 21
-19474.778563
 31
0.0
  0
POLYLINE
  5
78E
100
AcDbEntity
  8
0
  6
CONTINUOUS
 62
     7
100
AcDb2dPolyline
 66
     1
 10
0.0
 20
0.0
 30
0.0
 70
   128
  0
VERTEX
  5
78F
100
AcDbEntity
  8
0
  6
CONTINUOUS
 62
     7
100
AcDbVertex
100
AcDb2dVertex
 10
7279.726245
 20
-19480.412547
 30
0.0
  0
VERTEX
  5
790
100
AcDbEntity
  8
0
  6
CONTINUOUS
 62
     7
100
AcDbVertex
100
AcDb2dVertex
 10
7279.958518
 20
-19479.851779
 30
0.0
  0
VERTEX
  5
791
100
AcDbEntity
  8
0
  6
CONTINUOUS
 62
     7
100
AcDbVertex
100
AcDb2dVertex
 10
7280.240787
 20
-19479.170299
 30
0.0
  0
VERTEX
  5
792
100
AcDbEntity
  8
0
  6
CONTINUOUS
 62
     7
100
AcDbVertex
100
AcDb2dVertex
 10
7280.557967
 20
-19478.404568
 30
0.0
  0
VERTEX
  5
793
100
AcDbEntity
  8
0
  6
CONTINUOUS
 62
     7
100
AcDbVertex
100
AcDb2dVertex
 10
7280.893095
 20
-19477.595555
 30
0.0
  0
VERTEX
  5
794
100
AcDbEntity
  8
0
  6
CONTINUOUS
 62
     7
100
AcDbVertex
100
AcDb2dVertex
 10
7281.228193
 20
-19476.786535
 30
0.0
  0
VERTEX
  5
795
100
AcDbEntity
  8
0
  6
CONTINUOUS
 62
     7
100
AcDbVertex
100
AcDb2dVertex
 10
7281.545374
 20
-19476.020803
 30
0.0
  0
VERTEX
  5
796
100
AcDbEntity
  8
0
  6
CONTINUOUS
 62
     7
100
AcDbVertex
100
AcDb2dVertex
 10
7281.827643
 20
-19475.33933
 30
0.0
  0
VERTEX
  5
797
100
AcDbEntity
  8
0
  6
CONTINUOUS
 62
     7
100
AcDbVertex
100
AcDb2dVertex
 10
7282.059916
 20
-19474.778563
 30
0.0
  0
SEQEND
  5
798
100
AcDbEntity
  8
0
  6
CONTINUOUS
 62
     7
  0
LINE
  5
799
100
AcDbEntity
  8
0
  6
CONTINUOUS
 62
     7
100
AcDbLine
 10
7192.067829
 20
-19444.103241
 30
0.0
 11
7279.726245
 21
-19480.412547
 31
0.0
  0
ARC
  5
79A
100
AcDbEntity
  8
0
  6
CONTINUOUS
 62
     7
100
AcDbCircle
 10
7241.227885
 20
-19418.972264
 30
0.0
 40
55.211205
100
AcDbArc
 50
202.414096
 51
207.076448
  0
ARC
  5
79B
100
AcDbEntity
  8
0
  6
CONTINUOUS
 62
     7
100
AcDbCircle
 10
7211.663365
 20
-19491.73484
 30
0.0
 40
55.992807
100
AcDbArc
 50
107.956039
 51
112.553267
  0
ARC
  5
79C
100
AcDbEntity
  8
0
  6
CONTINUOUS
 62
     7
100
AcDbCircle
 10
7210.375437
 20
-19448.3864
 30
0.0
 40
18.801967
100
AcDbArc
 50
166.832195
 51
180.000313
  0
LINE
  5
79D
100
AcDbEntity
  8
0
  6
CONTINUOUS
 62
     7
100
AcDbLine
 10
7191.57347
 20
-19448.386502
 30
0.0
 11
7185.475283
 21
-19448.386502
 31
0.0
  0
ARC
  5
79E
100
AcDbEntity
  8
0
  6
CONTINUOUS
 62
     7
100
AcDbCircle
 10
7210.376368
 20
-19448.386567
 30
0.0
 40
24.901086
100
AcDbArc
 50
135.000191
 51
179.999851
  0
POLYLINE
  5
79F
100
AcDbEntity
  8
0
  6
CONTINUOUS
 62
     7
100
AcDb2dPolyline
 66
     1
 10
0.0
 20
0.0
 30
0.0
 70
   128
  0
VERTEX
  5
7A0
100
AcDbEntity
  8
0
  6
CONTINUOUS
 62
     7
100
AcDbVertex
100
AcDb2dVertex
 10
7197.080674
 20
-19435.090968
 30
0.0
  0
VERTEX
  5
7A1
100
AcDbEntity
  8
0
  6
CONTINUOUS
 62
     7
100
AcDbVertex
100
AcDb2dVertex
 10
7196.651457
 20
-19434.661773
 30
0.0
  0
VERTEX
  5
7A2
100
AcDbEntity
  8
0
  6
CONTINUOUS
 62
     7
100
AcDbVertex
100
AcDb2dVertex
 10
7196.129878
 20
-19434.140194
 30
0.0
  0
VERTEX
  5
7A3
100
AcDbEntity
  8
0
  6
CONTINUOUS
 62
     7
100
AcDbVertex
100
AcDb2dVertex
 10
7195.543815
 20
-19433.554131
 30
0.0
  0
VERTEX
  5
7A4
100
AcDbEntity
  8
0
  6
CONTINUOUS
 62
     7
100
AcDbVertex
100
AcDb2dVertex
 10
7194.924629
 20
-19432.934937
 30
0.0
  0
VERTEX
  5
7A5
100
AcDbEntity
  8
0
  6
CONTINUOUS
 62
     7
100
AcDbVertex
100
AcDb2dVertex
 10
7194.305443
 20
-19432.315736
 30
0.0
  0
VERTEX
  5
7A6
100
AcDbEntity
  8
0
  6
CONTINUOUS
 62
     7
100
AcDbVertex
100
AcDb2dVertex
 10
7193.719379
 20
-19431.729673
 30
0.0
  0
VERTEX
  5
7A7
100
AcDbEntity
  8
0
  6
CONTINUOUS
 62
     7
100
AcDbVertex
100
AcDb2dVertex
 10
7193.197801
 20
-19431.208094
 30
0.0
  0
VERTEX
  5
7A8
100
AcDbEntity
  8
0
  6
CONTINUOUS
 62
     7
100
AcDbVertex
100
AcDb2dVertex
 10
7192.768583
 20
-19430.778899
 30
0.0
  0
SEQEND
  5
7A9
100
AcDbEntity
  8
0
  6
CONTINUOUS
 62
     7
  0
ARC
  5
7AA
100
AcDbEntity
  8
0
  6
CONTINUOUS
 62
     7
100
AcDbCircle
 10
7210.375625
 20
-19448.386129
 30
0.0
 40
18.802048
100
AcDbArc
 50
134.999547
 51
148.167639
  0
LINE
  5
7AB
100
AcDbEntity
  8
0
  6
CONTINUOUS
 62
     7
100
AcDbLine
 10
7192.067829
 20
-19663.165565
 30
0.0
 11
7279.726245
 21
-19626.856259
 31
0.0
  0
POLYLINE
  5
7AC
100
AcDbEntity
  8
0
  6
CONTINUOUS
 62
     7
100
AcDb2dPolyline
 66
     1
 10
0.0
 20
0.0
 30
0.0
 70
   128
  0
VERTEX
  5
7AD
100
AcDbEntity
  8
0
  6
CONTINUOUS
 62
     7
100
AcDbVertex
100
AcDb2dVertex
 10
7282.059916
 20
-19632.490243
 30
0.0
  0
VERTEX
  5
7AE
100
AcDbEntity
  8
0
  6
CONTINUOUS
 62
     7
100
AcDbVertex
100
AcDb2dVertex
 10
7281.827643
 20
-19631.929476
 30
0.0
  0
VERTEX
  5
7AF
100
AcDbEntity
  8
0
  6
CONTINUOUS
 62
     7
100
AcDbVertex
100
AcDb2dVertex
 10
7281.545374
 20
-19631.248003
 30
0.0
  0
VERTEX
  5
7B0
100
AcDbEntity
  8
0
  6
CONTINUOUS
 62
     7
100
AcDbVertex
100
AcDb2dVertex
 10
7281.228193
 20
-19630.482271
 30
0.0
  0
VERTEX
  5
7B1
100
AcDbEntity
  8
0
  6
CONTINUOUS
 62
     7
100
AcDbVertex
100
AcDb2dVertex
 10
7280.893095
 20
-19629.673251
 30
0.0
  0
VERTEX
  5
7B2
100
AcDbEntity
  8
0
  6
CONTINUOUS
 62
     7
100
AcDbVertex
100
AcDb2dVertex
 10
7280.557967
 20
-19628.864238
 30
0.0
  0
VERTEX
  5
7B3
100
AcDbEntity
  8
0
  6
CONTINUOUS
 62
     7
100
AcDbVertex
100
AcDb2dVertex
 10
7280.240787
 20
-19628.098507
 30
0.0
  0
VERTEX
  5
7B4
100
AcDbEntity
  8
0
  6
CONTINUOUS
 62
     7
100
AcDbVertex
100
AcDb2dVertex
 10
7279.958518
 20
-19627.417026
 30
0.0
  0
VERTEX
  5
7B5
100
AcDbEntity
  8
0
  6
CONTINUOUS
 62
     7
100
AcDbVertex
100
AcDb2dVertex
 10
7279.726245
 20
-19626.856259
 30
0.0
  0
SEQEND
  5
7B6
100
AcDbEntity
  8
0
  6
CONTINUOUS
 62
     7
  0
LINE
  5
7B7
100
AcDbEntity
  8
0
  6
CONTINUOUS
 62
     7
100
AcDbLine
 10
7194.4015
 20
-19668.799549
 30
0.0
 11
7282.059916
 21
-19632.490243
 31
0.0
  0
ARC
  5
7B8
100
AcDbEntity
  8
0
  6
CONTINUOUS
 62
     7
100
AcDbCircle
 10
7211.53616
 20
-19615.878683
 30
0.0
 40
55.625665
100
AcDbArc
 50
247.431554
 51
252.059141
  0
ARC
  5
7B9
100
AcDbEntity
  8
0
  6
CONTINUOUS
 62
     7
100
AcDbCircle
 10
7241.665032
 20
-19688.498026
 30
0.0
 40
55.692155
100
AcDbArc
 50
152.943695
 51
157.565762
  0
LINE
  5
7BA
100
AcDbEntity
  8
0
  6
CONTINUOUS
 62
     7
100
AcDbLine
 10
7579.632252
 20
-19283.568792
 30
0.0
 11
7543.322949
 21
-19371.227223
 31
0.0
  0
POLYLINE
  5
7BB
100
AcDbEntity
  8
0
  6
CONTINUOUS
 62
     7
100
AcDb2dPolyline
 66
     1
 10
0.0
 20
0.0
 30
0.0
 70
   128
  0
VERTEX
  5
7BC
100
AcDbEntity
  8
0
  6
CONTINUOUS
 62
     7
100
AcDbVertex
100
AcDb2dVertex
 10
7537.688963
 20
-19368.893536
 30
0.0
  0
VERTEX
  5
7BD
100
AcDbEntity
  8
0
  6
CONTINUOUS
 62
     7
100
AcDbVertex
100
AcDb2dVertex
 10
7538.249729
 20
-19369.125824
 30
0.0
  0
VERTEX
  5
7BE
100
AcDbEntity
  8
0
  6
CONTINUOUS
 62
     7
100
AcDbVertex
100
AcDb2dVertex
 10
7538.931209
 20
-19369.408094
 30
0.0
  0
VERTEX
  5
7BF
100
AcDbEntity
  8
0
  6
CONTINUOUS
 62
     7
100
AcDbVertex
100
AcDb2dVertex
 10
7539.696941
 20
-19369.725274
 30
0.0
  0
VERTEX
  5
7C0
100
AcDbEntity
  8
0
  6
CONTINUOUS
 62
     7
100
AcDbVertex
100
AcDb2dVertex
 10
7540.505956
 20
-19370.060387
 30
0.0
  0
VERTEX
  5
7C1
100
AcDbEntity
  8
0
  6
CONTINUOUS
 62
     7
100
AcDbVertex
100
AcDb2dVertex
 10
7541.31497
 20
-19370.395485
 30
0.0
  0
VERTEX
  5
7C2
100
AcDbEntity
  8
0
  6
CONTINUOUS
 62
     7
100
AcDbVertex
100
AcDb2dVertex
 10
7542.080702
 20
-19370.712665
 30
0.0
  0
VERTEX
  5
7C3
100
AcDbEntity
  8
0
  6
CONTINUOUS
 62
     7
100
AcDbVertex
100
AcDb2dVertex
 10
7542.762182
 20
-19370.994935
 30
0.0
  0
VERTEX
  5
7C4
100
AcDbEntity
  8
0
  6
CONTINUOUS
 62
     7
100
AcDbVertex
100
AcDb2dVertex
 10
7543.322949
 20
-19371.227223
 30
0.0
  0
SEQEND
  5
7C5
100
AcDbEntity
  8
0
  6
CONTINUOUS
 62
     7
  0
LINE
  5
7C6
100
AcDbEntity
  8
0
  6
CONTINUOUS
 62
     7
100
AcDbLine
 10
7573.998267
 20
-19281.235121
 30
0.0
 11
7537.688963
 21
-19368.893536
 31
0.0
  0
ARC
  5
7C7
100
AcDbEntity
  8
0
  6
CONTINUOUS
 62
     7
100
AcDbCircle
 10
7599.145479
 20
-19330.430432
 30
0.0
 40
55.249986
100
AcDbArc
 50
112.415717
 51
117.074797
  0
ARC
  5
7C8
100
AcDbEntity
  8
0
  6
CONTINUOUS
 62
     7
100
AcDbCircle
 10
7526.366777
 20
-19300.830594
 30
0.0
 40
55.992683
100
AcDbArc
 50
17.956012
 51
22.553249
  0
ARC
  5
7C9
100
AcDbEntity
  8
0
  6
CONTINUOUS
 62
     7
100
AcDbCircle
 10
7569.715117
 20
-19299.542648
 30
0.0
 40
18.801886
100
AcDbArc
 50
76.832166
 51
90.0
  0
LINE
  5
7CA
100
AcDbEntity
  8
0
  6
CONTINUOUS
 62
     7
100
AcDbLine
 10
7569.715006
 20
-19280.740762
 30
0.0
 11
7569.715006
 21
-19274.642574
 31
0.0
  0
ARC
  5
7CB
100
AcDbEntity
  8
0
  6
CONTINUOUS
 62
     7
100
AcDbCircle
 10
7569.714974
 20
-19299.543504
 30
0.0
 40
24.90093
100
AcDbArc
 50
44.999945
 51
90.0
  0
POLYLINE
  5
7CC
100
AcDbEntity
  8
0
  6
CONTINUOUS
 62
     7
100
AcDb2dPolyline
 66
     1
 10
0.0
 20
0.0
 30
0.0
 70
   128
  0
VERTEX
  5
7CD
100
AcDbEntity
  8
0
  6
CONTINUOUS
 62
     7
100
AcDbVertex
100
AcDb2dVertex
 10
7583.010543
 20
-19286.247966
 30
0.0
  0
VERTEX
  5
7CE
100
AcDbEntity
  8
0
  6
CONTINUOUS
 62
     7
100
AcDbVertex
100
AcDb2dVertex
 10
7583.439734
 20
-19285.818778
 30
0.0
  0
VERTEX
  5
7CF
100
AcDbEntity
  8
0
  6
CONTINUOUS
 62
     7
100
AcDbVertex
100
AcDb2dVertex
 10
7583.961316
 20
-19285.29717
 30
0.0
  0
VERTEX
  5
7D0
100
AcDbEntity
  8
0
  6
CONTINUOUS
 62
     7
100
AcDbVertex
100
AcDb2dVertex
 10
7584.547382
 20
-19284.711106
 30
0.0
  0
VERTEX
  5
7D1
100
AcDbEntity
  8
0
  6
CONTINUOUS
 62
     7
100
AcDbVertex
100
AcDb2dVertex
 10
7585.166575
 20
-19284.09192
 30
0.0
  0
VERTEX
  5
7D2
100
AcDbEntity
  8
0
  6
CONTINUOUS
 62
     7
100
AcDbVertex
100
AcDb2dVertex
 10
7585.785768
 20
-19283.472734
 30
0.0
  0
VERTEX
  5
7D3
100
AcDbEntity
  8
0
  6
CONTINUOUS
 62
     7
100
AcDbVertex
100
AcDb2dVertex
 10
7586.371834
 20
-19282.886671
 30
0.0
  0
VERTEX
  5
7D4
100
AcDbEntity
  8
0
  6
CONTINUOUS
 62
     7
100
AcDbVertex
100
AcDb2dVertex
 10
7586.893416
 20
-19282.365092
 30
0.0
  0
VERTEX
  5
7D5
100
AcDbEntity
  8
0
  6
CONTINUOUS
 62
     7
100
AcDbVertex
100
AcDb2dVertex
 10
7587.322608
 20
-19281.935905
 30
0.0
  0
SEQEND
  5
7D6
100
AcDbEntity
  8
0
  6
CONTINUOUS
 62
     7
  0
ARC
  5
7D7
100
AcDbEntity
  8
0
  6
CONTINUOUS
 62
     7
100
AcDbCircle
 10
7569.715213
 20
-19299.543136
 30
0.0
 40
18.802323
100
AcDbArc
 50
44.999657
 51
58.16756
  0
ARC
  5
7D8
100
AcDbEntity
  8
0
  6
CONTINUOUS
 62
     7
100
AcDbCircle
 10
7359.218837
 20
-19299.542917
 30
0.0
 40
18.802048
100
AcDbArc
 50
121.832361
 51
135.000453
  0
POLYLINE
  5
7D9
100
AcDbEntity
  8
0
  6
CONTINUOUS
 62
     7
100
AcDb2dPolyline
 66
     1
 10
0.0
 20
0.0
 30
0.0
 70
   128
  0
VERTEX
  5
7DA
100
AcDbEntity
  8
0
  6
CONTINUOUS
 62
     7
100
AcDbVertex
100
AcDb2dVertex
 10
7345.923676
 20
-19286.247966
 30
0.0
  0
VERTEX
  5
7DB
100
AcDbEntity
  8
0
  6
CONTINUOUS
 62
     7
100
AcDbVertex
100
AcDb2dVertex
 10
7345.494473
 20
-19285.818778
 30
0.0
  0
VERTEX
  5
7DC
100
AcDbEntity
  8
0
  6
CONTINUOUS
 62
     7
100
AcDbVertex
100
AcDb2dVertex
 10
7344.972895
 20
-19285.29717
 30
0.0
  0
VERTEX
  5
7DD
100
AcDbEntity
  8
0
  6
CONTINUOUS
 62
     7
100
AcDbVertex
100
AcDb2dVertex
 10
7344.386831
 20
-19284.711106
 30
0.0
  0
VERTEX
  5
7DE
100
AcDbEntity
  8
0
  6
CONTINUOUS
 62
     7
100
AcDbVertex
100
AcDb2dVertex
 10
7343.76763
 20
-19284.09192
 30
0.0
  0
VERTEX
  5
7DF
100
AcDbEntity
  8
0
  6
CONTINUOUS
 62
     7
100
AcDbVertex
100
AcDb2dVertex
 10
7343.148444
 20
-19283.472734
 30
0.0
  0
VERTEX
  5
7E0
100
AcDbEntity
  8
0
  6
CONTINUOUS
 62
     7
100
AcDbVertex
100
AcDb2dVertex
 10
7342.562381
 20
-19282.886671
 30
0.0
  0
VERTEX
  5
7E1
100
AcDbEntity
  8
0
  6
CONTINUOUS
 62
     7
100
AcDbVertex
100
AcDb2dVertex
 10
7342.040803
 20
-19282.365092
 30
0.0
  0
VERTEX
  5
7E2
100
AcDbEntity
  8
0
  6
CONTINUOUS
 62
     7
100
AcDbVertex
100
AcDb2dVertex
 10
7341.6116
 20
-19281.935905
 30
0.0
  0
SEQEND
  5
7E3
100
AcDbEntity
  8
0
  6
CONTINUOUS
 62
     7
  0
ARC
  5
7E4
100
AcDbEntity
  8
0
  6
CONTINUOUS
 62
     7
100
AcDbCircle
 10
7359.21924
 20
-19299.543522
 30
0.0
 40
24.900947
100
AcDbArc
 50
90.0
 51
135.000038
  0
LINE
  5
7E5
100
AcDbEntity
  8
0
  6
CONTINUOUS
 62
     7
100
AcDbLine
 10
7359.219211
 20
-19280.740762
 30
0.0
 11
7359.219211
 21
-19274.642574
 31
0.0
  0
ARC
  5
7E6
100
AcDbEntity
  8
0
  6
CONTINUOUS
 62
     7
100
AcDbCircle
 10
7359.219093
 20
-19299.5426
 30
0.0
 40
18.801838
100
AcDbArc
 50
90.0
 51
103.167851
  0
ARC
  5
7E7
100
AcDbEntity
  8
0
  6
CONTINUOUS
 62
     7
100
AcDbCircle
 10
7329.560107
 20
-19330.926529
 30
0.0
 40
55.795783
100
AcDbArc
 50
62.948026
 51
67.56151
  0
ARC
  5
7E8
100
AcDbEntity
  8
0
  6
CONTINUOUS
 62
     7
100
AcDbCircle
 10
7402.219497
 20
-19300.702131
 30
0.0
 40
55.622087
100
AcDbArc
 50
157.431495
 51
162.059378
  0
ARC
  5
7E9
100
AcDbEntity
  8
0
  6
CONTINUOUS
 62
     7
100
AcDbCircle
 10
7210.375625
 20
-19658.882677
 30
0.0
 40
18.802048
100
AcDbArc
 50
211.832361
 51
225.000453
  0
POLYLINE
  5
7EA
100
AcDbEntity
  8
0
  6
CONTINUOUS
 62
     7
100
AcDb2dPolyline
 66
     1
 10
0.0
 20
0.0
 30
0.0
 70
   128
  0
VERTEX
  5
7EB
100
AcDbEntity
  8
0
  6
CONTINUOUS
 62
     7
100
AcDbVertex
100
AcDb2dVertex
 10
7197.080674
 20
-19672.177838
 30
0.0
  0
VERTEX
  5
7EC
100
AcDbEntity
  8
0
  6
CONTINUOUS
 62
     7
100
AcDbVertex
100
AcDb2dVertex
 10
7196.651457
 20
-19672.607033
 30
0.0
  0
VERTEX
  5
7ED
100
AcDbEntity
  8
0
  6
CONTINUOUS
 62
     7
100
AcDbVertex
100
AcDb2dVertex
 10
7196.129878
 20
-19673.128612
 30
0.0
  0
VERTEX
  5
7EE
100
AcDbEntity
  8
0
  6
CONTINUOUS
 62
     7
100
AcDbVertex
100
AcDb2dVertex
 10
7195.543815
 20
-19673.714675
 30
0.0
  0
VERTEX
  5
7EF
100
AcDbEntity
  8
0
  6
CONTINUOUS
 62
     7
100
AcDbVertex
100
AcDb2dVertex
 10
7194.924629
 20
-19674.333869
 30
0.0
  0
VERTEX
  5
7F0
100
AcDbEntity
  8
0
  6
CONTINUOUS
 62
     7
100
AcDbVertex
100
AcDb2dVertex
 10
7194.305443
 20
-19674.95307
 30
0.0
  0
VERTEX
  5
7F1
100
AcDbEntity
  8
0
  6
CONTINUOUS
 62
     7
100
AcDbVertex
100
AcDb2dVertex
 10
7193.719379
 20
-19675.539133
 30
0.0
  0
VERTEX
  5
7F2
100
AcDbEntity
  8
0
  6
CONTINUOUS
 62
     7
100
AcDbVertex
100
AcDb2dVertex
 10
7193.197801
 20
-19676.060712
 30
0.0
  0
VERTEX
  5
7F3
100
AcDbEntity
  8
0
  6
CONTINUOUS
 62
     7
100
AcDbVertex
100
AcDb2dVertex
 10
7192.768583
 20
-19676.489907
 30
0.0
  0
SEQEND
  5
7F4
100
AcDbEntity
  8
0
  6
CONTINUOUS
 62
     7
  0
ARC
  5
7F5
100
AcDbEntity
  8
0
  6
CONTINUOUS
 62
     7
100
AcDbCircle
 10
7210.376368
 20
-19658.882239
 30
0.0
 40
24.901086
100
AcDbArc
 50
180.000149
 51
224.999809
  0
LINE
  5
7F6
100
AcDbEntity
  8
0
  6
CONTINUOUS
 62
     7
100
AcDbLine
 10
7191.57347
 20
-19658.882303
 30
0.0
 11
7185.475283
 21
-19658.882303
 31
0.0
  0
ARC
  5
7F7
100
AcDbEntity
  8
0
  6
CONTINUOUS
 62
     7
100
AcDbCircle
 10
7210.375437
 20
-19658.882406
 30
0.0
 40
18.801967
100
AcDbArc
 50
179.999687
 51
193.167805
  0
ARC
  5
7F8
100
AcDbEntity
  8
0
  6
CONTINUOUS
 62
     7
100
AcDbCircle
 10
7359.219093
 20
-19807.726206
 30
0.0
 40
18.801838
100
AcDbArc
 50
256.832149
 51
270.0
  0
LINE
  5
7F9
100
AcDbEntity
  8
0
  6
CONTINUOUS
 62
     7
100
AcDbLine
 10
7359.219211
 20
-19826.528044
 30
0.0
 11
7359.219211
 21
-19832.626232
 31
0.0
  0
ARC
  5
7FA
100
AcDbEntity
  8
0
  6
CONTINUOUS
 62
     7
100
AcDbCircle
 10
7359.21924
 20
-19807.725284
 30
0.0
 40
24.900947
100
AcDbArc
 50
224.999962
 51
270.0
  0
POLYLINE
  5
7FB
100
AcDbEntity
  8
0
  6
CONTINUOUS
 62
     7
100
AcDb2dPolyline
 66
     1
 10
0.0
 20
0.0
 30
0.0
 70
   128
  0
VERTEX
  5
7FC
100
AcDbEntity
  8
0
  6
CONTINUOUS
 62
     7
100
AcDbVertex
100
AcDb2dVertex
 10
7345.923676
 20
-19821.02084
 30
0.0
  0
VERTEX
  5
7FD
100
AcDbEntity
  8
0
  6
CONTINUOUS
 62
     7
100
AcDbVertex
100
AcDb2dVertex
 10
7345.494473
 20
-19821.450028
 30
0.0
  0
VERTEX
  5
7FE
100
AcDbEntity
  8
0
  6
CONTINUOUS
 62
     7
100
AcDbVertex
100
AcDb2dVertex
 10
7344.972895
 20
-19821.971636
 30
0.0
  0
VERTEX
  5
7FF
100
AcDbEntity
  8
0
  6
CONTINUOUS
 62
     7
100
AcDbVertex
100
AcDb2dVertex
 10
7344.386831
 20
-19822.5577
 30
0.0
  0
VERTEX
  5
800
100
AcDbEntity
  8
0
  6
CONTINUOUS
 62
     7
100
AcDbVertex
100
AcDb2dVertex
 10
7343.76763
 20
-19823.176885
 30
0.0
  0
VERTEX
  5
801
100
AcDbEntity
  8
0
  6
CONTINUOUS
 62
     7
100
AcDbVertex
100
AcDb2dVertex
 10
7343.148444
 20
-19823.796071
 30
0.0
  0
VERTEX
  5
802
100
AcDbEntity
  8
0
  6
CONTINUOUS
 62
     7
100
AcDbVertex
100
AcDb2dVertex
 10
7342.562381
 20
-19824.382135
 30
0.0
  0
VERTEX
  5
803
100
AcDbEntity
  8
0
  6
CONTINUOUS
 62
     7
100
AcDbVertex
100
AcDb2dVertex
 10
7342.040803
 20
-19824.903713
 30
0.0
  0
VERTEX
  5
804
100
AcDbEntity
  8
0
  6
CONTINUOUS
 62
     7
100
AcDbVertex
100
AcDb2dVertex
 10
7341.6116
 20
-19825.332901
 30
0.0
  0
SEQEND
  5
805
100
AcDbEntity
  8
0
  6
CONTINUOUS
 62
     7
  0
ARC
  5
806
100
AcDbEntity
  8
0
  6
CONTINUOUS
 62
     7
100
AcDbCircle
 10
7359.218837
 20
-19807.725889
 30
0.0
 40
18.802048
100
AcDbArc
 50
224.999547
 51
238.167639
  0
ARC
  5
807
100
AcDbEntity
  8
0
  6
CONTINUOUS
 62
     7
100
AcDbCircle
 10
7402.576296
 20
-19806.435012
 30
0.0
 40
56.002095
100
AcDbArc
 50
197.956332
 51
202.552795
  0
ARC
  5
808
100
AcDbEntity
  8
0
  6
CONTINUOUS
 62
     7
100
AcDbCircle
 10
7329.737636
 20
-19776.727452
 30
0.0
 40
55.372011
100
AcDbArc
 50
292.420826
 51
297.069638
  0
LINE
  5
809
100
AcDbEntity
  8
0
  6
CONTINUOUS
 62
     7
100
AcDbLine
 10
7349.301965
 20
-19823.700014
 30
0.0
 11
7385.611264
 21
-19736.041583
 31
0.0
  0
POLYLINE
  5
80A
100
AcDbEntity
  8
0
  6
CONTINUOUS
 62
     7
100
AcDb2dPolyline
 66
     1
 10
0.0
 20
0.0
 30
0.0
 70
   128
  0
VERTEX
  5
80B
100
AcDbEntity
  8
0
  6
CONTINUOUS
 62
     7
100
AcDbVertex
100
AcDb2dVertex
 10
7391.245248
 20
-19738.375269
 30
0.0
  0
VERTEX
  5
80C
100
AcDbEntity
  8
0
  6
CONTINUOUS
 62
     7
100
AcDbVertex
100
AcDb2dVertex
 10
7390.68448
 20
-19738.142982
 30
0.0
  0
VERTEX
  5
80D
100
AcDbEntity
  8
0
  6
CONTINUOUS
 62
     7
100
AcDbVertex
100
AcDb2dVertex
 10
7390.003
 20
-19737.860712
 30
0.0
  0
VERTEX
  5
80E
100
AcDbEntity
  8
0
  6
CONTINUOUS
 62
     7
100
AcDbVertex
100
AcDb2dVertex
 10
7389.237268
 20
-19737.543532
 30
0.0
  0
VERTEX
  5
80F
100
AcDbEntity
  8
0
  6
CONTINUOUS
 62
     7
100
AcDbVertex
100
AcDb2dVertex
 10
7388.428248
 20
-19737.208419
 30
0.0
  0
VERTEX
  5
810
100
AcDbEntity
  8
0
  6
CONTINUOUS
 62
     7
100
AcDbVertex
100
AcDb2dVertex
 10
7387.619243
 20
-19736.873321
 30
0.0
  0
VERTEX
  5
811
100
AcDbEntity
  8
0
  6
CONTINUOUS
 62
     7
100
AcDbVertex
100
AcDb2dVertex
 10
7386.853511
 20
-19736.556141
 30
0.0
  0
VERTEX
  5
812
100
AcDbEntity
  8
0
  6
CONTINUOUS
 62
     7
100
AcDbVertex
100
AcDb2dVertex
 10
7386.172031
 20
-19736.273871
 30
0.0
  0
VERTEX
  5
813
100
AcDbEntity
  8
0
  6
CONTINUOUS
 62
     7
100
AcDbVertex
100
AcDb2dVertex
 10
7385.611264
 20
-19736.041583
 30
0.0
  0
SEQEND
  5
814
100
AcDbEntity
  8
0
  6
CONTINUOUS
 62
     7
  0
LINE
  5
815
100
AcDbEntity
  8
0
  6
CONTINUOUS
 62
     7
100
AcDbLine
 10
7354.935949
 20
-19826.033685
 30
0.0
 11
7391.245248
 21
-19738.375269
 31
0.0
  0
LINE
  5
816
100
AcDbEntity
  8
0
  6
CONTINUOUS
 62
     7
100
AcDbLine
 10
7354.935949
 20
-19281.235121
 30
0.0
 11
7391.245248
 21
-19368.893536
 31
0.0
  0
POLYLINE
  5
817
100
AcDbEntity
  8
0
  6
CONTINUOUS
 62
     7
100
AcDb2dPolyline
 66
     1
 10
0.0
 20
0.0
 30
0.0
 70
   128
  0
VERTEX
  5
818
100
AcDbEntity
  8
0
  6
CONTINUOUS
 62
     7
100
AcDbVertex
100
AcDb2dVertex
 10
7385.611264
 20
-19371.227223
 30
0.0
  0
VERTEX
  5
819
100
AcDbEntity
  8
0
  6
CONTINUOUS
 62
     7
100
AcDbVertex
100
AcDb2dVertex
 10
7386.172031
 20
-19370.994935
 30
0.0
  0
VERTEX
  5
81A
100
AcDbEntity
  8
0
  6
CONTINUOUS
 62
     7
100
AcDbVertex
100
AcDb2dVertex
 10
7386.853511
 20
-19370.712665
 30
0.0
  0
VERTEX
  5
81B
100
AcDbEntity
  8
0
  6
CONTINUOUS
 62
     7
100
AcDbVertex
100
AcDb2dVertex
 10
7387.619243
 20
-19370.395485
 30
0.0
  0
VERTEX
  5
81C
100
AcDbEntity
  8
0
  6
CONTINUOUS
 62
     7
100
AcDbVertex
100
AcDb2dVertex
 10
7388.428248
 20
-19370.060387
 30
0.0
  0
VERTEX
  5
81D
100
AcDbEntity
  8
0
  6
CONTINUOUS
 62
     7
100
AcDbVertex
100
AcDb2dVertex
 10
7389.237268
 20
-19369.725274
 30
0.0
  0
VERTEX
  5
81E
100
AcDbEntity
  8
0
  6
CONTINUOUS
 62
     7
100
AcDbVertex
100
AcDb2dVertex
 10
7390.003
 20
-19369.408094
 30
0.0
  0
VERTEX
  5
81F
100
AcDbEntity
  8
0
  6
CONTINUOUS
 62
     7
100
AcDbVertex
100
AcDb2dVertex
 10
7390.68448
 20
-19369.125824
 30
0.0
  0
VERTEX
  5
820
100
AcDbEntity
  8
0
  6
CONTINUOUS
 62
     7
100
AcDbVertex
100
AcDb2dVertex
 10
7391.245248
 20
-19368.893536
 30
0.0
  0
SEQEND
  5
821
100
AcDbEntity
  8
0
  6
CONTINUOUS
 62
     7
  0
LINE
  5
822
100
AcDbEntity
  8
0
  6
CONTINUOUS
 62
     7
100
AcDbLine
 10
7349.301965
 20
-19283.568792
 30
0.0
 11
7385.611264
 21
-19371.227223
 31
0.0
  0
LINE
  5
823
100
AcDbEntity
  8
0
  6
CONTINUOUS
 62
     7
100
AcDbLine
 10
7734.532707
 20
-19668.799549
 30
0.0
 11
7646.874291
 21
-19632.490243
 31
0.0
  0
POLYLINE
  5
824
100
AcDbEntity
  8
0
  6
CONTINUOUS
 62
     7
100
AcDb2dPolyline
 66
     1
 10
0.0
 20
0.0
 30
0.0
 70
   128
  0
VERTEX
  5
825
100
AcDbEntity
  8
0
  6
CONTINUOUS
 62
     7
100
AcDbVertex
100
AcDb2dVertex
 10
7649.207963
 20
-19626.856259
 30
0.0
  0
VERTEX
  5
826
100
AcDbEntity
  8
0
  6
CONTINUOUS
 62
     7
100
AcDbVertex
100
AcDb2dVertex
 10
7648.97569
 20
-19627.417026
 30
0.0
  0
VERTEX
  5
827
100
AcDbEntity
  8
0
  6
CONTINUOUS
 62
     7
100
AcDbVertex
100
AcDb2dVertex
 10
7648.693413
 20
-19628.098507
 30
0.0
  0
VERTEX
  5
828
100
AcDbEntity
  8
0
  6
CONTINUOUS
 62
     7
100
AcDbVertex
100
AcDb2dVertex
 10
7648.376233
 20
-19628.864238
 30
0.0
  0
VERTEX
  5
829
100
AcDbEntity
  8
0
  6
CONTINUOUS
 62
     7
100
AcDbVertex
100
AcDb2dVertex
 10
7648.041127
 20
-19629.673251
 30
0.0
  0
VERTEX
  5
82A
100
AcDbEntity
  8
0
  6
CONTINUOUS
 62
     7
100
AcDbVertex
100
AcDb2dVertex
 10
7647.706022
 20
-19630.482271
 30
0.0
  0
VERTEX
  5
82B
100
AcDbEntity
  8
0
  6
CONTINUOUS
 62
     7
100
AcDbVertex
100
AcDb2dVertex
 10
7647.388849
 20
-19631.248003
 30
0.0
  0
VERTEX
  5
82C
100
AcDbEntity
  8
0
  6
CONTINUOUS
 62
     7
100
AcDbVertex
100
AcDb2dVertex
 10
7647.106572
 20
-19631.929476
 30
0.0
  0
VERTEX
  5
82D
100
AcDbEntity
  8
0
  6
CONTINUOUS
 62
     7
100
AcDbVertex
100
AcDb2dVertex
 10
7646.874291
 20
-19632.490243
 30
0.0
  0
SEQEND
  5
82E
100
AcDbEntity
  8
0
  6
CONTINUOUS
 62
     7
  0
LINE
  5
82F
100
AcDbEntity
  8
0
  6
CONTINUOUS
 62
     7
100
AcDbLine
 10
7736.866379
 20
-19663.165565
 30
0.0
 11
7649.207963
 21
-19626.856259
 31
0.0
  0
ARC
  5
830
100
AcDbEntity
  8
0
  6
CONTINUOUS
 62
     7
100
AcDbCircle
 10
7686.997071
 20
-19688.62363
 30
0.0
 40
55.991615
100
AcDbArc
 50
22.446775
 51
27.044114
  0
ARC
  5
831
100
AcDbEntity
  8
0
  6
CONTINUOUS
 62
     7
100
AcDbCircle
 10
7717.195247
 20
-19615.3289
 30
0.0
 40
56.21119
100
AcDbArc
 50
287.964901
 51
292.544273
  0
ARC
  5
832
100
AcDbEntity
  8
0
  6
CONTINUOUS
 62
     7
100
AcDbCircle
 10
7718.558771
 20
-19658.882406
 30
0.0
 40
18.801967
100
AcDbArc
 50
346.832195
 51
0.000313
  0
LINE
  5
833
100
AcDbEntity
  8
0
  6
CONTINUOUS
 62
     7
100
AcDbLine
 10
7737.360738
 20
-19658.882303
 30
0.0
 11
7743.458925
 21
-19658.882303
 31
0.0
  0
ARC
  5
834
100
AcDbEntity
  8
0
  6
CONTINUOUS
 62
     7
100
AcDbCircle
 10
7718.558075
 20
-19658.882322
 30
0.0
 40
24.90085
100
AcDbArc
 50
314.999917
 51
0.000042
  0
POLYLINE
  5
835
100
AcDbEntity
  8
0
  6
CONTINUOUS
 62
     7
100
AcDb2dPolyline
 66
     1
 10
0.0
 20
0.0
 30
0.0
 70
   128
  0
VERTEX
  5
836
100
AcDbEntity
  8
0
  6
CONTINUOUS
 62
     7
100
AcDbVertex
100
AcDb2dVertex
 10
7731.853548
 20
-19672.177838
 30
0.0
  0
VERTEX
  5
837
100
AcDbEntity
  8
0
  6
CONTINUOUS
 62
     7
100
AcDbVertex
100
AcDb2dVertex
 10
7732.282736
 20
-19672.607033
 30
0.0
  0
VERTEX
  5
838
100
AcDbEntity
  8
0
  6
CONTINUOUS
 62
     7
100
AcDbVertex
100
AcDb2dVertex
 10
7732.804329
 20
-19673.128612
 30
0.0
  0
VERTEX
  5
839
100
AcDbEntity
  8
0
  6
CONTINUOUS
 62
     7
100
AcDbVertex
100
AcDb2dVertex
 10
7733.390393
 20
-19673.714675
 30
0.0
  0
VERTEX
  5
83A
100
AcDbEntity
  8
0
  6
CONTINUOUS
 62
     7
100
AcDbVertex
100
AcDb2dVertex
 10
7734.009579
 20
-19674.333869
 30
0.0
  0
VERTEX
  5
83B
100
AcDbEntity
  8
0
  6
CONTINUOUS
 62
     7
100
AcDbVertex
100
AcDb2dVertex
 10
7734.62878
 20
-19674.95307
 30
0.0
  0
VERTEX
  5
83C
100
AcDbEntity
  8
0
  6
CONTINUOUS
 62
     7
100
AcDbVertex
100
AcDb2dVertex
 10
7735.214843
 20
-19675.539133
 30
0.0
  0
VERTEX
  5
83D
100
AcDbEntity
  8
0
  6
CONTINUOUS
 62
     7
100
AcDbVertex
100
AcDb2dVertex
 10
7735.736422
 20
-19676.060712
 30
0.0
  0
VERTEX
  5
83E
100
AcDbEntity
  8
0
  6
CONTINUOUS
 62
     7
100
AcDbVertex
100
AcDb2dVertex
 10
7736.165609
 20
-19676.489907
 30
0.0
  0
SEQEND
  5
83F
100
AcDbEntity
  8
0
  6
CONTINUOUS
 62
     7
  0
ARC
  5
840
100
AcDbEntity
  8
0
  6
CONTINUOUS
 62
     7
100
AcDbCircle
 10
7718.557928
 20
-19658.882217
 30
0.0
 40
18.802847
100
AcDbArc
 50
314.999998
 51
328.167499
  0
ARC
  5
841
100
AcDbEntity
  8
0
  6
CONTINUOUS
 62
     7
100
AcDbCircle
 10
7718.557928
 20
-19448.386589
 30
0.0
 40
18.802847
100
AcDbArc
 50
31.832501
 51
45.000002
  0
POLYLINE
  5
842
100
AcDbEntity
  8
0
  6
CONTINUOUS
 62
     7
100
AcDb2dPolyline
 66
     1
 10
0.0
 20
0.0
 30
0.0
 70
   128
  0
VERTEX
  5
843
100
AcDbEntity
  8
0
  6
CONTINUOUS
 62
     7
100
AcDbVertex
100
AcDb2dVertex
 10
7731.853548
 20
-19435.090968
 30
0.0
  0
VERTEX
  5
844
100
AcDbEntity
  8
0
  6
CONTINUOUS
 62
     7
100
AcDbVertex
100
AcDb2dVertex
 10
7732.282736
 20
-19434.661773
 30
0.0
  0
VERTEX
  5
845
100
AcDbEntity
  8
0
  6
CONTINUOUS
 62
     7
100
AcDbVertex
100
AcDb2dVertex
 10
7732.804329
 20
-19434.140194
 30
0.0
  0
VERTEX
  5
846
100
AcDbEntity
  8
0
  6
CONTINUOUS
 62
     7
100
AcDbVertex
100
AcDb2dVertex
 10
7733.390393
 20
-19433.554131
 30
0.0
  0
VERTEX
  5
847
100
AcDbEntity
  8
0
  6
CONTINUOUS
 62
     7
100
AcDbVertex
100
AcDb2dVertex
 10
7734.009579
 20
-19432.934937
 30
0.0
  0
VERTEX
  5
848
100
AcDbEntity
  8
0
  6
CONTINUOUS
 62
     7
100
AcDbVertex
100
AcDb2dVertex
 10
7734.62878
 20
-19432.315736
 30
0.0
  0
VERTEX
  5
849
100
AcDbEntity
  8
0
  6
CONTINUOUS
 62
     7
100
AcDbVertex
100
AcDb2dVertex
 10
7735.214843
 20
-19431.729673
 30
0.0
  0
VERTEX
  5
84A
100
AcDbEntity
  8
0
  6
CONTINUOUS
 62
     7
100
AcDbVertex
100
AcDb2dVertex
 10
7735.736422
 20
-19431.208094
 30
0.0
  0
VERTEX
  5
84B
100
AcDbEntity
  8
0
  6
CONTINUOUS
 62
     7
100
AcDbVertex
100
AcDb2dVertex
 10
7736.165609
 20
-19430.778899
 30
0.0
  0
SEQEND
  5
84C
100
AcDbEntity
  8
0
  6
CONTINUOUS
 62
     7
  0
ARC
  5
84D
100
AcDbEntity
  8
0
  6
CONTINUOUS
 62
     7
100
AcDbCircle
 10
7718.558075
 20
-19448.386484
 30
0.0
 40
24.90085
100
AcDbArc
 50
359.999958
 51
45.000083
  0
LINE
  5
84E
100
AcDbEntity
  8
0
  6
CONTINUOUS
 62
     7
100
AcDbLine
 10
7737.360738
 20
-19448.386502
 30
0.0
 11
7743.458925
 21
-19448.386502
 31
0.0
  0
ARC
  5
84F
100
AcDbEntity
  8
0
  6
CONTINUOUS
 62
     7
100
AcDbCircle
 10
7718.558771
 20
-19448.3864
 30
0.0
 40
18.801967
100
AcDbArc
 50
359.999687
 51
13.167805
  0
ARC
  5
850
100
AcDbEntity
  8
0
  6
CONTINUOUS
 62
     7
100
AcDbCircle
 10
7686.775352
 20
-19418.542983
 30
0.0
 40
56.235556
100
AcDbArc
 50
332.965863
 51
337.543249
  0
ARC
  5
851
100
AcDbEntity
  8
0
  6
CONTINUOUS
 62
     7
100
AcDbCircle
 10
7717.283183
 20
-19491.701604
 30
0.0
 40
55.957385
100
AcDbArc
 50
67.445336
 51
72.04549
  0
LINE
  5
852
100
AcDbEntity
  8
0
  6
CONTINUOUS
 62
     7
100
AcDbLine
 10
7736.866379
 20
-19444.103241
 30
0.0
 11
7649.207963
 21
-19480.412547
 31
0.0
  0
POLYLINE
  5
853
100
AcDbEntity
  8
0
  6
CONTINUOUS
 62
     7
100
AcDb2dPolyline
 66
     1
 10
0.0
 20
0.0
 30
0.0
 70
   128
  0
VERTEX
  5
854
100
AcDbEntity
  8
0
  6
CONTINUOUS
 62
     7
100
AcDbVertex
100
AcDb2dVertex
 10
7646.874291
 20
-19474.778563
 30
0.0
  0
VERTEX
  5
855
100
AcDbEntity
  8
0
  6
CONTINUOUS
 62
     7
100
AcDbVertex
100
AcDb2dVertex
 10
7647.106572
 20
-19475.33933
 30
0.0
  0
VERTEX
  5
856
100
AcDbEntity
  8
0
  6
CONTINUOUS
 62
     7
100
AcDbVertex
100
AcDb2dVertex
 10
7647.388849
 20
-19476.020803
 30
0.0
  0
VERTEX
  5
857
100
AcDbEntity
  8
0
  6
CONTINUOUS
 62
     7
100
AcDbVertex
100
AcDb2dVertex
 10
7647.706022
 20
-19476.786535
 30
0.0
  0
VERTEX
  5
858
100
AcDbEntity
  8
0
  6
CONTINUOUS
 62
     7
100
AcDbVertex
100
AcDb2dVertex
 10
7648.041127
 20
-19477.595555
 30
0.0
  0
VERTEX
  5
859
100
AcDbEntity
  8
0
  6
CONTINUOUS
 62
     7
100
AcDbVertex
100
AcDb2dVertex
 10
7648.376233
 20
-19478.404568
 30
0.0
  0
VERTEX
  5
85A
100
AcDbEntity
  8
0
  6
CONTINUOUS
 62
     7
100
AcDbVertex
100
AcDb2dVertex
 10
7648.693413
 20
-19479.170299
 30
0.0
  0
VERTEX
  5
85B
100
AcDbEntity
  8
0
  6
CONTINUOUS
 62
     7
100
AcDbVertex
100
AcDb2dVertex
 10
7648.97569
 20
-19479.851779
 30
0.0
  0
VERTEX
  5
85C
100
AcDbEntity
  8
0
  6
CONTINUOUS
 62
     7
100
AcDbVertex
100
AcDb2dVertex
 10
7649.207963
 20
-19480.412547
 30
0.0
  0
SEQEND
  5
85D
100
AcDbEntity
  8
0
  6
CONTINUOUS
 62
     7
  0
LINE
  5
85E
100
AcDbEntity
  8
0
  6
CONTINUOUS
 62
     7
100
AcDbLine
 10
7734.532707
 20
-19438.469256
 30
0.0
 11
7646.874291
 21
-19474.778563
 31
0.0
  0
LINE
  5
85F
100
AcDbEntity
  8
0
  6
CONTINUOUS
 62
     7
100
AcDbLine
 10
7307.687012
 20
-19324.484615
 30
0.0
 11
7273.658198
 21
-19358.513429
 31
0.0
  0
LINE
  5
860
100
AcDbEntity
  8
0
  6
CONTINUOUS
 62
     7
100
AcDbLine
 10
7273.658198
 20
-19358.513429
 30
0.0
 11
7269.346137
 21
-19358.513429
 31
0.0
  0
LINE
  5
861
100
AcDbEntity
  8
0
  6
CONTINUOUS
 62
     7
100
AcDbLine
 10
7269.346137
 20
-19358.513429
 30
0.0
 11
7269.346137
 21
-19362.82549
 31
0.0
  0
LINE
  5
862
100
AcDbEntity
  8
0
  6
CONTINUOUS
 62
     7
100
AcDbLine
 10
7269.346137
 20
-19362.82549
 30
0.0
 11
7235.317323
 21
-19396.854304
 31
0.0
  0
POLYLINE
  5
863
100
AcDbEntity
  8
0
  6
CONTINUOUS
 62
     7
100
AcDb2dPolyline
 66
     1
 10
0.0
 20
0.0
 30
0.0
 70
   128
  0
VERTEX
  5
864
100
AcDbEntity
  8
0
  6
CONTINUOUS
 62
     7
100
AcDbVertex
100
AcDb2dVertex
 10
7235.317323
 20
-19396.854304
 30
0.0
  0
VERTEX
  5
865
100
AcDbEntity
  8
0
  6
CONTINUOUS
 62
     7
100
AcDbVertex
100
AcDb2dVertex
 10
7234.573787
 20
-19396.92754
 30
0.0
  0
VERTEX
  5
866
100
AcDbEntity
  8
0
  6
CONTINUOUS
 62
     7
100
AcDbVertex
100
AcDb2dVertex
 10
7233.69171
 20
-19397.014415
 30
0.0
  0
VERTEX
  5
867
100
AcDbEntity
  8
0
  6
CONTINUOUS
 62
     7
100
AcDbVertex
100
AcDb2dVertex
 10
7232.701353
 20
-19397.111948
 30
0.0
  0
VERTEX
  5
868
100
AcDbEntity
  8
0
  6
CONTINUOUS
 62
     7
100
AcDbVertex
100
AcDb2dVertex
 10
7231.636671
 20
-19397.216815
 30
0.0
  0
VERTEX
  5
869
100
AcDbEntity
  8
0
  6
CONTINUOUS
 62
     7
100
AcDbVertex
100
AcDb2dVertex
 10
7230.534157
 20
-19397.325409
 30
0.0
  0
SEQEND
  5
86A
100
AcDbEntity
  8
0
  6
CONTINUOUS
 62
     7
  0
POLYLINE
  5
86B
100
AcDbEntity
  8
0
  6
CONTINUOUS
 62
     7
100
AcDb2dPolyline
 66
     1
 10
0.0
 20
0.0
 30
0.0
 70
   128
  0
VERTEX
  5
86C
100
AcDbEntity
  8
0
  6
CONTINUOUS
 62
     7
100
AcDbVertex
100
AcDb2dVertex
 10
7230.534157
 20
-19397.325409
 30
0.0
  0
VERTEX
  5
86D
100
AcDbEntity
  8
0
  6
CONTINUOUS
 62
     7
100
AcDbVertex
100
AcDb2dVertex
 10
7230.623268
 20
-19398.230203
 30
0.0
  0
VERTEX
  5
86E
100
AcDbEntity
  8
0
  6
CONTINUOUS
 62
     7
100
AcDbVertex
100
AcDb2dVertex
 10
7230.709338
 20
-19399.103977
 30
0.0
  0
VERTEX
  5
86F
100
AcDbEntity
  8
0
  6
CONTINUOUS
 62
     7
100
AcDbVertex
100
AcDb2dVertex
 10
7230.789386
 20
-19399.916754
 30
0.0
  0
VERTEX
  5
870
100
AcDbEntity
  8
0
  6
CONTINUOUS
 62
     7
100
AcDbVertex
100
AcDb2dVertex
 10
7230.860669
 20
-19400.640658
 30
0.0
  0
VERTEX
  5
871
100
AcDbEntity
  8
0
  6
CONTINUOUS
 62
     7
100
AcDbVertex
100
AcDb2dVertex
 10
7230.920772
 20
-19401.25084
 30
0.0
  0
SEQEND
  5
872
100
AcDbEntity
  8
0
  6
CONTINUOUS
 62
     7
  0
LINE
  5
873
100
AcDbEntity
  8
0
  6
CONTINUOUS
 62
     7
100
AcDbLine
 10
7230.920772
 20
-19401.25084
 30
0.0
 11
7197.080674
 21
-19435.090968
 31
0.0
  0
LINE
  5
874
100
AcDbEntity
  8
0
  6
CONTINUOUS
 62
     7
100
AcDbLine
 10
7341.6116
 20
-19281.935905
 30
0.0
 11
7192.768583
 21
-19430.778899
 31
0.0
  0
LINE
  5
875
100
AcDbEntity
  8
0
  6
CONTINUOUS
 62
     7
100
AcDbLine
 10
7345.923676
 20
-19286.247966
 30
0.0
 11
7312.083549
 21
-19320.088079
 31
0.0
  0
POLYLINE
  5
876
100
AcDbEntity
  8
0
  6
CONTINUOUS
 62
     7
100
AcDb2dPolyline
 66
     1
 10
0.0
 20
0.0
 30
0.0
 70
   128
  0
VERTEX
  5
877
100
AcDbEntity
  8
0
  6
CONTINUOUS
 62
     7
100
AcDbVertex
100
AcDb2dVertex
 10
7312.083549
 20
-19320.088079
 30
0.0
  0
VERTEX
  5
878
100
AcDbEntity
  8
0
  6
CONTINUOUS
 62
     7
100
AcDbVertex
100
AcDb2dVertex
 10
7311.473351
 20
-19320.027976
 30
0.0
  0
VERTEX
  5
879
100
AcDbEntity
  8
0
  6
CONTINUOUS
 62
     7
100
AcDbVertex
100
AcDb2dVertex
 10
7310.749462
 20
-19319.956678
 30
0.0
  0
VERTEX
  5
87A
100
AcDbEntity
  8
0
  6
CONTINUOUS
 62
     7
100
AcDbVertex
100
AcDb2dVertex
 10
7309.936685
 20
-19319.87663
 30
0.0
  0
VERTEX
  5
87B
100
AcDbEntity
  8
0
  6
CONTINUOUS
 62
     7
100
AcDbVertex
100
AcDb2dVertex
 10
7309.062911
 20
-19319.790575
 30
0.0
  0
VERTEX
  5
87C
100
AcDbEntity
  8
0
  6
CONTINUOUS
 62
     7
100
AcDbVertex
100
AcDb2dVertex
 10
7308.158117
 20
-19319.701449
 30
0.0
  0
SEQEND
  5
87D
100
AcDbEntity
  8
0
  6
CONTINUOUS
 62
     7
  0
POLYLINE
  5
87E
100
AcDbEntity
  8
0
  6
CONTINUOUS
 62
     7
100
AcDb2dPolyline
 66
     1
 10
0.0
 20
0.0
 30
0.0
 70
   128
  0
VERTEX
  5
87F
100
AcDbEntity
  8
0
  6
CONTINUOUS
 62
     7
100
AcDbVertex
100
AcDb2dVertex
 10
7308.158117
 20
-19319.701449
 30
0.0
  0
VERTEX
  5
880
100
AcDbEntity
  8
0
  6
CONTINUOUS
 62
     7
100
AcDbVertex
100
AcDb2dVertex
 10
7308.049508
 20
-19320.803963
 30
0.0
  0
VERTEX
  5
881
100
AcDbEntity
  8
0
  6
CONTINUOUS
 62
     7
100
AcDbVertex
100
AcDb2dVertex
 10
7307.944656
 20
-19321.868659
 30
0.0
  0
VERTEX
  5
882
100
AcDbEntity
  8
0
  6
CONTINUOUS
 62
     7
100
AcDbVertex
100
AcDb2dVertex
 10
7307.847108
 20
-19322.859017
 30
0.0
  0
VERTEX
  5
883
100
AcDbEntity
  8
0
  6
CONTINUOUS
 62
     7
100
AcDbVertex
100
AcDb2dVertex
 10
7307.760233
 20
-19323.741094
 30
0.0
  0
VERTEX
  5
884
100
AcDbEntity
  8
0
  6
CONTINUOUS
 62
     7
100
AcDbVertex
100
AcDb2dVertex
 10
7307.687012
 20
-19324.484615
 30
0.0
  0
SEQEND
  5
885
100
AcDbEntity
  8
0
  6
CONTINUOUS
 62
     7
  0
POLYLINE
  5
886
100
AcDbEntity
  8
0
  6
CONTINUOUS
 62
     7
100
AcDb2dPolyline
 66
     1
 10
0.0
 20
0.0
 30
0.0
 70
   128
  0
VERTEX
  5
887
100
AcDbEntity
  8
0
  6
CONTINUOUS
 62
     7
100
AcDbVertex
100
AcDb2dVertex
 10
7351.540577
 20
-19390.116136
 30
0.0
  0
VERTEX
  5
888
100
AcDbEntity
  8
0
  6
CONTINUOUS
 62
     7
100
AcDbVertex
100
AcDb2dVertex
 10
7352.045252
 20
-19389.778921
 30
0.0
  0
VERTEX
  5
889
100
AcDbEntity
  8
0
  6
CONTINUOUS
 62
     7
100
AcDbVertex
100
AcDb2dVertex
 10
7352.658564
 20
-19389.369112
 30
0.0
  0
VERTEX
  5
88A
100
AcDbEntity
  8
0
  6
CONTINUOUS
 62
     7
100
AcDbVertex
100
AcDb2dVertex
 10
7353.347707
 20
-19388.90865
 30
0.0
  0
VERTEX
  5
88B
100
AcDbEntity
  8
0
  6
CONTINUOUS
 62
     7
100
AcDbVertex
100
AcDb2dVertex
 10
7354.075799
 20
-19388.422147
 30
0.0
  0
VERTEX
  5
88C
100
AcDbEntity
  8
0
  6
CONTINUOUS
 62
     7
100
AcDbVertex
100
AcDb2dVertex
 10
7354.803907
 20
-19387.935644
 30
0.0
  0
VERTEX
  5
88D
100
AcDbEntity
  8
0
  6
CONTINUOUS
 62
     7
100
AcDbVertex
100
AcDb2dVertex
 10
7355.493034
 20
-19387.475182
 30
0.0
  0
VERTEX
  5
88E
100
AcDbEntity
  8
0
  6
CONTINUOUS
 62
     7
100
AcDbVertex
100
AcDb2dVertex
 10
7356.106362
 20
-19387.065373
 30
0.0
  0
VERTEX
  5
88F
100
AcDbEntity
  8
0
  6
CONTINUOUS
 62
     7
100
AcDbVertex
100
AcDb2dVertex
 10
7356.611036
 20
-19386.728158
 30
0.0
  0
SEQEND
  5
890
100
AcDbEntity
  8
0
  6
CONTINUOUS
 62
     7
  0
LINE
  5
891
100
AcDbEntity
  8
0
  6
CONTINUOUS
 62
     7
100
AcDbLine
 10
7307.687012
 20
-19324.484615
 30
0.0
 11
7351.540577
 21
-19390.116136
 31
0.0
  0
LINE
  5
892
100
AcDbEntity
  8
0
  6
CONTINUOUS
 62
     7
100
AcDbLine
 10
7312.083549
 20
-19320.088079
 30
0.0
 11
7356.611036
 21
-19386.728158
 31
0.0
  0
POLYLINE
  5
893
100
AcDbEntity
  8
0
  6
CONTINUOUS
 62
     7
100
AcDb2dPolyline
 66
     1
 10
0.0
 20
0.0
 30
0.0
 70
   128
  0
VERTEX
  5
894
100
AcDbEntity
  8
0
  6
CONTINUOUS
 62
     7
100
AcDbVertex
100
AcDb2dVertex
 10
7500.240872
 20
-19358.158416
 30
0.0
  0
VERTEX
  5
895
100
AcDbEntity
  8
0
  6
CONTINUOUS
 62
     7
100
AcDbVertex
100
AcDb2dVertex
 10
7500.836178
 20
-19358.276818
 30
0.0
  0
VERTEX
  5
896
100
AcDbEntity
  8
0
  6
CONTINUOUS
 62
     7
100
AcDbVertex
100
AcDb2dVertex
 10
7501.559634
 20
-19358.420725
 30
0.0
  0
VERTEX
  5
897
100
AcDbEntity
  8
0
  6
CONTINUOUS
 62
     7
100
AcDbVertex
100
AcDb2dVertex
 10
7502.37253
 20
-19358.582431
 30
0.0
  0
VERTEX
  5
898
100
AcDbEntity
  8
0
  6
CONTINUOUS
 62
     7
100
AcDbVertex
100
AcDb2dVertex
 10
7503.231375
 20
-19358.753259
 30
0.0
  0
VERTEX
  5
899
100
AcDbEntity
  8
0
  6
CONTINUOUS
 62
     7
100
AcDbVertex
100
AcDb2dVertex
 10
7504.090221
 20
-19358.924088
 30
0.0
  0
VERTEX
  5
89A
100
AcDbEntity
  8
0
  6
CONTINUOUS
 62
     7
100
AcDbVertex
100
AcDb2dVertex
 10
7504.903116
 20
-19359.085793
 30
0.0
  0
VERTEX
  5
89B
100
AcDbEntity
  8
0
  6
CONTINUOUS
 62
     7
100
AcDbVertex
100
AcDb2dVertex
 10
7505.626573
 20
-19359.229701
 30
0.0
  0
VERTEX
  5
89C
100
AcDbEntity
  8
0
  6
CONTINUOUS
 62
     7
100
AcDbVertex
100
AcDb2dVertex
 10
7506.221879
 20
-19359.348103
 30
0.0
  0
SEQEND
  5
89D
100
AcDbEntity
  8
0
  6
CONTINUOUS
 62
     7
  0
LINE
  5
89E
100
AcDbEntity
  8
0
  6
CONTINUOUS
 62
     7
100
AcDbLine
 10
7515.640197
 20
-19280.740762
 30
0.0
 11
7500.240872
 21
-19358.158416
 31
0.0
  0
POLYLINE
  5
89F
100
AcDbEntity
  8
0
  6
CONTINUOUS
 62
     7
100
AcDb2dPolyline
 66
     1
 10
0.0
 20
0.0
 30
0.0
 70
   128
  0
VERTEX
  5
8A0
100
AcDbEntity
  8
0
  6
CONTINUOUS
 62
     7
100
AcDbVertex
100
AcDb2dVertex
 10
7519.355526
 20
-19277.691668
 30
0.0
  0
VERTEX
  5
8A1
100
AcDbEntity
  8
0
  6
CONTINUOUS
 62
     7
100
AcDbVertex
100
AcDb2dVertex
 10
7518.499155
 20
-19278.394479
 30
0.0
  0
VERTEX
  5
8A2
100
AcDbEntity
  8
0
  6
CONTINUOUS
 62
     7
100
AcDbVertex
100
AcDb2dVertex
 10
7517.672154
 20
-19279.073172
 30
0.0
  0
VERTEX
  5
8A3
100
AcDbEntity
  8
0
  6
CONTINUOUS
 62
     7
100
AcDbVertex
100
AcDb2dVertex
 10
7516.902886
 20
-19279.704522
 30
0.0
  0
VERTEX
  5
8A4
100
AcDbEntity
  8
0
  6
CONTINUOUS
 62
     7
100
AcDbVertex
100
AcDb2dVertex
 10
7516.217735
 20
-19280.266795
 30
0.0
  0
VERTEX
  5
8A5
100
AcDbEntity
  8
0
  6
CONTINUOUS
 62
     7
100
AcDbVertex
100
AcDb2dVertex
 10
7515.640197
 20
-19280.740762
 30
0.0
  0
SEQEND
  5
8A6
100
AcDbEntity
  8
0
  6
CONTINUOUS
 62
     7
  0
POLYLINE
  5
8A7
100
AcDbEntity
  8
0
  6
CONTINUOUS
 62
     7
100
AcDb2dPolyline
 66
     1
 10
0.0
 20
0.0
 30
0.0
 70
   128
  0
VERTEX
  5
8A8
100
AcDbEntity
  8
0
  6
CONTINUOUS
 62
     7
100
AcDbVertex
100
AcDb2dVertex
 10
7521.857849
 20
-19280.740762
 30
0.0
  0
VERTEX
  5
8A9
100
AcDbEntity
  8
0
  6
CONTINUOUS
 62
     7
100
AcDbVertex
100
AcDb2dVertex
 10
7521.468871
 20
-19280.266795
 30
0.0
  0
VERTEX
  5
8AA
100
AcDbEntity
  8
0
  6
CONTINUOUS
 62
     7
100
AcDbVertex
100
AcDb2dVertex
 10
7521.007415
 20
-19279.704522
 30
0.0
  0
VERTEX
  5
8AB
100
AcDbEntity
  8
0
  6
CONTINUOUS
 62
     7
100
AcDbVertex
100
AcDb2dVertex
 10
7520.489302
 20
-19279.073172
 30
0.0
  0
VERTEX
  5
8AC
100
AcDbEntity
  8
0
  6
CONTINUOUS
 62
     7
100
AcDbVertex
100
AcDb2dVertex
 10
7519.932306
 20
-19278.394479
 30
0.0
  0
VERTEX
  5
8AD
100
AcDbEntity
  8
0
  6
CONTINUOUS
 62
     7
100
AcDbVertex
100
AcDb2dVertex
 10
7519.355526
 20
-19277.691668
 30
0.0
  0
SEQEND
  5
8AE
100
AcDbEntity
  8
0
  6
CONTINUOUS
 62
     7
  0
LINE
  5
8AF
100
AcDbEntity
  8
0
  6
CONTINUOUS
 62
     7
100
AcDbLine
 10
7521.857849
 20
-19280.740762
 30
0.0
 11
7506.221879
 21
-19359.348103
 31
0.0
  0
POLYLINE
  5
8B0
100
AcDbEntity
  8
0
  6
CONTINUOUS
 62
     7
100
AcDb2dPolyline
 66
     1
 10
0.0
 20
0.0
 30
0.0
 70
   128
  0
VERTEX
  5
8B1
100
AcDbEntity
  8
0
  6
CONTINUOUS
 62
     7
100
AcDbVertex
100
AcDb2dVertex
 10
7422.712336
 20
-19359.348103
 30
0.0
  0
VERTEX
  5
8B2
100
AcDbEntity
  8
0
  6
CONTINUOUS
 62
     7
100
AcDbVertex
100
AcDb2dVertex
 10
7423.307641
 20
-19359.229701
 30
0.0
  0
VERTEX
  5
8B3
100
AcDbEntity
  8
0
  6
CONTINUOUS
 62
     7
100
AcDbVertex
100
AcDb2dVertex
 10
7424.031098
 20
-19359.085793
 30
0.0
  0
VERTEX
  5
8B4
100
AcDbEntity
  8
0
  6
CONTINUOUS
 62
     7
100
AcDbVertex
100
AcDb2dVertex
 10
7424.843994
 20
-19358.924088
 30
0.0
  0
VERTEX
  5
8B5
100
AcDbEntity
  8
0
  6
CONTINUOUS
 62
     7
100
AcDbVertex
100
AcDb2dVertex
 10
7425.702832
 20
-19358.753259
 30
0.0
  0
VERTEX
  5
8B6
100
AcDbEntity
  8
0
  6
CONTINUOUS
 62
     7
100
AcDbVertex
100
AcDb2dVertex
 10
7426.561685
 20
-19358.582431
 30
0.0
  0
VERTEX
  5
8B7
100
AcDbEntity
  8
0
  6
CONTINUOUS
 62
     7
100
AcDbVertex
100
AcDb2dVertex
 10
7427.37458
 20
-19358.420725
 30
0.0
  0
VERTEX
  5
8B8
100
AcDbEntity
  8
0
  6
CONTINUOUS
 62
     7
100
AcDbVertex
100
AcDb2dVertex
 10
7428.098037
 20
-19358.276818
 30
0.0
  0
VERTEX
  5
8B9
100
AcDbEntity
  8
0
  6
CONTINUOUS
 62
     7
100
AcDbVertex
100
AcDb2dVertex
 10
7428.693343
 20
-19358.158416
 30
0.0
  0
SEQEND
  5
8BA
100
AcDbEntity
  8
0
  6
CONTINUOUS
 62
     7
  0
LINE
  5
8BB
100
AcDbEntity
  8
0
  6
CONTINUOUS
 62
     7
100
AcDbLine
 10
7407.076362
 20
-19280.740762
 30
0.0
 11
7422.712336
 21
-19359.348103
 31
0.0
  0
POLYLINE
  5
8BC
100
AcDbEntity
  8
0
  6
CONTINUOUS
 62
     7
100
AcDb2dPolyline
 66
     1
 10
0.0
 20
0.0
 30
0.0
 70
   128
  0
VERTEX
  5
8BD
100
AcDbEntity
  8
0
  6
CONTINUOUS
 62
     7
100
AcDbVertex
100
AcDb2dVertex
 10
7409.578686
 20
-19277.691668
 30
0.0
  0
VERTEX
  5
8BE
100
AcDbEntity
  8
0
  6
CONTINUOUS
 62
     7
100
AcDbVertex
100
AcDb2dVertex
 10
7409.001909
 20
-19278.394479
 30
0.0
  0
VERTEX
  5
8BF
100
AcDbEntity
  8
0
  6
CONTINUOUS
 62
     7
100
AcDbVertex
100
AcDb2dVertex
 10
7408.444912
 20
-19279.073172
 30
0.0
  0
VERTEX
  5
8C0
100
AcDbEntity
  8
0
  6
CONTINUOUS
 62
     7
100
AcDbVertex
100
AcDb2dVertex
 10
7407.926793
 20
-19279.704522
 30
0.0
  0
VERTEX
  5
8C1
100
AcDbEntity
  8
0
  6
CONTINUOUS
 62
     7
100
AcDbVertex
100
AcDb2dVertex
 10
7407.465332
 20
-19280.266795
 30
0.0
  0
VERTEX
  5
8C2
100
AcDbEntity
  8
0
  6
CONTINUOUS
 62
     7
100
AcDbVertex
100
AcDb2dVertex
 10
7407.076362
 20
-19280.740762
 30
0.0
  0
SEQEND
  5
8C3
100
AcDbEntity
  8
0
  6
CONTINUOUS
 62
     7
  0
POLYLINE
  5
8C4
100
AcDbEntity
  8
0
  6
CONTINUOUS
 62
     7
100
AcDb2dPolyline
 66
     1
 10
0.0
 20
0.0
 30
0.0
 70
   128
  0
VERTEX
  5
8C5
100
AcDbEntity
  8
0
  6
CONTINUOUS
 62
     7
100
AcDbVertex
100
AcDb2dVertex
 10
7413.29401
 20
-19280.740762
 30
0.0
  0
VERTEX
  5
8C6
100
AcDbEntity
  8
0
  6
CONTINUOUS
 62
     7
100
AcDbVertex
100
AcDb2dVertex
 10
7412.716473
 20
-19280.266795
 30
0.0
  0
VERTEX
  5
8C7
100
AcDbEntity
  8
0
  6
CONTINUOUS
 62
     7
100
AcDbVertex
100
AcDb2dVertex
 10
7412.031326
 20
-19279.704522
 30
0.0
  0
VERTEX
  5
8C8
100
AcDbEntity
  8
0
  6
CONTINUOUS
 62
     7
100
AcDbVertex
100
AcDb2dVertex
 10
7411.262061
 20
-19279.073172
 30
0.0
  0
VERTEX
  5
8C9
100
AcDbEntity
  8
0
  6
CONTINUOUS
 62
     7
100
AcDbVertex
100
AcDb2dVertex
 10
7410.435064
 20
-19278.394479
 30
0.0
  0
VERTEX
  5
8CA
100
AcDbEntity
  8
0
  6
CONTINUOUS
 62
     7
100
AcDbVertex
100
AcDb2dVertex
 10
7409.578686
 20
-19277.691668
 30
0.0
  0
SEQEND
  5
8CB
100
AcDbEntity
  8
0
  6
CONTINUOUS
 62
     7
  0
LINE
  5
8CC
100
AcDbEntity
  8
0
  6
CONTINUOUS
 62
     7
100
AcDbLine
 10
7413.29401
 20
-19280.740762
 30
0.0
 11
7428.693343
 21
-19358.158416
 31
0.0
  0
LINE
  5
8CD
100
AcDbEntity
  8
0
  6
CONTINUOUS
 62
     7
100
AcDbLine
 10
7321.809604
 20
-19415.288957
 30
0.0
 11
7326.121665
 21
-19410.976896
 31
0.0
  0
LINE
  5
8CE
100
AcDbEntity
  8
0
  6
CONTINUOUS
 62
     7
100
AcDbLine
 10
7269.346137
 20
-19362.82549
 30
0.0
 11
7321.809604
 21
-19415.288957
 31
0.0
  0
LINE
  5
8CF
100
AcDbEntity
  8
0
  6
CONTINUOUS
 62
     7
100
AcDbLine
 10
7273.658198
 20
-19358.513429
 30
0.0
 11
7326.121665
 21
-19410.976896
 31
0.0
  0
LINE
  5
8D0
100
AcDbEntity
  8
0
  6
CONTINUOUS
 62
     7
100
AcDbLine
 10
7515.640197
 20
-19280.740762
 30
0.0
 11
7467.516197
 21
-19280.740762
 31
0.0
  0
POLYLINE
  5
8D1
100
AcDbEntity
  8
0
  6
CONTINUOUS
 62
     7
100
AcDb2dPolyline
 66
     1
 10
0.0
 20
0.0
 30
0.0
 70
   128
  0
VERTEX
  5
8D2
100
AcDbEntity
  8
0
  6
CONTINUOUS
 62
     7
100
AcDbVertex
100
AcDb2dVertex
 10
7467.516197
 20
-19280.740762
 30
0.0
  0
VERTEX
  5
8D3
100
AcDbEntity
  8
0
  6
CONTINUOUS
 62
     7
100
AcDbVertex
100
AcDb2dVertex
 10
7467.042223
 20
-19280.266795
 30
0.0
  0
VERTEX
  5
8D4
100
AcDbEntity
  8
0
  6
CONTINUOUS
 62
     7
100
AcDbVertex
100
AcDb2dVertex
 10
7466.479935
 20
-19279.704522
 30
0.0
  0
VERTEX
  5
8D5
100
AcDbEntity
  8
0
  6
CONTINUOUS
 62
     7
100
AcDbVertex
100
AcDb2dVertex
 10
7465.848615
 20
-19279.073172
 30
0.0
  0
VERTEX
  5
8D6
100
AcDbEntity
  8
0
  6
CONTINUOUS
 62
     7
100
AcDbVertex
100
AcDb2dVertex
 10
7465.169915
 20
-19278.394479
 30
0.0
  0
VERTEX
  5
8D7
100
AcDbEntity
  8
0
  6
CONTINUOUS
 62
     7
100
AcDbVertex
100
AcDb2dVertex
 10
7464.467104
 20
-19277.691668
 30
0.0
  0
SEQEND
  5
8D8
100
AcDbEntity
  8
0
  6
CONTINUOUS
 62
     7
  0
POLYLINE
  5
8D9
100
AcDbEntity
  8
0
  6
CONTINUOUS
 62
     7
100
AcDb2dPolyline
 66
     1
 10
0.0
 20
0.0
 30
0.0
 70
   128
  0
VERTEX
  5
8DA
100
AcDbEntity
  8
0
  6
CONTINUOUS
 62
     7
100
AcDbVertex
100
AcDb2dVertex
 10
7464.467104
 20
-19277.691668
 30
0.0
  0
VERTEX
  5
8DB
100
AcDbEntity
  8
0
  6
CONTINUOUS
 62
     7
100
AcDbVertex
100
AcDb2dVertex
 10
7463.7643
 20
-19278.394479
 30
0.0
  0
VERTEX
  5
8DC
100
AcDbEntity
  8
0
  6
CONTINUOUS
 62
     7
100
AcDbVertex
100
AcDb2dVertex
 10
7463.085592
 20
-19279.073172
 30
0.0
  0
VERTEX
  5
8DD
100
AcDbEntity
  8
0
  6
CONTINUOUS
 62
     7
100
AcDbVertex
100
AcDb2dVertex
 10
7462.454272
 20
-19279.704522
 30
0.0
  0
VERTEX
  5
8DE
100
AcDbEntity
  8
0
  6
CONTINUOUS
 62
     7
100
AcDbVertex
100
AcDb2dVertex
 10
7461.891984
 20
-19280.266795
 30
0.0
  0
VERTEX
  5
8DF
100
AcDbEntity
  8
0
  6
CONTINUOUS
 62
     7
100
AcDbVertex
100
AcDb2dVertex
 10
7461.418018
 20
-19280.740762
 30
0.0
  0
SEQEND
  5
8E0
100
AcDbEntity
  8
0
  6
CONTINUOUS
 62
     7
  0
LINE
  5
8E1
100
AcDbEntity
  8
0
  6
CONTINUOUS
 62
     7
100
AcDbLine
 10
7461.418018
 20
-19280.740762
 30
0.0
 11
7413.29401
 21
-19280.740762
 31
0.0
  0
LINE
  5
8E2
100
AcDbEntity
  8
0
  6
CONTINUOUS
 62
     7
100
AcDbLine
 10
7407.076362
 20
-19280.740762
 30
0.0
 11
7359.219211
 21
-19280.740762
 31
0.0
  0
LINE
  5
8E3
100
AcDbEntity
  8
0
  6
CONTINUOUS
 62
     7
100
AcDbLine
 10
7569.715006
 20
-19274.642574
 30
0.0
 11
7359.219211
 21
-19274.642574
 31
0.0
  0
LINE
  5
8E4
100
AcDbEntity
  8
0
  6
CONTINUOUS
 62
     7
100
AcDbLine
 10
7569.715006
 20
-19280.740762
 30
0.0
 11
7521.857849
 21
-19280.740762
 31
0.0
  0
LINE
  5
8E5
100
AcDbEntity
  8
0
  6
CONTINUOUS
 62
     7
100
AcDbLine
 10
7461.418018
 20
-19354.935319
 30
0.0
 11
7467.516197
 21
-19354.935319
 31
0.0
  0
ARC
  5
8E6
100
AcDbEntity
  8
0
  6
CONTINUOUS
 62
     7
100
AcDbCircle
 10
7464.467107
 20
-19354.935315
 30
0.0
 40
3.04909
100
AcDbArc
 50
180.000063
 51
359.999937
  0
POLYLINE
  5
8E7
100
AcDbEntity
  8
0
  6
CONTINUOUS
 62
     7
100
AcDb2dPolyline
 66
     1
 10
0.0
 20
0.0
 30
0.0
 70
   128
  0
VERTEX
  5
8E8
100
AcDbEntity
  8
0
  6
CONTINUOUS
 62
     7
100
AcDbVertex
100
AcDb2dVertex
 10
7297.560852
 20
-19445.778328
 30
0.0
  0
VERTEX
  5
8E9
100
AcDbEntity
  8
0
  6
CONTINUOUS
 62
     7
100
AcDbVertex
100
AcDb2dVertex
 10
7297.898066
 20
-19445.273654
 30
0.0
  0
VERTEX
  5
8EA
100
AcDbEntity
  8
0
  6
CONTINUOUS
 62
     7
100
AcDbVertex
100
AcDb2dVertex
 10
7298.307876
 20
-19444.660341
 30
0.0
  0
VERTEX
  5
8EB
100
AcDbEntity
  8
0
  6
CONTINUOUS
 62
     7
100
AcDbVertex
100
AcDb2dVertex
 10
7298.768337
 20
-19443.971199
 30
0.0
  0
VERTEX
  5
8EC
100
AcDbEntity
  8
0
  6
CONTINUOUS
 62
     7
100
AcDbVertex
100
AcDb2dVertex
 10
7299.254855
 20
-19443.243106
 30
0.0
  0
VERTEX
  5
8ED
100
AcDbEntity
  8
0
  6
CONTINUOUS
 62
     7
100
AcDbVertex
100
AcDb2dVertex
 10
7299.741344
 20
-19442.515006
 30
0.0
  0
VERTEX
  5
8EE
100
AcDbEntity
  8
0
  6
CONTINUOUS
 62
     7
100
AcDbVertex
100
AcDb2dVertex
 10
7300.201805
 20
-19441.825871
 30
0.0
  0
VERTEX
  5
8EF
100
AcDbEntity
  8
0
  6
CONTINUOUS
 62
     7
100
AcDbVertex
100
AcDb2dVertex
 10
7300.611615
 20
-19441.212551
 30
0.0
  0
VERTEX
  5
8F0
100
AcDbEntity
  8
0
  6
CONTINUOUS
 62
     7
100
AcDbVertex
100
AcDb2dVertex
 10
7300.948829
 20
-19440.707877
 30
0.0
  0
SEQEND
  5
8F1
100
AcDbEntity
  8
0
  6
CONTINUOUS
 62
     7
  0
LINE
  5
8F2
100
AcDbEntity
  8
0
  6
CONTINUOUS
 62
     7
100
AcDbLine
 10
7230.920772
 20
-19401.25084
 30
0.0
 11
7297.560852
 21
-19445.778328
 31
0.0
  0
LINE
  5
8F3
100
AcDbEntity
  8
0
  6
CONTINUOUS
 62
     7
100
AcDbLine
 10
7235.317323
 20
-19396.854304
 30
0.0
 11
7300.948829
 21
-19440.707877
 31
0.0
  0
ARC
  5
8F4
100
AcDbEntity
  8
0
  6
CONTINUOUS
 62
     7
100
AcDbCircle
 10
7425.702839
 20
-19358.753255
 30
0.0
 40
3.04909
100
AcDbArc
 50
191.249992
 51
11.249842
  0
ARC
  5
8F5
100
AcDbEntity
  8
0
  6
CONTINUOUS
 62
     7
100
AcDbCircle
 10
7503.231376
 20
-19358.753258
 30
0.0
 40
3.04909
100
AcDbArc
 50
168.750109
 51
348.750057
  0
ARC
  5
8F6
100
AcDbEntity
  8
0
  6
CONTINUOUS
 62
     7
100
AcDbCircle
 10
7388.428253
 20
-19370.060374
 30
0.0
 40
3.049093
100
AcDbArc
 50
202.50024
 51
22.499996
  0
LINE
  5
8F7
100
AcDbEntity
  8
0
  6
CONTINUOUS
 62
     7
100
AcDbLine
 10
7461.418018
 20
-19280.740762
 30
0.0
 11
7461.418018
 21
-19354.935319
 31
0.0
  0
LINE
  5
8F8
100
AcDbEntity
  8
0
  6
CONTINUOUS
 62
     7
100
AcDbLine
 10
7467.516197
 20
-19280.740762
 30
0.0
 11
7467.516197
 21
-19354.935319
 31
0.0
  0
LINE
  5
8F9
100
AcDbEntity
  8
0
  6
CONTINUOUS
 62
     7
100
AcDbLine
 10
7693.616884
 20
-19396.854304
 30
0.0
 11
7659.588078
 21
-19362.82549
 31
0.0
  0
LINE
  5
8FA
100
AcDbEntity
  8
0
  6
CONTINUOUS
 62
     7
100
AcDbLine
 10
7659.588078
 20
-19362.82549
 30
0.0
 11
7659.588078
 21
-19358.513429
 31
0.0
  0
LINE
  5
8FB
100
AcDbEntity
  8
0
  6
CONTINUOUS
 62
     7
100
AcDbLine
 10
7659.588078
 20
-19358.513429
 30
0.0
 11
7655.276017
 21
-19358.513429
 31
0.0
  0
LINE
  5
8FC
100
AcDbEntity
  8
0
  6
CONTINUOUS
 62
     7
100
AcDbLine
 10
7655.276017
 20
-19358.513429
 30
0.0
 11
7621.247203
 21
-19324.484615
 31
0.0
  0
POLYLINE
  5
8FD
100
AcDbEntity
  8
0
  6
CONTINUOUS
 62
     7
100
AcDb2dPolyline
 66
     1
 10
0.0
 20
0.0
 30
0.0
 70
   128
  0
VERTEX
  5
8FE
100
AcDbEntity
  8
0
  6
CONTINUOUS
 62
     7
100
AcDbVertex
100
AcDb2dVertex
 10
7621.247203
 20
-19324.484615
 30
0.0
  0
VERTEX
  5
8FF
100
AcDbEntity
  8
0
  6
CONTINUOUS
 62
     7
100
AcDbVertex
100
AcDb2dVertex
 10
7621.173975
 20
-19323.741094
 30
0.0
  0
VERTEX
  5
900
100
AcDbEntity
  8
0
  6
CONTINUOUS
 62
     7
100
AcDbVertex
100
AcDb2dVertex
 10
7621.087099
 20
-19322.859017
 30
0.0
  0
VERTEX
  5
901
100
AcDbEntity
  8
0
  6
CONTINUOUS
 62
     7
100
AcDbVertex
100
AcDb2dVertex
 10
7620.989551
 20
-19321.868659
 30
0.0
  0
VERTEX
  5
902
100
AcDbEntity
  8
0
  6
CONTINUOUS
 62
     7
100
AcDbVertex
100
AcDb2dVertex
 10
7620.884692
 20
-19320.803963
 30
0.0
  0
VERTEX
  5
903
100
AcDbEntity
  8
0
  6
CONTINUOUS
 62
     7
100
AcDbVertex
100
AcDb2dVertex
 10
7620.776105
 20
-19319.701449
 30
0.0
  0
SEQEND
  5
904
100
AcDbEntity
  8
0
  6
CONTINUOUS
 62
     7
  0
POLYLINE
  5
905
100
AcDbEntity
  8
0
  6
CONTINUOUS
 62
     7
100
AcDb2dPolyline
 66
     1
 10
0.0
 20
0.0
 30
0.0
 70
   128
  0
VERTEX
  5
906
100
AcDbEntity
  8
0
  6
CONTINUOUS
 62
     7
100
AcDbVertex
100
AcDb2dVertex
 10
7620.776105
 20
-19319.701449
 30
0.0
  0
VERTEX
  5
907
100
AcDbEntity
  8
0
  6
CONTINUOUS
 62
     7
100
AcDbVertex
100
AcDb2dVertex
 10
7619.8713
 20
-19319.790575
 30
0.0
  0
VERTEX
  5
908
100
AcDbEntity
  8
0
  6
CONTINUOUS
 62
     7
100
AcDbVertex
100
AcDb2dVertex
 10
7618.997529
 20
-19319.87663
 30
0.0
  0
VERTEX
  5
909
100
AcDbEntity
  8
0
  6
CONTINUOUS
 62
     7
100
AcDbVertex
100
AcDb2dVertex
 10
7618.184757
 20
-19319.956678
 30
0.0
  0
VERTEX
  5
90A
100
AcDbEntity
  8
0
  6
CONTINUOUS
 62
     7
100
AcDbVertex
100
AcDb2dVertex
 10
7617.460856
 20
-19320.027976
 30
0.0
  0
VERTEX
  5
90B
100
AcDbEntity
  8
0
  6
CONTINUOUS
 62
     7
100
AcDbVertex
100
AcDb2dVertex
 10
7616.850663
 20
-19320.088079
 30
0.0
  0
SEQEND
  5
90C
100
AcDbEntity
  8
0
  6
CONTINUOUS
 62
     7
  0
LINE
  5
90D
100
AcDbEntity
  8
0
  6
CONTINUOUS
 62
     7
100
AcDbLine
 10
7616.850663
 20
-19320.088079
 30
0.0
 11
7583.010543
 21
-19286.247966
 31
0.0
  0
LINE
  5
90E
100
AcDbEntity
  8
0
  6
CONTINUOUS
 62
     7
100
AcDbLine
 10
7736.165609
 20
-19430.778899
 30
0.0
 11
7587.322608
 21
-19281.935905
 31
0.0
  0
LINE
  5
90F
100
AcDbEntity
  8
0
  6
CONTINUOUS
 62
     7
100
AcDbLine
 10
7731.853548
 20
-19435.090968
 30
0.0
 11
7698.013436
 21
-19401.25084
 31
0.0
  0
POLYLINE
  5
910
100
AcDbEntity
  8
0
  6
CONTINUOUS
 62
     7
100
AcDb2dPolyline
 66
     1
 10
0.0
 20
0.0
 30
0.0
 70
   128
  0
VERTEX
  5
911
100
AcDbEntity
  8
0
  6
CONTINUOUS
 62
     7
100
AcDbVertex
100
AcDb2dVertex
 10
7698.013436
 20
-19401.25084
 30
0.0
  0
VERTEX
  5
912
100
AcDbEntity
  8
0
  6
CONTINUOUS
 62
     7
100
AcDbVertex
100
AcDb2dVertex
 10
7698.073524
 20
-19400.640658
 30
0.0
  0
VERTEX
  5
913
100
AcDbEntity
  8
0
  6
CONTINUOUS
 62
     7
100
AcDbVertex
100
AcDb2dVertex
 10
7698.144821
 20
-19399.916754
 30
0.0
  0
VERTEX
  5
914
100
AcDbEntity
  8
0
  6
CONTINUOUS
 62
     7
100
AcDbVertex
100
AcDb2dVertex
 10
7698.224884
 20
-19399.103977
 30
0.0
  0
VERTEX
  5
915
100
AcDbEntity
  8
0
  6
CONTINUOUS
 62
     7
100
AcDbVertex
100
AcDb2dVertex
 10
7698.310939
 20
-19398.230203
 30
0.0
  0
VERTEX
  5
916
100
AcDbEntity
  8
0
  6
CONTINUOUS
 62
     7
100
AcDbVertex
100
AcDb2dVertex
 10
7698.40005
 20
-19397.325409
 30
0.0
  0
SEQEND
  5
917
100
AcDbEntity
  8
0
  6
CONTINUOUS
 62
     7
  0
POLYLINE
  5
918
100
AcDbEntity
  8
0
  6
CONTINUOUS
 62
     7
100
AcDb2dPolyline
 66
     1
 10
0.0
 20
0.0
 30
0.0
 70
   128
  0
VERTEX
  5
919
100
AcDbEntity
  8
0
  6
CONTINUOUS
 62
     7
100
AcDbVertex
100
AcDb2dVertex
 10
7698.40005
 20
-19397.325409
 30
0.0
  0
VERTEX
  5
91A
100
AcDbEntity
  8
0
  6
CONTINUOUS
 62
     7
100
AcDbVertex
100
AcDb2dVertex
 10
7697.297551
 20
-19397.216815
 30
0.0
  0
VERTEX
  5
91B
100
AcDbEntity
  8
0
  6
CONTINUOUS
 62
     7
100
AcDbVertex
100
AcDb2dVertex
 10
7696.232855
 20
-19397.111948
 30
0.0
  0
VERTEX
  5
91C
100
AcDbEntity
  8
0
  6
CONTINUOUS
 62
     7
100
AcDbVertex
100
AcDb2dVertex
 10
7695.242482
 20
-19397.014415
 30
0.0
  0
VERTEX
  5
91D
100
AcDbEntity
  8
0
  6
CONTINUOUS
 62
     7
100
AcDbVertex
100
AcDb2dVertex
 10
7694.36042
 20
-19396.92754
 30
0.0
  0
VERTEX
  5
91E
100
AcDbEntity
  8
0
  6
CONTINUOUS
 62
     7
100
AcDbVertex
100
AcDb2dVertex
 10
7693.616884
 20
-19396.854304
 30
0.0
  0
SEQEND
  5
91F
100
AcDbEntity
  8
0
  6
CONTINUOUS
 62
     7
  0
POLYLINE
  5
920
100
AcDbEntity
  8
0
  6
CONTINUOUS
 62
     7
100
AcDb2dPolyline
 66
     1
 10
0.0
 20
0.0
 30
0.0
 70
   128
  0
VERTEX
  5
921
100
AcDbEntity
  8
0
  6
CONTINUOUS
 62
     7
100
AcDbVertex
100
AcDb2dVertex
 10
7572.323179
 20
-19386.728158
 30
0.0
  0
VERTEX
  5
922
100
AcDbEntity
  8
0
  6
CONTINUOUS
 62
     7
100
AcDbVertex
100
AcDb2dVertex
 10
7572.827856
 20
-19387.065373
 30
0.0
  0
VERTEX
  5
923
100
AcDbEntity
  8
0
  6
CONTINUOUS
 62
     7
100
AcDbVertex
100
AcDb2dVertex
 10
7573.441171
 20
-19387.475182
 30
0.0
  0
VERTEX
  5
924
100
AcDbEntity
  8
0
  6
CONTINUOUS
 62
     7
100
AcDbVertex
100
AcDb2dVertex
 10
7574.130312
 20
-19387.935644
 30
0.0
  0
VERTEX
  5
925
100
AcDbEntity
  8
0
  6
CONTINUOUS
 62
     7
100
AcDbVertex
100
AcDb2dVertex
 10
7574.858406
 20
-19388.422147
 30
0.0
  0
VERTEX
  5
926
100
AcDbEntity
  8
0
  6
CONTINUOUS
 62
     7
100
AcDbVertex
100
AcDb2dVertex
 10
7575.586501
 20
-19388.90865
 30
0.0
  0
VERTEX
  5
927
100
AcDbEntity
  8
0
  6
CONTINUOUS
 62
     7
100
AcDbVertex
100
AcDb2dVertex
 10
7576.275641
 20
-19389.369112
 30
0.0
  0
VERTEX
  5
928
100
AcDbEntity
  8
0
  6
CONTINUOUS
 62
     7
100
AcDbVertex
100
AcDb2dVertex
 10
7576.888956
 20
-19389.778921
 30
0.0
  0
VERTEX
  5
929
100
AcDbEntity
  8
0
  6
CONTINUOUS
 62
     7
100
AcDbVertex
100
AcDb2dVertex
 10
7577.393632
 20
-19390.116136
 30
0.0
  0
SEQEND
  5
92A
100
AcDbEntity
  8
0
  6
CONTINUOUS
 62
     7
  0
LINE
  5
92B
100
AcDbEntity
  8
0
  6
CONTINUOUS
 62
     7
100
AcDbLine
 10
7616.850663
 20
-19320.088079
 30
0.0
 11
7572.323179
 21
-19386.728158
 31
0.0
  0
LINE
  5
92C
100
AcDbEntity
  8
0
  6
CONTINUOUS
 62
     7
100
AcDbLine
 10
7621.247203
 20
-19324.484615
 30
0.0
 11
7577.393632
 21
-19390.116136
 31
0.0
  0
ARC
  5
92D
100
AcDbEntity
  8
0
  6
CONTINUOUS
 62
     7
100
AcDbCircle
 10
7540.505955
 20
-19370.060381
 30
0.0
 40
3.049093
100
AcDbArc
 50
157.49985
 51
337.499921
  0
ARC
  5
92E
100
AcDbEntity
  8
0
  6
CONTINUOUS
 62
     7
100
AcDbCircle
 10
7299.254838
 20
-19443.243101
 30
0.0
 40
3.049093
100
AcDbArc
 50
236.249973
 51
56.249863
  0
POLYLINE
  5
92F
100
AcDbEntity
  8
0
  6
CONTINUOUS
 62
     7
100
AcDb2dPolyline
 66
     1
 10
0.0
 20
0.0
 30
0.0
 70
   128
  0
VERTEX
  5
930
100
AcDbEntity
  8
0
  6
CONTINUOUS
 62
     7
100
AcDbVertex
100
AcDb2dVertex
 10
7627.985378
 20
-19440.707877
 30
0.0
  0
VERTEX
  5
931
100
AcDbEntity
  8
0
  6
CONTINUOUS
 62
     7
100
AcDbVertex
100
AcDb2dVertex
 10
7628.322593
 20
-19441.212551
 30
0.0
  0
VERTEX
  5
932
100
AcDbEntity
  8
0
  6
CONTINUOUS
 62
     7
100
AcDbVertex
100
AcDb2dVertex
 10
7628.732395
 20
-19441.825871
 30
0.0
  0
VERTEX
  5
933
100
AcDbEntity
  8
0
  6
CONTINUOUS
 62
     7
100
AcDbVertex
100
AcDb2dVertex
 10
7629.192864
 20
-19442.515006
 30
0.0
  0
VERTEX
  5
934
100
AcDbEntity
  8
0
  6
CONTINUOUS
 62
     7
100
AcDbVertex
100
AcDb2dVertex
 10
7629.679359
 20
-19443.243106
 30
0.0
  0
VERTEX
  5
935
100
AcDbEntity
  8
0
  6
CONTINUOUS
 62
     7
100
AcDbVertex
100
AcDb2dVertex
 10
7630.165855
 20
-19443.971199
 30
0.0
  0
VERTEX
  5
936
100
AcDbEntity
  8
0
  6
CONTINUOUS
 62
     7
100
AcDbVertex
100
AcDb2dVertex
 10
7630.626324
 20
-19444.660341
 30
0.0
  0
VERTEX
  5
937
100
AcDbEntity
  8
0
  6
CONTINUOUS
 62
     7
100
AcDbVertex
100
AcDb2dVertex
 10
7631.036134
 20
-19445.273654
 30
0.0
  0
VERTEX
  5
938
100
AcDbEntity
  8
0
  6
CONTINUOUS
 62
     7
100
AcDbVertex
100
AcDb2dVertex
 10
7631.373348
 20
-19445.778328
 30
0.0
  0
SEQEND
  5
939
100
AcDbEntity
  8
0
  6
CONTINUOUS
 62
     7
  0
LINE
  5
93A
100
AcDbEntity
  8
0
  6
CONTINUOUS
 62
     7
100
AcDbLine
 10
7693.616884
 20
-19396.854304
 30
0.0
 11
7627.985378
 21
-19440.707877
 31
0.0
  0
LINE
  5
93B
100
AcDbEntity
  8
0
  6
CONTINUOUS
 62
     7
100
AcDbLine
 10
7698.013436
 20
-19401.25084
 30
0.0
 11
7631.373348
 21
-19445.778328
 31
0.0
  0
ARC
  5
93C
100
AcDbEntity
  8
0
  6
CONTINUOUS
 62
     7
100
AcDbCircle
 10
7354.075804
 20
-19388.422143
 30
0.0
 40
3.049096
100
AcDbArc
 50
213.750134
 51
33.749952
  0
ARC
  5
93D
100
AcDbEntity
  8
0
  6
CONTINUOUS
 62
     7
100
AcDbCircle
 10
7323.96564
 20
-19413.132932
 30
0.0
 40
3.049088
100
AcDbArc
 50
224.999854
 51
45.000146
  0
LINE
  5
93E
100
AcDbEntity
  8
0
  6
CONTINUOUS
 62
     7
100
AcDbLine
 10
7191.57347
 20
-19502.461309
 30
0.0
 11
7191.57347
 21
-19550.585312
 31
0.0
  0
POLYLINE
  5
93F
100
AcDbEntity
  8
0
  6
CONTINUOUS
 62
     7
100
AcDb2dPolyline
 66
     1
 10
0.0
 20
0.0
 30
0.0
 70
   128
  0
VERTEX
  5
940
100
AcDbEntity
  8
0
  6
CONTINUOUS
 62
     7
100
AcDbVertex
100
AcDb2dVertex
 10
7191.57347
 20
-19550.585312
 30
0.0
  0
VERTEX
  5
941
100
AcDbEntity
  8
0
  6
CONTINUOUS
 62
     7
100
AcDbVertex
100
AcDb2dVertex
 10
7191.099503
 20
-19551.059283
 30
0.0
  0
VERTEX
  5
942
100
AcDbEntity
  8
0
  6
CONTINUOUS
 62
     7
100
AcDbVertex
100
AcDb2dVertex
 10
7190.5372
 20
-19551.621571
 30
0.0
  0
VERTEX
  5
943
100
AcDbEntity
  8
0
  6
CONTINUOUS
 62
     7
100
AcDbVertex
100
AcDb2dVertex
 10
7189.90588
 20
-19552.252893
 30
0.0
  0
VERTEX
  5
944
100
AcDbEntity
  8
0
  6
CONTINUOUS
 62
     7
100
AcDbVertex
100
AcDb2dVertex
 10
7189.227188
 20
-19552.931596
 30
0.0
  0
VERTEX
  5
945
100
AcDbEntity
  8
0
  6
CONTINUOUS
 62
     7
100
AcDbVertex
100
AcDb2dVertex
 10
7188.524376
 20
-19553.634403
 30
0.0
  0
SEQEND
  5
946
100
AcDbEntity
  8
0
  6
CONTINUOUS
 62
     7
  0
POLYLINE
  5
947
100
AcDbEntity
  8
0
  6
CONTINUOUS
 62
     7
100
AcDb2dPolyline
 66
     1
 10
0.0
 20
0.0
 30
0.0
 70
   128
  0
VERTEX
  5
948
100
AcDbEntity
  8
0
  6
CONTINUOUS
 62
     7
100
AcDbVertex
100
AcDb2dVertex
 10
7188.524376
 20
-19553.634403
 30
0.0
  0
VERTEX
  5
949
100
AcDbEntity
  8
0
  6
CONTINUOUS
 62
     7
100
AcDbVertex
100
AcDb2dVertex
 10
7189.227188
 20
-19554.33721
 30
0.0
  0
VERTEX
  5
94A
100
AcDbEntity
  8
0
  6
CONTINUOUS
 62
     7
100
AcDbVertex
100
AcDb2dVertex
 10
7189.90588
 20
-19555.015913
 30
0.0
  0
VERTEX
  5
94B
100
AcDbEntity
  8
0
  6
CONTINUOUS
 62
     7
100
AcDbVertex
100
AcDb2dVertex
 10
7190.5372
 20
-19555.647235
 30
0.0
  0
VERTEX
  5
94C
100
AcDbEntity
  8
0
  6
CONTINUOUS
 62
     7
100
AcDbVertex
100
AcDb2dVertex
 10
7191.099503
 20
-19556.209523
 30
0.0
  0
VERTEX
  5
94D
100
AcDbEntity
  8
0
  6
CONTINUOUS
 62
     7
100
AcDbVertex
100
AcDb2dVertex
 10
7191.57347
 20
-19556.683494
 30
0.0
  0
SEQEND
  5
94E
100
AcDbEntity
  8
0
  6
CONTINUOUS
 62
     7
  0
LINE
  5
94F
100
AcDbEntity
  8
0
  6
CONTINUOUS
 62
     7
100
AcDbLine
 10
7191.57347
 20
-19556.683494
 30
0.0
 11
7191.57347
 21
-19604.807497
 31
0.0
  0
POLYLINE
  5
950
100
AcDbEntity
  8
0
  6
CONTINUOUS
 62
     7
100
AcDb2dPolyline
 66
     1
 10
0.0
 20
0.0
 30
0.0
 70
   128
  0
VERTEX
  5
951
100
AcDbEntity
  8
0
  6
CONTINUOUS
 62
     7
100
AcDbVertex
100
AcDb2dVertex
 10
7191.57347
 20
-19604.807497
 30
0.0
  0
VERTEX
  5
952
100
AcDbEntity
  8
0
  6
CONTINUOUS
 62
     7
100
AcDbVertex
100
AcDb2dVertex
 10
7191.099503
 20
-19605.38503
 30
0.0
  0
VERTEX
  5
953
100
AcDbEntity
  8
0
  6
CONTINUOUS
 62
     7
100
AcDbVertex
100
AcDb2dVertex
 10
7190.5372
 20
-19606.070181
 30
0.0
  0
VERTEX
  5
954
100
AcDbEntity
  8
0
  6
CONTINUOUS
 62
     7
100
AcDbVertex
100
AcDb2dVertex
 10
7189.90588
 20
-19606.839449
 30
0.0
  0
VERTEX
  5
955
100
AcDbEntity
  8
0
  6
CONTINUOUS
 62
     7
100
AcDbVertex
100
AcDb2dVertex
 10
7189.227188
 20
-19607.66645
 30
0.0
  0
VERTEX
  5
956
100
AcDbEntity
  8
0
  6
CONTINUOUS
 62
     7
100
AcDbVertex
100
AcDb2dVertex
 10
7188.524376
 20
-19608.522825
 30
0.0
  0
SEQEND
  5
957
100
AcDbEntity
  8
0
  6
CONTINUOUS
 62
     7
  0
POLYLINE
  5
958
100
AcDbEntity
  8
0
  6
CONTINUOUS
 62
     7
100
AcDb2dPolyline
 66
     1
 10
0.0
 20
0.0
 30
0.0
 70
   128
  0
VERTEX
  5
959
100
AcDbEntity
  8
0
  6
CONTINUOUS
 62
     7
100
AcDbVertex
100
AcDb2dVertex
 10
7188.524376
 20
-19608.522825
 30
0.0
  0
VERTEX
  5
95A
100
AcDbEntity
  8
0
  6
CONTINUOUS
 62
     7
100
AcDbVertex
100
AcDb2dVertex
 10
7189.227188
 20
-19609.099602
 30
0.0
  0
VERTEX
  5
95B
100
AcDbEntity
  8
0
  6
CONTINUOUS
 62
     7
100
AcDbVertex
100
AcDb2dVertex
 10
7189.90588
 20
-19609.656602
 30
0.0
  0
VERTEX
  5
95C
100
AcDbEntity
  8
0
  6
CONTINUOUS
 62
     7
100
AcDbVertex
100
AcDb2dVertex
 10
7190.5372
 20
-19610.174714
 30
0.0
  0
VERTEX
  5
95D
100
AcDbEntity
  8
0
  6
CONTINUOUS
 62
     7
100
AcDbVertex
100
AcDb2dVertex
 10
7191.099503
 20
-19610.636171
 30
0.0
  0
VERTEX
  5
95E
100
AcDbEntity
  8
0
  6
CONTINUOUS
 62
     7
100
AcDbVertex
100
AcDb2dVertex
 10
7191.57347
 20
-19611.025148
 30
0.0
  0
SEQEND
  5
95F
100
AcDbEntity
  8
0
  6
CONTINUOUS
 62
     7
  0
LINE
  5
960
100
AcDbEntity
  8
0
  6
CONTINUOUS
 62
     7
100
AcDbLine
 10
7191.57347
 20
-19611.025148
 30
0.0
 11
7191.57347
 21
-19658.882303
 31
0.0
  0
LINE
  5
961
100
AcDbEntity
  8
0
  6
CONTINUOUS
 62
     7
100
AcDbLine
 10
7185.475283
 20
-19448.386502
 30
0.0
 11
7185.475283
 21
-19658.882303
 31
0.0
  0
LINE
  5
962
100
AcDbEntity
  8
0
  6
CONTINUOUS
 62
     7
100
AcDbLine
 10
7191.57347
 20
-19448.386502
 30
0.0
 11
7191.57347
 21
-19496.243658
 31
0.0
  0
POLYLINE
  5
963
100
AcDbEntity
  8
0
  6
CONTINUOUS
 62
     7
100
AcDb2dPolyline
 66
     1
 10
0.0
 20
0.0
 30
0.0
 70
   128
  0
VERTEX
  5
964
100
AcDbEntity
  8
0
  6
CONTINUOUS
 62
     7
100
AcDbVertex
100
AcDb2dVertex
 10
7191.57347
 20
-19496.243658
 30
0.0
  0
VERTEX
  5
965
100
AcDbEntity
  8
0
  6
CONTINUOUS
 62
     7
100
AcDbVertex
100
AcDb2dVertex
 10
7191.099503
 20
-19496.632635
 30
0.0
  0
VERTEX
  5
966
100
AcDbEntity
  8
0
  6
CONTINUOUS
 62
     7
100
AcDbVertex
100
AcDb2dVertex
 10
7190.5372
 20
-19497.094092
 30
0.0
  0
VERTEX
  5
967
100
AcDbEntity
  8
0
  6
CONTINUOUS
 62
     7
100
AcDbVertex
100
AcDb2dVertex
 10
7189.90588
 20
-19497.612204
 30
0.0
  0
VERTEX
  5
968
100
AcDbEntity
  8
0
  6
CONTINUOUS
 62
     7
100
AcDbVertex
100
AcDb2dVertex
 10
7189.227188
 20
-19498.169204
 30
0.0
  0
VERTEX
  5
969
100
AcDbEntity
  8
0
  6
CONTINUOUS
 62
     7
100
AcDbVertex
100
AcDb2dVertex
 10
7188.524376
 20
-19498.745981
 30
0.0
  0
SEQEND
  5
96A
100
AcDbEntity
  8
0
  6
CONTINUOUS
 62
     7
  0
POLYLINE
  5
96B
100
AcDbEntity
  8
0
  6
CONTINUOUS
 62
     7
100
AcDb2dPolyline
 66
     1
 10
0.0
 20
0.0
 30
0.0
 70
   128
  0
VERTEX
  5
96C
100
AcDbEntity
  8
0
  6
CONTINUOUS
 62
     7
100
AcDbVertex
100
AcDb2dVertex
 10
7188.524376
 20
-19498.745981
 30
0.0
  0
VERTEX
  5
96D
100
AcDbEntity
  8
0
  6
CONTINUOUS
 62
     7
100
AcDbVertex
100
AcDb2dVertex
 10
7189.227188
 20
-19499.602355
 30
0.0
  0
VERTEX
  5
96E
100
AcDbEntity
  8
0
  6
CONTINUOUS
 62
     7
100
AcDbVertex
100
AcDb2dVertex
 10
7189.90588
 20
-19500.429357
 30
0.0
  0
VERTEX
  5
96F
100
AcDbEntity
  8
0
  6
CONTINUOUS
 62
     7
100
AcDbVertex
100
AcDb2dVertex
 10
7190.5372
 20
-19501.198625
 30
0.0
  0
VERTEX
  5
970
100
AcDbEntity
  8
0
  6
CONTINUOUS
 62
     7
100
AcDbVertex
100
AcDb2dVertex
 10
7191.099503
 20
-19501.883776
 30
0.0
  0
VERTEX
  5
971
100
AcDbEntity
  8
0
  6
CONTINUOUS
 62
     7
100
AcDbVertex
100
AcDb2dVertex
 10
7191.57347
 20
-19502.461309
 30
0.0
  0
SEQEND
  5
972
100
AcDbEntity
  8
0
  6
CONTINUOUS
 62
     7
  0
POLYLINE
  5
973
100
AcDbEntity
  8
0
  6
CONTINUOUS
 62
     7
100
AcDb2dPolyline
 66
     1
 10
0.0
 20
0.0
 30
0.0
 70
   128
  0
VERTEX
  5
974
100
AcDbEntity
  8
0
  6
CONTINUOUS
 62
     7
100
AcDbVertex
100
AcDb2dVertex
 10
7602.812546
 20
-19410.976896
 30
0.0
  0
VERTEX
  5
975
100
AcDbEntity
  8
0
  6
CONTINUOUS
 62
     7
100
AcDbVertex
100
AcDb2dVertex
 10
7603.241741
 20
-19411.406083
 30
0.0
  0
VERTEX
  5
976
100
AcDbEntity
  8
0
  6
CONTINUOUS
 62
     7
100
AcDbVertex
100
AcDb2dVertex
 10
7603.763319
 20
-19411.927677
 30
0.0
  0
VERTEX
  5
977
100
AcDbEntity
  8
0
  6
CONTINUOUS
 62
     7
100
AcDbVertex
100
AcDb2dVertex
 10
7604.349387
 20
-19412.51374
 30
0.0
  0
VERTEX
  5
978
100
AcDbEntity
  8
0
  6
CONTINUOUS
 62
     7
100
AcDbVertex
100
AcDb2dVertex
 10
7604.96858
 20
-19413.132926
 30
0.0
  0
VERTEX
  5
979
100
AcDbEntity
  8
0
  6
CONTINUOUS
 62
     7
100
AcDbVertex
100
AcDb2dVertex
 10
7605.587774
 20
-19413.752127
 30
0.0
  0
VERTEX
  5
97A
100
AcDbEntity
  8
0
  6
CONTINUOUS
 62
     7
100
AcDbVertex
100
AcDb2dVertex
 10
7606.173837
 20
-19414.338191
 30
0.0
  0
VERTEX
  5
97B
100
AcDbEntity
  8
0
  6
CONTINUOUS
 62
     7
100
AcDbVertex
100
AcDb2dVertex
 10
7606.695419
 20
-19414.859769
 30
0.0
  0
VERTEX
  5
97C
100
AcDbEntity
  8
0
  6
CONTINUOUS
 62
     7
100
AcDbVertex
100
AcDb2dVertex
 10
7607.124615
 20
-19415.288957
 30
0.0
  0
SEQEND
  5
97D
100
AcDbEntity
  8
0
  6
CONTINUOUS
 62
     7
  0
LINE
  5
97E
100
AcDbEntity
  8
0
  6
CONTINUOUS
 62
     7
100
AcDbLine
 10
7655.276017
 20
-19358.513429
 30
0.0
 11
7602.812546
 21
-19410.976896
 31
0.0
  0
LINE
  5
97F
100
AcDbEntity
  8
0
  6
CONTINUOUS
 62
     7
100
AcDbLine
 10
7659.588078
 20
-19362.82549
 30
0.0
 11
7607.124615
 21
-19415.288957
 31
0.0
  0
ARC
  5
980
100
AcDbEntity
  8
0
  6
CONTINUOUS
 62
     7
100
AcDbCircle
 10
7604.968578
 20
-19413.132928
 30
0.0
 40
3.04909
100
AcDbArc
 50
134.999994
 51
315.000105
  0
ARC
  5
981
100
AcDbEntity
  8
0
  6
CONTINUOUS
 62
     7
100
AcDbCircle
 10
7574.858407
 20
-19388.422146
 30
0.0
 40
3.049093
100
AcDbArc
 50
146.24996
 51
326.249886
  0
ARC
  5
982
100
AcDbEntity
  8
0
  6
CONTINUOUS
 62
     7
100
AcDbCircle
 10
7280.893077
 20
-19477.595554
 30
0.0
 40
3.04909
100
AcDbArc
 50
247.500069
 51
67.499953
  0
POLYLINE
  5
983
100
AcDbEntity
  8
0
  6
CONTINUOUS
 62
     7
100
AcDb2dPolyline
 66
     1
 10
0.0
 20
0.0
 30
0.0
 70
   128
  0
VERTEX
  5
984
100
AcDbEntity
  8
0
  6
CONTINUOUS
 62
     7
100
AcDbVertex
100
AcDb2dVertex
 10
7268.991124
 20
-19517.860639
 30
0.0
  0
VERTEX
  5
985
100
AcDbEntity
  8
0
  6
CONTINUOUS
 62
     7
100
AcDbVertex
100
AcDb2dVertex
 10
7269.109541
 20
-19517.265329
 30
0.0
  0
VERTEX
  5
986
100
AcDbEntity
  8
0
  6
CONTINUOUS
 62
     7
100
AcDbVertex
100
AcDb2dVertex
 10
7269.253419
 20
-19516.541876
 30
0.0
  0
VERTEX
  5
987
100
AcDbEntity
  8
0
  6
CONTINUOUS
 62
     7
100
AcDbVertex
100
AcDb2dVertex
 10
7269.415124
 20
-19515.72898
 30
0.0
  0
VERTEX
  5
988
100
AcDbEntity
  8
0
  6
CONTINUOUS
 62
     7
100
AcDbVertex
100
AcDb2dVertex
 10
7269.585953
 20
-19514.870135
 30
0.0
  0
VERTEX
  5
989
100
AcDbEntity
  8
0
  6
CONTINUOUS
 62
     7
100
AcDbVertex
100
AcDb2dVertex
 10
7269.756811
 20
-19514.011286
 30
0.0
  0
VERTEX
  5
98A
100
AcDbEntity
  8
0
  6
CONTINUOUS
 62
     7
100
AcDbVertex
100
AcDb2dVertex
 10
7269.918487
 20
-19513.19839
 30
0.0
  0
VERTEX
  5
98B
100
AcDbEntity
  8
0
  6
CONTINUOUS
 62
     7
100
AcDbVertex
100
AcDb2dVertex
 10
7270.062394
 20
-19512.474937
 30
0.0
  0
VERTEX
  5
98C
100
AcDbEntity
  8
0
  6
CONTINUOUS
 62
     7
100
AcDbVertex
100
AcDb2dVertex
 10
7270.180811
 20
-19511.879631
 30
0.0
  0
SEQEND
  5
98D
100
AcDbEntity
  8
0
  6
CONTINUOUS
 62
     7
  0
LINE
  5
98E
100
AcDbEntity
  8
0
  6
CONTINUOUS
 62
     7
100
AcDbLine
 10
7191.57347
 20
-19502.461309
 30
0.0
 11
7268.991124
 21
-19517.860639
 31
0.0
  0
LINE
  5
98F
100
AcDbEntity
  8
0
  6
CONTINUOUS
 62
     7
100
AcDbLine
 10
7191.57347
 20
-19496.243658
 30
0.0
 11
7270.180811
 21
-19511.879631
 31
0.0
  0
ARC
  5
990
100
AcDbEntity
  8
0
  6
CONTINUOUS
 62
     7
100
AcDbCircle
 10
7269.585966
 20
-19514.870135
 30
0.0
 40
3.04909
100
AcDbArc
 50
258.750111
 51
78.750055
  0
LINE
  5
991
100
AcDbEntity
  8
0
  6
CONTINUOUS
 62
     7
100
AcDbLine
 10
7235.317323
 20
-19710.414502
 30
0.0
 11
7269.346137
 21
-19744.443316
 31
0.0
  0
LINE
  5
992
100
AcDbEntity
  8
0
  6
CONTINUOUS
 62
     7
100
AcDbLine
 10
7269.346137
 20
-19744.443316
 30
0.0
 11
7269.346137
 21
-19748.755377
 31
0.0
  0
LINE
  5
993
100
AcDbEntity
  8
0
  6
CONTINUOUS
 62
     7
100
AcDbLine
 10
7269.346137
 20
-19748.755377
 30
0.0
 11
7273.658198
 21
-19748.755377
 31
0.0
  0
LINE
  5
994
100
AcDbEntity
  8
0
  6
CONTINUOUS
 62
     7
100
AcDbLine
 10
7273.658198
 20
-19748.755377
 30
0.0
 11
7307.687012
 21
-19782.784191
 31
0.0
  0
POLYLINE
  5
995
100
AcDbEntity
  8
0
  6
CONTINUOUS
 62
     7
100
AcDb2dPolyline
 66
     1
 10
0.0
 20
0.0
 30
0.0
 70
   128
  0
VERTEX
  5
996
100
AcDbEntity
  8
0
  6
CONTINUOUS
 62
     7
100
AcDbVertex
100
AcDb2dVertex
 10
7307.687012
 20
-19782.784191
 30
0.0
  0
VERTEX
  5
997
100
AcDbEntity
  8
0
  6
CONTINUOUS
 62
     7
100
AcDbVertex
100
AcDb2dVertex
 10
7307.760233
 20
-19783.527712
 30
0.0
  0
VERTEX
  5
998
100
AcDbEntity
  8
0
  6
CONTINUOUS
 62
     7
100
AcDbVertex
100
AcDb2dVertex
 10
7307.847108
 20
-19784.409789
 30
0.0
  0
VERTEX
  5
999
100
AcDbEntity
  8
0
  6
CONTINUOUS
 62
     7
100
AcDbVertex
100
AcDb2dVertex
 10
7307.944656
 20
-19785.400147
 30
0.0
  0
VERTEX
  5
99A
100
AcDbEntity
  8
0
  6
CONTINUOUS
 62
     7
100
AcDbVertex
100
AcDb2dVertex
 10
7308.049508
 20
-19786.464843
 30
0.0
  0
VERTEX
  5
99B
100
AcDbEntity
  8
0
  6
CONTINUOUS
 62
     7
100
AcDbVertex
100
AcDb2dVertex
 10
7308.158117
 20
-19787.567357
 30
0.0
  0
SEQEND
  5
99C
100
AcDbEntity
  8
0
  6
CONTINUOUS
 62
     7
  0
POLYLINE
  5
99D
100
AcDbEntity
  8
0
  6
CONTINUOUS
 62
     7
100
AcDb2dPolyline
 66
     1
 10
0.0
 20
0.0
 30
0.0
 70
   128
  0
VERTEX
  5
99E
100
AcDbEntity
  8
0
  6
CONTINUOUS
 62
     7
100
AcDbVertex
100
AcDb2dVertex
 10
7308.158117
 20
-19787.567357
 30
0.0
  0
VERTEX
  5
99F
100
AcDbEntity
  8
0
  6
CONTINUOUS
 62
     7
100
AcDbVertex
100
AcDb2dVertex
 10
7309.062911
 20
-19787.478231
 30
0.0
  0
VERTEX
  5
9A0
100
AcDbEntity
  8
0
  6
CONTINUOUS
 62
     7
100
AcDbVertex
100
AcDb2dVertex
 10
7309.936685
 20
-19787.392176
 30
0.0
  0
VERTEX
  5
9A1
100
AcDbEntity
  8
0
  6
CONTINUOUS
 62
     7
100
AcDbVertex
100
AcDb2dVertex
 10
7310.749462
 20
-19787.312128
 30
0.0
  0
VERTEX
  5
9A2
100
AcDbEntity
  8
0
  6
CONTINUOUS
 62
     7
100
AcDbVertex
100
AcDb2dVertex
 10
7311.473351
 20
-19787.24083
 30
0.0
  0
VERTEX
  5
9A3
100
AcDbEntity
  8
0
  6
CONTINUOUS
 62
     7
100
AcDbVertex
100
AcDb2dVertex
 10
7312.083549
 20
-19787.180727
 30
0.0
  0
SEQEND
  5
9A4
100
AcDbEntity
  8
0
  6
CONTINUOUS
 62
     7
  0
LINE
  5
9A5
100
AcDbEntity
  8
0
  6
CONTINUOUS
 62
     7
100
AcDbLine
 10
7312.083549
 20
-19787.180727
 30
0.0
 11
7345.923676
 21
-19821.02084
 31
0.0
  0
LINE
  5
9A6
100
AcDbEntity
  8
0
  6
CONTINUOUS
 62
     7
100
AcDbLine
 10
7192.768583
 20
-19676.489907
 30
0.0
 11
7341.6116
 21
-19825.332901
 31
0.0
  0
LINE
  5
9A7
100
AcDbEntity
  8
0
  6
CONTINUOUS
 62
     7
100
AcDbLine
 10
7197.080674
 20
-19672.177838
 30
0.0
 11
7230.920772
 21
-19706.017966
 31
0.0
  0
POLYLINE
  5
9A8
100
AcDbEntity
  8
0
  6
CONTINUOUS
 62
     7
100
AcDb2dPolyline
 66
     1
 10
0.0
 20
0.0
 30
0.0
 70
   128
  0
VERTEX
  5
9A9
100
AcDbEntity
  8
0
  6
CONTINUOUS
 62
     7
100
AcDbVertex
100
AcDb2dVertex
 10
7230.920772
 20
-19706.017966
 30
0.0
  0
VERTEX
  5
9AA
100
AcDbEntity
  8
0
  6
CONTINUOUS
 62
     7
100
AcDbVertex
100
AcDb2dVertex
 10
7230.860669
 20
-19706.628148
 30
0.0
  0
VERTEX
  5
9AB
100
AcDbEntity
  8
0
  6
CONTINUOUS
 62
     7
100
AcDbVertex
100
AcDb2dVertex
 10
7230.789386
 20
-19707.352052
 30
0.0
  0
VERTEX
  5
9AC
100
AcDbEntity
  8
0
  6
CONTINUOUS
 62
     7
100
AcDbVertex
100
AcDb2dVertex
 10
7230.709338
 20
-19708.164829
 30
0.0
  0
VERTEX
  5
9AD
100
AcDbEntity
  8
0
  6
CONTINUOUS
 62
     7
100
AcDbVertex
100
AcDb2dVertex
 10
7230.623268
 20
-19709.038603
 30
0.0
  0
VERTEX
  5
9AE
100
AcDbEntity
  8
0
  6
CONTINUOUS
 62
     7
100
AcDbVertex
100
AcDb2dVertex
 10
7230.534157
 20
-19709.943397
 30
0.0
  0
SEQEND
  5
9AF
100
AcDbEntity
  8
0
  6
CONTINUOUS
 62
     7
  0
POLYLINE
  5
9B0
100
AcDbEntity
  8
0
  6
CONTINUOUS
 62
     7
100
AcDb2dPolyline
 66
     1
 10
0.0
 20
0.0
 30
0.0
 70
   128
  0
VERTEX
  5
9B1
100
AcDbEntity
  8
0
  6
CONTINUOUS
 62
     7
100
AcDbVertex
100
AcDb2dVertex
 10
7230.534157
 20
-19709.943397
 30
0.0
  0
VERTEX
  5
9B2
100
AcDbEntity
  8
0
  6
CONTINUOUS
 62
     7
100
AcDbVertex
100
AcDb2dVertex
 10
7231.636671
 20
-19710.051991
 30
0.0
  0
VERTEX
  5
9B3
100
AcDbEntity
  8
0
  6
CONTINUOUS
 62
     7
100
AcDbVertex
100
AcDb2dVertex
 10
7232.701353
 20
-19710.156858
 30
0.0
  0
VERTEX
  5
9B4
100
AcDbEntity
  8
0
  6
CONTINUOUS
 62
     7
100
AcDbVertex
100
AcDb2dVertex
 10
7233.69171
 20
-19710.254391
 30
0.0
  0
VERTEX
  5
9B5
100
AcDbEntity
  8
0
  6
CONTINUOUS
 62
     7
100
AcDbVertex
100
AcDb2dVertex
 10
7234.573787
 20
-19710.341266
 30
0.0
  0
VERTEX
  5
9B6
100
AcDbEntity
  8
0
  6
CONTINUOUS
 62
     7
100
AcDbVertex
100
AcDb2dVertex
 10
7235.317323
 20
-19710.414502
 30
0.0
  0
SEQEND
  5
9B7
100
AcDbEntity
  8
0
  6
CONTINUOUS
 62
     7
  0
LINE
  5
9B8
100
AcDbEntity
  8
0
  6
CONTINUOUS
 62
     7
100
AcDbLine
 10
7265.768012
 20
-19556.683494
 30
0.0
 11
7265.768012
 21
-19550.585312
 31
0.0
  0
LINE
  5
9B9
100
AcDbEntity
  8
0
  6
CONTINUOUS
 62
     7
100
AcDbLine
 10
7191.57347
 20
-19556.683494
 30
0.0
 11
7265.768012
 21
-19556.683494
 31
0.0
  0
LINE
  5
9BA
100
AcDbEntity
  8
0
  6
CONTINUOUS
 62
     7
100
AcDbLine
 10
7191.57347
 20
-19550.585312
 30
0.0
 11
7265.768012
 21
-19550.585312
 31
0.0
  0
LINE
  5
9BB
100
AcDbEntity
  8
0
  6
CONTINUOUS
 62
     7
100
AcDbLine
 10
7737.360738
 20
-19604.807497
 30
0.0
 11
7737.360738
 21
-19556.683494
 31
0.0
  0
POLYLINE
  5
9BC
100
AcDbEntity
  8
0
  6
CONTINUOUS
 62
     7
100
AcDb2dPolyline
 66
     1
 10
0.0
 20
0.0
 30
0.0
 70
   128
  0
VERTEX
  5
9BD
100
AcDbEntity
  8
0
  6
CONTINUOUS
 62
     7
100
AcDbVertex
100
AcDb2dVertex
 10
7737.360738
 20
-19556.683494
 30
0.0
  0
VERTEX
  5
9BE
100
AcDbEntity
  8
0
  6
CONTINUOUS
 62
     7
100
AcDbVertex
100
AcDb2dVertex
 10
7737.834719
 20
-19556.209523
 30
0.0
  0
VERTEX
  5
9BF
100
AcDbEntity
  8
0
  6
CONTINUOUS
 62
     7
100
AcDbVertex
100
AcDb2dVertex
 10
7738.397007
 20
-19555.647235
 30
0.0
  0
VERTEX
  5
9C0
100
AcDbEntity
  8
0
  6
CONTINUOUS
 62
     7
100
AcDbVertex
100
AcDb2dVertex
 10
7739.028327
 20
-19555.015913
 30
0.0
  0
VERTEX
  5
9C1
100
AcDbEntity
  8
0
  6
CONTINUOUS
 62
     7
100
AcDbVertex
100
AcDb2dVertex
 10
7739.70702
 20
-19554.33721
 30
0.0
  0
VERTEX
  5
9C2
100
AcDbEntity
  8
0
  6
CONTINUOUS
 62
     7
100
AcDbVertex
100
AcDb2dVertex
 10
7740.409831
 20
-19553.634403
 30
0.0
  0
SEQEND
  5
9C3
100
AcDbEntity
  8
0
  6
CONTINUOUS
 62
     7
  0
POLYLINE
  5
9C4
100
AcDbEntity
  8
0
  6
CONTINUOUS
 62
     7
100
AcDb2dPolyline
 66
     1
 10
0.0
 20
0.0
 30
0.0
 70
   128
  0
VERTEX
  5
9C5
100
AcDbEntity
  8
0
  6
CONTINUOUS
 62
     7
100
AcDbVertex
100
AcDb2dVertex
 10
7740.409831
 20
-19553.634403
 30
0.0
  0
VERTEX
  5
9C6
100
AcDbEntity
  8
0
  6
CONTINUOUS
 62
     7
100
AcDbVertex
100
AcDb2dVertex
 10
7739.70702
 20
-19552.931596
 30
0.0
  0
VERTEX
  5
9C7
100
AcDbEntity
  8
0
  6
CONTINUOUS
 62
     7
100
AcDbVertex
100
AcDb2dVertex
 10
7739.028327
 20
-19552.252893
 30
0.0
  0
VERTEX
  5
9C8
100
AcDbEntity
  8
0
  6
CONTINUOUS
 62
     7
100
AcDbVertex
100
AcDb2dVertex
 10
7738.397007
 20
-19551.621571
 30
0.0
  0
VERTEX
  5
9C9
100
AcDbEntity
  8
0
  6
CONTINUOUS
 62
     7
100
AcDbVertex
100
AcDb2dVertex
 10
7737.834719
 20
-19551.059283
 30
0.0
  0
VERTEX
  5
9CA
100
AcDbEntity
  8
0
  6
CONTINUOUS
 62
     7
100
AcDbVertex
100
AcDb2dVertex
 10
7737.360738
 20
-19550.585312
 30
0.0
  0
SEQEND
  5
9CB
100
AcDbEntity
  8
0
  6
CONTINUOUS
 62
     7
  0
LINE
  5
9CC
100
AcDbEntity
  8
0
  6
CONTINUOUS
 62
     7
100
AcDbLine
 10
7737.360738
 20
-19550.585312
 30
0.0
 11
7737.360738
 21
-19502.461309
 31
0.0
  0
POLYLINE
  5
9CD
100
AcDbEntity
  8
0
  6
CONTINUOUS
 62
     7
100
AcDb2dPolyline
 66
     1
 10
0.0
 20
0.0
 30
0.0
 70
   128
  0
VERTEX
  5
9CE
100
AcDbEntity
  8
0
  6
CONTINUOUS
 62
     7
100
AcDbVertex
100
AcDb2dVertex
 10
7737.360738
 20
-19502.461309
 30
0.0
  0
VERTEX
  5
9CF
100
AcDbEntity
  8
0
  6
CONTINUOUS
 62
     7
100
AcDbVertex
100
AcDb2dVertex
 10
7737.834719
 20
-19501.883776
 30
0.0
  0
VERTEX
  5
9D0
100
AcDbEntity
  8
0
  6
CONTINUOUS
 62
     7
100
AcDbVertex
100
AcDb2dVertex
 10
7738.397007
 20
-19501.198625
 30
0.0
  0
VERTEX
  5
9D1
100
AcDbEntity
  8
0
  6
CONTINUOUS
 62
     7
100
AcDbVertex
100
AcDb2dVertex
 10
7739.028327
 20
-19500.429357
 30
0.0
  0
VERTEX
  5
9D2
100
AcDbEntity
  8
0
  6
CONTINUOUS
 62
     7
100
AcDbVertex
100
AcDb2dVertex
 10
7739.70702
 20
-19499.602355
 30
0.0
  0
VERTEX
  5
9D3
100
AcDbEntity
  8
0
  6
CONTINUOUS
 62
     7
100
AcDbVertex
100
AcDb2dVertex
 10
7740.409831
 20
-19498.745981
 30
0.0
  0
SEQEND
  5
9D4
100
AcDbEntity
  8
0
  6
CONTINUOUS
 62
     7
  0
POLYLINE
  5
9D5
100
AcDbEntity
  8
0
  6
CONTINUOUS
 62
     7
100
AcDb2dPolyline
 66
     1
 10
0.0
 20
0.0
 30
0.0
 70
   128
  0
VERTEX
  5
9D6
100
AcDbEntity
  8
0
  6
CONTINUOUS
 62
     7
100
AcDbVertex
100
AcDb2dVertex
 10
7740.409831
 20
-19498.745981
 30
0.0
  0
VERTEX
  5
9D7
100
AcDbEntity
  8
0
  6
CONTINUOUS
 62
     7
100
AcDbVertex
100
AcDb2dVertex
 10
7739.70702
 20
-19498.169204
 30
0.0
  0
VERTEX
  5
9D8
100
AcDbEntity
  8
0
  6
CONTINUOUS
 62
     7
100
AcDbVertex
100
AcDb2dVertex
 10
7739.028327
 20
-19497.612204
 30
0.0
  0
VERTEX
  5
9D9
100
AcDbEntity
  8
0
  6
CONTINUOUS
 62
     7
100
AcDbVertex
100
AcDb2dVertex
 10
7738.397007
 20
-19497.094092
 30
0.0
  0
VERTEX
  5
9DA
100
AcDbEntity
  8
0
  6
CONTINUOUS
 62
     7
100
AcDbVertex
100
AcDb2dVertex
 10
7737.834719
 20
-19496.632635
 30
0.0
  0
VERTEX
  5
9DB
100
AcDbEntity
  8
0
  6
CONTINUOUS
 62
     7
100
AcDbVertex
100
AcDb2dVertex
 10
7737.360738
 20
-19496.243658
 30
0.0
  0
SEQEND
  5
9DC
100
AcDbEntity
  8
0
  6
CONTINUOUS
 62
     7
  0
LINE
  5
9DD
100
AcDbEntity
  8
0
  6
CONTINUOUS
 62
     7
100
AcDbLine
 10
7737.360738
 20
-19496.243658
 30
0.0
 11
7737.360738
 21
-19448.386502
 31
0.0
  0
LINE
  5
9DE
100
AcDbEntity
  8
0
  6
CONTINUOUS
 62
     7
100
AcDbLine
 10
7743.458925
 20
-19658.882303
 30
0.0
 11
7743.458925
 21
-19448.386502
 31
0.0
  0
LINE
  5
9DF
100
AcDbEntity
  8
0
  6
CONTINUOUS
 62
     7
100
AcDbLine
 10
7737.360738
 20
-19658.882303
 30
0.0
 11
7737.360738
 21
-19611.025148
 31
0.0
  0
POLYLINE
  5
9E0
100
AcDbEntity
  8
0
  6
CONTINUOUS
 62
     7
100
AcDb2dPolyline
 66
     1
 10
0.0
 20
0.0
 30
0.0
 70
   128
  0
VERTEX
  5
9E1
100
AcDbEntity
  8
0
  6
CONTINUOUS
 62
     7
100
AcDbVertex
100
AcDb2dVertex
 10
7737.360738
 20
-19611.025148
 30
0.0
  0
VERTEX
  5
9E2
100
AcDbEntity
  8
0
  6
CONTINUOUS
 62
     7
100
AcDbVertex
100
AcDb2dVertex
 10
7737.834719
 20
-19610.636171
 30
0.0
  0
VERTEX
  5
9E3
100
AcDbEntity
  8
0
  6
CONTINUOUS
 62
     7
100
AcDbVertex
100
AcDb2dVertex
 10
7738.397007
 20
-19610.174714
 30
0.0
  0
VERTEX
  5
9E4
100
AcDbEntity
  8
0
  6
CONTINUOUS
 62
     7
100
AcDbVertex
100
AcDb2dVertex
 10
7739.028327
 20
-19609.656602
 30
0.0
  0
VERTEX
  5
9E5
100
AcDbEntity
  8
0
  6
CONTINUOUS
 62
     7
100
AcDbVertex
100
AcDb2dVertex
 10
7739.70702
 20
-19609.099602
 30
0.0
  0
VERTEX
  5
9E6
100
AcDbEntity
  8
0
  6
CONTINUOUS
 62
     7
100
AcDbVertex
100
AcDb2dVertex
 10
7740.409831
 20
-19608.522825
 30
0.0
  0
SEQEND
  5
9E7
100
AcDbEntity
  8
0
  6
CONTINUOUS
 62
     7
  0
POLYLINE
  5
9E8
100
AcDbEntity
  8
0
  6
CONTINUOUS
 62
     7
100
AcDb2dPolyline
 66
     1
 10
0.0
 20
0.0
 30
0.0
 70
   128
  0
VERTEX
  5
9E9
100
AcDbEntity
  8
0
  6
CONTINUOUS
 62
     7
100
AcDbVertex
100
AcDb2dVertex
 10
7740.409831
 20
-19608.522825
 30
0.0
  0
VERTEX
  5
9EA
100
AcDbEntity
  8
0
  6
CONTINUOUS
 62
     7
100
AcDbVertex
100
AcDb2dVertex
 10
7739.70702
 20
-19607.66645
 30
0.0
  0
VERTEX
  5
9EB
100
AcDbEntity
  8
0
  6
CONTINUOUS
 62
     7
100
AcDbVertex
100
AcDb2dVertex
 10
7739.028327
 20
-19606.839449
 30
0.0
  0
VERTEX
  5
9EC
100
AcDbEntity
  8
0
  6
CONTINUOUS
 62
     7
100
AcDbVertex
100
AcDb2dVertex
 10
7738.397007
 20
-19606.070181
 30
0.0
  0
VERTEX
  5
9ED
100
AcDbEntity
  8
0
  6
CONTINUOUS
 62
     7
100
AcDbVertex
100
AcDb2dVertex
 10
7737.834719
 20
-19605.38503
 30
0.0
  0
VERTEX
  5
9EE
100
AcDbEntity
  8
0
  6
CONTINUOUS
 62
     7
100
AcDbVertex
100
AcDb2dVertex
 10
7737.360738
 20
-19604.807497
 30
0.0
  0
SEQEND
  5
9EF
100
AcDbEntity
  8
0
  6
CONTINUOUS
 62
     7
  0
ARC
  5
9F0
100
AcDbEntity
  8
0
  6
CONTINUOUS
 62
     7
100
AcDbCircle
 10
7648.041125
 20
-19477.595556
 30
0.0
 40
3.04909
100
AcDbArc
 50
112.499936
 51
292.500041
  0
ARC
  5
9F1
100
AcDbEntity
  8
0
  6
CONTINUOUS
 62
     7
100
AcDbCircle
 10
7280.893095
 20
-19629.673245
 30
0.0
 40
3.04909
100
AcDbArc
 50
292.499697
 51
112.500281
  0
POLYLINE
  5
9F2
100
AcDbEntity
  8
0
  6
CONTINUOUS
 62
     7
100
AcDb2dPolyline
 66
     1
 10
0.0
 20
0.0
 30
0.0
 70
   128
  0
VERTEX
  5
9F3
100
AcDbEntity
  8
0
  6
CONTINUOUS
 62
     7
100
AcDbVertex
100
AcDb2dVertex
 10
7658.753404
 20
-19511.879631
 30
0.0
  0
VERTEX
  5
9F4
100
AcDbEntity
  8
0
  6
CONTINUOUS
 62
     7
100
AcDbVertex
100
AcDb2dVertex
 10
7658.871813
 20
-19512.474937
 30
0.0
  0
VERTEX
  5
9F5
100
AcDbEntity
  8
0
  6
CONTINUOUS
 62
     7
100
AcDbVertex
100
AcDb2dVertex
 10
7659.015721
 20
-19513.19839
 30
0.0
  0
VERTEX
  5
9F6
100
AcDbEntity
  8
0
  6
CONTINUOUS
 62
     7
100
AcDbVertex
100
AcDb2dVertex
 10
7659.177411
 20
-19514.011286
 30
0.0
  0
VERTEX
  5
9F7
100
AcDbEntity
  8
0
  6
CONTINUOUS
 62
     7
100
AcDbVertex
100
AcDb2dVertex
 10
7659.348247
 20
-19514.870135
 30
0.0
  0
VERTEX
  5
9F8
100
AcDbEntity
  8
0
  6
CONTINUOUS
 62
     7
100
AcDbVertex
100
AcDb2dVertex
 10
7659.519083
 20
-19515.72898
 30
0.0
  0
VERTEX
  5
9F9
100
AcDbEntity
  8
0
  6
CONTINUOUS
 62
     7
100
AcDbVertex
100
AcDb2dVertex
 10
7659.680781
 20
-19516.541876
 30
0.0
  0
VERTEX
  5
9FA
100
AcDbEntity
  8
0
  6
CONTINUOUS
 62
     7
100
AcDbVertex
100
AcDb2dVertex
 10
7659.824681
 20
-19517.265329
 30
0.0
  0
VERTEX
  5
9FB
100
AcDbEntity
  8
0
  6
CONTINUOUS
 62
     7
100
AcDbVertex
100
AcDb2dVertex
 10
7659.943098
 20
-19517.860639
 30
0.0
  0
SEQEND
  5
9FC
100
AcDbEntity
  8
0
  6
CONTINUOUS
 62
     7
  0
ARC
  5
9FD
100
AcDbEntity
  8
0
  6
CONTINUOUS
 62
     7
100
AcDbCircle
 10
7659.348251
 20
-19514.870135
 30
0.0
 40
3.049091
100
AcDbArc
 50
101.249983
 51
281.249989
  0
ARC
  5
9FE
100
AcDbEntity
  8
0
  6
CONTINUOUS
 62
     7
100
AcDbCircle
 10
7629.679358
 20
-19443.243105
 30
0.0
 40
3.049091
100
AcDbArc
 50
123.749915
 51
303.750132
  0
ARC
  5
9FF
100
AcDbEntity
  8
0
  6
CONTINUOUS
 62
     7
100
AcDbCircle
 10
7265.768008
 20
-19553.634403
 30
0.0
 40
3.049091
100
AcDbArc
 50
270.0
 51
90.0
  0
LINE
  5
A00
100
AcDbEntity
  8
0
  6
CONTINUOUS
 62
     7
100
AcDbLine
 10
7737.360738
 20
-19496.243658
 30
0.0
 11
7658.753404
 21
-19511.879631
 31
0.0
  0
LINE
  5
A01
100
AcDbEntity
  8
0
  6
CONTINUOUS
 62
     7
100
AcDbLine
 10
7737.360738
 20
-19502.461309
 30
0.0
 11
7659.943098
 21
-19517.860639
 31
0.0
  0
POLYLINE
  5
A02
100
AcDbEntity
  8
0
  6
CONTINUOUS
 62
     7
100
AcDb2dPolyline
 66
     1
 10
0.0
 20
0.0
 30
0.0
 70
   128
  0
VERTEX
  5
A03
100
AcDbEntity
  8
0
  6
CONTINUOUS
 62
     7
100
AcDbVertex
100
AcDb2dVertex
 10
7659.943098
 20
-19589.408167
 30
0.0
  0
VERTEX
  5
A04
100
AcDbEntity
  8
0
  6
CONTINUOUS
 62
     7
100
AcDbVertex
100
AcDb2dVertex
 10
7659.824681
 20
-19590.003477
 30
0.0
  0
VERTEX
  5
A05
100
AcDbEntity
  8
0
  6
CONTINUOUS
 62
     7
100
AcDbVertex
100
AcDb2dVertex
 10
7659.680781
 20
-19590.72693
 30
0.0
  0
VERTEX
  5
A06
100
AcDbEntity
  8
0
  6
CONTINUOUS
 62
     7
100
AcDbVertex
100
AcDb2dVertex
 10
7659.519083
 20
-19591.539826
 30
0.0
  0
VERTEX
  5
A07
100
AcDbEntity
  8
0
  6
CONTINUOUS
 62
     7
100
AcDbVertex
100
AcDb2dVertex
 10
7659.348247
 20
-19592.398671
 30
0.0
  0
VERTEX
  5
A08
100
AcDbEntity
  8
0
  6
CONTINUOUS
 62
     7
100
AcDbVertex
100
AcDb2dVertex
 10
7659.177411
 20
-19593.25752
 30
0.0
  0
VERTEX
  5
A09
100
AcDbEntity
  8
0
  6
CONTINUOUS
 62
     7
100
AcDbVertex
100
AcDb2dVertex
 10
7659.015721
 20
-19594.070416
 30
0.0
  0
VERTEX
  5
A0A
100
AcDbEntity
  8
0
  6
CONTINUOUS
 62
     7
100
AcDbVertex
100
AcDb2dVertex
 10
7658.871813
 20
-19594.793869
 30
0.0
  0
VERTEX
  5
A0B
100
AcDbEntity
  8
0
  6
CONTINUOUS
 62
     7
100
AcDbVertex
100
AcDb2dVertex
 10
7658.753404
 20
-19595.389175
 30
0.0
  0
SEQEND
  5
A0C
100
AcDbEntity
  8
0
  6
CONTINUOUS
 62
     7
  0
ARC
  5
A0D
100
AcDbEntity
  8
0
  6
CONTINUOUS
 62
     7
100
AcDbCircle
 10
7659.348249
 20
-19592.398671
 30
0.0
 40
3.049091
100
AcDbArc
 50
78.749985
 51
258.750044
  0
POLYLINE
  5
A0E
100
AcDbEntity
  8
0
  6
CONTINUOUS
 62
     7
100
AcDb2dPolyline
 66
     1
 10
0.0
 20
0.0
 30
0.0
 70
   128
  0
VERTEX
  5
A0F
100
AcDbEntity
  8
0
  6
CONTINUOUS
 62
     7
100
AcDbVertex
100
AcDb2dVertex
 10
7270.180811
 20
-19595.389175
 30
0.0
  0
VERTEX
  5
A10
100
AcDbEntity
  8
0
  6
CONTINUOUS
 62
     7
100
AcDbVertex
100
AcDb2dVertex
 10
7270.062394
 20
-19594.793869
 30
0.0
  0
VERTEX
  5
A11
100
AcDbEntity
  8
0
  6
CONTINUOUS
 62
     7
100
AcDbVertex
100
AcDb2dVertex
 10
7269.918487
 20
-19594.070416
 30
0.0
  0
VERTEX
  5
A12
100
AcDbEntity
  8
0
  6
CONTINUOUS
 62
     7
100
AcDbVertex
100
AcDb2dVertex
 10
7269.756811
 20
-19593.25752
 30
0.0
  0
VERTEX
  5
A13
100
AcDbEntity
  8
0
  6
CONTINUOUS
 62
     7
100
AcDbVertex
100
AcDb2dVertex
 10
7269.585953
 20
-19592.398671
 30
0.0
  0
VERTEX
  5
A14
100
AcDbEntity
  8
0
  6
CONTINUOUS
 62
     7
100
AcDbVertex
100
AcDb2dVertex
 10
7269.415124
 20
-19591.539826
 30
0.0
  0
VERTEX
  5
A15
100
AcDbEntity
  8
0
  6
CONTINUOUS
 62
     7
100
AcDbVertex
100
AcDb2dVertex
 10
7269.253419
 20
-19590.72693
 30
0.0
  0
VERTEX
  5
A16
100
AcDbEntity
  8
0
  6
CONTINUOUS
 62
     7
100
AcDbVertex
100
AcDb2dVertex
 10
7269.109541
 20
-19590.003477
 30
0.0
  0
VERTEX
  5
A17
100
AcDbEntity
  8
0
  6
CONTINUOUS
 62
     7
100
AcDbVertex
100
AcDb2dVertex
 10
7268.991124
 20
-19589.408167
 30
0.0
  0
SEQEND
  5
A18
100
AcDbEntity
  8
0
  6
CONTINUOUS
 62
     7
  0
LINE
  5
A19
100
AcDbEntity
  8
0
  6
CONTINUOUS
 62
     7
100
AcDbLine
 10
7191.57347
 20
-19611.025148
 30
0.0
 11
7270.180811
 21
-19595.389175
 31
0.0
  0
LINE
  5
A1A
100
AcDbEntity
  8
0
  6
CONTINUOUS
 62
     7
100
AcDbLine
 10
7191.57347
 20
-19604.807497
 30
0.0
 11
7268.991124
 21
-19589.408167
 31
0.0
  0
POLYLINE
  5
A1B
100
AcDbEntity
  8
0
  6
CONTINUOUS
 62
     7
100
AcDb2dPolyline
 66
     1
 10
0.0
 20
0.0
 30
0.0
 70
   128
  0
VERTEX
  5
A1C
100
AcDbEntity
  8
0
  6
CONTINUOUS
 62
     7
100
AcDbVertex
100
AcDb2dVertex
 10
7300.948829
 20
-19666.560929
 30
0.0
  0
VERTEX
  5
A1D
100
AcDbEntity
  8
0
  6
CONTINUOUS
 62
     7
100
AcDbVertex
100
AcDb2dVertex
 10
7300.611615
 20
-19666.056255
 30
0.0
  0
VERTEX
  5
A1E
100
AcDbEntity
  8
0
  6
CONTINUOUS
 62
     7
100
AcDbVertex
100
AcDb2dVertex
 10
7300.201805
 20
-19665.442935
 30
0.0
  0
VERTEX
  5
A1F
100
AcDbEntity
  8
0
  6
CONTINUOUS
 62
     7
100
AcDbVertex
100
AcDb2dVertex
 10
7299.741344
 20
-19664.7538
 30
0.0
  0
VERTEX
  5
A20
100
AcDbEntity
  8
0
  6
CONTINUOUS
 62
     7
100
AcDbVertex
100
AcDb2dVertex
 10
7299.254855
 20
-19664.0257
 30
0.0
  0
VERTEX
  5
A21
100
AcDbEntity
  8
0
  6
CONTINUOUS
 62
     7
100
AcDbVertex
100
AcDb2dVertex
 10
7298.768337
 20
-19663.297607
 30
0.0
  0
VERTEX
  5
A22
100
AcDbEntity
  8
0
  6
CONTINUOUS
 62
     7
100
AcDbVertex
100
AcDb2dVertex
 10
7298.307876
 20
-19662.608465
 30
0.0
  0
VERTEX
  5
A23
100
AcDbEntity
  8
0
  6
CONTINUOUS
 62
     7
100
AcDbVertex
100
AcDb2dVertex
 10
7297.898066
 20
-19661.995152
 30
0.0
  0
VERTEX
  5
A24
100
AcDbEntity
  8
0
  6
CONTINUOUS
 62
     7
100
AcDbVertex
100
AcDb2dVertex
 10
7297.560852
 20
-19661.490478
 30
0.0
  0
SEQEND
  5
A25
100
AcDbEntity
  8
0
  6
CONTINUOUS
 62
     7
  0
LINE
  5
A26
100
AcDbEntity
  8
0
  6
CONTINUOUS
 62
     7
100
AcDbLine
 10
7235.317323
 20
-19710.414502
 30
0.0
 11
7300.948829
 21
-19666.560929
 31
0.0
  0
LINE
  5
A27
100
AcDbEntity
  8
0
  6
CONTINUOUS
 62
     7
100
AcDbLine
 10
7230.920772
 20
-19706.017966
 30
0.0
 11
7297.560852
 21
-19661.490478
 31
0.0
  0
ARC
  5
A28
100
AcDbEntity
  8
0
  6
CONTINUOUS
 62
     7
100
AcDbCircle
 10
7299.25485
 20
-19664.025697
 30
0.0
 40
3.049093
100
AcDbArc
 50
303.749859
 51
123.750305
  0
LINE
  5
A29
100
AcDbEntity
  8
0
  6
CONTINUOUS
 62
     7
100
AcDbLine
 10
7737.360738
 20
-19604.807497
 30
0.0
 11
7659.943098
 21
-19589.408167
 31
0.0
  0
LINE
  5
A2A
100
AcDbEntity
  8
0
  6
CONTINUOUS
 62
     7
100
AcDbLine
 10
7737.360738
 20
-19611.025148
 30
0.0
 11
7658.753404
 21
-19595.389175
 31
0.0
  0
LINE
  5
A2B
100
AcDbEntity
  8
0
  6
CONTINUOUS
 62
     7
100
AcDbLine
 10
7663.166196
 20
-19550.585312
 30
0.0
 11
7663.166196
 21
-19556.683494
 31
0.0
  0
LINE
  5
A2C
100
AcDbEntity
  8
0
  6
CONTINUOUS
 62
     7
100
AcDbLine
 10
7737.360738
 20
-19550.585312
 30
0.0
 11
7663.166196
 21
-19550.585312
 31
0.0
  0
LINE
  5
A2D
100
AcDbEntity
  8
0
  6
CONTINUOUS
 62
     7
100
AcDbLine
 10
7737.360738
 20
-19556.683494
 30
0.0
 11
7663.166196
 21
-19556.683494
 31
0.0
  0
ARC
  5
A2E
100
AcDbEntity
  8
0
  6
CONTINUOUS
 62
     7
100
AcDbCircle
 10
7269.585951
 20
-19592.398674
 30
0.0
 40
3.04909
100
AcDbArc
 50
281.250232
 51
101.249602
  0
LINE
  5
A2F
100
AcDbEntity
  8
0
  6
CONTINUOUS
 62
     7
100
AcDbLine
 10
7621.247203
 20
-19782.784191
 30
0.0
 11
7655.276017
 21
-19748.755377
 31
0.0
  0
LINE
  5
A30
100
AcDbEntity
  8
0
  6
CONTINUOUS
 62
     7
100
AcDbLine
 10
7655.276017
 20
-19748.755377
 30
0.0
 11
7659.588078
 21
-19748.755377
 31
0.0
  0
LINE
  5
A31
100
AcDbEntity
  8
0
  6
CONTINUOUS
 62
     7
100
AcDbLine
 10
7659.588078
 20
-19748.755377
 30
0.0
 11
7659.588078
 21
-19744.443316
 31
0.0
  0
LINE
  5
A32
100
AcDbEntity
  8
0
  6
CONTINUOUS
 62
     7
100
AcDbLine
 10
7659.588078
 20
-19744.443316
 30
0.0
 11
7693.616884
 21
-19710.414502
 31
0.0
  0
POLYLINE
  5
A33
100
AcDbEntity
  8
0
  6
CONTINUOUS
 62
     7
100
AcDb2dPolyline
 66
     1
 10
0.0
 20
0.0
 30
0.0
 70
   128
  0
VERTEX
  5
A34
100
AcDbEntity
  8
0
  6
CONTINUOUS
 62
     7
100
AcDbVertex
100
AcDb2dVertex
 10
7693.616884
 20
-19710.414502
 30
0.0
  0
VERTEX
  5
A35
100
AcDbEntity
  8
0
  6
CONTINUOUS
 62
     7
100
AcDbVertex
100
AcDb2dVertex
 10
7694.36042
 20
-19710.341266
 30
0.0
  0
VERTEX
  5
A36
100
AcDbEntity
  8
0
  6
CONTINUOUS
 62
     7
100
AcDbVertex
100
AcDb2dVertex
 10
7695.242482
 20
-19710.254391
 30
0.0
  0
VERTEX
  5
A37
100
AcDbEntity
  8
0
  6
CONTINUOUS
 62
     7
100
AcDbVertex
100
AcDb2dVertex
 10
7696.232855
 20
-19710.156858
 30
0.0
  0
VERTEX
  5
A38
100
AcDbEntity
  8
0
  6
CONTINUOUS
 62
     7
100
AcDbVertex
100
AcDb2dVertex
 10
7697.297551
 20
-19710.051991
 30
0.0
  0
VERTEX
  5
A39
100
AcDbEntity
  8
0
  6
CONTINUOUS
 62
     7
100
AcDbVertex
100
AcDb2dVertex
 10
7698.40005
 20
-19709.943397
 30
0.0
  0
SEQEND
  5
A3A
100
AcDbEntity
  8
0
  6
CONTINUOUS
 62
     7
  0
POLYLINE
  5
A3B
100
AcDbEntity
  8
0
  6
CONTINUOUS
 62
     7
100
AcDb2dPolyline
 66
     1
 10
0.0
 20
0.0
 30
0.0
 70
   128
  0
VERTEX
  5
A3C
100
AcDbEntity
  8
0
  6
CONTINUOUS
 62
     7
100
AcDbVertex
100
AcDb2dVertex
 10
7698.40005
 20
-19709.943397
 30
0.0
  0
VERTEX
  5
A3D
100
AcDbEntity
  8
0
  6
CONTINUOUS
 62
     7
100
AcDbVertex
100
AcDb2dVertex
 10
7698.310939
 20
-19709.038603
 30
0.0
  0
VERTEX
  5
A3E
100
AcDbEntity
  8
0
  6
CONTINUOUS
 62
     7
100
AcDbVertex
100
AcDb2dVertex
 10
7698.224884
 20
-19708.164829
 30
0.0
  0
VERTEX
  5
A3F
100
AcDbEntity
  8
0
  6
CONTINUOUS
 62
     7
100
AcDbVertex
100
AcDb2dVertex
 10
7698.144821
 20
-19707.352052
 30
0.0
  0
VERTEX
  5
A40
100
AcDbEntity
  8
0
  6
CONTINUOUS
 62
     7
100
AcDbVertex
100
AcDb2dVertex
 10
7698.073524
 20
-19706.628148
 30
0.0
  0
VERTEX
  5
A41
100
AcDbEntity
  8
0
  6
CONTINUOUS
 62
     7
100
AcDbVertex
100
AcDb2dVertex
 10
7698.013436
 20
-19706.017966
 30
0.0
  0
SEQEND
  5
A42
100
AcDbEntity
  8
0
  6
CONTINUOUS
 62
     7
  0
LINE
  5
A43
100
AcDbEntity
  8
0
  6
CONTINUOUS
 62
     7
100
AcDbLine
 10
7698.013436
 20
-19706.017966
 30
0.0
 11
7731.853548
 21
-19672.177838
 31
0.0
  0
LINE
  5
A44
100
AcDbEntity
  8
0
  6
CONTINUOUS
 62
     7
100
AcDbLine
 10
7587.322608
 20
-19825.332901
 30
0.0
 11
7736.165609
 21
-19676.489907
 31
0.0
  0
LINE
  5
A45
100
AcDbEntity
  8
0
  6
CONTINUOUS
 62
     7
100
AcDbLine
 10
7583.010543
 20
-19821.02084
 30
0.0
 11
7616.850663
 21
-19787.180727
 31
0.0
  0
POLYLINE
  5
A46
100
AcDbEntity
  8
0
  6
CONTINUOUS
 62
     7
100
AcDb2dPolyline
 66
     1
 10
0.0
 20
0.0
 30
0.0
 70
   128
  0
VERTEX
  5
A47
100
AcDbEntity
  8
0
  6
CONTINUOUS
 62
     7
100
AcDbVertex
100
AcDb2dVertex
 10
7616.850663
 20
-19787.180727
 30
0.0
  0
VERTEX
  5
A48
100
AcDbEntity
  8
0
  6
CONTINUOUS
 62
     7
100
AcDbVertex
100
AcDb2dVertex
 10
7617.460856
 20
-19787.24083
 30
0.0
  0
VERTEX
  5
A49
100
AcDbEntity
  8
0
  6
CONTINUOUS
 62
     7
100
AcDbVertex
100
AcDb2dVertex
 10
7618.184757
 20
-19787.312128
 30
0.0
  0
VERTEX
  5
A4A
100
AcDbEntity
  8
0
  6
CONTINUOUS
 62
     7
100
AcDbVertex
100
AcDb2dVertex
 10
7618.997529
 20
-19787.392176
 30
0.0
  0
VERTEX
  5
A4B
100
AcDbEntity
  8
0
  6
CONTINUOUS
 62
     7
100
AcDbVertex
100
AcDb2dVertex
 10
7619.8713
 20
-19787.478231
 30
0.0
  0
VERTEX
  5
A4C
100
AcDbEntity
  8
0
  6
CONTINUOUS
 62
     7
100
AcDbVertex
100
AcDb2dVertex
 10
7620.776105
 20
-19787.567357
 30
0.0
  0
SEQEND
  5
A4D
100
AcDbEntity
  8
0
  6
CONTINUOUS
 62
     7
  0
POLYLINE
  5
A4E
100
AcDbEntity
  8
0
  6
CONTINUOUS
 62
     7
100
AcDb2dPolyline
 66
     1
 10
0.0
 20
0.0
 30
0.0
 70
   128
  0
VERTEX
  5
A4F
100
AcDbEntity
  8
0
  6
CONTINUOUS
 62
     7
100
AcDbVertex
100
AcDb2dVertex
 10
7620.776105
 20
-19787.567357
 30
0.0
  0
VERTEX
  5
A50
100
AcDbEntity
  8
0
  6
CONTINUOUS
 62
     7
100
AcDbVertex
100
AcDb2dVertex
 10
7620.884692
 20
-19786.464843
 30
0.0
  0
VERTEX
  5
A51
100
AcDbEntity
  8
0
  6
CONTINUOUS
 62
     7
100
AcDbVertex
100
AcDb2dVertex
 10
7620.989551
 20
-19785.400147
 30
0.0
  0
VERTEX
  5
A52
100
AcDbEntity
  8
0
  6
CONTINUOUS
 62
     7
100
AcDbVertex
100
AcDb2dVertex
 10
7621.087099
 20
-19784.409789
 30
0.0
  0
VERTEX
  5
A53
100
AcDbEntity
  8
0
  6
CONTINUOUS
 62
     7
100
AcDbVertex
100
AcDb2dVertex
 10
7621.173975
 20
-19783.527712
 30
0.0
  0
VERTEX
  5
A54
100
AcDbEntity
  8
0
  6
CONTINUOUS
 62
     7
100
AcDbVertex
100
AcDb2dVertex
 10
7621.247203
 20
-19782.784191
 30
0.0
  0
SEQEND
  5
A55
100
AcDbEntity
  8
0
  6
CONTINUOUS
 62
     7
  0
LINE
  5
A56
100
AcDbEntity
  8
0
  6
CONTINUOUS
 62
     7
100
AcDbLine
 10
7326.121665
 20
-19696.29191
 30
0.0
 11
7321.809604
 21
-19691.979849
 31
0.0
  0
LINE
  5
A57
100
AcDbEntity
  8
0
  6
CONTINUOUS
 62
     7
100
AcDbLine
 10
7273.658198
 20
-19748.755377
 30
0.0
 11
7326.121665
 21
-19696.29191
 31
0.0
  0
LINE
  5
A58
100
AcDbEntity
  8
0
  6
CONTINUOUS
 62
     7
100
AcDbLine
 10
7269.346137
 20
-19744.443316
 30
0.0
 11
7321.809604
 21
-19691.979849
 31
0.0
  0
POLYLINE
  5
A59
100
AcDbEntity
  8
0
  6
CONTINUOUS
 62
     7
100
AcDb2dPolyline
 66
     1
 10
0.0
 20
0.0
 30
0.0
 70
   128
  0
VERTEX
  5
A5A
100
AcDbEntity
  8
0
  6
CONTINUOUS
 62
     7
100
AcDbVertex
100
AcDb2dVertex
 10
7356.611036
 20
-19720.540648
 30
0.0
  0
VERTEX
  5
A5B
100
AcDbEntity
  8
0
  6
CONTINUOUS
 62
     7
100
AcDbVertex
100
AcDb2dVertex
 10
7356.106362
 20
-19720.203433
 30
0.0
  0
VERTEX
  5
A5C
100
AcDbEntity
  8
0
  6
CONTINUOUS
 62
     7
100
AcDbVertex
100
AcDb2dVertex
 10
7355.493034
 20
-19719.793624
 30
0.0
  0
VERTEX
  5
A5D
100
AcDbEntity
  8
0
  6
CONTINUOUS
 62
     7
100
AcDbVertex
100
AcDb2dVertex
 10
7354.803907
 20
-19719.333162
 30
0.0
  0
VERTEX
  5
A5E
100
AcDbEntity
  8
0
  6
CONTINUOUS
 62
     7
100
AcDbVertex
100
AcDb2dVertex
 10
7354.075799
 20
-19718.846659
 30
0.0
  0
VERTEX
  5
A5F
100
AcDbEntity
  8
0
  6
CONTINUOUS
 62
     7
100
AcDbVertex
100
AcDb2dVertex
 10
7353.347707
 20
-19718.360155
 30
0.0
  0
VERTEX
  5
A60
100
AcDbEntity
  8
0
  6
CONTINUOUS
 62
     7
100
AcDbVertex
100
AcDb2dVertex
 10
7352.658564
 20
-19717.899694
 30
0.0
  0
VERTEX
  5
A61
100
AcDbEntity
  8
0
  6
CONTINUOUS
 62
     7
100
AcDbVertex
100
AcDb2dVertex
 10
7352.045252
 20
-19717.489884
 30
0.0
  0
VERTEX
  5
A62
100
AcDbEntity
  8
0
  6
CONTINUOUS
 62
     7
100
AcDbVertex
100
AcDb2dVertex
 10
7351.540577
 20
-19717.15267
 30
0.0
  0
SEQEND
  5
A63
100
AcDbEntity
  8
0
  6
CONTINUOUS
 62
     7
  0
ARC
  5
A64
100
AcDbEntity
  8
0
  6
CONTINUOUS
 62
     7
100
AcDbCircle
 10
7354.075803
 20
-19718.846665
 30
0.0
 40
3.049096
100
AcDbArc
 50
326.2501
 51
146.249814
  0
LINE
  5
A65
100
AcDbEntity
  8
0
  6
CONTINUOUS
 62
     7
100
AcDbLine
 10
7312.083549
 20
-19787.180727
 30
0.0
 11
7356.611036
 21
-19720.540648
 31
0.0
  0
LINE
  5
A66
100
AcDbEntity
  8
0
  6
CONTINUOUS
 62
     7
100
AcDbLine
 10
7307.687012
 20
-19782.784191
 30
0.0
 11
7351.540577
 21
-19717.15267
 31
0.0
  0
POLYLINE
  5
A67
100
AcDbEntity
  8
0
  6
CONTINUOUS
 62
     7
100
AcDb2dPolyline
 66
     1
 10
0.0
 20
0.0
 30
0.0
 70
   128
  0
VERTEX
  5
A68
100
AcDbEntity
  8
0
  6
CONTINUOUS
 62
     7
100
AcDbVertex
100
AcDb2dVertex
 10
7409.578686
 20
-19829.577138
 30
0.0
  0
VERTEX
  5
A69
100
AcDbEntity
  8
0
  6
CONTINUOUS
 62
     7
100
AcDbVertex
100
AcDb2dVertex
 10
7409.001909
 20
-19828.874327
 30
0.0
  0
VERTEX
  5
A6A
100
AcDbEntity
  8
0
  6
CONTINUOUS
 62
     7
100
AcDbVertex
100
AcDb2dVertex
 10
7408.444912
 20
-19828.195634
 30
0.0
  0
VERTEX
  5
A6B
100
AcDbEntity
  8
0
  6
CONTINUOUS
 62
     7
100
AcDbVertex
100
AcDb2dVertex
 10
7407.926793
 20
-19827.564284
 30
0.0
  0
VERTEX
  5
A6C
100
AcDbEntity
  8
0
  6
CONTINUOUS
 62
     7
100
AcDbVertex
100
AcDb2dVertex
 10
7407.465332
 20
-19827.002011
 30
0.0
  0
VERTEX
  5
A6D
100
AcDbEntity
  8
0
  6
CONTINUOUS
 62
     7
100
AcDbVertex
100
AcDb2dVertex
 10
7407.076362
 20
-19826.528044
 30
0.0
  0
SEQEND
  5
A6E
100
AcDbEntity
  8
0
  6
CONTINUOUS
 62
     7
  0
LINE
  5
A6F
100
AcDbEntity
  8
0
  6
CONTINUOUS
 62
     7
100
AcDbLine
 10
7407.076362
 20
-19826.528044
 30
0.0
 11
7422.712336
 21
-19747.920703
 31
0.0
  0
POLYLINE
  5
A70
100
AcDbEntity
  8
0
  6
CONTINUOUS
 62
     7
100
AcDb2dPolyline
 66
     1
 10
0.0
 20
0.0
 30
0.0
 70
   128
  0
VERTEX
  5
A71
100
AcDbEntity
  8
0
  6
CONTINUOUS
 62
     7
100
AcDbVertex
100
AcDb2dVertex
 10
7428.693343
 20
-19749.11039
 30
0.0
  0
VERTEX
  5
A72
100
AcDbEntity
  8
0
  6
CONTINUOUS
 62
     7
100
AcDbVertex
100
AcDb2dVertex
 10
7428.098037
 20
-19748.991988
 30
0.0
  0
VERTEX
  5
A73
100
AcDbEntity
  8
0
  6
CONTINUOUS
 62
     7
100
AcDbVertex
100
AcDb2dVertex
 10
7427.37458
 20
-19748.848081
 30
0.0
  0
VERTEX
  5
A74
100
AcDbEntity
  8
0
  6
CONTINUOUS
 62
     7
100
AcDbVertex
100
AcDb2dVertex
 10
7426.561685
 20
-19748.686375
 30
0.0
  0
VERTEX
  5
A75
100
AcDbEntity
  8
0
  6
CONTINUOUS
 62
     7
100
AcDbVertex
100
AcDb2dVertex
 10
7425.702832
 20
-19748.515546
 30
0.0
  0
VERTEX
  5
A76
100
AcDbEntity
  8
0
  6
CONTINUOUS
 62
     7
100
AcDbVertex
100
AcDb2dVertex
 10
7424.843994
 20
-19748.344718
 30
0.0
  0
VERTEX
  5
A77
100
AcDbEntity
  8
0
  6
CONTINUOUS
 62
     7
100
AcDbVertex
100
AcDb2dVertex
 10
7424.031098
 20
-19748.183012
 30
0.0
  0
VERTEX
  5
A78
100
AcDbEntity
  8
0
  6
CONTINUOUS
 62
     7
100
AcDbVertex
100
AcDb2dVertex
 10
7423.307641
 20
-19748.039105
 30
0.0
  0
VERTEX
  5
A79
100
AcDbEntity
  8
0
  6
CONTINUOUS
 62
     7
100
AcDbVertex
100
AcDb2dVertex
 10
7422.712336
 20
-19747.920703
 30
0.0
  0
SEQEND
  5
A7A
100
AcDbEntity
  8
0
  6
CONTINUOUS
 62
     7
  0
LINE
  5
A7B
100
AcDbEntity
  8
0
  6
CONTINUOUS
 62
     7
100
AcDbLine
 10
7413.29401
 20
-19826.528044
 30
0.0
 11
7428.693343
 21
-19749.11039
 31
0.0
  0
POLYLINE
  5
A7C
100
AcDbEntity
  8
0
  6
CONTINUOUS
 62
     7
100
AcDb2dPolyline
 66
     1
 10
0.0
 20
0.0
 30
0.0
 70
   128
  0
VERTEX
  5
A7D
100
AcDbEntity
  8
0
  6
CONTINUOUS
 62
     7
100
AcDbVertex
100
AcDb2dVertex
 10
7413.29401
 20
-19826.528044
 30
0.0
  0
VERTEX
  5
A7E
100
AcDbEntity
  8
0
  6
CONTINUOUS
 62
     7
100
AcDbVertex
100
AcDb2dVertex
 10
7412.716473
 20
-19827.002011
 30
0.0
  0
VERTEX
  5
A7F
100
AcDbEntity
  8
0
  6
CONTINUOUS
 62
     7
100
AcDbVertex
100
AcDb2dVertex
 10
7412.031326
 20
-19827.564284
 30
0.0
  0
VERTEX
  5
A80
100
AcDbEntity
  8
0
  6
CONTINUOUS
 62
     7
100
AcDbVertex
100
AcDb2dVertex
 10
7411.262061
 20
-19828.195634
 30
0.0
  0
VERTEX
  5
A81
100
AcDbEntity
  8
0
  6
CONTINUOUS
 62
     7
100
AcDbVertex
100
AcDb2dVertex
 10
7410.435064
 20
-19828.874327
 30
0.0
  0
VERTEX
  5
A82
100
AcDbEntity
  8
0
  6
CONTINUOUS
 62
     7
100
AcDbVertex
100
AcDb2dVertex
 10
7409.578686
 20
-19829.577138
 30
0.0
  0
SEQEND
  5
A83
100
AcDbEntity
  8
0
  6
CONTINUOUS
 62
     7
  0
ARC
  5
A84
100
AcDbEntity
  8
0
  6
CONTINUOUS
 62
     7
100
AcDbCircle
 10
7663.1662
 20
-19553.634403
 30
0.0
 40
3.049091
100
AcDbArc
 50
90.0
 51
270.0
  0
ARC
  5
A85
100
AcDbEntity
  8
0
  6
CONTINUOUS
 62
     7
100
AcDbCircle
 10
7323.96564
 20
-19694.135874
 30
0.0
 40
3.049088
100
AcDbArc
 50
314.999854
 51
135.000146
  0
LINE
  5
A86
100
AcDbEntity
  8
0
  6
CONTINUOUS
 62
     7
100
AcDbLine
 10
7461.418018
 20
-19826.528044
 30
0.0
 11
7413.29401
 21
-19826.528044
 31
0.0
  0
POLYLINE
  5
A87
100
AcDbEntity
  8
0
  6
CONTINUOUS
 62
     7
100
AcDb2dPolyline
 66
     1
 10
0.0
 20
0.0
 30
0.0
 70
   128
  0
VERTEX
  5
A88
100
AcDbEntity
  8
0
  6
CONTINUOUS
 62
     7
100
AcDbVertex
100
AcDb2dVertex
 10
7464.467104
 20
-19829.577138
 30
0.0
  0
VERTEX
  5
A89
100
AcDbEntity
  8
0
  6
CONTINUOUS
 62
     7
100
AcDbVertex
100
AcDb2dVertex
 10
7463.7643
 20
-19828.874327
 30
0.0
  0
VERTEX
  5
A8A
100
AcDbEntity
  8
0
  6
CONTINUOUS
 62
     7
100
AcDbVertex
100
AcDb2dVertex
 10
7463.085592
 20
-19828.195634
 30
0.0
  0
VERTEX
  5
A8B
100
AcDbEntity
  8
0
  6
CONTINUOUS
 62
     7
100
AcDbVertex
100
AcDb2dVertex
 10
7462.454272
 20
-19827.564284
 30
0.0
  0
VERTEX
  5
A8C
100
AcDbEntity
  8
0
  6
CONTINUOUS
 62
     7
100
AcDbVertex
100
AcDb2dVertex
 10
7461.891984
 20
-19827.002011
 30
0.0
  0
VERTEX
  5
A8D
100
AcDbEntity
  8
0
  6
CONTINUOUS
 62
     7
100
AcDbVertex
100
AcDb2dVertex
 10
7461.418018
 20
-19826.528044
 30
0.0
  0
SEQEND
  5
A8E
100
AcDbEntity
  8
0
  6
CONTINUOUS
 62
     7
  0
POLYLINE
  5
A8F
100
AcDbEntity
  8
0
  6
CONTINUOUS
 62
     7
100
AcDb2dPolyline
 66
     1
 10
0.0
 20
0.0
 30
0.0
 70
   128
  0
VERTEX
  5
A90
100
AcDbEntity
  8
0
  6
CONTINUOUS
 62
     7
100
AcDbVertex
100
AcDb2dVertex
 10
7467.516197
 20
-19826.528044
 30
0.0
  0
VERTEX
  5
A91
100
AcDbEntity
  8
0
  6
CONTINUOUS
 62
     7
100
AcDbVertex
100
AcDb2dVertex
 10
7467.042223
 20
-19827.002011
 30
0.0
  0
VERTEX
  5
A92
100
AcDbEntity
  8
0
  6
CONTINUOUS
 62
     7
100
AcDbVertex
100
AcDb2dVertex
 10
7466.479935
 20
-19827.564284
 30
0.0
  0
VERTEX
  5
A93
100
AcDbEntity
  8
0
  6
CONTINUOUS
 62
     7
100
AcDbVertex
100
AcDb2dVertex
 10
7465.848615
 20
-19828.195634
 30
0.0
  0
VERTEX
  5
A94
100
AcDbEntity
  8
0
  6
CONTINUOUS
 62
     7
100
AcDbVertex
100
AcDb2dVertex
 10
7465.169915
 20
-19828.874327
 30
0.0
  0
VERTEX
  5
A95
100
AcDbEntity
  8
0
  6
CONTINUOUS
 62
     7
100
AcDbVertex
100
AcDb2dVertex
 10
7464.467104
 20
-19829.577138
 30
0.0
  0
SEQEND
  5
A96
100
AcDbEntity
  8
0
  6
CONTINUOUS
 62
     7
  0
LINE
  5
A97
100
AcDbEntity
  8
0
  6
CONTINUOUS
 62
     7
100
AcDbLine
 10
7515.640197
 20
-19826.528044
 30
0.0
 11
7467.516197
 21
-19826.528044
 31
0.0
  0
POLYLINE
  5
A98
100
AcDbEntity
  8
0
  6
CONTINUOUS
 62
     7
100
AcDb2dPolyline
 66
     1
 10
0.0
 20
0.0
 30
0.0
 70
   128
  0
VERTEX
  5
A99
100
AcDbEntity
  8
0
  6
CONTINUOUS
 62
     7
100
AcDbVertex
100
AcDb2dVertex
 10
7519.355526
 20
-19829.577138
 30
0.0
  0
VERTEX
  5
A9A
100
AcDbEntity
  8
0
  6
CONTINUOUS
 62
     7
100
AcDbVertex
100
AcDb2dVertex
 10
7518.499155
 20
-19828.874327
 30
0.0
  0
VERTEX
  5
A9B
100
AcDbEntity
  8
0
  6
CONTINUOUS
 62
     7
100
AcDbVertex
100
AcDb2dVertex
 10
7517.672154
 20
-19828.195634
 30
0.0
  0
VERTEX
  5
A9C
100
AcDbEntity
  8
0
  6
CONTINUOUS
 62
     7
100
AcDbVertex
100
AcDb2dVertex
 10
7516.902886
 20
-19827.564284
 30
0.0
  0
VERTEX
  5
A9D
100
AcDbEntity
  8
0
  6
CONTINUOUS
 62
     7
100
AcDbVertex
100
AcDb2dVertex
 10
7516.217735
 20
-19827.002011
 30
0.0
  0
VERTEX
  5
A9E
100
AcDbEntity
  8
0
  6
CONTINUOUS
 62
     7
100
AcDbVertex
100
AcDb2dVertex
 10
7515.640197
 20
-19826.528044
 30
0.0
  0
SEQEND
  5
A9F
100
AcDbEntity
  8
0
  6
CONTINUOUS
 62
     7
  0
POLYLINE
  5
AA0
100
AcDbEntity
  8
0
  6
CONTINUOUS
 62
     7
100
AcDb2dPolyline
 66
     1
 10
0.0
 20
0.0
 30
0.0
 70
   128
  0
VERTEX
  5
AA1
100
AcDbEntity
  8
0
  6
CONTINUOUS
 62
     7
100
AcDbVertex
100
AcDb2dVertex
 10
7521.857849
 20
-19826.528044
 30
0.0
  0
VERTEX
  5
AA2
100
AcDbEntity
  8
0
  6
CONTINUOUS
 62
     7
100
AcDbVertex
100
AcDb2dVertex
 10
7521.468871
 20
-19827.002011
 30
0.0
  0
VERTEX
  5
AA3
100
AcDbEntity
  8
0
  6
CONTINUOUS
 62
     7
100
AcDbVertex
100
AcDb2dVertex
 10
7521.007415
 20
-19827.564284
 30
0.0
  0
VERTEX
  5
AA4
100
AcDbEntity
  8
0
  6
CONTINUOUS
 62
     7
100
AcDbVertex
100
AcDb2dVertex
 10
7520.489302
 20
-19828.195634
 30
0.0
  0
VERTEX
  5
AA5
100
AcDbEntity
  8
0
  6
CONTINUOUS
 62
     7
100
AcDbVertex
100
AcDb2dVertex
 10
7519.932306
 20
-19828.874327
 30
0.0
  0
VERTEX
  5
AA6
100
AcDbEntity
  8
0
  6
CONTINUOUS
 62
     7
100
AcDbVertex
100
AcDb2dVertex
 10
7519.355526
 20
-19829.577138
 30
0.0
  0
SEQEND
  5
AA7
100
AcDbEntity
  8
0
  6
CONTINUOUS
 62
     7
  0
LINE
  5
AA8
100
AcDbEntity
  8
0
  6
CONTINUOUS
 62
     7
100
AcDbLine
 10
7569.715006
 20
-19826.528044
 30
0.0
 11
7521.857849
 21
-19826.528044
 31
0.0
  0
LINE
  5
AA9
100
AcDbEntity
  8
0
  6
CONTINUOUS
 62
     7
100
AcDbLine
 10
7569.715006
 20
-19832.626232
 30
0.0
 11
7359.219211
 21
-19832.626232
 31
0.0
  0
LINE
  5
AAA
100
AcDbEntity
  8
0
  6
CONTINUOUS
 62
     7
100
AcDbLine
 10
7407.076362
 20
-19826.528044
 30
0.0
 11
7359.219211
 21
-19826.528044
 31
0.0
  0
ARC
  5
AAB
100
AcDbEntity
  8
0
  6
CONTINUOUS
 62
     7
100
AcDbCircle
 10
7388.428257
 20
-19737.208424
 30
0.0
 40
3.049093
100
AcDbArc
 50
337.499825
 51
157.499939
  0
ARC
  5
AAC
100
AcDbEntity
  8
0
  6
CONTINUOUS
 62
     7
100
AcDbCircle
 10
7648.04113
 20
-19629.673252
 30
0.0
 40
3.04909
100
AcDbArc
 50
67.500069
 51
247.499953
  0
ARC
  5
AAD
100
AcDbEntity
  8
0
  6
CONTINUOUS
 62
     7
100
AcDbCircle
 10
7425.702839
 20
-19748.515548
 30
0.0
 40
3.04909
100
AcDbArc
 50
348.750114
 51
168.750052
  0
POLYLINE
  5
AAE
100
AcDbEntity
  8
0
  6
CONTINUOUS
 62
     7
100
AcDb2dPolyline
 66
     1
 10
0.0
 20
0.0
 30
0.0
 70
   128
  0
VERTEX
  5
AAF
100
AcDbEntity
  8
0
  6
CONTINUOUS
 62
     7
100
AcDbVertex
100
AcDb2dVertex
 10
7607.124615
 20
-19691.979849
 30
0.0
  0
VERTEX
  5
AB0
100
AcDbEntity
  8
0
  6
CONTINUOUS
 62
     7
100
AcDbVertex
100
AcDb2dVertex
 10
7606.695419
 20
-19692.409037
 30
0.0
  0
VERTEX
  5
AB1
100
AcDbEntity
  8
0
  6
CONTINUOUS
 62
     7
100
AcDbVertex
100
AcDb2dVertex
 10
7606.173837
 20
-19692.930615
 30
0.0
  0
VERTEX
  5
AB2
100
AcDbEntity
  8
0
  6
CONTINUOUS
 62
     7
100
AcDbVertex
100
AcDb2dVertex
 10
7605.587774
 20
-19693.516679
 30
0.0
  0
VERTEX
  5
AB3
100
AcDbEntity
  8
0
  6
CONTINUOUS
 62
     7
100
AcDbVertex
100
AcDb2dVertex
 10
7604.96858
 20
-19694.13588
 30
0.0
  0
VERTEX
  5
AB4
100
AcDbEntity
  8
0
  6
CONTINUOUS
 62
     7
100
AcDbVertex
100
AcDb2dVertex
 10
7604.349387
 20
-19694.755066
 30
0.0
  0
VERTEX
  5
AB5
100
AcDbEntity
  8
0
  6
CONTINUOUS
 62
     7
100
AcDbVertex
100
AcDb2dVertex
 10
7603.763319
 20
-19695.341129
 30
0.0
  0
VERTEX
  5
AB6
100
AcDbEntity
  8
0
  6
CONTINUOUS
 62
     7
100
AcDbVertex
100
AcDb2dVertex
 10
7603.241741
 20
-19695.862722
 30
0.0
  0
VERTEX
  5
AB7
100
AcDbEntity
  8
0
  6
CONTINUOUS
 62
     7
100
AcDbVertex
100
AcDb2dVertex
 10
7602.812546
 20
-19696.29191
 30
0.0
  0
SEQEND
  5
AB8
100
AcDbEntity
  8
0
  6
CONTINUOUS
 62
     7
  0
LINE
  5
AB9
100
AcDbEntity
  8
0
  6
CONTINUOUS
 62
     7
100
AcDbLine
 10
7659.588078
 20
-19744.443316
 30
0.0
 11
7607.124615
 21
-19691.979849
 31
0.0
  0
LINE
  5
ABA
100
AcDbEntity
  8
0
  6
CONTINUOUS
 62
     7
100
AcDbLine
 10
7655.276017
 20
-19748.755377
 30
0.0
 11
7602.812546
 21
-19696.29191
 31
0.0
  0
LINE
  5
ABB
100
AcDbEntity
  8
0
  6
CONTINUOUS
 62
     7
100
AcDbLine
 10
7461.418018
 20
-19826.528044
 30
0.0
 11
7461.418018
 21
-19752.333487
 31
0.0
  0
LINE
  5
ABC
100
AcDbEntity
  8
0
  6
CONTINUOUS
 62
     7
100
AcDbLine
 10
7467.516197
 20
-19752.333487
 30
0.0
 11
7461.418018
 21
-19752.333487
 31
0.0
  0
LINE
  5
ABD
100
AcDbEntity
  8
0
  6
CONTINUOUS
 62
     7
100
AcDbLine
 10
7467.516197
 20
-19826.528044
 30
0.0
 11
7467.516197
 21
-19752.333487
 31
0.0
  0
POLYLINE
  5
ABE
100
AcDbEntity
  8
0
  6
CONTINUOUS
 62
     7
100
AcDb2dPolyline
 66
     1
 10
0.0
 20
0.0
 30
0.0
 70
   128
  0
VERTEX
  5
ABF
100
AcDbEntity
  8
0
  6
CONTINUOUS
 62
     7
100
AcDbVertex
100
AcDb2dVertex
 10
7577.393632
 20
-19717.15267
 30
0.0
  0
VERTEX
  5
AC0
100
AcDbEntity
  8
0
  6
CONTINUOUS
 62
     7
100
AcDbVertex
100
AcDb2dVertex
 10
7576.888956
 20
-19717.489884
 30
0.0
  0
VERTEX
  5
AC1
100
AcDbEntity
  8
0
  6
CONTINUOUS
 62
     7
100
AcDbVertex
100
AcDb2dVertex
 10
7576.275641
 20
-19717.899694
 30
0.0
  0
VERTEX
  5
AC2
100
AcDbEntity
  8
0
  6
CONTINUOUS
 62
     7
100
AcDbVertex
100
AcDb2dVertex
 10
7575.586501
 20
-19718.360155
 30
0.0
  0
VERTEX
  5
AC3
100
AcDbEntity
  8
0
  6
CONTINUOUS
 62
     7
100
AcDbVertex
100
AcDb2dVertex
 10
7574.858406
 20
-19718.846659
 30
0.0
  0
VERTEX
  5
AC4
100
AcDbEntity
  8
0
  6
CONTINUOUS
 62
     7
100
AcDbVertex
100
AcDb2dVertex
 10
7574.130312
 20
-19719.333162
 30
0.0
  0
VERTEX
  5
AC5
100
AcDbEntity
  8
0
  6
CONTINUOUS
 62
     7
100
AcDbVertex
100
AcDb2dVertex
 10
7573.441171
 20
-19719.793624
 30
0.0
  0
VERTEX
  5
AC6
100
AcDbEntity
  8
0
  6
CONTINUOUS
 62
     7
100
AcDbVertex
100
AcDb2dVertex
 10
7572.827856
 20
-19720.203433
 30
0.0
  0
VERTEX
  5
AC7
100
AcDbEntity
  8
0
  6
CONTINUOUS
 62
     7
100
AcDbVertex
100
AcDb2dVertex
 10
7572.323179
 20
-19720.540648
 30
0.0
  0
SEQEND
  5
AC8
100
AcDbEntity
  8
0
  6
CONTINUOUS
 62
     7
  0
LINE
  5
AC9
100
AcDbEntity
  8
0
  6
CONTINUOUS
 62
     7
100
AcDbLine
 10
7621.247203
 20
-19782.784191
 30
0.0
 11
7577.393632
 21
-19717.15267
 31
0.0
  0
LINE
  5
ACA
100
AcDbEntity
  8
0
  6
CONTINUOUS
 62
     7
100
AcDbLine
 10
7616.850663
 20
-19787.180727
 30
0.0
 11
7572.323179
 21
-19720.540648
 31
0.0
  0
ARC
  5
ACB
100
AcDbEntity
  8
0
  6
CONTINUOUS
 62
     7
100
AcDbCircle
 10
7604.968579
 20
-19694.135878
 30
0.0
 40
3.04909
100
AcDbArc
 50
44.999913
 51
224.999988
  0
ARC
  5
ACC
100
AcDbEntity
  8
0
  6
CONTINUOUS
 62
     7
100
AcDbCircle
 10
7540.505959
 20
-19737.208433
 30
0.0
 40
3.049093
100
AcDbArc
 50
22.50024
 51
202.499989
  0
ARC
  5
ACD
100
AcDbEntity
  8
0
  6
CONTINUOUS
 62
     7
100
AcDbCircle
 10
7464.467107
 20
-19752.333491
 30
0.0
 40
3.04909
100
AcDbArc
 50
0.000063
 51
179.999937
  0
POLYLINE
  5
ACE
100
AcDbEntity
  8
0
  6
CONTINUOUS
 62
     7
100
AcDb2dPolyline
 66
     1
 10
0.0
 20
0.0
 30
0.0
 70
   128
  0
VERTEX
  5
ACF
100
AcDbEntity
  8
0
  6
CONTINUOUS
 62
     7
100
AcDbVertex
100
AcDb2dVertex
 10
7631.373348
 20
-19661.490478
 30
0.0
  0
VERTEX
  5
AD0
100
AcDbEntity
  8
0
  6
CONTINUOUS
 62
     7
100
AcDbVertex
100
AcDb2dVertex
 10
7631.036134
 20
-19661.995152
 30
0.0
  0
VERTEX
  5
AD1
100
AcDbEntity
  8
0
  6
CONTINUOUS
 62
     7
100
AcDbVertex
100
AcDb2dVertex
 10
7630.626324
 20
-19662.608465
 30
0.0
  0
VERTEX
  5
AD2
100
AcDbEntity
  8
0
  6
CONTINUOUS
 62
     7
100
AcDbVertex
100
AcDb2dVertex
 10
7630.165855
 20
-19663.297607
 30
0.0
  0
VERTEX
  5
AD3
100
AcDbEntity
  8
0
  6
CONTINUOUS
 62
     7
100
AcDbVertex
100
AcDb2dVertex
 10
7629.679359
 20
-19664.0257
 30
0.0
  0
VERTEX
  5
AD4
100
AcDbEntity
  8
0
  6
CONTINUOUS
 62
     7
100
AcDbVertex
100
AcDb2dVertex
 10
7629.192864
 20
-19664.7538
 30
0.0
  0
VERTEX
  5
AD5
100
AcDbEntity
  8
0
  6
CONTINUOUS
 62
     7
100
AcDbVertex
100
AcDb2dVertex
 10
7628.732395
 20
-19665.442935
 30
0.0
  0
VERTEX
  5
AD6
100
AcDbEntity
  8
0
  6
CONTINUOUS
 62
     7
100
AcDbVertex
100
AcDb2dVertex
 10
7628.322593
 20
-19666.056255
 30
0.0
  0
VERTEX
  5
AD7
100
AcDbEntity
  8
0
  6
CONTINUOUS
 62
     7
100
AcDbVertex
100
AcDb2dVertex
 10
7627.985378
 20
-19666.560929
 30
0.0
  0
SEQEND
  5
AD8
100
AcDbEntity
  8
0
  6
CONTINUOUS
 62
     7
  0
LINE
  5
AD9
100
AcDbEntity
  8
0
  6
CONTINUOUS
 62
     7
100
AcDbLine
 10
7698.013436
 20
-19706.017966
 30
0.0
 11
7631.373348
 21
-19661.490478
 31
0.0
  0
LINE
  5
ADA
100
AcDbEntity
  8
0
  6
CONTINUOUS
 62
     7
100
AcDbLine
 10
7693.616884
 20
-19710.414502
 30
0.0
 11
7627.985378
 21
-19666.560929
 31
0.0
  0
LINE
  5
ADB
100
AcDbEntity
  8
0
  6
CONTINUOUS
 62
     7
100
AcDbLine
 10
7515.640197
 20
-19826.528044
 30
0.0
 11
7500.240872
 21
-19749.11039
 31
0.0
  0
POLYLINE
  5
ADC
100
AcDbEntity
  8
0
  6
CONTINUOUS
 62
     7
100
AcDb2dPolyline
 66
     1
 10
0.0
 20
0.0
 30
0.0
 70
   128
  0
VERTEX
  5
ADD
100
AcDbEntity
  8
0
  6
CONTINUOUS
 62
     7
100
AcDbVertex
100
AcDb2dVertex
 10
7506.221879
 20
-19747.920703
 30
0.0
  0
VERTEX
  5
ADE
100
AcDbEntity
  8
0
  6
CONTINUOUS
 62
     7
100
AcDbVertex
100
AcDb2dVertex
 10
7505.626573
 20
-19748.039105
 30
0.0
  0
VERTEX
  5
ADF
100
AcDbEntity
  8
0
  6
CONTINUOUS
 62
     7
100
AcDbVertex
100
AcDb2dVertex
 10
7504.903116
 20
-19748.183012
 30
0.0
  0
VERTEX
  5
AE0
100
AcDbEntity
  8
0
  6
CONTINUOUS
 62
     7
100
AcDbVertex
100
AcDb2dVertex
 10
7504.090221
 20
-19748.344718
 30
0.0
  0
VERTEX
  5
AE1
100
AcDbEntity
  8
0
  6
CONTINUOUS
 62
     7
100
AcDbVertex
100
AcDb2dVertex
 10
7503.231375
 20
-19748.515546
 30
0.0
  0
VERTEX
  5
AE2
100
AcDbEntity
  8
0
  6
CONTINUOUS
 62
     7
100
AcDbVertex
100
AcDb2dVertex
 10
7502.37253
 20
-19748.686375
 30
0.0
  0
VERTEX
  5
AE3
100
AcDbEntity
  8
0
  6
CONTINUOUS
 62
     7
100
AcDbVertex
100
AcDb2dVertex
 10
7501.559634
 20
-19748.848081
 30
0.0
  0
VERTEX
  5
AE4
100
AcDbEntity
  8
0
  6
CONTINUOUS
 62
     7
100
AcDbVertex
100
AcDb2dVertex
 10
7500.836178
 20
-19748.991988
 30
0.0
  0
VERTEX
  5
AE5
100
AcDbEntity
  8
0
  6
CONTINUOUS
 62
     7
100
AcDbVertex
100
AcDb2dVertex
 10
7500.240872
 20
-19749.11039
 30
0.0
  0
SEQEND
  5
AE6
100
AcDbEntity
  8
0
  6
CONTINUOUS
 62
     7
  0
LINE
  5
AE7
100
AcDbEntity
  8
0
  6
CONTINUOUS
 62
     7
100
AcDbLine
 10
7521.857849
 20
-19826.528044
 30
0.0
 11
7506.221879
 21
-19747.920703
 31
0.0
  0
ARC
  5
AE8
100
AcDbEntity
  8
0
  6
CONTINUOUS
 62
     7
100
AcDbCircle
 10
7574.858407
 20
-19718.846661
 30
0.0
 40
3.049093
100
AcDbArc
 50
33.750122
 51
213.750032
  0
ARC
  5
AE9
100
AcDbEntity
  8
0
  6
CONTINUOUS
 62
     7
100
AcDbCircle
 10
7629.679361
 20
-19664.025702
 30
0.0
 40
3.049091
100
AcDbArc
 50
56.249927
 51
236.250026
  0
ARC
  5
AEA
100
AcDbEntity
  8
0
  6
CONTINUOUS
 62
     7
100
AcDbCircle
 10
7503.231376
 20
-19748.515548
 30
0.0
 40
3.04909
100
AcDbArc
 50
11.249941
 51
191.249893
  0
LINE
  5
AEB
100
AcDbEntity
  8
0
  6
CONTINUOUS
 62
     7
100
AcDbLine
 10
7743.967102
 20
-19669.407093
 30
0.0
 11
7743.967102
 21
-19437.861712
 31
0.0
  0
LINE
  5
AEC
100
AcDbEntity
  8
0
  6
CONTINUOUS
 62
     7
100
AcDbLine
 10
7743.967102
 20
-19669.407093
 30
0.0
 11
7580.239796
 21
-19833.134394
 31
0.0
  0
LINE
  5
AED
100
AcDbEntity
  8
0
  6
CONTINUOUS
 62
     7
100
AcDbLine
 10
7580.239796
 20
-19833.134394
 30
0.0
 11
7348.694421
 21
-19833.134394
 31
0.0
  0
LINE
  5
AEE
100
AcDbEntity
  8
0
  6
CONTINUOUS
 62
     7
100
AcDbLine
 10
7184.96712
 20
-19669.407093
 30
0.0
 11
7348.694421
 21
-19833.134394
 31
0.0
  0
LINE
  5
AEF
100
AcDbEntity
  8
0
  6
CONTINUOUS
 62
     7
100
AcDbLine
 10
7184.96712
 20
-19437.861712
 30
0.0
 11
7184.96712
 21
-19669.407093
 31
0.0
  0
LINE
  5
AF0
100
AcDbEntity
  8
0
  6
CONTINUOUS
 62
     7
100
AcDbLine
 10
7580.239796
 20
-19274.134412
 30
0.0
 11
7348.694421
 21
-19274.134412
 31
0.0
  0
LINE
  5
AF1
100
AcDbEntity
  8
0
  6
CONTINUOUS
 62
     7
100
AcDbLine
 10
7743.967102
 20
-19437.861712
 30
0.0
 11
7580.239796
 21
-19274.134412
 31
0.0
  0
LINE
  5
AF2
100
AcDbEntity
  8
0
  6
CONTINUOUS
 62
     7
100
AcDbLine
 10
7348.694421
 20
-19274.134412
 30
0.0
 11
7184.96712
 21
-19437.861712
 31
0.0
  0
POLYLINE
  5
AF3
100
AcDbEntity
  8
0
  6
CONTINUOUS
 62
     7
100
AcDb2dPolyline
 66
     1
 10
0.0
 20
0.0
 30
0.0
 70
   128
  0
VERTEX
  5
AF4
100
AcDbEntity
  8
0
  6
CONTINUOUS
 62
     7
100
AcDbVertex
100
AcDb2dVertex
 10
7625.993557
 20
-19554.545027
 30
0.0
  0
VERTEX
  5
AF5
100
AcDbEntity
  8
0
  6
CONTINUOUS
 62
     7
100
AcDbVertex
100
AcDb2dVertex
 10
7625.526216
 20
-19541.791164
 30
0.0
  0
VERTEX
  5
AF6
100
AcDbEntity
  8
0
  6
CONTINUOUS
 62
     7
100
AcDbVertex
100
AcDb2dVertex
 10
7623.976738
 20
-19529.123125
 30
0.0
  0
VERTEX
  5
AF7
100
AcDbEntity
  8
0
  6
CONTINUOUS
 62
     7
100
AcDbVertex
100
AcDb2dVertex
 10
7621.365724
 20
-19516.707345
 30
0.0
  0
VERTEX
  5
AF8
100
AcDbEntity
  8
0
  6
CONTINUOUS
 62
     7
100
AcDbVertex
100
AcDb2dVertex
 10
7617.707208
 20
-19504.512067
 30
0.0
  0
VERTEX
  5
AF9
100
AcDbEntity
  8
0
  6
CONTINUOUS
 62
     7
100
AcDbVertex
100
AcDb2dVertex
 10
7613.050956
 20
-19492.660774
 30
0.0
  0
VERTEX
  5
AFA
100
AcDbEntity
  8
0
  6
CONTINUOUS
 62
     7
100
AcDbVertex
100
AcDb2dVertex
 10
7607.446751
 20
-19481.276967
 30
0.0
  0
VERTEX
  5
AFB
100
AcDbEntity
  8
0
  6
CONTINUOUS
 62
     7
100
AcDbVertex
100
AcDb2dVertex
 10
7600.8732
 20
-19470.345871
 30
0.0
  0
VERTEX
  5
AFC
100
AcDbEntity
  8
0
  6
CONTINUOUS
 62
     7
100
AcDbVertex
100
AcDb2dVertex
 10
7593.400388
 20
-19459.956111
 30
0.0
  0
VERTEX
  5
AFD
100
AcDbEntity
  8
0
  6
CONTINUOUS
 62
     7
100
AcDbVertex
100
AcDb2dVertex
 10
7585.114151
 20
-19450.200906
 30
0.0
  0
VERTEX
  5
AFE
100
AcDbEntity
  8
0
  6
CONTINUOUS
 62
     7
100
AcDbVertex
100
AcDb2dVertex
 10
7576.10033
 20
-19441.173466
 30
0.0
  0
VERTEX
  5
AFF
100
AcDbEntity
  8
0
  6
CONTINUOUS
 62
     7
100
AcDbVertex
100
AcDb2dVertex
 10
7566.045441
 20
-19432.636032
 30
0.0
  0
VERTEX
  5
B00
100
AcDbEntity
  8
0
  6
CONTINUOUS
 62
     7
100
AcDbVertex
100
AcDb2dVertex
 10
7555.293277
 20
-19424.920535
 30
0.0
  0
VERTEX
  5
B01
100
AcDbEntity
  8
0
  6
CONTINUOUS
 62
     7
100
AcDbVertex
100
AcDb2dVertex
 10
7543.956958
 20
-19418.089604
 30
0.0
  0
VERTEX
  5
B02
100
AcDbEntity
  8
0
  6
CONTINUOUS
 62
     7
100
AcDbVertex
100
AcDb2dVertex
 10
7532.149608
 20
-19412.205817
 30
0.0
  0
VERTEX
  5
B03
100
AcDbEntity
  8
0
  6
CONTINUOUS
 62
     7
100
AcDbVertex
100
AcDb2dVertex
 10
7519.395967
 20
-19407.109063
 30
0.0
  0
VERTEX
  5
B04
100
AcDbEntity
  8
0
  6
CONTINUOUS
 62
     7
100
AcDbVertex
100
AcDb2dVertex
 10
7506.223321
 20
-19403.061145
 30
0.0
  0
VERTEX
  5
B05
100
AcDbEntity
  8
0
  6
CONTINUOUS
 62
     7
100
AcDbVertex
100
AcDb2dVertex
 10
7492.765652
 20
-19400.09195
 30
0.0
  0
VERTEX
  5
B06
100
AcDbEntity
  8
0
  6
CONTINUOUS
 62
     7
100
AcDbVertex
100
AcDb2dVertex
 10
7479.156925
 20
-19398.231351
 30
0.0
  0
VERTEX
  5
B07
100
AcDbEntity
  8
0
  6
CONTINUOUS
 62
     7
100
AcDbVertex
100
AcDb2dVertex
 10
7465.018569
 20
-19397.490051
 30
0.0
  0
VERTEX
  5
B08
100
AcDbEntity
  8
0
  6
CONTINUOUS
 62
     7
100
AcDbVertex
100
AcDb2dVertex
 10
7450.817614
 20
-19397.933191
 30
0.0
  0
VERTEX
  5
B09
100
AcDbEntity
  8
0
  6
CONTINUOUS
 62
     7
100
AcDbVertex
100
AcDb2dVertex
 10
7437.181966
 20
-19399.498075
 30
0.0
  0
SEQEND
  5
B0A
100
AcDbEntity
  8
0
  6
CONTINUOUS
 62
     7
  0
POLYLINE
  5
B0B
100
AcDbEntity
  8
0
  6
CONTINUOUS
 62
     7
100
AcDb2dPolyline
 66
     1
 10
0.0
 20
0.0
 30
0.0
 70
   128
  0
VERTEX
  5
B0C
100
AcDbEntity
  8
0
  6
CONTINUOUS
 62
     7
100
AcDbVertex
100
AcDb2dVertex
 10
7637.100737
 20
-19554.613076
 30
0.0
  0
VERTEX
  5
B0D
100
AcDbEntity
  8
0
  6
CONTINUOUS
 62
     7
100
AcDbVertex
100
AcDb2dVertex
 10
7636.417535
 20
-19568.409253
 30
0.0
  0
VERTEX
  5
B0E
100
AcDbEntity
  8
0
  6
CONTINUOUS
 62
     7
100
AcDbVertex
100
AcDb2dVertex
 10
7634.556638
 20
-19582.147167
 30
0.0
  0
VERTEX
  5
B0F
100
AcDbEntity
  8
0
  6
CONTINUOUS
 62
     7
100
AcDbVertex
100
AcDb2dVertex
 10
7631.547888
 20
-19595.680708
 30
0.0
  0
VERTEX
  5
B10
100
AcDbEntity
  8
0
  6
CONTINUOUS
 62
     7
100
AcDbVertex
100
AcDb2dVertex
 10
7627.421122
 20
-19608.863766
 30
0.0
  0
VERTEX
  5
B11
100
AcDbEntity
  8
0
  6
CONTINUOUS
 62
     7
100
AcDbVertex
100
AcDb2dVertex
 10
7622.187475
 20
-19621.635751
 30
0.0
  0
VERTEX
  5
B12
100
AcDbEntity
  8
0
  6
CONTINUOUS
 62
     7
100
AcDbVertex
100
AcDb2dVertex
 10
7615.884319
 20
-19633.969206
 30
0.0
  0
VERTEX
  5
B13
100
AcDbEntity
  8
0
  6
CONTINUOUS
 62
     7
100
AcDbVertex
100
AcDb2dVertex
 10
7608.589167
 20
-19645.744696
 30
0.0
  0
VERTEX
  5
B14
100
AcDbEntity
  8
0
  6
CONTINUOUS
 62
     7
100
AcDbVertex
100
AcDb2dVertex
 10
7600.379527
 20
-19656.842789
 30
0.0
  0
VERTEX
  5
B15
100
AcDbEntity
  8
0
  6
CONTINUOUS
 62
     7
100
AcDbVertex
100
AcDb2dVertex
 10
7591.144551
 20
-19667.366566
 30
0.0
  0
VERTEX
  5
B16
100
AcDbEntity
  8
0
  6
CONTINUOUS
 62
     7
100
AcDbVertex
100
AcDb2dVertex
 10
7581.045486
 20
-19677.131646
 30
0.0
  0
VERTEX
  5
B17
100
AcDbEntity
  8
0
  6
CONTINUOUS
 62
     7
100
AcDbVertex
100
AcDb2dVertex
 10
7570.192301
 20
-19686.053474
 30
0.0
  0
VERTEX
  5
B18
100
AcDbEntity
  8
0
  6
CONTINUOUS
 62
     7
100
AcDbVertex
100
AcDb2dVertex
 10
7558.694954
 20
-19694.047454
 30
0.0
  0
VERTEX
  5
B19
100
AcDbEntity
  8
0
  6
CONTINUOUS
 62
     7
100
AcDbVertex
100
AcDb2dVertex
 10
7546.150556
 20
-19701.316547
 30
0.0
  0
VERTEX
  5
B1A
100
AcDbEntity
  8
0
  6
CONTINUOUS
 62
     7
100
AcDbVertex
100
AcDb2dVertex
 10
7533.009019
 20
-19707.554825
 30
0.0
  0
VERTEX
  5
B1B
100
AcDbEntity
  8
0
  6
CONTINUOUS
 62
     7
100
AcDbVertex
100
AcDb2dVertex
 10
7519.405846
 20
-19712.712562
 30
0.0
  0
VERTEX
  5
B1C
100
AcDbEntity
  8
0
  6
CONTINUOUS
 62
     7
100
AcDbVertex
100
AcDb2dVertex
 10
7505.476547
 20
-19716.740013
 30
0.0
  0
VERTEX
  5
B1D
100
AcDbEntity
  8
0
  6
CONTINUOUS
 62
     7
100
AcDbVertex
100
AcDb2dVertex
 10
7490.795521
 20
-19719.691589
 30
0.0
  0
VERTEX
  5
B1E
100
AcDbEntity
  8
0
  6
CONTINUOUS
 62
     7
100
AcDbVertex
100
AcDb2dVertex
 10
7475.868776
 20
-19721.422113
 30
0.0
  0
VERTEX
  5
B1F
100
AcDbEntity
  8
0
  6
CONTINUOUS
 62
     7
100
AcDbVertex
100
AcDb2dVertex
 10
7460.850222
 20
-19721.920795
 30
0.0
  0
VERTEX
  5
B20
100
AcDbEntity
  8
0
  6
CONTINUOUS
 62
     7
100
AcDbVertex
100
AcDb2dVertex
 10
7445.893776
 20
-19721.176887
 30
0.0
  0
VERTEX
  5
B21
100
AcDbEntity
  8
0
  6
CONTINUOUS
 62
     7
100
AcDbVertex
100
AcDb2dVertex
 10
7430.825031
 20
-19719.135994
 30
0.0
  0
VERTEX
  5
B22
100
AcDbEntity
  8
0
  6
CONTINUOUS
 62
     7
100
AcDbVertex
100
AcDb2dVertex
 10
7415.928733
 20
-19715.816362
 30
0.0
  0
VERTEX
  5
B23
100
AcDbEntity
  8
0
  6
CONTINUOUS
 62
     7
100
AcDbVertex
100
AcDb2dVertex
 10
7401.36637
 20
-19711.253395
 30
0.0
  0
VERTEX
  5
B24
100
AcDbEntity
  8
0
  6
CONTINUOUS
 62
     7
100
AcDbVertex
100
AcDb2dVertex
 10
7387.299409
 20
-19705.482494
 30
0.0
  0
VERTEX
  5
B25
100
AcDbEntity
  8
0
  6
CONTINUOUS
 62
     7
100
AcDbVertex
100
AcDb2dVertex
 10
7373.924691
 20
-19698.577732
 30
0.0
  0
VERTEX
  5
B26
100
AcDbEntity
  8
0
  6
CONTINUOUS
 62
     7
100
AcDbVertex
100
AcDb2dVertex
 10
7362.211868
 20
-19691.189328
 30
0.0
  0
SEQEND
  5
B27
100
AcDbEntity
  8
0
  6
CONTINUOUS
 62
     7
  0
POLYLINE
  5
B28
100
AcDbEntity
  8
0
  6
CONTINUOUS
 62
     7
100
AcDb2dPolyline
 66
     1
 10
0.0
 20
0.0
 30
0.0
 70
   128
  0
VERTEX
  5
B29
100
AcDbEntity
  8
0
  6
CONTINUOUS
 62
     7
100
AcDbVertex
100
AcDb2dVertex
 10
7361.630873
 20
-19416.396599
 30
0.0
  0
VERTEX
  5
B2A
100
AcDbEntity
  8
0
  6
CONTINUOUS
 62
     7
100
AcDbVertex
100
AcDb2dVertex
 10
7364.419341
 20
-19414.394403
 30
0.0
  0
VERTEX
  5
B2B
100
AcDbEntity
  8
0
  6
CONTINUOUS
 62
     7
100
AcDbVertex
100
AcDb2dVertex
 10
7376.648436
 20
-19407.051583
 30
0.0
  0
VERTEX
  5
B2C
100
AcDbEntity
  8
0
  6
CONTINUOUS
 62
     7
100
AcDbVertex
100
AcDb2dVertex
 10
7389.430456
 20
-19400.716845
 30
0.0
  0
VERTEX
  5
B2D
100
AcDbEntity
  8
0
  6
CONTINUOUS
 62
     7
100
AcDbVertex
100
AcDb2dVertex
 10
7402.637298
 20
-19395.449322
 30
0.0
  0
VERTEX
  5
B2E
100
AcDbEntity
  8
0
  6
CONTINUOUS
 62
     7
100
AcDbVertex
100
AcDb2dVertex
 10
7416.702961
 20
-19391.144967
 30
0.0
  0
VERTEX
  5
B2F
100
AcDbEntity
  8
0
  6
CONTINUOUS
 62
     7
100
AcDbVertex
100
AcDb2dVertex
 10
7431.123444
 20
-19388.000234
 30
0.0
  0
VERTEX
  5
B30
100
AcDbEntity
  8
0
  6
CONTINUOUS
 62
     7
100
AcDbVertex
100
AcDb2dVertex
 10
7445.752291
 20
-19386.035662
 30
0.0
  0
VERTEX
  5
B31
100
AcDbEntity
  8
0
  6
CONTINUOUS
 62
     7
100
AcDbVertex
100
AcDb2dVertex
 10
7460.443036
 20
-19385.271779
 30
0.0
  0
VERTEX
  5
B32
100
AcDbEntity
  8
0
  6
CONTINUOUS
 62
     7
100
AcDbVertex
100
AcDb2dVertex
 10
7475.55284
 20
-19385.751321
 30
0.0
  0
VERTEX
  5
B33
100
AcDbEntity
  8
0
  6
CONTINUOUS
 62
     7
100
AcDbVertex
100
AcDb2dVertex
 10
7490.622889
 20
-19387.497184
 30
0.0
  0
VERTEX
  5
B34
100
AcDbEntity
  8
0
  6
CONTINUOUS
 62
     7
100
AcDbVertex
100
AcDb2dVertex
 10
7505.495713
 20
-19390.487263
 30
0.0
  0
VERTEX
  5
B35
100
AcDbEntity
  8
0
  6
CONTINUOUS
 62
     7
100
AcDbVertex
100
AcDb2dVertex
 10
7520.013822
 20
-19394.699481
 30
0.0
  0
VERTEX
  5
B36
100
AcDbEntity
  8
0
  6
CONTINUOUS
 62
     7
100
AcDbVertex
100
AcDb2dVertex
 10
7534.194225
 20
-19400.171252
 30
0.0
  0
VERTEX
  5
B37
100
AcDbEntity
  8
0
  6
CONTINUOUS
 62
     7
100
AcDbVertex
100
AcDb2dVertex
 10
7547.907241
 20
-19406.856815
 30
0.0
  0
VERTEX
  5
B38
100
AcDbEntity
  8
0
  6
CONTINUOUS
 62
     7
100
AcDbVertex
100
AcDb2dVertex
 10
7560.999793
 20
-19414.684901
 30
0.0
  0
VERTEX
  5
B39
100
AcDbEntity
  8
0
  6
CONTINUOUS
 62
     7
100
AcDbVertex
100
AcDb2dVertex
 10
7573.318812
 20
-19423.584242
 30
0.0
  0
VERTEX
  5
B3A
100
AcDbEntity
  8
0
  6
CONTINUOUS
 62
     7
100
AcDbVertex
100
AcDb2dVertex
 10
7584.576775
 20
-19433.333127
 30
0.0
  0
VERTEX
  5
B3B
100
AcDbEntity
  8
0
  6
CONTINUOUS
 62
     7
100
AcDbVertex
100
AcDb2dVertex
 10
7594.989074
 20
-19444.060206
 30
0.0
  0
VERTEX
  5
B3C
100
AcDbEntity
  8
0
  6
CONTINUOUS
 62
     7
100
AcDbVertex
100
AcDb2dVertex
 10
7604.433042
 20
-19455.646293
 30
0.0
  0
VERTEX
  5
B3D
100
AcDbEntity
  8
0
  6
CONTINUOUS
 62
     7
100
AcDbVertex
100
AcDb2dVertex
 10
7612.786016
 20
-19467.972213
 30
0.0
  0
VERTEX
  5
B3E
100
AcDbEntity
  8
0
  6
CONTINUOUS
 62
     7
100
AcDbVertex
100
AcDb2dVertex
 10
7619.75084
 20
-19480.525493
 30
0.0
  0
VERTEX
  5
B3F
100
AcDbEntity
  8
0
  6
CONTINUOUS
 62
     7
100
AcDbVertex
100
AcDb2dVertex
 10
7625.625807
 20
-19493.684354
 30
0.0
  0
VERTEX
  5
B40
100
AcDbEntity
  8
0
  6
CONTINUOUS
 62
     7
100
AcDbVertex
100
AcDb2dVertex
 10
7630.343243
 20
-19507.299745
 30
0.0
  0
VERTEX
  5
B41
100
AcDbEntity
  8
0
  6
CONTINUOUS
 62
     7
100
AcDbVertex
100
AcDb2dVertex
 10
7633.835454
 20
-19521.222627
 30
0.0
  0
VERTEX
  5
B42
100
AcDbEntity
  8
0
  6
CONTINUOUS
 62
     7
100
AcDbVertex
100
AcDb2dVertex
 10
7635.689233
 20
-19532.264622
 30
0.0
  0
VERTEX
  5
B43
100
AcDbEntity
  8
0
  6
CONTINUOUS
 62
     7
100
AcDbVertex
100
AcDb2dVertex
 10
7636.780627
 20
-19543.421221
 30
0.0
  0
VERTEX
  5
B44
100
AcDbEntity
  8
0
  6
CONTINUOUS
 62
     7
100
AcDbVertex
100
AcDb2dVertex
 10
7637.100737
 20
-19554.613076
 30
0.0
  0
SEQEND
  5
B45
100
AcDbEntity
  8
0
  6
CONTINUOUS
 62
     7
  0
DIMENSION
  5
B4F
100
AcDbEntity
  8
0
  6
CONTINUOUS
 62
     5
100
AcDbDimension
  2
*D4
 10
7744.467105
 20
-19174.185535
 30
0.0
 11
7464.967105
 21
-19161.685535
 31
0.0
 70
   160
  3
DIMSTYLE001
100
AcDbAlignedDimension
 13
7184.467105
 23
-19293.64019
 33
0.0
 14
7744.467105
 24
-19293.64019
 34
0.0
100
AcDbRotatedDimension
1001
ACAD
1000
DSTYLE
1002
{
1070
    43
1040
1000.0
1070
    73
1070
     0
1070
    74
1070
     0
1070
    77
1070
     1
1070
   277
1070
     2
1070
   172
1070
     1
1070
   174
1070
     1
1070
   179
1070
     0
1070
   279
1070
     2
1070
   287
1070
     5
1070
   289
1070
     3
1070
     5
1000
_ORIGIN
1002
}
  0
LINE
  5
B50
100
AcDbEntity
  8
0
  6
CONTINUOUS
 62
     7
100
AcDbLine
 10
7743.967102
 20
-19669.407093
 30
0.0
 11
7743.967102
 21
-19437.861712
 31
0.0
  0
ELLIPSE
  5
B51
100
AcDbEntity
  8
0
  6
CONTINUOUS
 62
     7
100
AcDbEllipse
 10
7420.046263
 20
-19549.741741
 30
0.0
 11
-0.0000000000000277
 21
-151.02610781714861
 31
0.0
210
0.0
220
0.0
230
1.0
 40
0.784953
 41
0.0
 42
6.2831853071795862
  0
POLYLINE
  5
B52
100
AcDbEntity
  8
0
  6
CONTINUOUS
 62
     7
100
AcDb2dPolyline
 66
     1
 10
0.0
 20
0.0
 30
0.0
 70
   128
  0
VERTEX
  5
B53
100
AcDbEntity
  8
0
  6
CONTINUOUS
 62
     7
100
AcDbVertex
100
AcDb2dVertex
 10
7625.993557
 20
-19544.938428
 30
0.0
  0
VERTEX
  5
B54
100
AcDbEntity
  8
0
  6
CONTINUOUS
 62
     7
100
AcDbVertex
100
AcDb2dVertex
 10
7625.526216
 20
-19557.69229
 30
0.0
  0
VERTEX
  5
B55
100
AcDbEntity
  8
0
  6
CONTINUOUS
 62
     7
100
AcDbVertex
100
AcDb2dVertex
 10
7623.976738
 20
-19570.36033
 30
0.0
  0
VERTEX
  5
B56
100
AcDbEntity
  8
0
  6
CONTINUOUS
 62
     7
100
AcDbVertex
100
AcDb2dVertex
 10
7621.365724
 20
-19582.776109
 30
0.0
  0
VERTEX
  5
B57
100
AcDbEntity
  8
0
  6
CONTINUOUS
 62
     7
100
AcDbVertex
100
AcDb2dVertex
 10
7617.707208
 20
-19594.971388
 30
0.0
  0
VERTEX
  5
B58
100
AcDbEntity
  8
0
  6
CONTINUOUS
 62
     7
100
AcDbVertex
100
AcDb2dVertex
 10
7613.050956
 20
-19606.822681
 30
0.0
  0
VERTEX
  5
B59
100
AcDbEntity
  8
0
  6
CONTINUOUS
 62
     7
100
AcDbVertex
100
AcDb2dVertex
 10
7607.446751
 20
-19618.206488
 30
0.0
  0
VERTEX
  5
B5A
100
AcDbEntity
  8
0
  6
CONTINUOUS
 62
     7
100
AcDbVertex
100
AcDb2dVertex
 10
7600.8732
 20
-19629.137584
 30
0.0
  0
VERTEX
  5
B5B
100
AcDbEntity
  8
0
  6
CONTINUOUS
 62
     7
100
AcDbVertex
100
AcDb2dVertex
 10
7593.400388
 20
-19639.527344
 30
0.0
  0
VERTEX
  5
B5C
100
AcDbEntity
  8
0
  6
CONTINUOUS
 62
     7
100
AcDbVertex
100
AcDb2dVertex
 10
7585.114151
 20
-19649.282549
 30
0.0
  0
VERTEX
  5
B5D
100
AcDbEntity
  8
0
  6
CONTINUOUS
 62
     7
100
AcDbVertex
100
AcDb2dVertex
 10
7576.10033
 20
-19658.309989
 30
0.0
  0
VERTEX
  5
B5E
100
AcDbEntity
  8
0
  6
CONTINUOUS
 62
     7
100
AcDbVertex
100
AcDb2dVertex
 10
7566.045441
 20
-19666.847423
 30
0.0
  0
VERTEX
  5
B5F
100
AcDbEntity
  8
0
  6
CONTINUOUS
 62
     7
100
AcDbVertex
100
AcDb2dVertex
 10
7555.293277
 20
-19674.56292
 30
0.0
  0
VERTEX
  5
B60
100
AcDbEntity
  8
0
  6
CONTINUOUS
 62
     7
100
AcDbVertex
100
AcDb2dVertex
 10
7543.956958
 20
-19681.393851
 30
0.0
  0
VERTEX
  5
B61
100
AcDbEntity
  8
0
  6
CONTINUOUS
 62
     7
100
AcDbVertex
100
AcDb2dVertex
 10
7532.149608
 20
-19687.277638
 30
0.0
  0
VERTEX
  5
B62
100
AcDbEntity
  8
0
  6
CONTINUOUS
 62
     7
100
AcDbVertex
100
AcDb2dVertex
 10
7519.395967
 20
-19692.374392
 30
0.0
  0
VERTEX
  5
B63
100
AcDbEntity
  8
0
  6
CONTINUOUS
 62
     7
100
AcDbVertex
100
AcDb2dVertex
 10
7506.223321
 20
-19696.42231
 30
0.0
  0
VERTEX
  5
B64
100
AcDbEntity
  8
0
  6
CONTINUOUS
 62
     7
100
AcDbVertex
100
AcDb2dVertex
 10
7492.765652
 20
-19699.391505
 30
0.0
  0
VERTEX
  5
B65
100
AcDbEntity
  8
0
  6
CONTINUOUS
 62
     7
100
AcDbVertex
100
AcDb2dVertex
 10
7479.156925
 20
-19701.252104
 30
0.0
  0
VERTEX
  5
B66
100
AcDbEntity
  8
0
  6
CONTINUOUS
 62
     7
100
AcDbVertex
100
AcDb2dVertex
 10
7465.018569
 20
-19701.993404
 30
0.0
  0
VERTEX
  5
B67
100
AcDbEntity
  8
0
  6
CONTINUOUS
 62
     7
100
AcDbVertex
100
AcDb2dVertex
 10
7450.817614
 20
-19701.550263
 30
0.0
  0
VERTEX
  5
B68
100
AcDbEntity
  8
0
  6
CONTINUOUS
 62
     7
100
AcDbVertex
100
AcDb2dVertex
 10
7437.181966
 20
-19699.98538
 30
0.0
  0
SEQEND
  5
B69
100
AcDbEntity
  8
0
  6
CONTINUOUS
 62
     7
  0
DIMENSION
  5
B73
100
AcDbEntity
  8
0
  6
CONTINUOUS
 62
     5
100
AcDbDimension
  2
*D5
 10
7001.257776
 20
-19642.567659
 30
0.0
 11
6988.757776
 21
-19553.812587
 31
0.0
 70
    32
  3
DIMSTYLE001
100
AcDbAlignedDimension
 13
7123.220865
 23
-19465.057515
 33
0.0
 14
7123.23322
 24
-19642.567659
 34
0.0
 50
270.0
100
AcDbRotatedDimension
1001
ACAD
1000
DSTYLE
1002
{
1070
    43
1040
1000.0
1070
    73
1070
     0
1070
    74
1070
     0
1070
    77
1070
     1
1070
   277
1070
     2
1070
   172
1070
     1
1070
   174
1070
     1
1070
   179
1070
     0
1070
   287
1070
     3
1070
   289
1070
     3
1070
     5
1000
_ORIGIN
1002
}
  0
LINE
  5
B74
100
AcDbEntity
  8
0
  6
CONTINUOUS
 62
     5
100
AcDbLine
 10
7299.497821
 20
-20412.120358
 30
0.0
 11
7538.594706
 21
-20313.911616
 31
0.0
  0
LINE
  5
B75
100
AcDbEntity
  8
0
  6
CONTINUOUS
 62
     5
100
AcDbLine
 10
7538.975892
 20
-20313.310896
 30
0.0
 11
7298.803508
 21
-20411.965125
 31
0.0
  0
DIMENSION
  5
B7F
100
AcDbEntity
  8
0
  6
CONTINUOUS
 62
     5
100
AcDbDimension
  2
*D6
 10
7504.790403
 20
-20230.085487
 30
0.0
 11
7379.95473
 21
-20267.850057
 31
0.0
 70
    33
  3
DIMSTYLE001
100
AcDbAlignedDimension
 13
7284.69666
 23
-20377.620897
 33
0.0
 14
7524.869044
 24
-20278.966668
 34
0.0
 50
22.331106
1001
ACAD
1000
DSTYLE
1002
{
1070
    43
1040
1000.0
1070
    73
1070
     0
1070
    74
1070
     0
1070
    77
1070
     1
1070
   277
1070
     2
1070
   172
1070
     1
1070
   174
1070
     1
1070
   179
1070
     0
1070
   287
1070
     3
1070
   289
1070
     3
1070
     5
1000
_ORIGIN
1002
}
  0
DIMENSION
  5
B89
100
AcDbEntity
  8
0
  6
CONTINUOUS
 62
     5
100
AcDbDimension
  2
*D7
 10
7744.467105
 20
-20645.220207
 30
0.0
 11
7464.967105
 21
-20632.720207
 31
0.0
 70
   160
  3
DIMSTYLE001
100
AcDbAlignedDimension
 13
7184.467105
 23
-20525.765551
 33
0.0
 14
7744.467105
 24
-20525.765551
 34
0.0
100
AcDbRotatedDimension
1001
ACAD
1000
DSTYLE
1002
{
1070
    43
1040
1000.0
1070
    73
1070
     0
1070
    74
1070
     0
1070
    77
1070
     1
1070
   277
1070
     2
1070
   172
1070
     1
1070
   174
1070
     1
1070
   179
1070
     0
1070
   279
1070
     2
1070
   287
1070
     5
1070
   289
1070
     3
1070
     5
1000
_ORIGIN
1002
}
  0
DIMENSION
  5
B93
100
AcDbEntity
  8
0
  6
CONTINUOUS
 62
     5
100
AcDbDimension
  2
*D8
 10
7143.243777
 20
-20477.078291
 30
0.0
 11
7130.743777
 21
-20444.521708
 31
0.0
 70
    32
  3
DIMSTYLE001
100
AcDbAlignedDimension
 13
7189.073169
 23
-20411.965125
 33
0.0
 14
7189.073169
 24
-20477.078291
 34
0.0
 50
270.0
100
AcDbRotatedDimension
1001
ACAD
1000
DSTYLE
1002
{
1070
    43
1040
1000.0
1070
    73
1070
     0
1070
    74
1070
     0
1070
    77
1070
     1
1070
   277
1070
     2
1070
   172
1070
     1
1070
   174
1070
     1
1070
   179
1070
     0
1070
   287
1070
     3
1070
   289
1070
     3
1070
     5
1000
_ORIGIN
1002
}
  0
DIMENSION
  5
B9D
100
AcDbEntity
  8
0
  6
CONTINUOUS
 62
     5
100
AcDbDimension
  2
*D9
 10
7849.644239
 20
-20477.07829
 30
0.0
 11
7837.144239
 21
-20394.694593
 31
0.0
 70
    32
  3
DIMSTYLE001
100
AcDbAlignedDimension
 13
7763.646451
 23
-20312.310896
 33
0.0
 14
7763.646505
 24
-20477.07829
 34
0.0
 50
270.0
100
AcDbRotatedDimension
1001
ACAD
1000
DSTYLE
1002
{
1070
    43
1040
1000.0
1070
    73
1070
     0
1070
    74
1070
     0
1070
    77
1070
     1
1070
   277
1070
     2
1070
   172
1070
     1
1070
   174
1070
     1
1070
   179
1070
     0
1070
   287
1070
     3
1070
   289
1070
     3
1070
     5
1000
_ORIGIN
1002
}
  0
DIMENSION
  5
BA7
100
AcDbEntity
  8
0
  6
CONTINUOUS
 62
     5
100
AcDbDimension
  2
*D10
 10
7418.8897
 20
-19960.694112
 30
0.0
 11
7301.42841
 21
-19948.194112
 31
0.0
 70
    32
  3
DIMSTYLE001
100
AcDbAlignedDimension
 13
7183.96712
 23
-19870.090552
 33
0.0
 14
7418.8897
 24
-19903.027469
 34
0.0
100
AcDbRotatedDimension
1001
ACAD
1000
DSTYLE
1002
{
1070
    43
1040
1000.0
1070
    73
1070
     0
1070
    74
1070
     0
1070
    77
1070
     1
1070
   277
1070
     2
1070
   172
1070
     1
1070
   174
1070
     1
1070
   179
1070
     0
1070
   287
1070
     3
1070
   289
1070
     3
1070
     5
1000
_ORIGIN
1002
}
  0
DIMENSION
  5
BB1
100
AcDbEntity
  8
0
  6
CONTINUOUS
 62
     5
100
AcDbDimension
  2
*D11
 10
7418.8897
 20
-20137.12232
 30
0.0
 11
7301.42841
 21
-20124.62232
 31
0.0
 70
    32
  3
DIMSTYLE001
100
AcDbAlignedDimension
 13
7183.96712
 23
-20227.72588
 33
0.0
 14
7418.8897
 24
-20194.788963
 34
0.0
100
AcDbRotatedDimension
1001
ACAD
1000
DSTYLE
1002
{
1070
    43
1040
1000.0
1070
    73
1070
     0
1070
    74
1070
     0
1070
    77
1070
     1
1070
   277
1070
     2
1070
   172
1070
     1
1070
   174
1070
     1
1070
   179
1070
     0
1070
   287
1070
     3
1070
   289
1070
     3
1070
     5
1000
_ORIGIN
1002
}
  0
LINE
  5
BB2
100
AcDbEntity
  8
0
  6
STYLE_07
 62
     1
100
AcDbLine
 10
7401.137594
 20
-20319.419117
 30
0.0
 11
7486.221817
 21
-20526.56333
 31
0.0
  0
LINE
  5
BB3
100
AcDbEntity
  8
0
  6
CONTINUOUS
 62
     5
100
AcDbLine
 10
7286.627311
 20
-20477.078284
 30
0.0
 11
7637.081559
 21
-20477.078284
 31
0.0
  0
DIMENSION
  5
BBD
100
AcDbEntity
  8
0
  6
CONTINUOUS
 62
     5
100
AcDbDimension
  2
*D12
 10
7952.169755
 20
-19273.642585
 30
0.0
 11
7939.669755
 21
-19553.888494
 31
0.0
 70
    32
  3
DIMSTYLE001
100
AcDbAlignedDimension
 13
7841.314452
 23
-19834.134403
 33
0.0
 14
7851.674144
 24
-19273.642585
 34
0.0
 50
90.0
100
AcDbRotatedDimension
1001
ACAD
1000
DSTYLE
1002
{
1070
    43
1040
1000.0
1070
    73
1070
     0
1070
    74
1070
     0
1070
    77
1070
     1
1070
   277
1070
     2
1070
   172
1070
     1
1070
   174
1070
     1
1070
   179
1070
     0
1070
   287
1070
     3
1070
   289
1070
     3
1070
     5
1000
_ORIGIN
1002
}
  0
LINE
  5
BBE
100
AcDbEntity
  8
0
  6
STYLE_07
 62
     1
100
AcDbLine
 10
7419.046263
 20
-20363.015987
 30
0.0
 11
7419.046263
 21
-19209.631049
 31
0.0
  0
LINE
  5
BBF
100
AcDbEntity
  8
0
  6
STYLE_07
 62
     1
100
AcDbLine
 10
6895.000926
 20
-19552.443065
 30
0.0
 11
7856.778202
 21
-19552.443065
 31
0.0
  0
ENDSEC
  0
SECTION
  2
OBJECTS
  0
DICTIONARY
  5
19
100
AcDbDictionary
  3
ACAD_GROUP
350
1A
  3
ACAD_MLINESTYLE
350
1B
  0
DICTIONARY
  5
1A
102
{ACAD_REACTORS
330
19
102
}
100
AcDbDictionary
  0
DICTIONARY
  5
1B
102
{ACAD_REACTORS
330
19
102
}
100
AcDbDictionary
  3
STANDARD
350
1C
  0
MLINESTYLE
  5
1C
102
{ACAD_REACTORS
330
1B
102
}
100
AcDbMlineStyle
  2
STANDARD
 70
     0
  3

 62
     0
 51
90.0
 52
90.0
 71
     2
 49
0.5
 62
   256
  6
ByLayer
 49
-0.5
 62
   256
  6
ByLayer
  0
ENDSEC
  0
EOF
