  0
SECTION
  2
HEADER
  9
$ACADVER
  1
AC1015
  9
$ACADMAINTVER
 70
    20
  9
$DWGCODEPAGE
  3
ANSI_932
  9
$INSBASE
 10
0.0
 20
0.0
 30
0.0
  9
$EXTMIN
 10
22002.202784
 20
-20877.910282
 30
0.0
  9
$EXTMAX
 10
24895.452784
 20
-18868.610282
 30
0.0
  9
$LIMMIN
 10
-6251.172216
 20
-40873.260282
  9
$LIMMAX
 10
53148.827784
 20
1126.739718
  9
$ORTHOMODE
 70
     0
  9
$REGENMODE
 70
     1
  9
$FILLMODE
 70
     1
  9
$QTEXTMODE
 70
     0
  9
$MIRRTEXT
 70
     1
  9
$LTSCALE
 40
100.0
  9
$ATTMODE
 70
     1
  9
$TEXTSIZE
 40
0.0
  9
$TRACEWID
 40
0.05
  9
$TEXTSTYLE
  7
STANDARD
  9
$CLAYER
  8
0
  9
$CELTYPE
  6
CONTINUOUS
  9
$CECOLOR
 62
   256
  9
$CELTSCALE
 40
1.0
  9
$DISPSILH
 70
     0
  9
$DIMSCALE
 40
1.0
  9
$DIMASZ
 40
0.18
  9
$DIMEXO
 40
0.0625
  9
$DIMDLI
 40
0.38
  9
$DIMRND
 40
0.0
  9
$DIMDLE
 40
0.0
  9
$DIMEXE
 40
0.18
  9
$DIMTP
 40
0.0
  9
$DIMTM
 40
0.0
  9
$DIMTXT
 40
0.18
  9
$DIMCEN
 40
0.09
  9
$DIMTSZ
 40
0.0
  9
$DIMTOL
 70
     0
  9
$DIMLIM
 70
     0
  9
$DIMTIH
 70
     1
  9
$DIMTOH
 70
     1
  9
$DIMSE1
 70
     0
  9
$DIMSE2
 70
     0
  9
$DIMTAD
 70
     0
  9
$DIMZIN
 70
     0
  9
$DIMBLK
  1

  9
$DIMASO
 70
     1
  9
$DIMSHO
 70
     1
  9
$DIMPOST
  1

  9
$DIMAPOST
  1

  9
$DIMALT
 70
     0
  9
$DIMALTD
 70
     2
  9
$DIMALTF
 40
25.4
  9
$DIMLFAC
 40
1.0
  9
$DIMTOFL
 70
     0
  9
$DIMTVP
 40
0.0
  9
$DIMTIX
 70
     0
  9
$DIMSOXD
 70
     0
  9
$DIMSAH
 70
     0
  9
$DIMBLK1
  1

  9
$DIMBLK2
  1

  9
$DIMSTYLE
  2
STANDARD
  9
$DIMCLRD
 70
     0
  9
$DIMCLRE
 70
     0
  9
$DIMCLRT
 70
     0
  9
$DIMTFAC
 40
1.0
  9
$DIMGAP
 40
0.09
  9
$DIMJUST
 70
     0
  9
$DIMSD1
 70
     0
  9
$DIMSD2
 70
     0
  9
$DIMTOLJ
 70
     1
  9
$DIMTZIN
 70
     0
  9
$DIMALTZ
 70
     0
  9
$DIMALTTZ
 70
     0
  9
$DIMUPT
 70
     0
  9
$DIMDEC
 70
     4
  9
$DIMTDEC
 70
     4
  9
$DIMALTU
 70
     2
  9
$DIMALTTD
 70
     2
  9
$DIMTXSTY
  7
STANDARD
  9
$DIMAUNIT
 70
     0
  9
$DIMADEC
 70
     0
  9
$DIMALTRND
 40
0.0
  9
$DIMAZIN
 70
     0
  9
$DIMDSEP
 70
    46
  9
$DIMATFIT
 70
     3
  9
$DIMFRAC
 70
     0
  9
$DIMLDRBLK
  1

  9
$DIMLUNIT
 70
     2
  9
$DIMLWD
 70
    -2
  9
$DIMLWE
 70
    -2
  9
$DIMTMOVE
 70
     0
  9
$LUNITS
 70
     2
  9
$LUPREC
 70
     4
  9
$SKETCHINC
 40
0.1
  9
$FILLETRAD
 40
0.0
  9
$AUNITS
 70
     0
  9
$AUPREC
 70
     0
  9
$MENU
  1
acad
  9
$ELEVATION
 40
0.0
  9
$PELEVATION
 40
0.0
  9
$THICKNESS
 40
0.0
  9
$LIMCHECK
 70
     0
  9
$CHAMFERA
 40
0.0
  9
$CHAMFERB
 40
0.0
  9
$CHAMFERC
 40
0.0
  9
$CHAMFERD
 40
0.0
  9
$SKPOLY
 70
     0
  9
$TDCREATE
 40
11805287.11317606
  9
$TDUCREATE
 40
6.0000000000
  9
$TDUPDATE
 40
2455642.514256898
  9
$TDUUPDATE
 40
2455642.139256899
  9
$TDINDWG
 40
0.0006064699
  9
$TDUSRTIMER
 40
0.0006061111
  9
$USRTIMER
 70
     1
  9
$ANGBASE
 50
0.0
  9
$ANGDIR
 70
     0
  9
$PDMODE
 70
     0
  9
$PDSIZE
 40
0.0
  9
$PLINEWID
 40
0.0
  9
$SPLFRAME
 70
     0
  9
$SPLINETYPE
 70
     6
  9
$SPLINESEGS
 70
     8
  9
$HANDSEED
  5
79D
  9
$SURFTAB1
 70
     6
  9
$SURFTAB2
 70
     6
  9
$SURFTYPE
 70
     6
  9
$SURFU
 70
     6
  9
$SURFV
 70
     6
  9
$UCSBASE
  2

  9
$UCSNAME
  2

  9
$UCSORG
 10
0.0
 20
0.0
 30
0.0
  9
$UCSXDIR
 10
1.0
 20
0.0
 30
0.0
  9
$UCSYDIR
 10
0.0
 20
1.0
 30
0.0
  9
$UCSORTHOREF
  2

  9
$UCSORTHOVIEW
 70
     0
  9
$UCSORGTOP
 10
0.0
 20
0.0
 30
0.0
  9
$UCSORGBOTTOM
 10
0.0
 20
0.0
 30
0.0
  9
$UCSORGLEFT
 10
0.0
 20
0.0
 30
0.0
  9
$UCSORGRIGHT
 10
0.0
 20
0.0
 30
0.0
  9
$UCSORGFRONT
 10
0.0
 20
0.0
 30
0.0
  9
$UCSORGBACK
 10
0.0
 20
0.0
 30
0.0
  9
$PUCSBASE
  2

  9
$PUCSNAME
  2

  9
$PUCSORG
 10
0.0
 20
0.0
 30
0.0
  9
$PUCSXDIR
 10
1.0
 20
0.0
 30
0.0
  9
$PUCSYDIR
 10
0.0
 20
1.0
 30
0.0
  9
$PUCSORTHOREF
  2

  9
$PUCSORTHOVIEW
 70
     0
  9
$PUCSORGTOP
 10
0.0
 20
0.0
 30
0.0
  9
$PUCSORGBOTTOM
 10
0.0
 20
0.0
 30
0.0
  9
$PUCSORGLEFT
 10
0.0
 20
0.0
 30
0.0
  9
$PUCSORGRIGHT
 10
0.0
 20
0.0
 30
0.0
  9
$PUCSORGFRONT
 10
0.0
 20
0.0
 30
0.0
  9
$PUCSORGBACK
 10
0.0
 20
0.0
 30
0.0
  9
$USERI1
 70
     0
  9
$USERI2
 70
     0
  9
$USERI3
 70
     0
  9
$USERI4
 70
     0
  9
$USERI5
 70
     0
  9
$USERR1
 40
0.0
  9
$USERR2
 40
0.0
  9
$USERR3
 40
0.0
  9
$USERR4
 40
0.0
  9
$USERR5
 40
0.0
  9
$WORLDVIEW
 70
     1
  9
$SHADEDGE
 70
     3
  9
$SHADEDIF
 70
    70
  9
$TILEMODE
 70
     1
  9
$MAXACTVP
 70
    16
  9
$PINSBASE
 10
0.0
 20
0.0
 30
0.0
  9
$PLIMCHECK
 70
     0
  9
$PEXTMIN
 10
1.000000000000000E+20
 20
1.000000000000000E+20
 30
1.000000000000000E+20
  9
$PEXTMAX
 10
-1.000000000000000E+20
 20
-1.000000000000000E+20
 30
-1.000000000000000E+20
  9
$PLIMMIN
 10
0.0
 20
0.0
  9
$PLIMMAX
 10
12.0
 20
9.0
  9
$UNITMODE
 70
     0
  9
$VISRETAIN
 70
     0
  9
$PLINEGEN
 70
     1
  9
$PSLTSCALE
 70
     0
  9
$TREEDEPTH
 70
  3020
  9
$CMLSTYLE
  2
STANDARD
  9
$CMLJUST
 70
     0
  9
$CMLSCALE
 40
1.0
  9
$PROXYGRAPHICS
 70
     0
  9
$MEASUREMENT
 70
     0
  9
$CELWEIGHT
370
    -1
  9
$ENDCAPS
280
     0
  9
$JOINSTYLE
280
     0
  9
$LWDISPLAY
290
     0
  9
$INSUNITS
 70
     0
  9
$HYPERLINKBASE
  1

  9
$STYLESHEET
  1

  9
$XEDIT
290
     1
  9
$CEPSNTYPE
380
     0
  9
$PSTYLEMODE
290
     1
  9
$FINGERPRINTGUID
  2
{2970054B-A5AB-4707-A2FC-7E850EBE537F}
  9
$VERSIONGUID
  2
{EC3FCC18-C8EE-4CD9-B5B9-C001DF9CCC15}
  9
$EXTNAMES
290
     1
  9
$PSVPSCALE
 40
0.0
  9
$OLESTARTUP
290
     0
  0
ENDSEC
  0
SECTION
  2
CLASSES
  0
CLASS
  1
IMAGE
  2
AcDbRasterImage
  3
ISM
 90
    34943
280
     0
281
     1
  0
CLASS
  1
DICTIONARYVAR
  2
AcDbDictionaryVar
  3
ObjectDBX Classes
 90
        0
280
     0
281
     0
  0
CLASS
  1
RASTERVARIABLES
  2
AcDbRasterVariables
  3
ISM
 90
    32768
280
     0
281
     0
  0
CLASS
  1
IMAGEDEF
  2
AcDbRasterImageDef
  3
ISM
 90
    32768
280
     0
281
     0
  0
CLASS
  1
IMAGEDEF_REACTOR
  2
AcDbRasterImageDefReactor
  3
ISM
 90
    32769
280
     0
281
     0
  0
CLASS
  1
IDBUFFER
  2
AcDbIdBuffer
  3
ObjectDBX Classes
 90
    32768
280
     0
281
     0
  0
CLASS
  1
SPATIAL_FILTER
  2
AcDbSpatialFilter
  3
ObjectDBX Classes
 90
    32768
280
     0
281
     0
  0
CLASS
  1
SORTENTSTABLE
  2
AcDbSortentsTable
  3
ObjectDBX Classes
 90
    32768
280
     0
281
     0
  0
CLASS
  1
LAYER_INDEX
  2
AcDbLayerIndex
  3
ObjectDBX Classes
 90
    32768
280
     0
281
     0
  0
CLASS
  1
SPATIAL_INDEX
  2
AcDbSpatialIndex
  3
ObjectDBX Classes
 90
    32768
280
     0
281
     0
  0
CLASS
  1
OBJECT_PTR
  2
CAseDLPNTableRecord
  3
ASE-LPNTableRecord
 90
    32769
280
     0
281
     0
  0
CLASS
  1
LAYOUT
  2
AcDbLayout
  3
ObjectDBX Classes
 90
        0
280
     0
281
     0
  0
CLASS
  1
PLOTSETTINGS
  2
AcDbPlotSettings
  3
ObjectDBX Classes
 90
    32768
280
     0
281
     0
  0
CLASS
  1
ACDBDICTIONARYWDFLT
  2
AcDbDictionaryWithDefault
  3
ObjectDBX Classes
 90
        0
280
     0
281
     0
  0
CLASS
  1
ACDBPLACEHOLDER
  2
AcDbPlaceHolder
  3
ObjectDBX Classes
 90
        0
280
     0
281
     0
  0
CLASS
  1
VBA_PROJECT
  2
AcDbVbaProject
  3
acad
 90
    32768
280
     0
281
     0
  0
CLASS
  1
WIPEOUT
  2
AcDbWipeout
  3
"WipeOut|Product Desc: Object Enabler for WipeOut entity                        |Company: Autodesk, Inc.                        |WEB Address: www.autodesk.com"
 90
    34943
280
     0
281
     1
  0
CLASS
  1
WIPEOUTVARIABLES
  2
AcDbWipeoutVariables
  3
"WipeOut|Product Desc:     WipeOut Dbx Application|Company:          Autodesk, Inc.|WEB Address:      www.autodesk.com"
 90
    32768
280
     0
281
     0
  0
CLASS
  1
RTEXT
  2
RText
  3
RText|AutoCAD Express Tool|expresstools@autodesk.com
 90
    32768
280
     0
281
     1
  0
CLASS
  1
ARCALIGNEDTEXT
  2
AcDbArcAlignedText
  3
ATEXT|AutoCAD Express Tool|expresstools@autodesk.com
 90
    32768
280
     0
281
     1
  0
CLASS
  1
MATERIAL
  2
AcDbMaterial
  3
ObjectDBX Classes
 90
     1153
280
     0
281
     0
  0
CLASS
  1
VISUALSTYLE
  2
AcDbVisualStyle
  3
ObjectDBX Classes
 90
     4095
280
     0
281
     0
  0
CLASS
  1
TABLESTYLE
  2
AcDbTableStyle
  3
ObjectDBX Classes
 90
     4095
280
     0
281
     0
  0
CLASS
  1
SCALE
  2
AcDbScale
  3
ObjectDBX Classes
 90
     1153
280
     0
281
     0
  0
CLASS
  1
MLEADERSTYLE
  2
AcDbMLeaderStyle
  3
ACDB_MLEADERSTYLE_CLASS
 90
     4095
280
     0
281
     0
  0
CLASS
  1
CELLSTYLEMAP
  2
AcDbCellStyleMap
  3
ObjectDBX Classes
 90
     1152
280
     0
281
     0
  0
ENDSEC
  0
SECTION
  2
TABLES
  0
TABLE
  2
VPORT
  5
7
330
0
100
AcDbSymbolTable
 70
     1
  0
VPORT
  5
15
330
7
100
AcDbSymbolTableRecord
100
AcDbViewportTableRecord
  2
*ACTIVE
 70
     0
 10
0.0
 20
0.0
 11
1.0
 21
1.0
 12
23315.60617018534
 22
-19192.51631092345
 13
0.0
 23
0.0
 14
1000.0
 24
1000.0
 15
1000.0
 25
1000.0
 16
0.0
 26
0.0
 36
1.0
 17
0.0
 27
0.0
 37
0.0
 40
2777.349821084514
 41
1.698473282442748
 42
50.0
 43
0.0
 44
0.0
 50
0.0
 51
0.0
 71
     0
 72
   100
 73
     1
 74
     1
 75
     0
 76
     0
 77
     0
 78
     0
281
     0
 65
     1
110
0.0
120
0.0
130
0.0
111
1.0
121
0.0
131
0.0
112
0.0
122
1.0
132
0.0
 79
     0
146
0.0
  0
ENDTAB
  0
TABLE
  2
LTYPE
  5
4
330
0
100
AcDbSymbolTable
 70
     6
  0
LTYPE
  5
11
330
4
100
AcDbSymbolTableRecord
100
AcDbLinetypeTableRecord
  2
BYBLOCK
 70
     0
  3

 72
    65
 73
     0
 40
0.0
  0
LTYPE
  5
12
330
4
100
AcDbSymbolTableRecord
100
AcDbLinetypeTableRecord
  2
BYLAYER
 70
     0
  3

 72
    65
 73
     0
 40
0.0
  0
LTYPE
  5
13
330
4
100
AcDbSymbolTableRecord
100
AcDbLinetypeTableRecord
  2
CONTINUOUS
 70
     0
  3
Solid line
 72
    65
 73
     0
 40
0.0
  0
LTYPE
  5
12B
330
4
100
AcDbSymbolTableRecord
100
AcDbLinetypeTableRecord
  2
HIDDEN
 70
     0
  3
__ __ __ __ __ __ __ __ __ __ __ __ __ __ __ __
 72
    65
 73
     5
 40
8.0
 49
1.0
 74
     0
 49
-2.0
 74
     0
 49
2.0
 74
     0
 49
-2.0
 74
     0
 49
1.0
 74
     0
  0
LTYPE
  5
12C
330
4
100
AcDbSymbolTableRecord
100
AcDbLinetypeTableRecord
  2
DOT
 70
     0
  3
. . . . . . . . . . . . . . . . . . . . . . . .
 72
    65
 73
     3
 40
1.6
 49
0.4
 74
     0
 49
-0.8
 74
     0
 49
0.4
 74
     0
  0
LTYPE
  5
12D
330
4
100
AcDbSymbolTableRecord
100
AcDbLinetypeTableRecord
  2
CENTER
 70
     0
  3
____ _ ____ _ ____ _ ____ _ ____ _ ____ _ ____ 
 72
    65
 73
     5
 40
12.0
 49
5.0
 74
     0
 49
-0.8
 74
     0
 49
0.4
 74
     0
 49
-0.8
 74
     0
 49
5.0
 74
     0
  0
LTYPE
  5
12E
330
4
100
AcDbSymbolTableRecord
100
AcDbLinetypeTableRecord
  2
DIVIDE
 70
     0
  3
____ . . ____ . . ____ . . ____ . . ____ . . __
 72
    65
 73
     7
 40
13.2
 49
5.0
 74
     0
 49
-0.8
 74
     0
 49
0.4
 74
     0
 49
-0.8
 74
     0
 49
0.4
 74
     0
 49
-0.8
 74
     0
 49
5.0
 74
     0
  0
LTYPE
  5
12F
330
4
100
AcDbSymbolTableRecord
100
AcDbLinetypeTableRecord
  2
STYLE_07
 70
     0
  3
Solid Line
 72
    65
 73
     6
 40
7.48
 49
2.5
 74
     0
 49
-0.8299999999999998
 74
     0
 49
2.5
 74
     0
 49
-0.8299999999999998
 74
     0
 49
0.27
 74
     0
 49
-0.55
 74
     0
  0
ENDTAB
  0
TABLE
  2
LAYER
  5
2
330
0
100
AcDbSymbolTable
 70
     6
  0
LAYER
  5
14
102
{ACAD_XDICTIONARY
360
77C
102
}
330
2
100
AcDbSymbolTableRecord
100
AcDbLayerTableRecord
  2
0
 70
     0
 62
     7
  6
CONTINUOUS
370
    -3
390
71A
  0
LAYER
  5
27
102
{ACAD_XDICTIONARY
360
77E
102
}
330
2
100
AcDbSymbolTableRecord
100
AcDbLayerTableRecord
  2
001
 70
     0
 62
     7
  6
CONTINUOUS
370
    -3
390
71A
  0
LAYER
  5
28
102
{ACAD_XDICTIONARY
360
780
102
}
330
2
100
AcDbSymbolTableRecord
100
AcDbLayerTableRecord
  2
002
 70
     0
 62
     7
  6
CONTINUOUS
370
    -3
390
71A
  0
LAYER
  5
29
102
{ACAD_XDICTIONARY
360
782
102
}
330
2
100
AcDbSymbolTableRecord
100
AcDbLayerTableRecord
  2
003
 70
     0
 62
     7
  6
CONTINUOUS
370
    -3
390
71A
  0
LAYER
  5
2A
102
{ACAD_XDICTIONARY
360
784
102
}
330
2
100
AcDbSymbolTableRecord
100
AcDbLayerTableRecord
  2
004
 70
     0
 62
     7
  6
CONTINUOUS
370
    -3
390
71A
  0
LAYER
  5
772
330
2
100
AcDbSymbolTableRecord
100
AcDbLayerTableRecord
  2
Defpoints
 70
     0
 62
     7
  6
CONTINUOUS
290
     0
370
    -3
390
71A
  0
ENDTAB
  0
TABLE
  2
STYLE
  5
3
330
0
100
AcDbSymbolTable
 70
     3
  0
STYLE
  5
17
330
3
100
AcDbSymbolTableRecord
100
AcDbTextStyleTableRecord
  2
STANDARD
 70
     0
 40
0.0
 41
1.0
 50
0.0
 71
     0
 42
0.0
  3
txt
  4

  0
STYLE
  5
127
330
3
100
AcDbSymbolTableRecord
100
AcDbTextStyleTableRecord
  2
DRACAD
 70
     0
 40
0.0
 41
1.0
 50
0.0
 71
     0
 42
0.0
  3
txt
  4
extfont
  0
STYLE
  5
128
330
3
100
AcDbSymbolTableRecord
100
AcDbTextStyleTableRecord
  2
TATEDRACAD
 70
     4
 40
0.0
 41
1.0
 50
0.0
 71
     0
 42
0.0
  3
txt
  4
extfont
  0
ENDTAB
  0
TABLE
  2
VIEW
  5
5
330
0
100
AcDbSymbolTable
 70
     0
  0
ENDTAB
  0
TABLE
  2
UCS
  5
6
330
0
100
AcDbSymbolTable
 70
     0
  0
ENDTAB
  0
TABLE
  2
APPID
  5
8
330
0
100
AcDbSymbolTable
 70
     3
  0
APPID
  5
16
330
8
100
AcDbSymbolTableRecord
100
AcDbRegAppTableRecord
  2
ACAD
 70
     0
  0
APPID
  5
76C
330
8
100
AcDbSymbolTableRecord
100
AcDbRegAppTableRecord
  2
ACAD_MLEADERVER
 70
     0
  0
APPID
  5
788
330
8
100
AcDbSymbolTableRecord
100
AcDbRegAppTableRecord
  2
DCO15
 70
     0
  0
ENDTAB
  0
TABLE
  2
DIMSTYLE
  5
9
330
0
100
AcDbSymbolTable
 70
     3
100
AcDbDimStyleTable
 71
     0
  0
DIMSTYLE
105
18
330
9
100
AcDbSymbolTableRecord
100
AcDbDimStyleTableRecord
  2
STANDARD
 70
     0
340
17
  0
DIMSTYLE
105
14F
102
{ACAD_REACTORS
330
3A7
330
3B1
330
3BB
330
3C5
330
3D2
330
3DC
330
3E6
330
3F0
330
3FA
330
713
102
}
330
9
100
AcDbSymbolTableRecord
100
AcDbDimStyleTableRecord
  2
DIMSTYLE001
 70
     0
 41
10.0
 42
0.0
 43
1000.0
 44
0.0
 73
     0
 74
     0
 77
     1
140
25.0
147
0.0
172
     1
174
     1
271
     0
340
127
341
14A
342
14A
  0
DIMSTYLE
105
150
102
{ACAD_REACTORS
330
40D
330
417
102
}
330
9
100
AcDbSymbolTableRecord
100
AcDbDimStyleTableRecord
  2
DIMSTYLE002
 70
     0
 41
8.0
 42
0.0
 43
1000.0
 44
0.0
 73
     0
 74
     0
 77
     1
140
25.0
147
0.0
172
     1
174
     1
271
     1
340
127
341
14A
342
14A
  0
ENDTAB
  0
TABLE
  2
BLOCK_RECORD
  5
1
330
0
100
AcDbSymbolTable
 70
    16
  0
BLOCK_RECORD
  5
A
330
1
100
AcDbSymbolTableRecord
100
AcDbBlockTableRecord
  2
*MODEL_SPACE
340
76F
  0
BLOCK_RECORD
  5
B
330
1
100
AcDbSymbolTableRecord
100
AcDbBlockTableRecord
  2
*PAPER_SPACE
340
770
  0
BLOCK_RECORD
  5
14A
330
1
100
AcDbSymbolTableRecord
100
AcDbBlockTableRecord
  2
_ORIGIN
340
0
102
{BLKREFS
331
3A3
331
3A4
331
3B7
331
3B8
331
3C1
331
3C2
331
3CE
331
3CF
331
3D8
331
3D9
331
3E2
331
3E3
331
3EC
331
3ED
331
3F6
331
3F7
331
409
331
40A
331
413
331
414
331
70F
331
710
331
777
331
778
102
}
  0
BLOCK_RECORD
  5
151
330
1
100
AcDbSymbolTableRecord
100
AcDbBlockTableRecord
  2
1
340
0
102
{BLKREFS
331
193
102
}
  0
BLOCK_RECORD
  5
152
330
1
100
AcDbSymbolTableRecord
100
AcDbBlockTableRecord
  2
2
340
0
102
{BLKREFS
331
196
102
}
  0
BLOCK_RECORD
  5
153
330
1
100
AcDbSymbolTableRecord
100
AcDbBlockTableRecord
  2
3
340
0
102
{BLKREFS
331
1B6
102
}
  0
BLOCK_RECORD
  5
39E
330
1
100
AcDbSymbolTableRecord
100
AcDbBlockTableRecord
  2
*D4
340
0
  0
BLOCK_RECORD
  5
3A8
330
1
100
AcDbSymbolTableRecord
100
AcDbBlockTableRecord
  2
*D5
340
0
  0
BLOCK_RECORD
  5
3B2
330
1
100
AcDbSymbolTableRecord
100
AcDbBlockTableRecord
  2
*D6
340
0
  0
BLOCK_RECORD
  5
3BC
330
1
100
AcDbSymbolTableRecord
100
AcDbBlockTableRecord
  2
*D7
340
0
  0
BLOCK_RECORD
  5
3C9
330
1
100
AcDbSymbolTableRecord
100
AcDbBlockTableRecord
  2
*D8
340
0
  0
BLOCK_RECORD
  5
3D3
330
1
100
AcDbSymbolTableRecord
100
AcDbBlockTableRecord
  2
*D9
340
0
  0
BLOCK_RECORD
  5
3DD
330
1
100
AcDbSymbolTableRecord
100
AcDbBlockTableRecord
  2
*D10
340
0
  0
BLOCK_RECORD
  5
3E7
330
1
100
AcDbSymbolTableRecord
100
AcDbBlockTableRecord
  2
*D11
340
0
  0
BLOCK_RECORD
  5
3F1
330
1
100
AcDbSymbolTableRecord
100
AcDbBlockTableRecord
  2
*D12
340
0
  0
BLOCK_RECORD
  5
404
330
1
100
AcDbSymbolTableRecord
100
AcDbBlockTableRecord
  2
*D13
340
0
  0
BLOCK_RECORD
  5
40E
330
1
100
AcDbSymbolTableRecord
100
AcDbBlockTableRecord
  2
*D14
340
0
  0
BLOCK_RECORD
  5
70A
330
1
100
AcDbSymbolTableRecord
100
AcDbBlockTableRecord
  2
*D15
340
0
  0
ENDTAB
  0
ENDSEC
  0
SECTION
  2
BLOCKS
  0
BLOCK
  5
D
330
A
100
AcDbEntity
  8
0
100
AcDbBlockBegin
  2
*MODEL_SPACE
 70
     0
 10
0.0
 20
0.0
 30
0.0
  3
*MODEL_SPACE
  1

  0
ENDBLK
  5
E
330
A
100
AcDbEntity
  8
0
100
AcDbBlockEnd
  0
BLOCK
  5
F
330
B
100
AcDbEntity
 67
     1
  8
0
100
AcDbBlockBegin
  2
*PAPER_SPACE
 70
     0
 10
0.0
 20
0.0
 30
0.0
  3
*PAPER_SPACE
  1

  0
ENDBLK
  5
10
330
B
100
AcDbEntity
 67
     1
  8
0
100
AcDbBlockEnd
  0
BLOCK
  5
14B
330
14A
100
AcDbEntity
  8
0
100
AcDbBlockBegin
  2
_ORIGIN
 70
     0
 10
0.0
 20
0.0
 30
0.0
  3
_ORIGIN
  1

  0
CIRCLE
  5
14C
330
14A
100
AcDbEntity
  8
0
  6
ByBlock
 62
     0
100
AcDbCircle
 10
0.0
 20
0.0
 30
0.0
 40
0.5
  0
LINE
  5
14D
330
14A
100
AcDbEntity
  8
0
  6
ByBlock
 62
     0
100
AcDbLine
 10
0.0
 20
0.0
 30
0.0
 11
-1.0
 21
0.0
 31
0.0
  0
ENDBLK
  5
14E
330
14A
100
AcDbEntity
  8
0
100
AcDbBlockEnd
  0
BLOCK
  5
154
330
151
100
AcDbEntity
  8
0
100
AcDbBlockBegin
  2
1
 70
     0
 10
0.0
 20
0.0
 30
0.0
  3
1
  1

  0
ARC
  5
155
330
151
100
AcDbEntity
  8
004
  6
Continuous
 62
     7
100
AcDbCircle
 10
133.068018
 20
-9.500510999999999
 30
0.0
 40
134.969188
100
AcDbArc
 50
45.663628
 51
224.512358
  0
LINE
  5
156
330
151
100
AcDbEntity
  8
004
  6
Continuous
 62
     7
100
AcDbLine
 10
-120.089883
 20
249.590778
 30
0.0
 11
386.225919
 21
249.590778
 31
0.0
  0
LINE
  5
157
330
151
100
AcDbEntity
  8
004
  6
Continuous
 62
     7
100
AcDbLine
 10
-120.089883
 20
-268.591801
 30
0.0
 11
-120.089883
 21
249.590778
 31
0.0
  0
ARC
  5
158
330
151
100
AcDbEntity
  8
004
  6
Continuous
 62
     7
100
AcDbCircle
 10
133.068018
 20
-9.500510999999999
 30
0.0
 40
134.969188
100
AcDbArc
 50
224.512358
 51
225.663628
  0
LINE
  5
159
330
151
100
AcDbEntity
  8
004
  6
Continuous
 62
     7
100
AcDbLine
 10
-120.089883
 20
239.590778
 30
0.0
 11
376.454927
 21
239.590778
 31
0.0
  0
LINE
  5
15A
330
151
100
AcDbEntity
  8
004
  6
Continuous
 62
     7
100
AcDbLine
 10
-120.089883
 20
229.590778
 30
0.0
 11
366.683934
 21
229.590778
 31
0.0
  0
LINE
  5
15B
330
151
100
AcDbEntity
  8
004
  6
Continuous
 62
     7
100
AcDbLine
 10
-120.089883
 20
219.590778
 30
0.0
 11
356.912942
 21
219.590778
 31
0.0
  0
LINE
  5
15C
330
151
100
AcDbEntity
  8
004
  6
Continuous
 62
     7
100
AcDbLine
 10
-120.089883
 20
209.590778
 30
0.0
 11
347.14195
 21
209.590778
 31
0.0
  0
LINE
  5
15D
330
151
100
AcDbEntity
  8
004
  6
Continuous
 62
     7
100
AcDbLine
 10
-120.089883
 20
199.590778
 30
0.0
 11
337.370957
 21
199.590778
 31
0.0
  0
LINE
  5
15E
330
151
100
AcDbEntity
  8
004
  6
Continuous
 62
     7
100
AcDbLine
 10
-120.089883
 20
189.590778
 30
0.0
 11
327.599965
 21
189.590778
 31
0.0
  0
LINE
  5
15F
330
151
100
AcDbEntity
  8
004
  6
Continuous
 62
     7
100
AcDbLine
 10
-120.089883
 20
179.590778
 30
0.0
 11
317.828973
 21
179.590778
 31
0.0
  0
LINE
  5
160
330
151
100
AcDbEntity
  8
004
  6
Continuous
 62
     7
100
AcDbLine
 10
-120.089883
 20
169.590778
 30
0.0
 11
308.05798
 21
169.590778
 31
0.0
  0
LINE
  5
161
330
151
100
AcDbEntity
  8
004
  6
Continuous
 62
     7
100
AcDbLine
 10
-120.089883
 20
159.590778
 30
0.0
 11
298.286988
 21
159.590778
 31
0.0
  0
LINE
  5
162
330
151
100
AcDbEntity
  8
004
  6
Continuous
 62
     7
100
AcDbLine
 10
-120.089883
 20
149.590778
 30
0.0
 11
288.515995
 21
149.590778
 31
0.0
  0
LINE
  5
163
330
151
100
AcDbEntity
  8
004
  6
Continuous
 62
     7
100
AcDbLine
 10
-120.089883
 20
139.590778
 30
0.0
 11
278.745003
 21
139.590778
 31
0.0
  0
LINE
  5
164
330
151
100
AcDbEntity
  8
004
  6
Continuous
 62
     7
100
AcDbLine
 10
-120.089883
 20
129.590778
 30
0.0
 11
268.974011
 21
129.590778
 31
0.0
  0
LINE
  5
165
330
151
100
AcDbEntity
  8
004
  6
Continuous
 62
     7
100
AcDbLine
 10
386.225919
 20
249.590778
 30
0.0
 11
227.393864
 21
87.03609699999999
 31
0.0
  0
LINE
  5
166
330
151
100
AcDbEntity
  8
004
  6
Continuous
 62
     7
100
AcDbLine
 10
-120.089883
 20
-110.409222
 30
0.0
 11
34.470194
 21
-110.409222
 31
0.0
  0
LINE
  5
167
330
151
100
AcDbEntity
  8
004
  6
Continuous
 62
     7
100
AcDbLine
 10
-120.089883
 20
-120.409222
 30
0.0
 11
24.699202
 21
-120.409222
 31
0.0
  0
LINE
  5
168
330
151
100
AcDbEntity
  8
004
  6
Continuous
 62
     7
100
AcDbLine
 10
-120.089883
 20
-130.409222
 30
0.0
 11
14.928209
 21
-130.409222
 31
0.0
  0
LINE
  5
169
330
151
100
AcDbEntity
  8
004
  6
Continuous
 62
     7
100
AcDbLine
 10
-120.089883
 20
-140.409222
 30
0.0
 11
5.157217
 21
-140.409222
 31
0.0
  0
LINE
  5
16A
330
151
100
AcDbEntity
  8
004
  6
Continuous
 62
     7
100
AcDbLine
 10
-120.089883
 20
-150.409222
 30
0.0
 11
-4.613776
 21
-150.409222
 31
0.0
  0
LINE
  5
16B
330
151
100
AcDbEntity
  8
004
  6
Continuous
 62
     7
100
AcDbLine
 10
-120.089883
 20
-160.409222
 30
0.0
 11
-14.384768
 21
-160.409222
 31
0.0
  0
LINE
  5
16C
330
151
100
AcDbEntity
  8
004
  6
Continuous
 62
     7
100
AcDbLine
 10
-120.089883
 20
-170.409222
 30
0.0
 11
-24.15576
 21
-170.409222
 31
0.0
  0
LINE
  5
16D
330
151
100
AcDbEntity
  8
004
  6
Continuous
 62
     7
100
AcDbLine
 10
-120.089883
 20
-180.409222
 30
0.0
 11
-33.926753
 21
-180.409222
 31
0.0
  0
LINE
  5
16E
330
151
100
AcDbEntity
  8
004
  6
Continuous
 62
     7
100
AcDbLine
 10
-120.089883
 20
-190.409222
 30
0.0
 11
-43.697745
 21
-190.409222
 31
0.0
  0
LINE
  5
16F
330
151
100
AcDbEntity
  8
004
  6
Continuous
 62
     7
100
AcDbLine
 10
-120.089883
 20
-200.409222
 30
0.0
 11
-53.46873699999999
 21
-200.409222
 31
0.0
  0
LINE
  5
170
330
151
100
AcDbEntity
  8
004
  6
Continuous
 62
     7
100
AcDbLine
 10
-120.089883
 20
-210.409222
 30
0.0
 11
-63.23973
 21
-210.409222
 31
0.0
  0
LINE
  5
171
330
151
100
AcDbEntity
  8
004
  6
Continuous
 62
     7
100
AcDbLine
 10
-120.089883
 20
-220.409222
 30
0.0
 11
-73.010722
 21
-220.409222
 31
0.0
  0
LINE
  5
172
330
151
100
AcDbEntity
  8
004
  6
Continuous
 62
     7
100
AcDbLine
 10
-120.089883
 20
-230.409222
 30
0.0
 11
-82.78171400000001
 21
-230.409222
 31
0.0
  0
LINE
  5
173
330
151
100
AcDbEntity
  8
004
  6
Continuous
 62
     7
100
AcDbLine
 10
-120.089883
 20
-240.409222
 30
0.0
 11
-92.552707
 21
-240.409222
 31
0.0
  0
LINE
  5
174
330
151
100
AcDbEntity
  8
004
  6
Continuous
 62
     7
100
AcDbLine
 10
-120.089883
 20
-250.409222
 30
0.0
 11
-102.323699
 21
-250.409222
 31
0.0
  0
LINE
  5
175
330
151
100
AcDbEntity
  8
004
  6
Continuous
 62
     7
100
AcDbLine
 10
-120.089883
 20
-260.409222
 30
0.0
 11
-112.094692
 21
-260.409222
 31
0.0
  0
LINE
  5
176
330
151
100
AcDbEntity
  8
004
  6
Continuous
 62
     7
100
AcDbLine
 10
38.761214
 20
-106.017631
 30
0.0
 11
-120.089883
 21
-268.591801
 31
0.0
  0
LINE
  5
177
330
151
100
AcDbEntity
  8
004
  6
Continuous
 62
     7
100
AcDbLine
 10
-120.089883
 20
-100.409222
 30
0.0
 11
33.306863
 21
-100.409222
 31
0.0
  0
LINE
  5
178
330
151
100
AcDbEntity
  8
004
  6
Continuous
 62
     7
100
AcDbLine
 10
-120.089883
 20
-90.409222
 30
0.0
 11
25.038104
 21
-90.409222
 31
0.0
  0
LINE
  5
179
330
151
100
AcDbEntity
  8
004
  6
Continuous
 62
     7
100
AcDbLine
 10
-120.089883
 20
-80.409222
 30
0.0
 11
18.226229
 21
-80.409222
 31
0.0
  0
LINE
  5
17A
330
151
100
AcDbEntity
  8
004
  6
Continuous
 62
     7
100
AcDbLine
 10
-120.089883
 20
-70.409222
 30
0.0
 11
12.623795
 21
-70.409222
 31
0.0
  0
LINE
  5
17B
330
151
100
AcDbEntity
  8
004
  6
Continuous
 62
     7
100
AcDbLine
 10
-120.089883
 20
-60.409222
 30
0.0
 11
8.068077999999999
 21
-60.409222
 31
0.0
  0
LINE
  5
17C
330
151
100
AcDbEntity
  8
004
  6
Continuous
 62
     7
100
AcDbLine
 10
-120.089883
 20
-50.409222
 30
0.0
 11
4.447805
 21
-50.409222
 31
0.0
  0
LINE
  5
17D
330
151
100
AcDbEntity
  8
004
  6
Continuous
 62
     7
100
AcDbLine
 10
-120.089883
 20
-40.40922199999999
 30
0.0
 11
1.685624
 21
-40.40922199999999
 31
0.0
  0
LINE
  5
17E
330
151
100
AcDbEntity
  8
004
  6
Continuous
 62
     7
100
AcDbLine
 10
-120.089883
 20
-30.409222
 30
0.0
 11
-0.271802
 21
-30.409222
 31
0.0
  0
LINE
  5
17F
330
151
100
AcDbEntity
  8
004
  6
Continuous
 62
     7
100
AcDbLine
 10
-120.089883
 20
-20.409222
 30
0.0
 11
-1.459606999999999
 21
-20.409222
 31
0.0
  0
LINE
  5
180
330
151
100
AcDbEntity
  8
004
  6
Continuous
 62
     7
100
AcDbLine
 10
-120.089883
 20
-10.409222
 30
0.0
 11
-1.898111
 21
-10.409222
 31
0.0
  0
LINE
  5
181
330
151
100
AcDbEntity
  8
004
  6
Continuous
 62
     7
100
AcDbLine
 10
-120.089883
 20
-0.409222
 30
0.0
 11
-1.594635
 21
-0.409222
 31
0.0
  0
LINE
  5
182
330
151
100
AcDbEntity
  8
004
  6
Continuous
 62
     7
100
AcDbLine
 10
-120.089883
 20
9.590778
 30
0.0
 11
-0.544124
 21
9.590778
 31
0.0
  0
LINE
  5
183
330
151
100
AcDbEntity
  8
004
  6
Continuous
 62
     7
100
AcDbLine
 10
-120.089883
 20
19.590778
 30
0.0
 11
1.271286
 21
19.590778
 31
0.0
  0
LINE
  5
184
330
151
100
AcDbEntity
  8
004
  6
Continuous
 62
     7
100
AcDbLine
 10
-120.089883
 20
29.59077800000001
 30
0.0
 11
3.883836
 21
29.59077800000001
 31
0.0
  0
LINE
  5
185
330
151
100
AcDbEntity
  8
004
  6
Continuous
 62
     7
100
AcDbLine
 10
-120.089883
 20
39.590778
 30
0.0
 11
7.343211
 21
39.590778
 31
0.0
  0
LINE
  5
186
330
151
100
AcDbEntity
  8
004
  6
Continuous
 62
     7
100
AcDbLine
 10
-120.089883
 20
49.590778
 30
0.0
 11
11.721814
 21
49.590778
 31
0.0
  0
LINE
  5
187
330
151
100
AcDbEntity
  8
004
  6
Continuous
 62
     7
100
AcDbLine
 10
-120.089883
 20
59.590778
 30
0.0
 11
17.12374
 21
59.590778
 31
0.0
  0
LINE
  5
188
330
151
100
AcDbEntity
  8
004
  6
Continuous
 62
     7
100
AcDbLine
 10
-120.089883
 20
69.590778
 30
0.0
 11
23.70052
 21
69.590778
 31
0.0
  0
LINE
  5
189
330
151
100
AcDbEntity
  8
004
  6
Continuous
 62
     7
100
AcDbLine
 10
-120.089883
 20
79.590778
 30
0.0
 11
31.680524
 21
79.590778
 31
0.0
  0
LINE
  5
18A
330
151
100
AcDbEntity
  8
004
  6
Continuous
 62
     7
100
AcDbLine
 10
-120.089883
 20
89.59077800000001
 30
0.0
 11
41.42960799999999
 21
89.59077800000001
 31
0.0
  0
LINE
  5
18B
330
151
100
AcDbEntity
  8
004
  6
Continuous
 62
     7
100
AcDbLine
 10
-120.089883
 20
99.59077800000001
 30
0.0
 11
53.59618399999999
 21
99.59077800000001
 31
0.0
  0
LINE
  5
18C
330
151
100
AcDbEntity
  8
004
  6
Continuous
 62
     7
100
AcDbLine
 10
-120.089883
 20
109.590778
 30
0.0
 11
69.55466099999999
 21
109.590778
 31
0.0
  0
LINE
  5
18D
330
151
100
AcDbEntity
  8
004
  6
Continuous
 62
     7
100
AcDbLine
 10
-120.089883
 20
119.590778
 30
0.0
 11
93.67105399999999
 21
119.590778
 31
0.0
  0
LINE
  5
18E
330
151
100
AcDbEntity
  8
004
  6
Continuous
 62
     7
100
AcDbLine
 10
172.464982
 20
119.590778
 30
0.0
 11
259.203018
 21
119.590778
 31
0.0
  0
LINE
  5
18F
330
151
100
AcDbEntity
  8
004
  6
Continuous
 62
     7
100
AcDbLine
 10
196.581375
 20
109.590778
 30
0.0
 11
249.432026
 21
109.590778
 31
0.0
  0
LINE
  5
190
330
151
100
AcDbEntity
  8
004
  6
Continuous
 62
     7
100
AcDbLine
 10
212.539852
 20
99.59077800000001
 30
0.0
 11
239.661034
 21
99.59077800000001
 31
0.0
  0
ENDBLK
  5
191
330
151
100
AcDbEntity
  8
0
100
AcDbBlockEnd
  0
BLOCK
  5
192
330
152
100
AcDbEntity
  8
0
100
AcDbBlockBegin
  2
2
 70
     0
 10
0.0
 20
0.0
 30
0.0
  3
2
  1

  0
INSERT
  5
193
330
152
100
AcDbEntity
  8
004
  6
Continuous
 62
     7
100
AcDbBlockReference
  2
1
 10
-26.613604
 20
1.900102
 30
0.0
 41
0.2
 42
0.2
  0
ENDBLK
  5
194
330
152
100
AcDbEntity
  8
0
100
AcDbBlockEnd
  0
BLOCK
  5
195
330
153
100
AcDbEntity
  8
0
100
AcDbBlockBegin
  2
3
 70
     0
 10
0.0
 20
0.0
 30
0.0
  3
3
  1

  0
INSERT
  5
196
330
153
100
AcDbEntity
  8
003
  6
Continuous
 62
     7
100
AcDbBlockReference
  2
2
 10
187.309635
 20
61.739262
 30
0.0
  0
ENDBLK
  5
197
330
153
100
AcDbEntity
  8
0
100
AcDbBlockEnd
  0
BLOCK
  5
39F
330
39E
100
AcDbEntity
  8
0
100
AcDbBlockBegin
  2
*D4
 70
     1
 10
0.0
 20
0.0
 30
0.0
  3
*D4
  1

  0
LINE
  5
3A0
330
39E
100
AcDbEntity
  8
0
  6
ByBlock
 62
     0
100
AcDbLine
 10
22882.169479
 20
-20023.684866
 30
0.0
 11
22810.76367
 21
-20023.684866
 31
0.0
  0
LINE
  5
3A1
330
39E
100
AcDbEntity
  8
0
  6
ByBlock
 62
     0
100
AcDbLine
 10
22882.294479
 20
-19168.684866
 30
0.0
 11
22810.76367
 21
-19168.684866
 31
0.0
  0
LINE
  5
3A2
330
39E
100
AcDbEntity
  8
0
  6
ByBlock
 62
     0
100
AcDbLine
 10
22810.76367
 20
-20023.684866
 30
0.0
 11
22810.76367
 21
-19168.684866
 31
0.0
  0
INSERT
  5
3A3
330
39E
100
AcDbEntity
  8
0
  6
ByBlock
 62
     0
100
AcDbBlockReference
  2
_ORIGIN
 10
22810.76367
 20
-20023.684866
 30
0.0
 41
10.0
 42
10.0
 43
10.0
 50
270.0
  0
INSERT
  5
3A4
330
39E
100
AcDbEntity
  8
0
  6
ByBlock
 62
     0
100
AcDbBlockReference
  2
_ORIGIN
 10
22810.76367
 20
-19168.684866
 30
0.0
 41
10.0
 42
10.0
 43
10.0
 50
90.0
  0
MTEXT
  5
3A5
330
39E
100
AcDbEntity
  8
0
  6
ByBlock
 62
     0
100
AcDbMText
 10
22798.26367
 20
-19596.184866
 30
0.0
 40
25.0
 41
0.0
 71
     5
 72
     1
  1
{\A1;855}
  7
DRACAD
 11
0.0
 21
1.0
 31
0.0
 73
     1
 44
1.0
1001
ACAD
1000
MTEXTBEGIN
1070
    73
1070
     1
1070
    44
1040
1.0
1070
    74
1070
     0
1000
MTEXTEND
  0
ENDBLK
  5
3A6
330
39E
100
AcDbEntity
  8
0
100
AcDbBlockEnd
  0
BLOCK
  5
3A9
330
3A8
100
AcDbEntity
  8
0
100
AcDbBlockBegin
  2
*D5
 70
     1
 10
0.0
 20
0.0
 30
0.0
  3
*D5
  1

  0
LINE
  5
773
330
3A8
100
AcDbEntity
  8
0
  6
Continuous
 62
     0
370
    -2
100
AcDbLine
 10
23839.744658
 20
-19071.95142
 30
0.0
 11
23839.744658
 21
-19014.049436
 31
0.0
  0
LINE
  5
774
330
3A8
100
AcDbEntity
  8
0
  6
Continuous
 62
     0
370
    -2
100
AcDbLine
 10
22974.744658
 20
-19071.95142
 30
0.0
 11
22974.744658
 21
-19014.049436
 31
0.0
  0
LINE
  5
775
330
3A8
100
AcDbEntity
  8
0
  6
Continuous
 62
     0
370
    -2
100
AcDbLine
 10
23829.744658
 20
-19014.049436
 30
0.0
 11
22984.744658
 21
-19014.049436
 31
0.0
  0
MTEXT
  5
776
330
3A8
100
AcDbEntity
  8
0
  6
Continuous
 62
     0
100
AcDbMText
 10
23408.29369010052
 20
-19001.549436
 30
0.0
 40
25.0
 41
0.0
 71
     5
 72
     1
  1
\A1;865
  7
DRACAD
 73
     1
 44
1.0
1001
ACAD
1000
MTEXTBEGIN
1070
    73
1070
     1
1070
    44
1040
1.0
1070
    74
1070
     0
1000
MTEXTEND
  0
INSERT
  5
777
330
3A8
100
AcDbEntity
  8
0
  6
Continuous
 62
     0
370
    -2
100
AcDbBlockReference
  2
_ORIGIN
 10
23839.744658
 20
-19014.049436
 30
0.0
 41
10.0
 42
10.0
 43
10.0
  0
INSERT
  5
778
330
3A8
100
AcDbEntity
  8
0
  6
Continuous
 62
     0
370
    -2
100
AcDbBlockReference
  2
_ORIGIN
 10
22974.744658
 20
-19014.049436
 30
0.0
 41
10.0
 42
10.0
 43
10.0
 50
180.0
  0
POINT
  5
779
330
3A8
100
AcDbEntity
  8
Defpoints
  6
Continuous
 62
     0
100
AcDbPoint
 10
23839.744658
 20
-19071.95142
 30
0.0
  0
POINT
  5
77A
330
3A8
100
AcDbEntity
  8
Defpoints
  6
Continuous
 62
     0
100
AcDbPoint
 10
22974.744658
 20
-19071.95142
 30
0.0
  0
POINT
  5
77B
330
3A8
100
AcDbEntity
  8
Defpoints
  6
Continuous
 62
     0
100
AcDbPoint
 10
22974.744658
 20
-19014.049436
 30
0.0
  0
ENDBLK
  5
3B0
330
3A8
100
AcDbEntity
  8
0
100
AcDbBlockEnd
  0
BLOCK
  5
3B3
330
3B2
100
AcDbEntity
  8
0
100
AcDbBlockBegin
  2
*D6
 70
     1
 10
0.0
 20
0.0
 30
0.0
  3
*D6
  1

  0
LINE
  5
3B4
330
3B2
100
AcDbEntity
  8
0
  6
ByBlock
 62
     0
100
AcDbLine
 10
23329.744658
 20
-20130.429081
 30
0.0
 11
23329.744658
 21
-20234.475885
 31
0.0
  0
LINE
  5
3B5
330
3B2
100
AcDbEntity
  8
0
  6
ByBlock
 62
     0
100
AcDbLine
 10
23839.744658
 20
-20130.429081
 30
0.0
 11
23839.744658
 21
-20234.475885
 31
0.0
  0
LINE
  5
3B6
330
3B2
100
AcDbEntity
  8
0
  6
ByBlock
 62
     0
100
AcDbLine
 10
23329.744658
 20
-20234.475885
 30
0.0
 11
23839.744658
 21
-20234.475885
 31
0.0
  0
INSERT
  5
3B7
330
3B2
100
AcDbEntity
  8
0
  6
ByBlock
 62
     0
100
AcDbBlockReference
  2
_ORIGIN
 10
23329.744658
 20
-20234.475885
 30
0.0
 41
10.0
 42
10.0
 43
10.0
 50
180.0
  0
INSERT
  5
3B8
330
3B2
100
AcDbEntity
  8
0
  6
ByBlock
 62
     0
100
AcDbBlockReference
  2
_ORIGIN
 10
23839.744658
 20
-20234.475885
 30
0.0
 41
10.0
 42
10.0
 43
10.0
  0
MTEXT
  5
3B9
330
3B2
100
AcDbEntity
  8
0
  6
ByBlock
 62
     0
100
AcDbMText
 10
23584.744658
 20
-20221.975885
 30
0.0
 40
25.0
 41
0.0
 71
     5
 72
     1
  1
{\A1;510}
  7
DRACAD
 73
     1
 44
1.0
1001
ACAD
1000
MTEXTBEGIN
1070
    73
1070
     1
1070
    44
1040
1.0
1070
    74
1070
     0
1000
MTEXTEND
  0
ENDBLK
  5
3BA
330
3B2
100
AcDbEntity
  8
0
100
AcDbBlockEnd
  0
BLOCK
  5
3BD
330
3BC
100
AcDbEntity
  8
0
100
AcDbBlockBegin
  2
*D7
 70
     1
 10
0.0
 20
0.0
 30
0.0
  3
*D7
  1

  0
LINE
  5
3BE
330
3BC
100
AcDbEntity
  8
0
  6
ByBlock
 62
     0
100
AcDbLine
 10
22974.744658
 20
-20130.429081
 30
0.0
 11
22974.744658
 21
-20234.475885
 31
0.0
  0
LINE
  5
3BF
330
3BC
100
AcDbEntity
  8
0
  6
ByBlock
 62
     0
100
AcDbLine
 10
23329.744658
 20
-20130.429081
 30
0.0
 11
23329.744658
 21
-20234.475885
 31
0.0
  0
LINE
  5
3C0
330
3BC
100
AcDbEntity
  8
0
  6
ByBlock
 62
     0
100
AcDbLine
 10
22974.744658
 20
-20234.475885
 30
0.0
 11
23329.744658
 21
-20234.475885
 31
0.0
  0
INSERT
  5
3C1
330
3BC
100
AcDbEntity
  8
0
  6
ByBlock
 62
     0
100
AcDbBlockReference
  2
_ORIGIN
 10
22974.744658
 20
-20234.475885
 30
0.0
 41
10.0
 42
10.0
 43
10.0
 50
180.0
  0
INSERT
  5
3C2
330
3BC
100
AcDbEntity
  8
0
  6
ByBlock
 62
     0
100
AcDbBlockReference
  2
_ORIGIN
 10
23329.744658
 20
-20234.475885
 30
0.0
 41
10.0
 42
10.0
 43
10.0
  0
MTEXT
  5
3C3
330
3BC
100
AcDbEntity
  8
0
  6
ByBlock
 62
     0
100
AcDbMText
 10
23152.244658
 20
-20221.975885
 30
0.0
 40
25.0
 41
0.0
 71
     5
 72
     1
  1
{\A1;355}
  7
DRACAD
 73
     1
 44
1.0
1001
ACAD
1000
MTEXTBEGIN
1070
    73
1070
     1
1070
    44
1040
1.0
1070
    74
1070
     0
1000
MTEXTEND
  0
ENDBLK
  5
3C4
330
3BC
100
AcDbEntity
  8
0
100
AcDbBlockEnd
  0
BLOCK
  5
3CA
330
3C9
100
AcDbEntity
  8
0
100
AcDbBlockBegin
  2
*D8
 70
     1
 10
0.0
 20
0.0
 30
0.0
  3
*D8
  1

  0
LINE
  5
3CB
330
3C9
100
AcDbEntity
  8
0
  6
ByBlock
 62
     0
100
AcDbLine
 10
22873.000443
 20
-20593.57536
 30
0.0
 11
22768.953639
 21
-20593.57536
 31
0.0
  0
LINE
  5
3CC
330
3C9
100
AcDbEntity
  8
0
  6
ByBlock
 62
     0
100
AcDbLine
 10
22873.000443
 20
-20518.57536
 30
0.0
 11
22768.953639
 21
-20518.57536
 31
0.0
  0
LINE
  5
3CD
330
3C9
100
AcDbEntity
  8
0
  6
ByBlock
 62
     0
100
AcDbLine
 10
22768.953639
 20
-20593.57536
 30
0.0
 11
22768.953639
 21
-20518.57536
 31
0.0
  0
INSERT
  5
3CE
330
3C9
100
AcDbEntity
  8
0
  6
ByBlock
 62
     0
100
AcDbBlockReference
  2
_ORIGIN
 10
22768.953639
 20
-20593.57536
 30
0.0
 41
10.0
 42
10.0
 43
10.0
 50
270.0
  0
INSERT
  5
3CF
330
3C9
100
AcDbEntity
  8
0
  6
ByBlock
 62
     0
100
AcDbBlockReference
  2
_ORIGIN
 10
22768.953639
 20
-20518.57536
 30
0.0
 41
10.0
 42
10.0
 43
10.0
 50
90.0
  0
MTEXT
  5
3D0
330
3C9
100
AcDbEntity
  8
0
  6
ByBlock
 62
     0
100
AcDbMText
 10
22756.453639
 20
-20556.07536
 30
0.0
 40
25.0
 41
0.0
 71
     5
 72
     1
  1
{\A1;75}
  7
DRACAD
 11
0.0
 21
1.0
 31
0.0
 73
     1
 44
1.0
1001
ACAD
1000
MTEXTBEGIN
1070
    73
1070
     1
1070
    44
1040
1.0
1070
    74
1070
     0
1000
MTEXTEND
  0
ENDBLK
  5
3D1
330
3C9
100
AcDbEntity
  8
0
100
AcDbBlockEnd
  0
BLOCK
  5
3D4
330
3D3
100
AcDbEntity
  8
0
100
AcDbBlockBegin
  2
*D9
 70
     1
 10
0.0
 20
0.0
 30
0.0
  3
*D9
  1

  0
LINE
  5
3D5
330
3D3
100
AcDbEntity
  8
0
  6
ByBlock
 62
     0
100
AcDbLine
 10
22873.000443
 20
-20518.57536
 30
0.0
 11
22768.953639
 21
-20518.57536
 31
0.0
  0
LINE
  5
3D6
330
3D3
100
AcDbEntity
  8
0
  6
ByBlock
 62
     0
100
AcDbLine
 10
22873.000443
 20
-20488.57536
 30
0.0
 11
22768.953639
 21
-20488.57536
 31
0.0
  0
LINE
  5
3D7
330
3D3
100
AcDbEntity
  8
0
  6
ByBlock
 62
     0
100
AcDbLine
 10
22768.953639
 20
-20518.57536
 30
0.0
 11
22768.953639
 21
-20488.57536
 31
0.0
  0
INSERT
  5
3D8
330
3D3
100
AcDbEntity
  8
0
  6
ByBlock
 62
     0
100
AcDbBlockReference
  2
_ORIGIN
 10
22768.953639
 20
-20518.57536
 30
0.0
 41
10.0
 42
10.0
 43
10.0
 50
270.0
  0
INSERT
  5
3D9
330
3D3
100
AcDbEntity
  8
0
  6
ByBlock
 62
     0
100
AcDbBlockReference
  2
_ORIGIN
 10
22768.953639
 20
-20488.57536
 30
0.0
 41
10.0
 42
10.0
 43
10.0
 50
90.0
  0
MTEXT
  5
3DA
330
3D3
100
AcDbEntity
  8
0
  6
ByBlock
 62
     0
100
AcDbMText
 10
22756.453639
 20
-20503.57536
 30
0.0
 40
25.0
 41
0.0
 71
     5
 72
     1
  1
{\A1;30}
  7
DRACAD
 11
0.0
 21
1.0
 31
0.0
 73
     1
 44
1.0
1001
ACAD
1000
MTEXTBEGIN
1070
    73
1070
     1
1070
    44
1040
1.0
1070
    74
1070
     0
1000
MTEXTEND
  0
ENDBLK
  5
3DB
330
3D3
100
AcDbEntity
  8
0
100
AcDbBlockEnd
  0
BLOCK
  5
3DE
330
3DD
100
AcDbEntity
  8
0
100
AcDbBlockBegin
  2
*D10
 70
     1
 10
0.0
 20
0.0
 30
0.0
  3
*D10
  1

  0
LINE
  5
3DF
330
3DD
100
AcDbEntity
  8
0
  6
ByBlock
 62
     0
100
AcDbLine
 10
22813.000443
 20
-20593.57536
 30
0.0
 11
22708.953639
 21
-20593.57536
 31
0.0
  0
LINE
  5
3E0
330
3DD
100
AcDbEntity
  8
0
  6
ByBlock
 62
     0
100
AcDbLine
 10
22813.000443
 20
-20488.57536
 30
0.0
 11
22708.953639
 21
-20488.57536
 31
0.0
  0
LINE
  5
3E1
330
3DD
100
AcDbEntity
  8
0
  6
ByBlock
 62
     0
100
AcDbLine
 10
22708.953639
 20
-20593.57536
 30
0.0
 11
22708.953639
 21
-20488.57536
 31
0.0
  0
INSERT
  5
3E2
330
3DD
100
AcDbEntity
  8
0
  6
ByBlock
 62
     0
100
AcDbBlockReference
  2
_ORIGIN
 10
22708.953639
 20
-20593.57536
 30
0.0
 41
10.0
 42
10.0
 43
10.0
 50
270.0
  0
INSERT
  5
3E3
330
3DD
100
AcDbEntity
  8
0
  6
ByBlock
 62
     0
100
AcDbBlockReference
  2
_ORIGIN
 10
22708.953639
 20
-20488.57536
 30
0.0
 41
10.0
 42
10.0
 43
10.0
 50
90.0
  0
MTEXT
  5
3E4
330
3DD
100
AcDbEntity
  8
0
  6
ByBlock
 62
     0
100
AcDbMText
 10
22696.453639
 20
-20541.07536
 30
0.0
 40
25.0
 41
0.0
 71
     5
 72
     1
  1
{\A1;105}
  7
DRACAD
 11
0.0
 21
1.0
 31
0.0
 73
     1
 44
1.0
1001
ACAD
1000
MTEXTBEGIN
1070
    73
1070
     1
1070
    44
1040
1.0
1070
    74
1070
     0
1000
MTEXTEND
  0
ENDBLK
  5
3E5
330
3DD
100
AcDbEntity
  8
0
100
AcDbBlockEnd
  0
BLOCK
  5
3E8
330
3E7
100
AcDbEntity
  8
0
100
AcDbBlockBegin
  2
*D11
 70
     1
 10
0.0
 20
0.0
 30
0.0
  3
*D11
  1

  0
LINE
  5
3E9
330
3E7
100
AcDbEntity
  8
0
  6
ByBlock
 62
     0
100
AcDbLine
 10
23159.877834
 20
-20495.64966
 30
0.0
 11
23139.821925
 21
-20444.555072
 31
0.0
  0
LINE
  5
3EA
330
3E7
100
AcDbEntity
  8
0
  6
ByBlock
 62
     0
100
AcDbLine
 10
23401.90056
 20
-20400.64966
 30
0.0
 11
23381.844651
 21
-20349.555072
 31
0.0
  0
LINE
  5
3EB
330
3E7
100
AcDbEntity
  8
0
  6
ByBlock
 62
     0
100
AcDbLine
 10
23139.821925
 20
-20444.555072
 30
0.0
 11
23381.844651
 21
-20349.555072
 31
0.0
  0
INSERT
  5
3EC
330
3E7
100
AcDbEntity
  8
0
  6
ByBlock
 62
     0
100
AcDbBlockReference
  2
_ORIGIN
 10
23139.821925
 20
-20444.555072
 30
0.0
 41
10.0
 42
10.0
 43
10.0
 50
201.431255
  0
INSERT
  5
3ED
330
3E7
100
AcDbEntity
  8
0
  6
ByBlock
 62
     0
100
AcDbBlockReference
  2
_ORIGIN
 10
23381.844651
 20
-20349.555072
 30
0.0
 41
10.0
 42
10.0
 43
10.0
 50
21.431255
  0
MTEXT
  5
3EE
330
3E7
100
AcDbEntity
  8
0
  6
ByBlock
 62
     0
100
AcDbMText
 10
23256.26598
 20
-20385.419364
 30
0.0
 40
25.0
 41
0.0
 71
     5
 72
     1
  1
{\A1;260}
  7
DRACAD
 11
0.930856556598686
 21
0.3653848259537296
 31
0.0
 73
     1
 44
1.0
1001
ACAD
1000
MTEXTBEGIN
1070
    73
1070
     1
1070
    44
1040
1.0
1070
    74
1070
     0
1000
MTEXTEND
  0
ENDBLK
  5
3EF
330
3E7
100
AcDbEntity
  8
0
100
AcDbBlockEnd
  0
BLOCK
  5
3F2
330
3F1
100
AcDbEntity
  8
0
100
AcDbBlockBegin
  2
*D12
 70
     1
 10
0.0
 20
0.0
 30
0.0
  3
*D12
  1

  0
LINE
  5
3F3
330
3F1
100
AcDbEntity
  8
0
  6
ByBlock
 62
     0
100
AcDbLine
 10
23174.744658
 20
-20673.914729
 30
0.0
 11
23174.744658
 21
-20755.98477
 31
0.0
  0
LINE
  5
3F4
330
3F1
100
AcDbEntity
  8
0
  6
ByBlock
 62
     0
100
AcDbLine
 10
23484.744658
 20
-20673.914729
 30
0.0
 11
23484.744658
 21
-20755.98477
 31
0.0
  0
LINE
  5
3F5
330
3F1
100
AcDbEntity
  8
0
  6
ByBlock
 62
     0
100
AcDbLine
 10
23174.744658
 20
-20755.98477
 30
0.0
 11
23484.744658
 21
-20755.98477
 31
0.0
  0
INSERT
  5
3F6
330
3F1
100
AcDbEntity
  8
0
  6
ByBlock
 62
     0
100
AcDbBlockReference
  2
_ORIGIN
 10
23174.744658
 20
-20755.98477
 30
0.0
 41
10.0
 42
10.0
 43
10.0
 50
180.0
  0
INSERT
  5
3F7
330
3F1
100
AcDbEntity
  8
0
  6
ByBlock
 62
     0
100
AcDbBlockReference
  2
_ORIGIN
 10
23484.744658
 20
-20755.98477
 30
0.0
 41
10.0
 42
10.0
 43
10.0
  0
MTEXT
  5
3F8
330
3F1
100
AcDbEntity
  8
0
  6
ByBlock
 62
     0
100
AcDbMText
 10
23329.744658
 20
-20743.48477
 30
0.0
 40
25.0
 41
0.0
 71
     5
 72
     1
  1
{\A1;310}
  7
DRACAD
 73
     1
 44
1.0
1001
ACAD
1000
MTEXTBEGIN
1070
    73
1070
     1
1070
    44
1040
1.0
1070
    74
1070
     0
1000
MTEXTEND
  0
ENDBLK
  5
3F9
330
3F1
100
AcDbEntity
  8
0
100
AcDbBlockEnd
  0
BLOCK
  5
405
330
404
100
AcDbEntity
  8
0
100
AcDbBlockBegin
  2
*D13
 70
     1
 10
0.0
 20
0.0
 30
0.0
  3
*D13
  1

  0
LINE
  5
406
330
404
100
AcDbEntity
  8
0
  6
ByBlock
 62
     0
100
AcDbLine
 10
23989.364482
 20
-20023.684862
 30
0.0
 11
24051.513268
 21
-20023.684862
 31
0.0
  0
LINE
  5
407
330
404
100
AcDbEntity
  8
0
  6
ByBlock
 62
     0
100
AcDbLine
 10
23989.364482
 20
-19596.184866
 30
0.0
 11
24051.513268
 21
-19596.184866
 31
0.0
  0
LINE
  5
408
330
404
100
AcDbEntity
  8
0
  6
ByBlock
 62
     0
100
AcDbLine
 10
24051.513268
 20
-20023.684862
 30
0.0
 11
24051.513268
 21
-19596.184866
 31
0.0
  0
INSERT
  5
409
330
404
100
AcDbEntity
  8
0
  6
ByBlock
 62
     0
100
AcDbBlockReference
  2
_ORIGIN
 10
24051.513268
 20
-20023.684862
 30
0.0
 41
8.0
 42
8.0
 43
8.0
 50
270.0
  0
INSERT
  5
40A
330
404
100
AcDbEntity
  8
0
  6
ByBlock
 62
     0
100
AcDbBlockReference
  2
_ORIGIN
 10
24051.513268
 20
-19596.184866
 30
0.0
 41
8.0
 42
8.0
 43
8.0
 50
90.0
  0
MTEXT
  5
40B
330
404
100
AcDbEntity
  8
0
  6
ByBlock
 62
     0
100
AcDbMText
 10
24039.013268
 20
-19809.934864
 30
0.0
 40
25.0
 41
0.0
 71
     5
 72
     1
  1
{\A1;427.5}
  7
DRACAD
 11
0.0
 21
1.0
 31
0.0
 73
     1
 44
1.0
1001
ACAD
1000
MTEXTBEGIN
1070
    73
1070
     1
1070
    44
1040
1.0
1070
    74
1070
     0
1000
MTEXTEND
  0
ENDBLK
  5
40C
330
404
100
AcDbEntity
  8
0
100
AcDbBlockEnd
  0
BLOCK
  5
40F
330
40E
100
AcDbEntity
  8
0
100
AcDbBlockBegin
  2
*D14
 70
     1
 10
0.0
 20
0.0
 30
0.0
  3
*D14
  1

  0
LINE
  5
410
330
40E
100
AcDbEntity
  8
0
  6
ByBlock
 62
     0
100
AcDbLine
 10
23989.364482
 20
-19596.184866
 30
0.0
 11
24051.513268
 21
-19596.184866
 31
0.0
  0
LINE
  5
411
330
40E
100
AcDbEntity
  8
0
  6
ByBlock
 62
     0
100
AcDbLine
 10
23989.364482
 20
-19168.684866
 30
0.0
 11
24051.513268
 21
-19168.684866
 31
0.0
  0
LINE
  5
412
330
40E
100
AcDbEntity
  8
0
  6
ByBlock
 62
     0
100
AcDbLine
 10
24051.513268
 20
-19596.184866
 30
0.0
 11
24051.513268
 21
-19168.684866
 31
0.0
  0
INSERT
  5
413
330
40E
100
AcDbEntity
  8
0
  6
ByBlock
 62
     0
100
AcDbBlockReference
  2
_ORIGIN
 10
24051.513268
 20
-19596.184866
 30
0.0
 41
8.0
 42
8.0
 43
8.0
 50
270.0
  0
INSERT
  5
414
330
40E
100
AcDbEntity
  8
0
  6
ByBlock
 62
     0
100
AcDbBlockReference
  2
_ORIGIN
 10
24051.513268
 20
-19168.684866
 30
0.0
 41
8.0
 42
8.0
 43
8.0
 50
90.0
  0
MTEXT
  5
415
330
40E
100
AcDbEntity
  8
0
  6
ByBlock
 62
     0
100
AcDbMText
 10
24039.013268
 20
-19382.434866
 30
0.0
 40
25.0
 41
0.0
 71
     5
 72
     1
  1
{\A1;427.5}
  7
DRACAD
 11
0.0
 21
1.0
 31
0.0
 73
     1
 44
1.0
1001
ACAD
1000
MTEXTBEGIN
1070
    73
1070
     1
1070
    44
1040
1.0
1070
    74
1070
     0
1000
MTEXTEND
  0
ENDBLK
  5
416
330
40E
100
AcDbEntity
  8
0
100
AcDbBlockEnd
  0
BLOCK
  5
70B
330
70A
100
AcDbEntity
  8
0
100
AcDbBlockBegin
  2
*D15
 70
     1
 10
0.0
 20
0.0
 30
0.0
  3
*D15
  1

  0
LINE
  5
70C
330
70A
100
AcDbEntity
  8
0
  6
ByBlock
 62
     0
100
AcDbLine
 10
23583.379566
 20
-20428.57536
 30
0.0
 11
23629.284584
 21
-20428.57536
 31
0.0
  0
LINE
  5
70D
330
70A
100
AcDbEntity
  8
0
  6
ByBlock
 62
     0
100
AcDbLine
 10
23583.379566
 20
-20593.57536
 30
0.0
 11
23629.284584
 21
-20593.57536
 31
0.0
  0
LINE
  5
70E
330
70A
100
AcDbEntity
  8
0
  6
ByBlock
 62
     0
100
AcDbLine
 10
23629.284584
 20
-20428.57536
 30
0.0
 11
23629.284584
 21
-20593.57536
 31
0.0
  0
INSERT
  5
70F
330
70A
100
AcDbEntity
  8
0
  6
ByBlock
 62
     0
100
AcDbBlockReference
  2
_ORIGIN
 10
23629.284584
 20
-20428.57536
 30
0.0
 41
10.0
 42
10.0
 43
10.0
 50
90.0
  0
INSERT
  5
710
330
70A
100
AcDbEntity
  8
0
  6
ByBlock
 62
     0
100
AcDbBlockReference
  2
_ORIGIN
 10
23629.284584
 20
-20593.57536
 30
0.0
 41
10.0
 42
10.0
 43
10.0
 50
270.0
  0
MTEXT
  5
711
330
70A
100
AcDbEntity
  8
0
  6
ByBlock
 62
     0
100
AcDbMText
 10
23616.784584
 20
-20511.07536
 30
0.0
 40
25.0
 41
0.0
 71
     5
 72
     1
  1
{\A1;165}
  7
DRACAD
 11
0.0
 21
1.0
 31
0.0
 73
     1
 44
1.0
1001
ACAD
1000
MTEXTBEGIN
1070
    73
1070
     1
1070
    44
1040
1.0
1070
    74
1070
     0
1000
MTEXTEND
  0
ENDBLK
  5
712
330
70A
100
AcDbEntity
  8
0
100
AcDbBlockEnd
  0
ENDSEC
  0
SECTION
  2
ENTITIES
  0
LINE
  5
198
330
A
100
AcDbEntity
  8
0
  6
STYLE_07
 62
     1
100
AcDbLine
 10
23947.976027
 20
-19596.184866
 30
0.0
 11
22866.513289
 21
-19596.184866
 31
0.0
  0
LINE
  5
199
330
A
100
AcDbEntity
  8
0
  6
STYLE_07
 62
     1
100
AcDbLine
 10
23329.744658
 20
-19088.311494
 30
0.0
 11
23329.744658
 21
-20633.358319
 31
0.0
  0
TEXT
  5
19A
330
A
100
AcDbEntity
  8
002
  6
Continuous
 62
     7
100
AcDbText
 10
24605.626196
 20
-20871.904641
 30
0.0
 40
17.219965
  1
1/10
 41
1.660899666035665
  7
DRACAD
 72
     5
 11
24686.661326
 21
-20871.904641
 31
0.0
100
AcDbText
  0
LWPOLYLINE
  5
19B
330
A
100
AcDbEntity
  8
002
  6
Continuous
 62
     6
100
AcDbPolyline
 90
        4
 70
   129
 43
0.0
 10
22002.202784
 20
-18868.610282
 10
24895.452784
 20
-18868.610282
 10
24895.452784
 20
-20877.910282
 10
22002.202784
 20
-20877.910282
  0
LINE
  5
1A1
330
A
100
AcDbEntity
  8
002
  6
Continuous
 62
     6
100
AcDbLine
 10
22051.902784
 20
-20784.51203
 30
0.0
 11
24895.452784
 21
-20784.51203
 31
0.0
  0
LINE
  5
1A2
330
A
100
AcDbEntity
  8
002
  6
Continuous
 62
     6
100
AcDbLine
 10
22002.202784
 20
-20784.51203
 30
0.0
 11
24895.452784
 21
-20784.51203
 31
0.0
  0
LINE
  5
1A3
330
A
100
AcDbEntity
  8
002
  6
Continuous
 62
     6
100
AcDbLine
 10
24895.452784
 20
-20784.51203
 30
0.0
 11
24895.452784
 21
-20876.54223
 31
0.0
  0
LINE
  5
1A4
330
A
100
AcDbEntity
  8
002
  6
Continuous
 62
     6
100
AcDbLine
 10
22716.462784
 20
-20784.51203
 30
0.0
 11
22716.462784
 21
-20876.54223
 31
0.0
  0
TEXT
  5
1A5
330
A
100
AcDbEntity
  8
002
  6
Continuous
 62
     7
100
AcDbText
 10
24757.357784
 20
-20805.699614
 30
0.0
 40
10.762478
  1
No.
 41
1.764705953405973
  7
DRACAD
 72
     5
 11
24795.343002
 21
-20805.699614
 31
0.0
100
AcDbText
  0
LINE
  5
1A6
330
A
100
AcDbEntity
  8
002
  6
Continuous
 62
     7
100
AcDbLine
 10
24575.952784
 20
-20784.51203
 30
0.0
 11
24575.952784
 21
-20876.54223
 31
0.0
  0
TEXT
  5
1A7
330
A
100
AcDbEntity
  8
002
  6
Continuous
 62
     7
100
AcDbText
 10
24578.211176
 20
-20842.498322
 30
0.0
 40
10.762478
  1
SCALE
 41
1.260504239159155
  7
DRACAD
 72
     5
 11
24641.519872
 21
-20842.498322
 31
0.0
100
AcDbText
  0
LINE
  5
1A8
330
A
100
AcDbEntity
  8
002
  6
Continuous
 62
     6
100
AcDbLine
 10
24753.452784
 20
-20784.51203
 30
0.0
 11
24753.452784
 21
-20876.54223
 31
0.0
  0
LINE
  5
1A9
330
A
100
AcDbEntity
  8
002
  6
Continuous
 62
     6
100
AcDbLine
 10
24220.952784
 20
-20784.51203
 30
0.0
 11
24220.952784
 21
-20876.54223
 31
0.0
  0
TEXT
  5
1AA
330
A
100
AcDbEntity
  8
002
  6
Continuous
 62
     7
100
AcDbText
 10
24578.417671
 20
-20803.90826
 30
0.0
 40
10.762478
  1
Date
 41
1.283422477780518
  7
DRACAD
 72
     5
 11
24629.064627
 21
-20803.90826
 31
0.0
100
AcDbText
  0
LINE
  5
1AB
330
A
100
AcDbEntity
  8
002
  6
Continuous
 62
     7
100
AcDbLine
 10
24575.952784
 20
-20823.42713
 30
0.0
 11
24753.452784
 21
-20823.42713
 31
0.0
  0
TEXT
  5
1AC
330
A
100
AcDbEntity
  8
002
  6
Continuous
 62
     7
100
AcDbText
 10
24225.014578
 20
-20808.773322
 30
0.0
 40
10.762478
  1
Drawing Title
 41
1.465889917472594
  7
DRACAD
 72
     5
 11
24389.617188
 21
-20808.773322
 31
0.0
100
AcDbText
  0
LINE
  5
1AD
330
A
100
AcDbEntity
  8
002
  6
Continuous
 62
     4
100
AcDbLine
 10
22717.444831
 20
-20830.52713
 30
0.0
 11
23716.852784
 21
-20830.52713
 31
0.0
  0
LINE
  5
1AE
330
A
100
AcDbEntity
  8
002
  6
Continuous
 62
     4
100
AcDbLine
 10
22716.561891
 20
-20807.51958
 30
0.0
 11
23716.852784
 21
-20807.51958
 31
0.0
  0
LINE
  5
1AF
330
A
100
AcDbEntity
  8
002
  6
Continuous
 62
     4
100
AcDbLine
 10
22716.561891
 20
-20853.53468
 30
0.0
 11
23716.852784
 21
-20853.53468
 31
0.0
  0
TEXT
  5
1B0
330
A
100
AcDbEntity
  8
002
  6
Continuous
 62
     7
100
AcDbText
 10
22722.489222
 20
-20804.271419
 30
0.0
 40
10.054993
  1
Memo
 41
1.283422402454877
  7
DRACAD
 72
     5
 11
22769.806834
 21
-20804.271419
 31
0.0
100
AcDbText
  0
LINE
  5
1B1
330
A
100
AcDbEntity
  8
002
  6
Continuous
 62
     6
100
AcDbLine
 10
23716.852784
 20
-20784.51203
 30
0.0
 11
23716.852784
 21
-20876.54223
 31
0.0
  0
TEXT
  5
1B2
330
A
100
AcDbEntity
  8
002
  6
Continuous
 62
     7
100
AcDbText
 10
23722.879222
 20
-20803.90826
 30
0.0
 40
10.270983
  1
Project
 41
1.26696828261791
  7
DRACAD
 72
     5
 11
23807.463785
 21
-20803.90826
 31
0.0
100
AcDbText
  0
TEXT
  5
1B3
330
A
100
AcDbEntity
  8
002
  6
Continuous
 62
     7
100
AcDbText
 10
23764.007867
 20
-20847.742121
 30
0.0
 40
19.410192
  1
SLT　CAD部品図面
 41
1.102941202815701
  7
DRACAD
 72
     5
 11
24015.198593
 21
-20847.742121
 31
0.0
100
AcDbText
  0
TEXT
  5
1B4
330
A
100
AcDbEntity
  8
002
  6
Continuous
 62
     7
100
AcDbText
 10
24615.018561
 20
-20821.021532
 30
0.0
 40
15.497969
  1
11/2/10
 41
1.497326180435134
  7
DRACAD
 72
     5
 11
24742.648892
 21
-20821.021532
 31
0.0
100
AcDbText
  0
TEXT
  5
1B5
330
A
100
AcDbEntity
  8
002
  6
Continuous
 62
     4
100
AcDbText
 10
22170.739027
 20
-20851.747619
 30
0.0
 40
18.941962
  1
ス カ イ ラ イ ト チ ュ ー ブ
 41
1.304646358754848
  7
DRACAD
 72
     5
 11
22594.147585
 21
-20851.747619
 31
0.0
100
AcDbText
  0
INSERT
  5
1B6
330
A
100
AcDbEntity
  8
003
  6
Continuous
 62
     4
100
AcDbBlockReference
  2
3
 10
22002.202784
 20
-20877.910282
 30
0.0
 41
0.71
 42
0.71
  0
ARC
  5
1B7
330
A
100
AcDbEntity
  8
0
  6
Continuous
 62
     7
100
AcDbCircle
 10
23845.680801
 20
-19346.952365
 30
0.0
 40
7.765855999999999
100
AcDbArc
 50
152.763755
 51
207.236245
  0
ARC
  5
1B8
330
A
100
AcDbEntity
  8
0
  6
Continuous
 62
     7
100
AcDbCircle
 10
22982.708923
 20
-19346.952365
 30
0.0
 40
7.765942999999999
100
AcDbArc
 50
152.764087
 51
207.235913
  0
ARC
  5
1B9
330
A
100
AcDbEntity
  8
0
  6
Continuous
 62
     7
100
AcDbCircle
 10
22982.708923
 20
-19845.417367
 30
0.0
 40
7.765942999999999
100
AcDbArc
 50
152.764087
 51
207.235913
  0
LINE
  5
1BA
330
A
100
AcDbEntity
  8
0
  6
Continuous
 62
     1
100
AcDbLine
 10
23838.775973
 20
-19841.863233
 30
0.0
 11
22975.804001
 21
-19841.86324799999
 31
0.0
  0
ARC
  5
1BB
330
A
100
AcDbEntity
  8
0
  6
Continuous
 62
     7
100
AcDbCircle
 10
23845.680801
 20
-19845.417367
 30
0.0
 40
7.765855999999999
100
AcDbArc
 50
152.763755
 51
207.236245
  0
LINE
  5
1BC
330
A
100
AcDbEntity
  8
0
  6
Continuous
 62
     1
100
AcDbLine
 10
23838.775973
 20
-19848.971501
 30
0.0
 11
22975.804001
 21
-19848.971483
 31
0.0
  0
LINE
  5
1BD
330
A
100
AcDbEntity
  8
0
  6
Continuous
 62
     1
100
AcDbLine
 10
23838.775969
 20
-19426.031484
 30
0.0
 11
22975.804001
 21
-19426.031483
 31
0.0
  0
ARC
  5
1BE
330
A
100
AcDbEntity
  8
0
  6
Continuous
 62
     7
100
AcDbCircle
 10
22982.7089
 20
-19422.477366
 30
0.0
 40
7.765919
100
AcDbArc
 50
152.764058
 51
207.235942
  0
LINE
  5
1BF
330
A
100
AcDbEntity
  8
0
  6
Continuous
 62
     1
100
AcDbLine
 10
23838.775968
 20
-19418.923248
 30
0.0
 11
22975.804001
 21
-19418.923248
 31
0.0
  0
ARC
  5
1C0
330
A
100
AcDbEntity
  8
0
  6
Continuous
 62
     7
100
AcDbCircle
 10
23845.680778
 20
-19422.477366
 30
0.0
 40
7.765832
100
AcDbArc
 50
152.763726
 51
207.236274
  0
ARC
  5
1C1
330
A
100
AcDbEntity
  8
0
  6
Continuous
 62
     7
100
AcDbCircle
 10
22982.7089
 20
-19815.207362
 30
0.0
 40
7.765919
100
AcDbArc
 50
152.764058
 51
207.235942
  0
LINE
  5
1C2
330
A
100
AcDbEntity
  8
0
  6
Continuous
 62
     1
100
AcDbLine
 10
23838.775972
 20
-19811.653237
 30
0.0
 11
22975.804001
 21
-19811.653248
 31
0.0
  0
ARC
  5
1C3
330
A
100
AcDbEntity
  8
0
  6
Continuous
 62
     7
100
AcDbCircle
 10
23845.680778
 20
-19815.207362
 30
0.0
 40
7.765832
100
AcDbArc
 50
152.763726
 51
207.236274
  0
LINE
  5
1C4
330
A
100
AcDbEntity
  8
0
  6
Continuous
 62
     1
100
AcDbLine
 10
23838.775965
 20
-19818.761474
 30
0.0
 11
22975.804001
 21
-19818.761483
 31
0.0
  0
ARC
  5
1C5
330
A
100
AcDbEntity
  8
0
  6
Continuous
 62
     7
100
AcDbCircle
 10
22982.7089
 20
-19377.16237
 30
0.0
 40
7.765919
100
AcDbArc
 50
152.764058
 51
207.235942
  0
ARC
  5
1C6
330
A
100
AcDbEntity
  8
0
  6
Continuous
 62
     7
100
AcDbCircle
 10
23845.680778
 20
-19377.16237
 30
0.0
 40
7.765832
100
AcDbArc
 50
152.763726
 51
207.236274
  0
ARC
  5
1C7
330
A
100
AcDbEntity
  8
0
  6
Continuous
 62
     7
100
AcDbCircle
 10
22968.036117
 20
-19762.339866
 30
0.0
 40
8.736528999999999
100
AcDbArc
 50
332.763627
 51
27.236373
  0
LINE
  5
1C8
330
A
100
AcDbEntity
  8
0
  6
Continuous
 62
     1
100
AcDbLine
 10
23838.77597
 20
-19758.341488
 30
0.0
 11
22975.804001
 21
-19758.341483
 31
0.0
  0
LINE
  5
1C9
330
A
100
AcDbEntity
  8
0
  6
Continuous
 62
     1
100
AcDbLine
 10
23838.775969
 20
-19766.338247
 30
0.0
 11
22975.804001
 21
-19766.338248
 31
0.0
  0
ARC
  5
1CA
330
A
100
AcDbEntity
  8
0
  6
Continuous
 62
     7
100
AcDbCircle
 10
22968.036117
 20
-19747.234868
 30
0.0
 40
8.736528999999999
100
AcDbArc
 50
332.763627
 51
27.236373
  0
LINE
  5
1CB
330
A
100
AcDbEntity
  8
0
  6
Continuous
 62
     1
100
AcDbLine
 10
23280.746489
 20
-19743.236487
 30
0.0
 11
22975.804001
 21
-19743.236483
 31
0.0
  0
LINE
  5
1CC
330
A
100
AcDbEntity
  8
0
  6
Continuous
 62
     1
100
AcDbLine
 10
23329.744658
 20
-19751.23325
 30
0.0
 11
22975.804001
 21
-19751.233248
 31
0.0
  0
LINE
  5
1CD
330
A
100
AcDbEntity
  8
0
  6
Continuous
 62
     1
100
AcDbLine
 10
23838.775977
 20
-19229.666483
 30
0.0
 11
22975.804001
 21
-19229.666483
 31
0.0
  0
ARC
  5
1CE
330
A
100
AcDbEntity
  8
0
  6
Continuous
 62
     7
100
AcDbCircle
 10
23831.008415
 20
-19233.664852
 30
0.0
 40
8.736242999999999
100
AcDbArc
 50
332.762661
 51
27.237339
  0
LINE
  5
1CF
330
A
100
AcDbEntity
  8
0
  6
Continuous
 62
     1
100
AcDbLine
 10
23838.775977
 20
-19237.663248
 30
0.0
 11
22975.804001
 21
-19237.663248
 31
0.0
  0
ARC
  5
1D0
330
A
100
AcDbEntity
  8
0
  6
Continuous
 62
     7
100
AcDbCircle
 10
22968.0361
 20
-19233.664852
 30
0.0
 40
8.736544999999999
100
AcDbArc
 50
332.763678
 51
27.236322
  0
LINE
  5
1D1
330
A
100
AcDbEntity
  8
0
  6
Continuous
 62
     1
100
AcDbLine
 10
23838.775977
 20
-19879.181483
 30
0.0
 11
22975.804001
 21
-19879.181483
 31
0.0
  0
ARC
  5
1D2
330
A
100
AcDbEntity
  8
0
  6
Continuous
 62
     7
100
AcDbCircle
 10
23831.008449
 20
-19883.179871
 30
0.0
 40
8.736213000000001
100
AcDbArc
 50
332.762558
 51
27.237442
  0
LINE
  5
1D3
330
A
100
AcDbEntity
  8
0
  6
Continuous
 62
     1
100
AcDbLine
 10
23838.775977
 20
-19887.178248
 30
0.0
 11
22975.804001
 21
-19887.178248
 31
0.0
  0
ARC
  5
1D4
330
A
100
AcDbEntity
  8
0
  6
Continuous
 62
     7
100
AcDbCircle
 10
22968.036134
 20
-19883.179871
 30
0.0
 40
8.736513999999999
100
AcDbArc
 50
332.763576
 51
27.236424
  0
ARC
  5
1D5
330
A
100
AcDbEntity
  8
0
  6
Continuous
 62
     7
100
AcDbCircle
 10
22968.036117
 20
-19701.919864
 30
0.0
 40
8.736528999999999
100
AcDbArc
 50
332.763627
 51
27.236373
  0
LINE
  5
1D6
330
A
100
AcDbEntity
  8
0
  6
Continuous
 62
     1
100
AcDbLine
 10
23212.805952
 20
-19697.92148199999
 30
0.0
 11
22975.804001
 21
-19697.921483
 31
0.0
  0
LINE
  5
1D7
330
A
100
AcDbEntity
  8
0
  6
Continuous
 62
     1
100
AcDbLine
 10
23220.275094
 20
-19705.91824499999
 30
0.0
 11
22975.804001
 21
-19705.91824799999
 31
0.0
  0
LINE
  5
1D8
330
A
100
AcDbEntity
  8
0
  6
Continuous
 62
     1
100
AcDbLine
 10
23838.775977
 20
-19984.916483
 30
0.0
 11
22975.804001
 21
-19984.916483
 31
0.0
  0
ARC
  5
1D9
330
A
100
AcDbEntity
  8
0
  6
Continuous
 62
     7
100
AcDbCircle
 10
23831.008415
 20
-19988.914876
 30
0.0
 40
8.736242999999999
100
AcDbArc
 50
332.762661
 51
27.237339
  0
LINE
  5
1DA
330
A
100
AcDbEntity
  8
0
  6
Continuous
 62
     1
100
AcDbLine
 10
23838.775977
 20
-19992.91324799999
 30
0.0
 11
22975.804001
 21
-19992.91324799999
 31
0.0
  0
ARC
  5
1DB
330
A
100
AcDbEntity
  8
0
  6
Continuous
 62
     7
100
AcDbCircle
 10
22968.0361
 20
-19988.914876
 30
0.0
 40
8.736544999999999
100
AcDbArc
 50
332.763678
 51
27.236322
  0
ARC
  5
1DC
330
A
100
AcDbEntity
  8
0
  6
Continuous
 62
     7
100
AcDbCircle
 10
22968.036097
 20
-19717.024866
 30
0.0
 40
8.736549
100
AcDbArc
 50
332.763666
 51
27.23633400000001
  0
LINE
  5
1DD
330
A
100
AcDbEntity
  8
0
  6
Continuous
 62
     1
100
AcDbLine
 10
23227.89655
 20
-19713.02648
 30
0.0
 11
22975.804001
 21
-19713.026483
 31
0.0
  0
LINE
  5
1DE
330
A
100
AcDbEntity
  8
0
  6
Continuous
 62
     1
100
AcDbLine
 10
23237.873133
 20
-19721.023253
 30
0.0
 11
22975.804001
 21
-19721.02324799999
 31
0.0
  0
LINE
  5
1DF
330
A
100
AcDbEntity
  8
0
  6
Continuous
 62
     1
100
AcDbLine
 10
23838.775977
 20
-19894.286483
 30
0.0
 11
22975.804001
 21
-19894.286483
 31
0.0
  0
ARC
  5
1E0
330
A
100
AcDbEntity
  8
0
  6
Continuous
 62
     7
100
AcDbCircle
 10
23831.008415
 20
-19898.284855
 30
0.0
 40
8.736242999999999
100
AcDbArc
 50
332.762661
 51
27.237339
  0
LINE
  5
1E1
330
A
100
AcDbEntity
  8
0
  6
Continuous
 62
     1
100
AcDbLine
 10
23838.775977
 20
-19902.283248
 30
0.0
 11
22975.804001
 21
-19902.283248
 31
0.0
  0
ARC
  5
1E2
330
A
100
AcDbEntity
  8
0
  6
Continuous
 62
     7
100
AcDbCircle
 10
22968.0361
 20
-19898.284855
 30
0.0
 40
8.736544999999999
100
AcDbArc
 50
332.763678
 51
27.236322
  0
LINE
  5
1E3
330
A
100
AcDbEntity
  8
0
  6
Continuous
 62
     1
100
AcDbLine
 10
23838.775977
 20
-19214.561483
 30
0.0
 11
22975.804001
 21
-19214.561483
 31
0.0
  0
ARC
  5
1E4
330
A
100
AcDbEntity
  8
0
  6
Continuous
 62
     7
100
AcDbCircle
 10
23831.008449
 20
-19218.559868
 30
0.0
 40
8.736213000000001
100
AcDbArc
 50
332.762558
 51
27.237442
  0
LINE
  5
1E5
330
A
100
AcDbEntity
  8
0
  6
Continuous
 62
     1
100
AcDbLine
 10
23838.775977
 20
-19222.558248
 30
0.0
 11
22975.804001
 21
-19222.558248
 31
0.0
  0
ARC
  5
1E6
330
A
100
AcDbEntity
  8
0
  6
Continuous
 62
     7
100
AcDbCircle
 10
22968.036134
 20
-19218.559868
 30
0.0
 40
8.736513999999999
100
AcDbArc
 50
332.763576
 51
27.236424
  0
LINE
  5
1E7
330
A
100
AcDbEntity
  8
0
  6
Continuous
 62
     1
100
AcDbLine
 10
23838.775977
 20
-20015.126483
 30
0.0
 11
22975.804001
 21
-20015.126483
 31
0.0
  0
ARC
  5
1E8
330
A
100
AcDbEntity
  8
0
  6
Continuous
 62
     7
100
AcDbCircle
 10
23831.008415
 20
-20019.124874
 30
0.0
 40
8.736242999999999
100
AcDbArc
 50
332.762661
 51
27.237339
  0
ARC
  5
1E9
330
A
100
AcDbEntity
  8
0
  6
Continuous
 62
     7
100
AcDbCircle
 10
22968.0361
 20
-20019.124874
 30
0.0
 40
8.736544999999999
100
AcDbArc
 50
328.537248
 51
27.236322
  0
ARC
  5
1EA
330
A
100
AcDbEntity
  8
0
  6
Continuous
 62
     7
100
AcDbCircle
 10
22968.036117
 20
-19732.129869
 30
0.0
 40
8.736528999999999
100
AcDbArc
 50
332.763627
 51
27.236373
  0
LINE
  5
1EB
330
A
100
AcDbEntity
  8
0
  6
Continuous
 62
     1
100
AcDbLine
 10
23248.411463
 20
-19728.131489
 30
0.0
 11
22975.804001
 21
-19728.131483
 31
0.0
  0
LINE
  5
1EC
330
A
100
AcDbEntity
  8
0
  6
Continuous
 62
     1
100
AcDbLine
 10
23263.104964
 20
-19736.128252
 30
0.0
 11
22975.804001
 21
-19736.12824799999
 31
0.0
  0
ARC
  5
1ED
330
A
100
AcDbEntity
  8
0
  6
Continuous
 62
     7
100
AcDbCircle
 10
22968.036117
 20
-19414.924866
 30
0.0
 40
8.736528999999999
100
AcDbArc
 50
332.763627
 51
27.236373
  0
LINE
  5
1EE
330
A
100
AcDbEntity
  8
0
  6
Continuous
 62
     1
100
AcDbLine
 10
23838.77597
 20
-19410.926488
 30
0.0
 11
22975.804001
 21
-19410.926483
 31
0.0
  0
LINE
  5
1EF
330
A
100
AcDbEntity
  8
0
  6
Continuous
 62
     1
100
AcDbLine
 10
23838.775977
 20
-19864.076483
 30
0.0
 11
22975.804001
 21
-19864.076483
 31
0.0
  0
ARC
  5
1F0
330
A
100
AcDbEntity
  8
0
  6
Continuous
 62
     7
100
AcDbCircle
 10
23831.008415
 20
-19868.074857
 30
0.0
 40
8.736242999999999
100
AcDbArc
 50
332.762661
 51
27.237339
  0
LINE
  5
1F1
330
A
100
AcDbEntity
  8
0
  6
Continuous
 62
     1
100
AcDbLine
 10
23838.775977
 20
-19872.073248
 30
0.0
 11
22975.804001
 21
-19872.073248
 31
0.0
  0
ARC
  5
1F2
330
A
100
AcDbEntity
  8
0
  6
Continuous
 62
     7
100
AcDbCircle
 10
22968.0361
 20
-19868.074857
 30
0.0
 40
8.736544999999999
100
AcDbArc
 50
332.763678
 51
27.236322
  0
LINE
  5
1F3
330
A
100
AcDbEntity
  8
0
  6
Continuous
 62
     1
100
AcDbLine
 10
23838.775977
 20
-19924.496483
 30
0.0
 11
22975.804001
 21
-19924.496483
 31
0.0
  0
ARC
  5
1F4
330
A
100
AcDbEntity
  8
0
  6
Continuous
 62
     7
100
AcDbCircle
 10
23831.008415
 20
-19928.494852
 30
0.0
 40
8.736242999999999
100
AcDbArc
 50
332.762661
 51
27.237339
  0
LINE
  5
1F5
330
A
100
AcDbEntity
  8
0
  6
Continuous
 62
     1
100
AcDbLine
 10
23838.775977
 20
-19932.493248
 30
0.0
 11
22975.804001
 21
-19932.493248
 31
0.0
  0
ARC
  5
1F6
330
A
100
AcDbEntity
  8
0
  6
Continuous
 62
     7
100
AcDbCircle
 10
22968.0361
 20
-19928.494852
 30
0.0
 40
8.736544999999999
100
AcDbArc
 50
332.763678
 51
27.236322
  0
LINE
  5
1F7
330
A
100
AcDbEntity
  8
0
  6
Continuous
 62
     1
100
AcDbLine
 10
23838.775977
 20
-19969.811483
 30
0.0
 11
22975.804001
 21
-19969.811483
 31
0.0
  0
ARC
  5
1F8
330
A
100
AcDbEntity
  8
0
  6
Continuous
 62
     7
100
AcDbCircle
 10
23831.008449
 20
-19973.809863
 30
0.0
 40
8.736213000000001
100
AcDbArc
 50
332.762558
 51
27.237442
  0
LINE
  5
1F9
330
A
100
AcDbEntity
  8
0
  6
Continuous
 62
     1
100
AcDbLine
 10
23838.775977
 20
-19977.80824799999
 30
0.0
 11
22975.804001
 21
-19977.80824799999
 31
0.0
  0
ARC
  5
1FA
330
A
100
AcDbEntity
  8
0
  6
Continuous
 62
     7
100
AcDbCircle
 10
22968.036134
 20
-19973.809863
 30
0.0
 40
8.736513999999999
100
AcDbArc
 50
332.763576
 51
27.236424
  0
LINE
  5
1FB
330
A
100
AcDbEntity
  8
0
  6
Continuous
 62
     1
100
AcDbLine
 10
23838.775977
 20
-20000.021483
 30
0.0
 11
22975.804001
 21
-20000.021483
 31
0.0
  0
ARC
  5
1FC
330
A
100
AcDbEntity
  8
0
  6
Continuous
 62
     7
100
AcDbCircle
 10
23831.008449
 20
-20004.01986
 30
0.0
 40
8.736213000000001
100
AcDbArc
 50
332.762558
 51
27.237442
  0
LINE
  5
1FD
330
A
100
AcDbEntity
  8
0
  6
Continuous
 62
     1
100
AcDbLine
 10
23838.775977
 20
-20008.018248
 30
0.0
 11
22975.804001
 21
-20008.018248
 31
0.0
  0
ARC
  5
1FE
330
A
100
AcDbEntity
  8
0
  6
Continuous
 62
     7
100
AcDbCircle
 10
22968.036134
 20
-20004.01986
 30
0.0
 40
8.736513999999999
100
AcDbArc
 50
332.763576
 51
27.236424
  0
LINE
  5
1FF
330
A
100
AcDbEntity
  8
0
  6
Continuous
 62
     1
100
AcDbLine
 10
23838.775977
 20
-19909.391483
 30
0.0
 11
22975.804001
 21
-19909.391483
 31
0.0
  0
ARC
  5
200
330
A
100
AcDbEntity
  8
0
  6
Continuous
 62
     7
100
AcDbCircle
 10
23831.008449
 20
-19913.389868
 30
0.0
 40
8.736213000000001
100
AcDbArc
 50
332.762558
 51
27.237442
  0
LINE
  5
201
330
A
100
AcDbEntity
  8
0
  6
Continuous
 62
     1
100
AcDbLine
 10
23838.775977
 20
-19917.388248
 30
0.0
 11
22975.804001
 21
-19917.388248
 31
0.0
  0
ARC
  5
202
330
A
100
AcDbEntity
  8
0
  6
Continuous
 62
     7
100
AcDbCircle
 10
22968.036134
 20
-19913.389868
 30
0.0
 40
8.736513999999999
100
AcDbArc
 50
332.763576
 51
27.236424
  0
LINE
  5
203
330
A
100
AcDbEntity
  8
0
  6
Continuous
 62
     1
100
AcDbLine
 10
23838.775977
 20
-19954.706483
 30
0.0
 11
22975.804001
 21
-19954.706483
 31
0.0
  0
ARC
  5
204
330
A
100
AcDbEntity
  8
0
  6
Continuous
 62
     7
100
AcDbCircle
 10
23831.008415
 20
-19958.704879
 30
0.0
 40
8.736242999999999
100
AcDbArc
 50
332.762661
 51
27.237339
  0
LINE
  5
205
330
A
100
AcDbEntity
  8
0
  6
Continuous
 62
     1
100
AcDbLine
 10
23838.775977
 20
-19962.703248
 30
0.0
 11
22975.804001
 21
-19962.703248
 31
0.0
  0
ARC
  5
206
330
A
100
AcDbEntity
  8
0
  6
Continuous
 62
     7
100
AcDbCircle
 10
22968.0361
 20
-19958.704879
 30
0.0
 40
8.736544999999999
100
AcDbArc
 50
332.763678
 51
27.236322
  0
ARC
  5
207
330
A
100
AcDbEntity
  8
0
  6
Continuous
 62
     7
100
AcDbCircle
 10
22982.708877
 20
-19165.692366
 30
0.0
 40
7.765894999999999
100
AcDbArc
 50
202.66477
 51
207.235971
  0
ARC
  5
208
330
A
100
AcDbEntity
  8
0
  6
Continuous
 62
     7
100
AcDbCircle
 10
22968.0361
 20
-19173.244858
 30
0.0
 40
8.736544999999999
100
AcDbArc
 50
332.763678
 51
27.236322
  0
ARC
  5
209
330
A
100
AcDbEntity
  8
0
  6
Continuous
 62
     7
100
AcDbCircle
 10
22982.708923
 20
-19180.797364
 30
0.0
 40
7.765942999999999
100
AcDbArc
 50
152.764087
 51
207.235913
  0
ARC
  5
20A
330
A
100
AcDbEntity
  8
0
  6
Continuous
 62
     7
100
AcDbCircle
 10
22968.036134
 20
-19188.349871
 30
0.0
 40
8.736513999999999
100
AcDbArc
 50
332.763576
 51
27.236424
  0
ARC
  5
20B
330
A
100
AcDbEntity
  8
0
  6
Continuous
 62
     7
100
AcDbCircle
 10
22982.708877
 20
-19195.902363
 30
0.0
 40
7.765894999999999
100
AcDbArc
 50
152.764029
 51
207.235971
  0
ARC
  5
20C
330
A
100
AcDbEntity
  8
0
  6
Continuous
 62
     7
100
AcDbCircle
 10
22968.0361
 20
-19203.454855
 30
0.0
 40
8.736544999999999
100
AcDbArc
 50
332.763678
 51
27.236322
  0
ARC
  5
20D
330
A
100
AcDbEntity
  8
0
  6
Continuous
 62
     7
100
AcDbCircle
 10
22982.708923
 20
-19211.007362
 30
0.0
 40
7.765942999999999
100
AcDbArc
 50
152.764087
 51
207.235913
  0
ARC
  5
20E
330
A
100
AcDbEntity
  8
0
  6
Continuous
 62
     7
100
AcDbCircle
 10
22982.708843
 20
-19226.11236
 30
0.0
 40
7.765864999999999
100
AcDbArc
 50
152.763913
 51
207.236087
  0
ARC
  5
20F
330
A
100
AcDbEntity
  8
0
  6
Continuous
 62
     7
100
AcDbCircle
 10
22982.708923
 20
-19241.217359
 30
0.0
 40
7.765942999999999
100
AcDbArc
 50
152.764087
 51
207.235913
  0
ARC
  5
210
330
A
100
AcDbEntity
  8
0
  6
Continuous
 62
     7
100
AcDbCircle
 10
22968.036134
 20
-19248.769866
 30
0.0
 40
8.736513999999999
100
AcDbArc
 50
332.763576
 51
27.236424
  0
ARC
  5
211
330
A
100
AcDbEntity
  8
0
  6
Continuous
 62
     7
100
AcDbCircle
 10
22982.708923
 20
-19256.322373
 30
0.0
 40
7.765942999999999
100
AcDbArc
 50
152.764087
 51
207.235913
  0
ARC
  5
212
330
A
100
AcDbEntity
  8
0
  6
Continuous
 62
     7
100
AcDbCircle
 10
22968.0361
 20
-19263.874879
 30
0.0
 40
8.736544999999999
100
AcDbArc
 50
332.763678
 51
27.236322
  0
ARC
  5
213
330
A
100
AcDbEntity
  8
0
  6
Continuous
 62
     7
100
AcDbCircle
 10
22982.708843
 20
-19271.427371
 30
0.0
 40
7.765864999999999
100
AcDbArc
 50
152.763913
 51
207.236087
  0
ARC
  5
214
330
A
100
AcDbEntity
  8
0
  6
Continuous
 62
     7
100
AcDbCircle
 10
22968.036134
 20
-19278.979863
 30
0.0
 40
8.736513999999999
100
AcDbArc
 50
332.763576
 51
27.236424
  0
ARC
  5
215
330
A
100
AcDbEntity
  8
0
  6
Continuous
 62
     7
100
AcDbCircle
 10
22982.708923
 20
-19286.53236999999
 30
0.0
 40
7.765942999999999
100
AcDbArc
 50
152.764087
 51
207.235913
  0
ARC
  5
216
330
A
100
AcDbEntity
  8
0
  6
Continuous
 62
     7
100
AcDbCircle
 10
22968.0361
 20
-19294.084877
 30
0.0
 40
8.736544999999999
100
AcDbArc
 50
332.763678
 51
27.236322
  0
ARC
  5
217
330
A
100
AcDbEntity
  8
0
  6
Continuous
 62
     7
100
AcDbCircle
 10
22982.708877
 20
-19301.637369
 30
0.0
 40
7.765894999999999
100
AcDbArc
 50
152.764029
 51
207.235971
  0
ARC
  5
218
330
A
100
AcDbEntity
  8
0
  6
Continuous
 62
     7
100
AcDbCircle
 10
22968.036134
 20
-19309.189861
 30
0.0
 40
8.736513999999999
100
AcDbArc
 50
332.763576
 51
27.236424
  0
ARC
  5
219
330
A
100
AcDbEntity
  8
0
  6
Continuous
 62
     7
100
AcDbCircle
 10
22982.708923
 20
-19316.742367
 30
0.0
 40
7.765942999999999
100
AcDbArc
 50
152.764087
 51
207.235913
  0
ARC
  5
21A
330
A
100
AcDbEntity
  8
0
  6
Continuous
 62
     7
100
AcDbCircle
 10
22968.0361
 20
-19324.294874
 30
0.0
 40
8.736544999999999
100
AcDbArc
 50
332.763678
 51
27.236322
  0
ARC
  5
21B
330
A
100
AcDbEntity
  8
0
  6
Continuous
 62
     7
100
AcDbCircle
 10
22982.708877
 20
-19331.847366
 30
0.0
 40
7.765894999999999
100
AcDbArc
 50
152.764029
 51
207.235971
  0
ARC
  5
21C
330
A
100
AcDbEntity
  8
0
  6
Continuous
 62
     7
100
AcDbCircle
 10
22968.0361
 20
-19339.399858
 30
0.0
 40
8.736544999999999
100
AcDbArc
 50
332.763678
 51
27.236322
  0
ARC
  5
21D
330
A
100
AcDbEntity
  8
0
  6
Continuous
 62
     7
100
AcDbCircle
 10
22968.036117
 20
-19354.504872
 30
0.0
 40
8.736528999999999
100
AcDbArc
 50
332.763627
 51
27.236373
  0
ARC
  5
21E
330
A
100
AcDbEntity
  8
0
  6
Continuous
 62
     7
100
AcDbCircle
 10
22982.7089
 20
-19362.057371
 30
0.0
 40
7.765919
100
AcDbArc
 50
152.764058
 51
207.235942
  0
ARC
  5
21F
330
A
100
AcDbEntity
  8
0
  6
Continuous
 62
     7
100
AcDbCircle
 10
22968.036117
 20
-19369.60987
 30
0.0
 40
8.736528999999999
100
AcDbArc
 50
332.763627
 51
27.236373
  0
ARC
  5
220
330
A
100
AcDbEntity
  8
0
  6
Continuous
 62
     7
100
AcDbCircle
 10
22968.036117
 20
-19384.714869
 30
0.0
 40
8.736528999999999
100
AcDbArc
 50
332.763627
 51
27.236373
  0
ARC
  5
221
330
A
100
AcDbEntity
  8
0
  6
Continuous
 62
     7
100
AcDbCircle
 10
22982.7089
 20
-19392.267368
 30
0.0
 40
7.765919
100
AcDbArc
 50
152.764058
 51
207.235942
  0
ARC
  5
222
330
A
100
AcDbEntity
  8
0
  6
Continuous
 62
     7
100
AcDbCircle
 10
22968.036117
 20
-19399.819868
 30
0.0
 40
8.736528999999999
100
AcDbArc
 50
332.763627
 51
27.236373
  0
ARC
  5
223
330
A
100
AcDbEntity
  8
0
  6
Continuous
 62
     7
100
AcDbCircle
 10
22982.7089
 20
-19407.372367
 30
0.0
 40
7.765919
100
AcDbArc
 50
152.764058
 51
207.235942
  0
ARC
  5
224
330
A
100
AcDbEntity
  8
0
  6
Continuous
 62
     7
100
AcDbCircle
 10
22968.036117
 20
-19430.029865
 30
0.0
 40
8.736528999999999
100
AcDbArc
 50
332.763627
 51
27.236373
  0
ARC
  5
225
330
A
100
AcDbEntity
  8
0
  6
Continuous
 62
     7
100
AcDbCircle
 10
22982.7089
 20
-19437.582364
 30
0.0
 40
7.765919
100
AcDbArc
 50
152.764058
 51
207.235942
  0
ARC
  5
226
330
A
100
AcDbEntity
  8
0
  6
Continuous
 62
     7
100
AcDbCircle
 10
22968.036117
 20
-19445.134864
 30
0.0
 40
8.736528999999999
100
AcDbArc
 50
332.763627
 51
27.236373
  0
ARC
  5
227
330
A
100
AcDbEntity
  8
0
  6
Continuous
 62
     7
100
AcDbCircle
 10
22982.7089
 20
-19452.687363
 30
0.0
 40
7.765919
100
AcDbArc
 50
152.764058
 51
207.235942
  0
ARC
  5
228
330
A
100
AcDbEntity
  8
0
  6
Continuous
 62
     7
100
AcDbCircle
 10
22968.036117
 20
-19460.239863
 30
0.0
 40
8.736528999999999
100
AcDbArc
 50
332.763627
 51
27.236373
  0
ARC
  5
229
330
A
100
AcDbEntity
  8
0
  6
Continuous
 62
     7
100
AcDbCircle
 10
22982.7089
 20
-19467.792362
 30
0.0
 40
7.765919
100
AcDbArc
 50
152.764058
 51
207.235942
  0
ARC
  5
22A
330
A
100
AcDbEntity
  8
0
  6
Continuous
 62
     7
100
AcDbCircle
 10
22968.036097
 20
-19475.344865
 30
0.0
 40
8.736549
100
AcDbArc
 50
332.763666
 51
27.23633400000001
  0
ARC
  5
22B
330
A
100
AcDbEntity
  8
0
  6
Continuous
 62
     7
100
AcDbCircle
 10
22982.708891
 20
-19482.897368
 30
0.0
 40
7.765911999999999
100
AcDbArc
 50
152.764029
 51
207.235971
  0
ARC
  5
22C
330
A
100
AcDbEntity
  8
0
  6
Continuous
 62
     7
100
AcDbCircle
 10
22968.036117
 20
-19490.449867
 30
0.0
 40
8.736528999999999
100
AcDbArc
 50
332.763627
 51
27.236373
  0
ARC
  5
22D
330
A
100
AcDbEntity
  8
0
  6
Continuous
 62
     7
100
AcDbCircle
 10
22982.7089
 20
-19498.00236699999
 30
0.0
 40
7.765919
100
AcDbArc
 50
152.764058
 51
207.235942
  0
ARC
  5
22E
330
A
100
AcDbEntity
  8
0
  6
Continuous
 62
     7
100
AcDbCircle
 10
22968.036117
 20
-19505.554866
 30
0.0
 40
8.736528999999999
100
AcDbArc
 50
332.763627
 51
27.236373
  0
ARC
  5
22F
330
A
100
AcDbEntity
  8
0
  6
Continuous
 62
     7
100
AcDbCircle
 10
22982.7089
 20
-19513.107365
 30
0.0
 40
7.765919
100
AcDbArc
 50
152.764058
 51
207.235942
  0
ARC
  5
230
330
A
100
AcDbEntity
  8
0
  6
Continuous
 62
     7
100
AcDbCircle
 10
22968.036117
 20
-19520.659865
 30
0.0
 40
8.736528999999999
100
AcDbArc
 50
332.763627
 51
27.236373
  0
ARC
  5
231
330
A
100
AcDbEntity
  8
0
  6
Continuous
 62
     7
100
AcDbCircle
 10
22982.708891
 20
-19528.212364
 30
0.0
 40
7.765911999999999
100
AcDbArc
 50
152.764029
 51
207.235971
  0
ARC
  5
232
330
A
100
AcDbEntity
  8
0
  6
Continuous
 62
     7
100
AcDbCircle
 10
22968.036111
 20
-19535.764865
 30
0.0
 40
8.736534999999999
100
AcDbArc
 50
332.763633
 51
27.236367
  0
ARC
  5
233
330
A
100
AcDbEntity
  8
0
  6
Continuous
 62
     7
100
AcDbCircle
 10
22982.708896
 20
-19543.317367
 30
0.0
 40
7.765914999999999
100
AcDbArc
 50
152.764043
 51
207.235957
  0
ARC
  5
234
330
A
100
AcDbEntity
  8
0
  6
Continuous
 62
     7
100
AcDbCircle
 10
22968.036117
 20
-19550.869866
 30
0.0
 40
8.736528999999999
100
AcDbArc
 50
332.763627
 51
27.236373
  0
ARC
  5
235
330
A
100
AcDbEntity
  8
0
  6
Continuous
 62
     7
100
AcDbCircle
 10
22982.708896
 20
-19558.422365
 30
0.0
 40
7.765914999999999
100
AcDbArc
 50
152.764043
 51
207.235957
  0
ARC
  5
236
330
A
100
AcDbEntity
  8
0
  6
Continuous
 62
     7
100
AcDbCircle
 10
22968.036112
 20
-19565.974866
 30
0.0
 40
8.736533999999998
100
AcDbArc
 50
332.763637
 51
27.236363
  0
ARC
  5
237
330
A
100
AcDbEntity
  8
0
  6
Continuous
 62
     7
100
AcDbCircle
 10
22982.708896
 20
-19573.527366
 30
0.0
 40
7.765914999999999
100
AcDbArc
 50
152.764043
 51
207.235957
  0
ARC
  5
238
330
A
100
AcDbEntity
  8
0
  6
Continuous
 62
     7
100
AcDbCircle
 10
22968.036114
 20
-19581.079866
 30
0.0
 40
8.736532
100
AcDbArc
 50
332.763632
 51
27.236368
  0
ARC
  5
239
330
A
100
AcDbEntity
  8
0
  6
Continuous
 62
     7
100
AcDbCircle
 10
22982.708895
 20
-19588.632365
 30
0.0
 40
7.765914999999999
100
AcDbArc
 50
152.764042
 51
207.235958
  0
ARC
  5
23A
330
A
100
AcDbEntity
  8
0
  6
Continuous
 62
     7
100
AcDbCircle
 10
22968.036111
 20
-19596.184866
 30
0.0
 40
8.736534999999999
100
AcDbArc
 50
332.76364
 51
27.23636
  0
ARC
  5
23B
330
A
100
AcDbEntity
  8
0
  6
Continuous
 62
     7
100
AcDbCircle
 10
22982.708895
 20
-19603.737366
 30
0.0
 40
7.765914999999999
100
AcDbArc
 50
152.764042
 51
207.235958
  0
ARC
  5
23C
330
A
100
AcDbEntity
  8
0
  6
Continuous
 62
     7
100
AcDbCircle
 10
22968.036114
 20
-19611.289866
 30
0.0
 40
8.736532
100
AcDbArc
 50
332.763632
 51
27.236368
  0
ARC
  5
23D
330
A
100
AcDbEntity
  8
0
  6
Continuous
 62
     7
100
AcDbCircle
 10
22982.708896
 20
-19618.842366
 30
0.0
 40
7.765914999999999
100
AcDbArc
 50
152.764043
 51
207.235957
  0
ARC
  5
23E
330
A
100
AcDbEntity
  8
0
  6
Continuous
 62
     7
100
AcDbCircle
 10
22968.036112
 20
-19626.394866
 30
0.0
 40
8.736533999999998
100
AcDbArc
 50
332.763637
 51
27.236363
  0
ARC
  5
23F
330
A
100
AcDbEntity
  8
0
  6
Continuous
 62
     7
100
AcDbCircle
 10
22982.708896
 20
-19633.947366
 30
0.0
 40
7.765914999999999
100
AcDbArc
 50
152.764043
 51
207.235957
  0
ARC
  5
240
330
A
100
AcDbEntity
  8
0
  6
Continuous
 62
     7
100
AcDbCircle
 10
22968.036117
 20
-19641.499866
 30
0.0
 40
8.736528999999999
100
AcDbArc
 50
332.763627
 51
27.236373
  0
ARC
  5
241
330
A
100
AcDbEntity
  8
0
  6
Continuous
 62
     7
100
AcDbCircle
 10
22982.708896
 20
-19649.052365
 30
0.0
 40
7.765914999999999
100
AcDbArc
 50
152.764043
 51
207.235957
  0
ARC
  5
242
330
A
100
AcDbEntity
  8
0
  6
Continuous
 62
     7
100
AcDbCircle
 10
22968.036111
 20
-19656.604866
 30
0.0
 40
8.736534999999999
100
AcDbArc
 50
332.763633
 51
27.236367
  0
ARC
  5
243
330
A
100
AcDbEntity
  8
0
  6
Continuous
 62
     7
100
AcDbCircle
 10
22982.708891
 20
-19664.157367
 30
0.0
 40
7.765911999999999
100
AcDbArc
 50
152.764029
 51
207.235971
  0
ARC
  5
244
330
A
100
AcDbEntity
  8
0
  6
Continuous
 62
     7
100
AcDbCircle
 10
22968.036117
 20
-19671.709867
 30
0.0
 40
8.736528999999999
100
AcDbArc
 50
332.763627
 51
27.236373
  0
ARC
  5
245
330
A
100
AcDbEntity
  8
0
  6
Continuous
 62
     7
100
AcDbCircle
 10
22982.7089
 20
-19679.262366
 30
0.0
 40
7.765919
100
AcDbArc
 50
152.764058
 51
207.235942
  0
ARC
  5
246
330
A
100
AcDbEntity
  8
0
  6
Continuous
 62
     7
100
AcDbCircle
 10
22968.036117
 20
-19686.814865
 30
0.0
 40
8.736528999999999
100
AcDbArc
 50
332.763627
 51
27.236373
  0
ARC
  5
247
330
A
100
AcDbEntity
  8
0
  6
Continuous
 62
     7
100
AcDbCircle
 10
22982.7089
 20
-19694.367365
 30
0.0
 40
7.765919
100
AcDbArc
 50
152.764058
 51
207.235942
  0
ARC
  5
248
330
A
100
AcDbEntity
  8
0
  6
Continuous
 62
     7
100
AcDbCircle
 10
22982.708891
 20
-19709.472363
 30
0.0
 40
7.765911999999999
100
AcDbArc
 50
152.764029
 51
207.235971
  0
ARC
  5
249
330
A
100
AcDbEntity
  8
0
  6
Continuous
 62
     7
100
AcDbCircle
 10
22982.7089
 20
-19724.57737
 30
0.0
 40
7.765919
100
AcDbArc
 50
152.764058
 51
207.235942
  0
ARC
  5
24A
330
A
100
AcDbEntity
  8
0
  6
Continuous
 62
     7
100
AcDbCircle
 10
22982.7089
 20
-19739.682368
 30
0.0
 40
7.765919
100
AcDbArc
 50
152.764058
 51
207.235942
  0
ARC
  5
24B
330
A
100
AcDbEntity
  8
0
  6
Continuous
 62
     7
100
AcDbCircle
 10
22982.7089
 20
-19754.78736699999
 30
0.0
 40
7.765919
100
AcDbArc
 50
152.764058
 51
207.235942
  0
ARC
  5
24C
330
A
100
AcDbEntity
  8
0
  6
Continuous
 62
     7
100
AcDbCircle
 10
22982.7089
 20
-19769.892366
 30
0.0
 40
7.765919
100
AcDbArc
 50
152.764058
 51
207.235942
  0
ARC
  5
24D
330
A
100
AcDbEntity
  8
0
  6
Continuous
 62
     7
100
AcDbCircle
 10
22968.036117
 20
-19777.444865
 30
0.0
 40
8.736528999999999
100
AcDbArc
 50
332.763627
 51
27.236373
  0
ARC
  5
24E
330
A
100
AcDbEntity
  8
0
  6
Continuous
 62
     7
100
AcDbCircle
 10
22982.7089
 20
-19784.997364
 30
0.0
 40
7.765919
100
AcDbArc
 50
152.764058
 51
207.235942
  0
ARC
  5
24F
330
A
100
AcDbEntity
  8
0
  6
Continuous
 62
     7
100
AcDbCircle
 10
22968.036117
 20
-19792.54986399999
 30
0.0
 40
8.736528999999999
100
AcDbArc
 50
332.763627
 51
27.236373
  0
ARC
  5
250
330
A
100
AcDbEntity
  8
0
  6
Continuous
 62
     7
100
AcDbCircle
 10
22982.7089
 20
-19800.102363
 30
0.0
 40
7.765919
100
AcDbArc
 50
152.764058
 51
207.235942
  0
ARC
  5
251
330
A
100
AcDbEntity
  8
0
  6
Continuous
 62
     7
100
AcDbCircle
 10
22968.036117
 20
-19807.654862
 30
0.0
 40
8.736528999999999
100
AcDbArc
 50
332.763627
 51
27.236373
  0
ARC
  5
252
330
A
100
AcDbEntity
  8
0
  6
Continuous
 62
     7
100
AcDbCircle
 10
22968.036117
 20
-19822.759861
 30
0.0
 40
8.736528999999999
100
AcDbArc
 50
332.763627
 51
27.236373
  0
ARC
  5
253
330
A
100
AcDbEntity
  8
0
  6
Continuous
 62
     7
100
AcDbCircle
 10
22982.7089
 20
-19830.31236
 30
0.0
 40
7.765919
100
AcDbArc
 50
152.764058
 51
207.235942
  0
ARC
  5
254
330
A
100
AcDbEntity
  8
0
  6
Continuous
 62
     7
100
AcDbCircle
 10
22968.036117
 20
-19837.86485999999
 30
0.0
 40
8.736528999999999
100
AcDbArc
 50
332.763627
 51
27.236373
  0
ARC
  5
255
330
A
100
AcDbEntity
  8
0
  6
Continuous
 62
     7
100
AcDbCircle
 10
22968.0361
 20
-19852.969873
 30
0.0
 40
8.736544999999999
100
AcDbArc
 50
332.763678
 51
27.236322
  0
ARC
  5
256
330
A
100
AcDbEntity
  8
0
  6
Continuous
 62
     7
100
AcDbCircle
 10
22982.708877
 20
-19860.522365
 30
0.0
 40
7.765894999999999
100
AcDbArc
 50
152.764029
 51
207.235971
  0
ARC
  5
257
330
A
100
AcDbEntity
  8
0
  6
Continuous
 62
     7
100
AcDbCircle
 10
22982.708923
 20
-19875.627364
 30
0.0
 40
7.765942999999999
100
AcDbArc
 50
152.764087
 51
207.235913
  0
ARC
  5
258
330
A
100
AcDbEntity
  8
0
  6
Continuous
 62
     7
100
AcDbCircle
 10
22982.708877
 20
-19890.732363
 30
0.0
 40
7.765894999999999
100
AcDbArc
 50
152.764029
 51
207.235971
  0
ARC
  5
259
330
A
100
AcDbEntity
  8
0
  6
Continuous
 62
     7
100
AcDbCircle
 10
22982.708923
 20
-19905.837361
 30
0.0
 40
7.765942999999999
100
AcDbArc
 50
152.764087
 51
207.235913
  0
ARC
  5
25A
330
A
100
AcDbEntity
  8
0
  6
Continuous
 62
     7
100
AcDbCircle
 10
22982.708843
 20
-19920.94236
 30
0.0
 40
7.765864999999999
100
AcDbArc
 50
152.763913
 51
207.236087
  0
ARC
  5
25B
330
A
100
AcDbEntity
  8
0
  6
Continuous
 62
     7
100
AcDbCircle
 10
22982.708923
 20
-19936.047359
 30
0.0
 40
7.765942999999999
100
AcDbArc
 50
152.764087
 51
207.235913
  0
ARC
  5
25C
330
A
100
AcDbEntity
  8
0
  6
Continuous
 62
     7
100
AcDbCircle
 10
22968.036134
 20
-19943.599866
 30
0.0
 40
8.736513999999999
100
AcDbArc
 50
332.763576
 51
27.236424
  0
ARC
  5
25D
330
A
100
AcDbEntity
  8
0
  6
Continuous
 62
     7
100
AcDbCircle
 10
22982.708923
 20
-19951.152372
 30
0.0
 40
7.765942999999999
100
AcDbArc
 50
152.764087
 51
207.235913
  0
ARC
  5
25E
330
A
100
AcDbEntity
  8
0
  6
Continuous
 62
     7
100
AcDbCircle
 10
22982.708843
 20
-19966.257371
 30
0.0
 40
7.765864999999999
100
AcDbArc
 50
152.763913
 51
207.236087
  0
ARC
  5
25F
330
A
100
AcDbEntity
  8
0
  6
Continuous
 62
     7
100
AcDbCircle
 10
22982.708923
 20
-19981.36237
 30
0.0
 40
7.765942999999999
100
AcDbArc
 50
152.764087
 51
207.235913
  0
ARC
  5
260
330
A
100
AcDbEntity
  8
0
  6
Continuous
 62
     7
100
AcDbCircle
 10
22982.708877
 20
-19996.467368
 30
0.0
 40
7.765894999999999
100
AcDbArc
 50
152.764029
 51
207.235971
  0
ARC
  5
261
330
A
100
AcDbEntity
  8
0
  6
Continuous
 62
     7
100
AcDbCircle
 10
22982.708923
 20
-20011.572367
 30
0.0
 40
7.765942999999999
100
AcDbArc
 50
152.764087
 51
207.235913
  0
ARC
  5
262
330
A
100
AcDbEntity
  8
0
  6
Continuous
 62
     7
100
AcDbCircle
 10
22968.809137
 20
-20019.124859
 30
0.0
 40
7.765261999999999
100
AcDbArc
 50
324.03924
 51
27.238376
  0
ARC
  5
263
330
A
100
AcDbEntity
  8
0
  6
Continuous
 62
     7
100
AcDbCircle
 10
22983.481168
 20
-20011.572367
 30
0.0
 40
8.736513999999999
100
AcDbArc
 50
152.763576
 51
207.236424
  0
ARC
  5
264
330
A
100
AcDbEntity
  8
0
  6
Continuous
 62
     7
100
AcDbCircle
 10
22968.809057
 20
-20004.01986
 30
0.0
 40
7.765339999999999
100
AcDbArc
 50
332.761798
 51
27.238202
  0
ARC
  5
265
330
A
100
AcDbEntity
  8
0
  6
Continuous
 62
     7
100
AcDbCircle
 10
22983.481203
 20
-19996.467354
 30
0.0
 40
8.736544999999999
100
AcDbArc
 50
152.763678
 51
207.236322
  0
ARC
  5
266
330
A
100
AcDbEntity
  8
0
  6
Continuous
 62
     7
100
AcDbCircle
 10
22968.809103
 20
-19988.914862
 30
0.0
 40
7.765292999999998
100
AcDbArc
 50
332.76174
 51
27.23826
  0
ARC
  5
267
330
A
100
AcDbEntity
  8
0
  6
Continuous
 62
     7
100
AcDbCircle
 10
22983.481168
 20
-19981.36237
 30
0.0
 40
8.736513999999999
100
AcDbArc
 50
152.763576
 51
207.236424
  0
ARC
  5
268
330
A
100
AcDbEntity
  8
0
  6
Continuous
 62
     7
100
AcDbCircle
 10
22968.809057
 20
-19973.809863
 30
0.0
 40
7.765339999999999
100
AcDbArc
 50
332.761798
 51
27.238202
  0
ARC
  5
269
330
A
100
AcDbEntity
  8
0
  6
Continuous
 62
     7
100
AcDbCircle
 10
22983.481203
 20
-19966.257356
 30
0.0
 40
8.736544999999999
100
AcDbArc
 50
152.763678
 51
207.236322
  0
ARC
  5
26A
330
A
100
AcDbEntity
  8
0
  6
Continuous
 62
     7
100
AcDbCircle
 10
22968.809103
 20
-19958.704864
 30
0.0
 40
7.765292999999998
100
AcDbArc
 50
332.76174
 51
27.23826
  0
ARC
  5
26B
330
A
100
AcDbEntity
  8
0
  6
Continuous
 62
     7
100
AcDbCircle
 10
22983.481168
 20
-19951.152372
 30
0.0
 40
8.736513999999999
100
AcDbArc
 50
152.763576
 51
207.236424
  0
ARC
  5
26C
330
A
100
AcDbEntity
  8
0
  6
Continuous
 62
     7
100
AcDbCircle
 10
22968.809057
 20
-19943.599866
 30
0.0
 40
7.765339999999999
100
AcDbArc
 50
332.761798
 51
27.238202
  0
ARC
  5
26D
330
A
100
AcDbEntity
  8
0
  6
Continuous
 62
     7
100
AcDbCircle
 10
22983.481168
 20
-19936.047359
 30
0.0
 40
8.736513999999999
100
AcDbArc
 50
152.763576
 51
207.236424
  0
ARC
  5
26E
330
A
100
AcDbEntity
  8
0
  6
Continuous
 62
     7
100
AcDbCircle
 10
22968.809103
 20
-19928.494867
 30
0.0
 40
7.765292999999998
100
AcDbArc
 50
332.76174
 51
27.23826
  0
ARC
  5
26F
330
A
100
AcDbEntity
  8
0
  6
Continuous
 62
     7
100
AcDbCircle
 10
22983.481203
 20
-19920.942375
 30
0.0
 40
8.736544999999999
100
AcDbArc
 50
152.763678
 51
207.236322
  0
ARC
  5
270
330
A
100
AcDbEntity
  8
0
  6
Continuous
 62
     7
100
AcDbCircle
 10
22968.809057
 20
-19913.389868
 30
0.0
 40
7.765339999999999
100
AcDbArc
 50
332.761798
 51
27.238202
  0
ARC
  5
271
330
A
100
AcDbEntity
  8
0
  6
Continuous
 62
     7
100
AcDbCircle
 10
22983.481168
 20
-19905.837361
 30
0.0
 40
8.736513999999999
100
AcDbArc
 50
152.763576
 51
207.236424
  0
ARC
  5
272
330
A
100
AcDbEntity
  8
0
  6
Continuous
 62
     7
100
AcDbCircle
 10
22968.809103
 20
-19898.284869
 30
0.0
 40
7.765292999999998
100
AcDbArc
 50
332.76174
 51
27.23826
  0
ARC
  5
273
330
A
100
AcDbEntity
  8
0
  6
Continuous
 62
     7
100
AcDbCircle
 10
22983.481203
 20
-19890.732377
 30
0.0
 40
8.736544999999999
100
AcDbArc
 50
152.763678
 51
207.236322
  0
ARC
  5
274
330
A
100
AcDbEntity
  8
0
  6
Continuous
 62
     7
100
AcDbCircle
 10
22968.809057
 20
-19883.179871
 30
0.0
 40
7.765339999999999
100
AcDbArc
 50
332.761798
 51
27.238202
  0
ARC
  5
275
330
A
100
AcDbEntity
  8
0
  6
Continuous
 62
     7
100
AcDbCircle
 10
22983.481168
 20
-19875.627364
 30
0.0
 40
8.736513999999999
100
AcDbArc
 50
152.763576
 51
207.236424
  0
ARC
  5
276
330
A
100
AcDbEntity
  8
0
  6
Continuous
 62
     7
100
AcDbCircle
 10
22968.809137
 20
-19868.074872
 30
0.0
 40
7.765261999999999
100
AcDbArc
 50
332.7616240000001
 51
27.238376
  0
ARC
  5
277
330
A
100
AcDbEntity
  8
0
  6
Continuous
 62
     7
100
AcDbCircle
 10
22983.481283
 20
-19860.522365
 30
0.0
 40
8.736622999999999
100
AcDbArc
 50
152.763833
 51
207.236167
  0
ARC
  5
278
330
A
100
AcDbEntity
  8
0
  6
Continuous
 62
     7
100
AcDbCircle
 10
22968.809137
 20
-19852.969859
 30
0.0
 40
7.765261999999999
100
AcDbArc
 50
332.7616240000001
 51
27.238376
  0
ARC
  5
279
330
A
100
AcDbEntity
  8
0
  6
Continuous
 62
     7
100
AcDbCircle
 10
22968.80908
 20
-19837.864867
 30
0.0
 40
7.765316999999999
100
AcDbArc
 50
332.761769
 51
27.238231
  0
ARC
  5
27A
330
A
100
AcDbEntity
  8
0
  6
Continuous
 62
     7
100
AcDbCircle
 10
22983.481185
 20
-19830.312368
 30
0.0
 40
8.736528999999999
100
AcDbArc
 50
152.763627
 51
207.236373
  0
ARC
  5
27B
330
A
100
AcDbEntity
  8
0
  6
Continuous
 62
     7
100
AcDbCircle
 10
22968.80908
 20
-19822.759869
 30
0.0
 40
7.765316999999999
100
AcDbArc
 50
332.761769
 51
27.238231
  0
ARC
  5
27C
330
A
100
AcDbEntity
  8
0
  6
Continuous
 62
     7
100
AcDbCircle
 10
22983.481185
 20
-19815.207369
 30
0.0
 40
8.736528999999999
100
AcDbArc
 50
152.763627
 51
207.236373
  0
ARC
  5
27D
330
A
100
AcDbEntity
  8
0
  6
Continuous
 62
     7
100
AcDbCircle
 10
22968.80908
 20
-19807.65487
 30
0.0
 40
7.765316999999999
100
AcDbArc
 50
332.761769
 51
27.238231
  0
ARC
  5
27E
330
A
100
AcDbEntity
  8
0
  6
Continuous
 62
     7
100
AcDbCircle
 10
22983.481185
 20
-19800.10237
 30
0.0
 40
8.736528999999999
100
AcDbArc
 50
152.763627
 51
207.236373
  0
ARC
  5
27F
330
A
100
AcDbEntity
  8
0
  6
Continuous
 62
     7
100
AcDbCircle
 10
22968.809097
 20
-19792.549871
 30
0.0
 40
7.765300999999999
100
AcDbArc
 50
332.761711
 51
27.238289
  0
ARC
  5
280
330
A
100
AcDbEntity
  8
0
  6
Continuous
 62
     7
100
AcDbCircle
 10
22983.481185
 20
-19784.997372
 30
0.0
 40
8.736528999999999
100
AcDbArc
 50
152.763627
 51
207.236373
  0
ARC
  5
281
330
A
100
AcDbEntity
  8
0
  6
Continuous
 62
     7
100
AcDbCircle
 10
22968.809097
 20
-19777.444872
 30
0.0
 40
7.765300999999999
100
AcDbArc
 50
332.761711
 51
27.238289
  0
ARC
  5
282
330
A
100
AcDbEntity
  8
0
  6
Continuous
 62
     7
100
AcDbCircle
 10
22983.481226
 20
-19769.892366
 30
0.0
 40
8.736568
100
AcDbArc
 50
152.763704
 51
207.236296
  0
ARC
  5
283
330
A
100
AcDbEntity
  8
0
  6
Continuous
 62
     7
100
AcDbCircle
 10
22968.809097
 20
-19762.339859
 30
0.0
 40
7.765300999999999
100
AcDbArc
 50
332.761711
 51
27.238289
  0
ARC
  5
284
330
A
100
AcDbEntity
  8
0
  6
Continuous
 62
     7
100
AcDbCircle
 10
22983.481185
 20
-19754.78736
 30
0.0
 40
8.736528999999999
100
AcDbArc
 50
152.763627
 51
207.236373
  0
ARC
  5
285
330
A
100
AcDbEntity
  8
0
  6
Continuous
 62
     7
100
AcDbCircle
 10
22968.809097
 20
-19747.23486
 30
0.0
 40
7.765300999999999
100
AcDbArc
 50
332.761711
 51
27.238289
  0
ARC
  5
286
330
A
100
AcDbEntity
  8
0
  6
Continuous
 62
     7
100
AcDbCircle
 10
22983.481185
 20
-19739.682361
 30
0.0
 40
8.736528999999999
100
AcDbArc
 50
152.763627
 51
207.236373
  0
ARC
  5
287
330
A
100
AcDbEntity
  8
0
  6
Continuous
 62
     7
100
AcDbCircle
 10
22968.80908
 20
-19732.129861
 30
0.0
 40
7.765316999999999
100
AcDbArc
 50
332.761769
 51
27.238231
  0
ARC
  5
288
330
A
100
AcDbEntity
  8
0
  6
Continuous
 62
     7
100
AcDbCircle
 10
22983.481185
 20
-19724.577362
 30
0.0
 40
8.736528999999999
100
AcDbArc
 50
152.763627
 51
207.236373
  0
ARC
  5
289
330
A
100
AcDbEntity
  8
0
  6
Continuous
 62
     7
100
AcDbCircle
 10
22968.809089
 20
-19717.024863
 30
0.0
 40
7.765308999999999
100
AcDbArc
 50
332.76174
 51
27.23826
  0
ARC
  5
28A
330
A
100
AcDbEntity
  8
0
  6
Continuous
 62
     7
100
AcDbCircle
 10
22983.481185
 20
-19709.472363
 30
0.0
 40
8.736528999999999
100
AcDbArc
 50
152.763627
 51
207.236373
  0
ARC
  5
28B
330
A
100
AcDbEntity
  8
0
  6
Continuous
 62
     7
100
AcDbCircle
 10
22968.809089
 20
-19701.919864
 30
0.0
 40
7.765308999999999
100
AcDbArc
 50
332.76174
 51
27.23826
  0
ARC
  5
28C
330
A
100
AcDbEntity
  8
0
  6
Continuous
 62
     7
100
AcDbCircle
 10
22983.481185
 20
-19694.367365
 30
0.0
 40
8.736528999999999
100
AcDbArc
 50
152.763627
 51
207.236373
  0
ARC
  5
28D
330
A
100
AcDbEntity
  8
0
  6
Continuous
 62
     7
100
AcDbCircle
 10
22968.80908
 20
-19686.814865
 30
0.0
 40
7.765316999999999
100
AcDbArc
 50
332.761769
 51
27.238231
  0
ARC
  5
28E
330
A
100
AcDbEntity
  8
0
  6
Continuous
 62
     7
100
AcDbCircle
 10
22983.481185
 20
-19679.262366
 30
0.0
 40
8.736528999999999
100
AcDbArc
 50
152.763627
 51
207.236373
  0
ARC
  5
28F
330
A
100
AcDbEntity
  8
0
  6
Continuous
 62
     7
100
AcDbCircle
 10
22968.80908
 20
-19671.709867
 30
0.0
 40
7.765316999999999
100
AcDbArc
 50
332.761769
 51
27.238231
  0
ARC
  5
290
330
A
100
AcDbEntity
  8
0
  6
Continuous
 62
     7
100
AcDbCircle
 10
22983.481185
 20
-19664.157367
 30
0.0
 40
8.736528999999999
100
AcDbArc
 50
152.763627
 51
207.236373
  0
ARC
  5
291
330
A
100
AcDbEntity
  8
0
  6
Continuous
 62
     7
100
AcDbCircle
 10
22968.809074
 20
-19656.604866
 30
0.0
 40
7.765322
100
AcDbArc
 50
332.761776
 51
27.238224
  0
ARC
  5
292
330
A
100
AcDbEntity
  8
0
  6
Continuous
 62
     7
100
AcDbCircle
 10
22983.481185
 20
-19649.052365
 30
0.0
 40
8.736528999999999
100
AcDbArc
 50
152.763627
 51
207.236373
  0
ARC
  5
293
330
A
100
AcDbEntity
  8
0
  6
Continuous
 62
     7
100
AcDbCircle
 10
22968.809089
 20
-19641.499866
 30
0.0
 40
7.765308999999999
100
AcDbArc
 50
332.76174
 51
27.23826
  0
ARC
  5
294
330
A
100
AcDbEntity
  8
0
  6
Continuous
 62
     7
100
AcDbCircle
 10
22983.481185
 20
-19633.947366
 30
0.0
 40
8.736528999999999
100
AcDbArc
 50
152.763627
 51
207.236373
  0
ARC
  5
295
330
A
100
AcDbEntity
  8
0
  6
Continuous
 62
     7
100
AcDbCircle
 10
22968.809079
 20
-19626.394866
 30
0.0
 40
7.765317999999999
100
AcDbArc
 50
332.761765
 51
27.238235
  0
ARC
  5
296
330
A
100
AcDbEntity
  8
0
  6
Continuous
 62
     7
100
AcDbCircle
 10
22983.481185
 20
-19618.842366
 30
0.0
 40
8.736528999999999
100
AcDbArc
 50
152.763627
 51
207.236373
  0
ARC
  5
297
330
A
100
AcDbEntity
  8
0
  6
Continuous
 62
     7
100
AcDbCircle
 10
22968.809086
 20
-19611.289866
 30
0.0
 40
7.765311999999999
100
AcDbArc
 50
332.761751
 51
27.238249
  0
ARC
  5
298
330
A
100
AcDbEntity
  8
0
  6
Continuous
 62
     7
100
AcDbCircle
 10
22983.481192
 20
-19603.737366
 30
0.0
 40
8.736535999999999
100
AcDbArc
 50
152.7636409999999
 51
207.236359
  0
ARC
  5
299
330
A
100
AcDbEntity
  8
0
  6
Continuous
 62
     7
100
AcDbCircle
 10
22968.809086
 20
-19596.184866
 30
0.0
 40
7.765310999999999
100
AcDbArc
 50
332.76175
 51
27.23825
  0
ARC
  5
29A
330
A
100
AcDbEntity
  8
0
  6
Continuous
 62
     7
100
AcDbCircle
 10
22983.481192
 20
-19588.632366
 30
0.0
 40
8.736535999999999
100
AcDbArc
 50
152.7636409999999
 51
207.236359
  0
ARC
  5
29B
330
A
100
AcDbEntity
  8
0
  6
Continuous
 62
     7
100
AcDbCircle
 10
22968.809086
 20
-19581.079865
 30
0.0
 40
7.765311999999999
100
AcDbArc
 50
332.761751
 51
27.238249
  0
ARC
  5
29C
330
A
100
AcDbEntity
  8
0
  6
Continuous
 62
     7
100
AcDbCircle
 10
22983.481185
 20
-19573.527366
 30
0.0
 40
8.736528999999999
100
AcDbArc
 50
152.763627
 51
207.236373
  0
ARC
  5
29D
330
A
100
AcDbEntity
  8
0
  6
Continuous
 62
     7
100
AcDbCircle
 10
22968.809079
 20
-19565.974866
 30
0.0
 40
7.765317999999999
100
AcDbArc
 50
332.761765
 51
27.238235
  0
ARC
  5
29E
330
A
100
AcDbEntity
  8
0
  6
Continuous
 62
     7
100
AcDbCircle
 10
22983.481185
 20
-19558.422365
 30
0.0
 40
8.736528999999999
100
AcDbArc
 50
152.763627
 51
207.236373
  0
ARC
  5
29F
330
A
100
AcDbEntity
  8
0
  6
Continuous
 62
     7
100
AcDbCircle
 10
22968.809089
 20
-19550.869866
 30
0.0
 40
7.765308999999999
100
AcDbArc
 50
332.76174
 51
27.23826
  0
ARC
  5
2A0
330
A
100
AcDbEntity
  8
0
  6
Continuous
 62
     7
100
AcDbCircle
 10
22983.481185
 20
-19543.317367
 30
0.0
 40
8.736528999999999
100
AcDbArc
 50
152.763627
 51
207.236373
  0
ARC
  5
2A1
330
A
100
AcDbEntity
  8
0
  6
Continuous
 62
     7
100
AcDbCircle
 10
22968.809074
 20
-19535.764865
 30
0.0
 40
7.765322
100
AcDbArc
 50
332.761776
 51
27.238224
  0
ARC
  5
2A2
330
A
100
AcDbEntity
  8
0
  6
Continuous
 62
     7
100
AcDbCircle
 10
22983.481185
 20
-19528.212364
 30
0.0
 40
8.736528999999999
100
AcDbArc
 50
152.763627
 51
207.236373
  0
ARC
  5
2A3
330
A
100
AcDbEntity
  8
0
  6
Continuous
 62
     7
100
AcDbCircle
 10
22968.80908
 20
-19520.659865
 30
0.0
 40
7.765316999999999
100
AcDbArc
 50
332.761769
 51
27.238231
  0
ARC
  5
2A4
330
A
100
AcDbEntity
  8
0
  6
Continuous
 62
     7
100
AcDbCircle
 10
22983.481185
 20
-19513.107365
 30
0.0
 40
8.736528999999999
100
AcDbArc
 50
152.763627
 51
207.236373
  0
ARC
  5
2A5
330
A
100
AcDbEntity
  8
0
  6
Continuous
 62
     7
100
AcDbCircle
 10
22968.80908
 20
-19505.554866
 30
0.0
 40
7.765316999999999
100
AcDbArc
 50
332.761769
 51
27.238231
  0
ARC
  5
2A6
330
A
100
AcDbEntity
  8
0
  6
Continuous
 62
     7
100
AcDbCircle
 10
22983.481185
 20
-19498.00236699999
 30
0.0
 40
8.736528999999999
100
AcDbArc
 50
152.763627
 51
207.236373
  0
ARC
  5
2A7
330
A
100
AcDbEntity
  8
0
  6
Continuous
 62
     7
100
AcDbCircle
 10
22968.809089
 20
-19490.449867
 30
0.0
 40
7.765308999999999
100
AcDbArc
 50
332.76174
 51
27.23826
  0
ARC
  5
2A8
330
A
100
AcDbEntity
  8
0
  6
Continuous
 62
     7
100
AcDbCircle
 10
22983.481185
 20
-19482.897368
 30
0.0
 40
8.736528999999999
100
AcDbArc
 50
152.763627
 51
207.236373
  0
ARC
  5
2A9
330
A
100
AcDbEntity
  8
0
  6
Continuous
 62
     7
100
AcDbCircle
 10
22968.809089
 20
-19475.344869
 30
0.0
 40
7.765308999999999
100
AcDbArc
 50
332.76174
 51
27.23826
  0
ARC
  5
2AA
330
A
100
AcDbEntity
  8
0
  6
Continuous
 62
     7
100
AcDbCircle
 10
22983.481185
 20
-19467.792369
 30
0.0
 40
8.736528999999999
100
AcDbArc
 50
152.763627
 51
207.236373
  0
ARC
  5
2AB
330
A
100
AcDbEntity
  8
0
  6
Continuous
 62
     7
100
AcDbCircle
 10
22968.80908
 20
-19460.23987
 30
0.0
 40
7.765316999999999
100
AcDbArc
 50
332.761769
 51
27.238231
  0
ARC
  5
2AC
330
A
100
AcDbEntity
  8
0
  6
Continuous
 62
     7
100
AcDbCircle
 10
22983.481185
 20
-19452.687371
 30
0.0
 40
8.736528999999999
100
AcDbArc
 50
152.763627
 51
207.236373
  0
ARC
  5
2AD
330
A
100
AcDbEntity
  8
0
  6
Continuous
 62
     7
100
AcDbCircle
 10
22968.809097
 20
-19445.134871
 30
0.0
 40
7.765300999999999
100
AcDbArc
 50
332.761711
 51
27.238289
  0
ARC
  5
2AE
330
A
100
AcDbEntity
  8
0
  6
Continuous
 62
     7
100
AcDbCircle
 10
22983.481185
 20
-19437.582372
 30
0.0
 40
8.736528999999999
100
AcDbArc
 50
152.763627
 51
207.236373
  0
ARC
  5
2AF
330
A
100
AcDbEntity
  8
0
  6
Continuous
 62
     7
100
AcDbCircle
 10
22968.809097
 20
-19430.029873
 30
0.0
 40
7.765300999999999
100
AcDbArc
 50
332.761711
 51
27.238289
  0
ARC
  5
2B0
330
A
100
AcDbEntity
  8
0
  6
Continuous
 62
     7
100
AcDbCircle
 10
22968.809097
 20
-19414.924859
 30
0.0
 40
7.765300999999999
100
AcDbArc
 50
332.761711
 51
27.238289
  0
ARC
  5
2B1
330
A
100
AcDbEntity
  8
0
  6
Continuous
 62
     7
100
AcDbCircle
 10
22983.481185
 20
-19407.37236
 30
0.0
 40
8.736528999999999
100
AcDbArc
 50
152.763627
 51
207.236373
  0
ARC
  5
2B2
330
A
100
AcDbEntity
  8
0
  6
Continuous
 62
     7
100
AcDbCircle
 10
22968.809097
 20
-19399.81986
 30
0.0
 40
7.765300999999999
100
AcDbArc
 50
332.761711
 51
27.238289
  0
ARC
  5
2B3
330
A
100
AcDbEntity
  8
0
  6
Continuous
 62
     7
100
AcDbCircle
 10
22983.481185
 20
-19392.267361
 30
0.0
 40
8.736528999999999
100
AcDbArc
 50
152.763627
 51
207.236373
  0
ARC
  5
2B4
330
A
100
AcDbEntity
  8
0
  6
Continuous
 62
     7
100
AcDbCircle
 10
22968.80908
 20
-19384.714862
 30
0.0
 40
7.765316999999999
100
AcDbArc
 50
332.761769
 51
27.238231
  0
ARC
  5
2B5
330
A
100
AcDbEntity
  8
0
  6
Continuous
 62
     7
100
AcDbCircle
 10
22983.481185
 20
-19377.162362
 30
0.0
 40
8.736528999999999
100
AcDbArc
 50
152.763627
 51
207.236373
  0
ARC
  5
2B6
330
A
100
AcDbEntity
  8
0
  6
Continuous
 62
     7
100
AcDbCircle
 10
22968.80908
 20
-19369.609863
 30
0.0
 40
7.765316999999999
100
AcDbArc
 50
332.761769
 51
27.238231
  0
ARC
  5
2B7
330
A
100
AcDbEntity
  8
0
  6
Continuous
 62
     7
100
AcDbCircle
 10
22983.481185
 20
-19362.057364
 30
0.0
 40
8.736528999999999
100
AcDbArc
 50
152.763627
 51
207.236373
  0
ARC
  5
2B8
330
A
100
AcDbEntity
  8
0
  6
Continuous
 62
     7
100
AcDbCircle
 10
22968.80908
 20
-19354.504864
 30
0.0
 40
7.765316999999999
100
AcDbArc
 50
332.761769
 51
27.238231
  0
ARC
  5
2B9
330
A
100
AcDbEntity
  8
0
  6
Continuous
 62
     7
100
AcDbCircle
 10
22968.809137
 20
-19339.399873
 30
0.0
 40
7.765261999999999
100
AcDbArc
 50
332.7616240000001
 51
27.238376
  0
ARC
  5
2BA
330
A
100
AcDbEntity
  8
0
  6
Continuous
 62
     7
100
AcDbCircle
 10
22983.481283
 20
-19331.847366
 30
0.0
 40
8.736622999999999
100
AcDbArc
 50
152.763833
 51
207.236167
  0
ARC
  5
2BB
330
A
100
AcDbEntity
  8
0
  6
Continuous
 62
     7
100
AcDbCircle
 10
22968.809137
 20
-19324.294859
 30
0.0
 40
7.765261999999999
100
AcDbArc
 50
332.7616240000001
 51
27.238376
  0
ARC
  5
2BC
330
A
100
AcDbEntity
  8
0
  6
Continuous
 62
     7
100
AcDbCircle
 10
22983.481168
 20
-19316.742367
 30
0.0
 40
8.736513999999999
100
AcDbArc
 50
152.763576
 51
207.236424
  0
ARC
  5
2BD
330
A
100
AcDbEntity
  8
0
  6
Continuous
 62
     7
100
AcDbCircle
 10
22968.809057
 20
-19309.189861
 30
0.0
 40
7.765339999999999
100
AcDbArc
 50
332.761798
 51
27.238202
  0
ARC
  5
2BE
330
A
100
AcDbEntity
  8
0
  6
Continuous
 62
     7
100
AcDbCircle
 10
22983.481203
 20
-19301.637354
 30
0.0
 40
8.736544999999999
100
AcDbArc
 50
152.763678
 51
207.236322
  0
ARC
  5
2BF
330
A
100
AcDbEntity
  8
0
  6
Continuous
 62
     7
100
AcDbCircle
 10
22968.809103
 20
-19294.084862
 30
0.0
 40
7.765292999999998
100
AcDbArc
 50
332.76174
 51
27.23826
  0
ARC
  5
2C0
330
A
100
AcDbEntity
  8
0
  6
Continuous
 62
     7
100
AcDbCircle
 10
22983.481168
 20
-19286.53236999999
 30
0.0
 40
8.736513999999999
100
AcDbArc
 50
152.763576
 51
207.236424
  0
ARC
  5
2C1
330
A
100
AcDbEntity
  8
0
  6
Continuous
 62
     7
100
AcDbCircle
 10
22968.809057
 20
-19278.979863
 30
0.0
 40
7.765339999999999
100
AcDbArc
 50
332.761798
 51
27.238202
  0
ARC
  5
2C2
330
A
100
AcDbEntity
  8
0
  6
Continuous
 62
     7
100
AcDbCircle
 10
22983.481203
 20
-19271.427357
 30
0.0
 40
8.736544999999999
100
AcDbArc
 50
152.763678
 51
207.236322
  0
ARC
  5
2C3
330
A
100
AcDbEntity
  8
0
  6
Continuous
 62
     7
100
AcDbCircle
 10
22968.809103
 20
-19263.874865
 30
0.0
 40
7.765292999999998
100
AcDbArc
 50
332.76174
 51
27.23826
  0
ARC
  5
2C4
330
A
100
AcDbEntity
  8
0
  6
Continuous
 62
     7
100
AcDbCircle
 10
22983.481168
 20
-19256.322373
 30
0.0
 40
8.736513999999999
100
AcDbArc
 50
152.763576
 51
207.236424
  0
ARC
  5
2C5
330
A
100
AcDbEntity
  8
0
  6
Continuous
 62
     7
100
AcDbCircle
 10
22968.809057
 20
-19248.769866
 30
0.0
 40
7.765339999999999
100
AcDbArc
 50
332.761798
 51
27.238202
  0
ARC
  5
2C6
330
A
100
AcDbEntity
  8
0
  6
Continuous
 62
     7
100
AcDbCircle
 10
22983.481168
 20
-19241.217359
 30
0.0
 40
8.736513999999999
100
AcDbArc
 50
152.763576
 51
207.236424
  0
ARC
  5
2C7
330
A
100
AcDbEntity
  8
0
  6
Continuous
 62
     7
100
AcDbCircle
 10
22968.809103
 20
-19233.664867
 30
0.0
 40
7.765292999999998
100
AcDbArc
 50
332.76174
 51
27.23826
  0
ARC
  5
2C8
330
A
100
AcDbEntity
  8
0
  6
Continuous
 62
     7
100
AcDbCircle
 10
22983.481203
 20
-19226.112375
 30
0.0
 40
8.736544999999999
100
AcDbArc
 50
152.763678
 51
207.236322
  0
ARC
  5
2C9
330
A
100
AcDbEntity
  8
0
  6
Continuous
 62
     7
100
AcDbCircle
 10
22968.809057
 20
-19218.559868
 30
0.0
 40
7.765339999999999
100
AcDbArc
 50
332.761798
 51
27.238202
  0
ARC
  5
2CA
330
A
100
AcDbEntity
  8
0
  6
Continuous
 62
     7
100
AcDbCircle
 10
22983.481168
 20
-19211.007362
 30
0.0
 40
8.736513999999999
100
AcDbArc
 50
152.763576
 51
207.236424
  0
ARC
  5
2CB
330
A
100
AcDbEntity
  8
0
  6
Continuous
 62
     7
100
AcDbCircle
 10
22968.809103
 20
-19203.45487
 30
0.0
 40
7.765292999999998
100
AcDbArc
 50
332.76174
 51
27.23826
  0
ARC
  5
2CC
330
A
100
AcDbEntity
  8
0
  6
Continuous
 62
     7
100
AcDbCircle
 10
22983.481203
 20
-19195.902378
 30
0.0
 40
8.736544999999999
100
AcDbArc
 50
152.763678
 51
207.236322
  0
ARC
  5
2CD
330
A
100
AcDbEntity
  8
0
  6
Continuous
 62
     7
100
AcDbCircle
 10
22968.809057
 20
-19188.349871
 30
0.0
 40
7.765339999999999
100
AcDbArc
 50
332.761798
 51
27.238202
  0
ARC
  5
2CE
330
A
100
AcDbEntity
  8
0
  6
Continuous
 62
     7
100
AcDbCircle
 10
22983.481168
 20
-19180.797364
 30
0.0
 40
8.736513999999999
100
AcDbArc
 50
152.763576
 51
207.236424
  0
ARC
  5
2CF
330
A
100
AcDbEntity
  8
0
  6
Continuous
 62
     7
100
AcDbCircle
 10
22968.809137
 20
-19173.244872
 30
0.0
 40
7.765261999999999
100
AcDbArc
 50
332.7616240000001
 51
27.238376
  0
ARC
  5
2D0
330
A
100
AcDbEntity
  8
0
  6
Continuous
 62
     7
100
AcDbCircle
 10
22983.481283
 20
-19165.692366
 30
0.0
 40
8.736622999999999
100
AcDbArc
 50
200.030705
 51
207.236167
  0
ARC
  5
2D1
330
A
100
AcDbEntity
  8
0
  6
Continuous
 62
     7
100
AcDbCircle
 10
22983.481226
 20
-19422.477366
 30
0.0
 40
8.736568
100
AcDbArc
 50
152.763704
 51
207.236296
  0
ARC
  5
2D2
330
A
100
AcDbEntity
  8
0
  6
Continuous
 62
     7
100
AcDbCircle
 10
22983.481168
 20
-19845.417367
 30
0.0
 40
8.736513999999999
100
AcDbArc
 50
152.763576
 51
207.236424
  0
ARC
  5
2D3
330
A
100
AcDbEntity
  8
0
  6
Continuous
 62
     7
100
AcDbCircle
 10
22983.481168
 20
-19346.952365
 30
0.0
 40
8.736513999999999
100
AcDbArc
 50
152.763576
 51
207.236424
  0
LINE
  5
2D4
330
A
100
AcDbEntity
  8
0
  6
Continuous
 62
     1
100
AcDbLine
 10
23838.775977
 20
-19939.601483
 30
0.0
 11
22975.804001
 21
-19939.601483
 31
0.0
  0
ARC
  5
2D5
330
A
100
AcDbEntity
  8
0
  6
Continuous
 62
     7
100
AcDbCircle
 10
23831.008449
 20
-19943.599866
 30
0.0
 40
8.736213000000001
100
AcDbArc
 50
332.762558
 51
27.237442
  0
LINE
  5
2D6
330
A
100
AcDbEntity
  8
0
  6
Continuous
 62
     1
100
AcDbLine
 10
23838.775977
 20
-19947.598248
 30
0.0
 11
22975.804001
 21
-19947.598248
 31
0.0
  0
LINE
  5
2D7
330
A
100
AcDbEntity
  8
0
  6
Continuous
 62
     1
100
AcDbLine
 10
23838.775977
 20
-19305.191483
 30
0.0
 11
22975.804001
 21
-19305.191483
 31
0.0
  0
ARC
  5
2D8
330
A
100
AcDbEntity
  8
0
  6
Continuous
 62
     7
100
AcDbCircle
 10
23831.008449
 20
-19309.189861
 30
0.0
 40
8.736213000000001
100
AcDbArc
 50
332.762558
 51
27.237442
  0
LINE
  5
2D9
330
A
100
AcDbEntity
  8
0
  6
Continuous
 62
     1
100
AcDbLine
 10
23838.775977
 20
-19313.188248
 30
0.0
 11
22975.804001
 21
-19313.188248
 31
0.0
  0
LINE
  5
2DA
330
A
100
AcDbEntity
  8
0
  6
Continuous
 62
     1
100
AcDbLine
 10
23838.775977
 20
-19259.876483
 30
0.0
 11
22975.804001
 21
-19259.876483
 31
0.0
  0
ARC
  5
2DB
330
A
100
AcDbEntity
  8
0
  6
Continuous
 62
     7
100
AcDbCircle
 10
23831.008415
 20
-19263.874879
 30
0.0
 40
8.736242999999999
100
AcDbArc
 50
332.762661
 51
27.237339
  0
LINE
  5
2DC
330
A
100
AcDbEntity
  8
0
  6
Continuous
 62
     1
100
AcDbLine
 10
23838.775977
 20
-19267.873248
 30
0.0
 11
22975.804001
 21
-19267.873248
 31
0.0
  0
LINE
  5
2DD
330
A
100
AcDbEntity
  8
0
  6
Continuous
 62
     1
100
AcDbLine
 10
23175.926386
 20
-19577.081484
 30
0.0
 11
22975.804001
 21
-19577.081483
 31
0.0
  0
LINE
  5
2DE
330
A
100
AcDbEntity
  8
0
  6
Continuous
 62
     1
100
AcDbLine
 10
23175.143096
 20
-19585.078248
 30
0.0
 11
22975.804001
 21
-19585.078248
 31
0.0
  0
ARC
  5
2DF
330
A
100
AcDbEntity
  8
0
  6
Continuous
 62
     7
100
AcDbCircle
 10
23831.008415
 20
-19173.244858
 30
0.0
 40
8.736242999999999
100
AcDbArc
 50
332.762661
 51
31.463988
  0
LINE
  5
2E0
330
A
100
AcDbEntity
  8
0
  6
Continuous
 62
     1
100
AcDbLine
 10
23838.775977
 20
-19177.243248
 30
0.0
 11
22975.804001
 21
-19177.243248
 31
0.0
  0
LINE
  5
2E1
330
A
100
AcDbEntity
  8
0
  6
Continuous
 62
     1
100
AcDbLine
 10
23182.798442
 20
-19546.871485
 30
0.0
 11
22975.804001
 21
-19546.871483
 31
0.0
  0
LINE
  5
2E2
330
A
100
AcDbEntity
  8
0
  6
Continuous
 62
     1
100
AcDbLine
 10
23180.352767
 20
-19554.868247
 30
0.0
 11
22975.804001
 21
-19554.868248
 31
0.0
  0
LINE
  5
2E3
330
A
100
AcDbEntity
  8
0
  6
Continuous
 62
     1
100
AcDbLine
 10
23188.764972
 20
-19531.766481
 30
0.0
 11
22975.804001
 21
-19531.766483
 31
0.0
  0
LINE
  5
2E4
330
A
100
AcDbEntity
  8
0
  6
Continuous
 62
     1
100
AcDbLine
 10
23185.378453
 20
-19539.763249
 30
0.0
 11
22975.804001
 21
-19539.763248
 31
0.0
  0
LINE
  5
2E5
330
A
100
AcDbEntity
  8
0
  6
Continuous
 62
     1
100
AcDbLine
 10
23185.378453
 20
-19652.606482
 30
0.0
 11
22975.804001
 21
-19652.606483
 31
0.0
  0
LINE
  5
2E6
330
A
100
AcDbEntity
  8
0
  6
Continuous
 62
     1
100
AcDbLine
 10
23188.764972
 20
-19660.60325
 30
0.0
 11
22975.804001
 21
-19660.603248
 31
0.0
  0
LINE
  5
2E7
330
A
100
AcDbEntity
  8
0
  6
Continuous
 62
     1
100
AcDbLine
 10
23263.104964
 20
-19456.24148
 30
0.0
 11
22975.804001
 21
-19456.241483
 31
0.0
  0
LINE
  5
2E8
330
A
100
AcDbEntity
  8
0
  6
Continuous
 62
     1
100
AcDbLine
 10
23248.411463
 20
-19464.238242
 30
0.0
 11
22975.804001
 21
-19464.238248
 31
0.0
  0
LINE
  5
2E9
330
A
100
AcDbEntity
  8
0
  6
Continuous
 62
     1
100
AcDbLine
 10
23838.775977
 20
-19290.086483
 30
0.0
 11
22975.804001
 21
-19290.086483
 31
0.0
  0
ARC
  5
2EA
330
A
100
AcDbEntity
  8
0
  6
Continuous
 62
     7
100
AcDbCircle
 10
23831.008415
 20
-19294.084877
 30
0.0
 40
8.736242999999999
100
AcDbArc
 50
332.762661
 51
27.237339
  0
LINE
  5
2EB
330
A
100
AcDbEntity
  8
0
  6
Continuous
 62
     1
100
AcDbLine
 10
23838.775977
 20
-19298.083248
 30
0.0
 11
22975.804001
 21
-19298.083248
 31
0.0
  0
LINE
  5
2EC
330
A
100
AcDbEntity
  8
0
  6
Continuous
 62
     1
100
AcDbLine
 10
23838.775977
 20
-19274.981483
 30
0.0
 11
22975.804001
 21
-19274.981483
 31
0.0
  0
ARC
  5
2ED
330
A
100
AcDbEntity
  8
0
  6
Continuous
 62
     7
100
AcDbCircle
 10
23831.008449
 20
-19278.979863
 30
0.0
 40
8.736213000000001
100
AcDbArc
 50
332.762558
 51
27.237442
  0
LINE
  5
2EE
330
A
100
AcDbEntity
  8
0
  6
Continuous
 62
     1
100
AcDbLine
 10
23838.775977
 20
-19282.978248
 30
0.0
 11
22975.804001
 21
-19282.978248
 31
0.0
  0
LINE
  5
2EF
330
A
100
AcDbEntity
  8
0
  6
Continuous
 62
     1
100
AcDbLine
 10
23178.566662
 20
-19561.976483
 30
0.0
 11
22975.804001
 21
-19561.976483
 31
0.0
  0
LINE
  5
2F0
330
A
100
AcDbEntity
  8
0
  6
Continuous
 62
     1
100
AcDbLine
 10
23176.97702
 20
-19569.973248
 30
0.0
 11
22975.804001
 21
-19569.973248
 31
0.0
  0
LINE
  5
2F1
330
A
100
AcDbEntity
  8
0
  6
Continuous
 62
     1
100
AcDbLine
 10
23838.775977
 20
-19244.771483
 30
0.0
 11
22975.804001
 21
-19244.771483
 31
0.0
  0
ARC
  5
2F2
330
A
100
AcDbEntity
  8
0
  6
Continuous
 62
     7
100
AcDbCircle
 10
23831.008449
 20
-19248.769866
 30
0.0
 40
8.736213000000001
100
AcDbArc
 50
332.762558
 51
27.237442
  0
LINE
  5
2F3
330
A
100
AcDbEntity
  8
0
  6
Continuous
 62
     1
100
AcDbLine
 10
23838.775977
 20
-19252.768248
 30
0.0
 11
22975.804001
 21
-19252.768248
 31
0.0
  0
LINE
  5
2F4
330
A
100
AcDbEntity
  8
0
  6
Continuous
 62
     1
100
AcDbLine
 10
23192.234867
 20
-19667.711486
 30
0.0
 11
22975.804001
 21
-19667.711483
 31
0.0
  0
LINE
  5
2F5
330
A
100
AcDbEntity
  8
0
  6
Continuous
 62
     1
100
AcDbLine
 10
23196.699434
 20
-19675.708248
 30
0.0
 11
22975.804001
 21
-19675.708248
 31
0.0
  0
LINE
  5
2F6
330
A
100
AcDbEntity
  8
0
  6
Continuous
 62
     1
100
AcDbLine
 10
23201.214651
 20
-19682.816484
 30
0.0
 11
22975.804001
 21
-19682.816483
 31
0.0
  0
LINE
  5
2F7
330
A
100
AcDbEntity
  8
0
  6
Continuous
 62
     1
100
AcDbLine
 10
23206.982817
 20
-19690.813247
 30
0.0
 11
22975.804001
 21
-19690.813248
 31
0.0
  0
LINE
  5
2F8
330
A
100
AcDbEntity
  8
0
  6
Continuous
 62
     1
100
AcDbLine
 10
23237.873133
 20
-19471.346478
 30
0.0
 11
22975.804001
 21
-19471.346483
 31
0.0
  0
LINE
  5
2F9
330
A
100
AcDbEntity
  8
0
  6
Continuous
 62
     1
100
AcDbLine
 10
23227.89655
 20
-19479.343251
 30
0.0
 11
22975.804001
 21
-19479.343248
 31
0.0
  0
LINE
  5
2FA
330
A
100
AcDbEntity
  8
0
  6
Continuous
 62
     1
100
AcDbLine
 10
23838.775977
 20
-19199.456483
 30
0.0
 11
22975.804001
 21
-19199.456483
 31
0.0
  0
ARC
  5
2FB
330
A
100
AcDbEntity
  8
0
  6
Continuous
 62
     7
100
AcDbCircle
 10
23831.008415
 20
-19203.454855
 30
0.0
 40
8.736242999999999
100
AcDbArc
 50
332.762661
 51
27.237339
  0
LINE
  5
2FC
330
A
100
AcDbEntity
  8
0
  6
Continuous
 62
     1
100
AcDbLine
 10
23838.775977
 20
-19207.453248
 30
0.0
 11
22975.804001
 21
-19207.453248
 31
0.0
  0
LINE
  5
2FD
330
A
100
AcDbEntity
  8
0
  6
Continuous
 62
     1
100
AcDbLine
 10
23838.775977
 20
-19184.351483
 30
0.0
 11
22975.804001
 21
-19184.351483
 31
0.0
  0
ARC
  5
2FE
330
A
100
AcDbEntity
  8
0
  6
Continuous
 62
     7
100
AcDbCircle
 10
23831.008449
 20
-19188.349871
 30
0.0
 40
8.736213000000001
100
AcDbArc
 50
332.762558
 51
27.237442
  0
LINE
  5
2FF
330
A
100
AcDbEntity
  8
0
  6
Continuous
 62
     1
100
AcDbLine
 10
23838.775977
 20
-19192.348248
 30
0.0
 11
22975.804001
 21
-19192.348248
 31
0.0
  0
LINE
  5
300
330
A
100
AcDbEntity
  8
0
  6
Continuous
 62
     1
100
AcDbLine
 10
23838.775977
 20
-19320.296483
 30
0.0
 11
22975.804001
 21
-19320.296483
 31
0.0
  0
ARC
  5
301
330
A
100
AcDbEntity
  8
0
  6
Continuous
 62
     7
100
AcDbCircle
 10
23831.008415
 20
-19324.294874
 30
0.0
 40
8.736242999999999
100
AcDbArc
 50
332.762661
 51
27.237339
  0
LINE
  5
302
330
A
100
AcDbEntity
  8
0
  6
Continuous
 62
     1
100
AcDbLine
 10
23838.775977
 20
-19328.293248
 30
0.0
 11
22975.804001
 21
-19328.293248
 31
0.0
  0
LINE
  5
303
330
A
100
AcDbEntity
  8
0
  6
Continuous
 62
     1
100
AcDbLine
 10
23175.143096
 20
-19607.291484
 30
0.0
 11
22975.804001
 21
-19607.291483
 31
0.0
  0
LINE
  5
304
330
A
100
AcDbEntity
  8
0
  6
Continuous
 62
     1
100
AcDbLine
 10
23175.926386
 20
-19615.288248
 30
0.0
 11
22975.804001
 21
-19615.288248
 31
0.0
  0
LINE
  5
305
330
A
100
AcDbEntity
  8
0
  6
Continuous
 62
     1
100
AcDbLine
 10
23174.796238
 20
-19592.186483
 30
0.0
 11
22975.804001
 21
-19592.186483
 31
0.0
  0
LINE
  5
306
330
A
100
AcDbEntity
  8
0
  6
Continuous
 62
     1
100
AcDbLine
 10
23174.796238
 20
-19600.183248
 30
0.0
 11
22975.804001
 21
-19600.183248
 31
0.0
  0
LINE
  5
307
330
A
100
AcDbEntity
  8
0
  6
Continuous
 62
     1
100
AcDbLine
 10
23838.775977
 20
-19335.401483
 30
0.0
 11
22975.804001
 21
-19335.401483
 31
0.0
  0
ARC
  5
308
330
A
100
AcDbEntity
  8
0
  6
Continuous
 62
     7
100
AcDbCircle
 10
23831.008415
 20
-19339.399858
 30
0.0
 40
8.736242999999999
100
AcDbArc
 50
332.762661
 51
27.237339
  0
LINE
  5
309
330
A
100
AcDbEntity
  8
0
  6
Continuous
 62
     1
100
AcDbLine
 10
23176.97702
 20
-19622.396483
 30
0.0
 11
22975.804001
 21
-19622.396483
 31
0.0
  0
LINE
  5
30A
330
A
100
AcDbEntity
  8
0
  6
Continuous
 62
     1
100
AcDbLine
 10
23178.566662
 20
-19630.393249
 30
0.0
 11
22975.804001
 21
-19630.393248
 31
0.0
  0
LINE
  5
30B
330
A
100
AcDbEntity
  8
0
  6
Continuous
 62
     1
100
AcDbLine
 10
23180.352767
 20
-19637.501484
 30
0.0
 11
22975.804001
 21
-19637.501483
 31
0.0
  0
LINE
  5
30C
330
A
100
AcDbEntity
  8
0
  6
Continuous
 62
     1
100
AcDbLine
 10
23182.798442
 20
-19645.498247
 30
0.0
 11
22975.804001
 21
-19645.498248
 31
0.0
  0
LINE
  5
30D
330
A
100
AcDbEntity
  8
0
  6
Continuous
 62
     1
100
AcDbLine
 10
23838.775968
 20
-19773.446484
 30
0.0
 11
22975.804001
 21
-19773.446483
 31
0.0
  0
LINE
  5
30E
330
A
100
AcDbEntity
  8
0
  6
Continuous
 62
     1
100
AcDbLine
 10
23838.77597
 20
-19781.443244
 30
0.0
 11
22975.804001
 21
-19781.443248
 31
0.0
  0
LINE
  5
30F
330
A
100
AcDbEntity
  8
0
  6
Continuous
 62
     1
100
AcDbLine
 10
23838.775965
 20
-19833.866471
 30
0.0
 11
22975.804001
 21
-19833.866483
 31
0.0
  0
LINE
  5
310
330
A
100
AcDbEntity
  8
0
  6
Continuous
 62
     1
100
AcDbLine
 10
23196.699434
 20
-19516.661483
 30
0.0
 11
22975.804001
 21
-19516.661483
 31
0.0
  0
LINE
  5
311
330
A
100
AcDbEntity
  8
0
  6
Continuous
 62
     1
100
AcDbLine
 10
23192.234867
 20
-19524.658246
 30
0.0
 11
22975.804001
 21
-19524.658248
 31
0.0
  0
LINE
  5
312
330
A
100
AcDbEntity
  8
0
  6
Continuous
 62
     1
100
AcDbLine
 10
23838.775967
 20
-19788.55148
 30
0.0
 11
22975.804001
 21
-19788.551483
 31
0.0
  0
LINE
  5
313
330
A
100
AcDbEntity
  8
0
  6
Continuous
 62
     1
100
AcDbLine
 10
23838.775971
 20
-19796.54824
 30
0.0
 11
22975.804001
 21
-19796.548248
 31
0.0
  0
LINE
  5
314
330
A
100
AcDbEntity
  8
0
  6
Continuous
 62
     1
100
AcDbLine
 10
23838.775972
 20
-19826.758235
 30
0.0
 11
22975.804001
 21
-19826.758248
 31
0.0
  0
LINE
  5
315
330
A
100
AcDbEntity
  8
0
  6
Continuous
 62
     1
100
AcDbLine
 10
23206.982817
 20
-19501.556485
 30
0.0
 11
22975.804001
 21
-19501.556483
 31
0.0
  0
LINE
  5
316
330
A
100
AcDbEntity
  8
0
  6
Continuous
 62
     1
100
AcDbLine
 10
23201.214651
 20
-19509.553248
 30
0.0
 11
22975.804001
 21
-19509.553248
 31
0.0
  0
ARC
  5
317
330
A
100
AcDbEntity
  8
0
  6
Continuous
 62
     7
100
AcDbCircle
 10
23831.008415
 20
-19852.969873
 30
0.0
 40
8.736242999999999
100
AcDbArc
 50
332.762661
 51
27.237339
  0
LINE
  5
318
330
A
100
AcDbEntity
  8
0
  6
Continuous
 62
     1
100
AcDbLine
 10
23838.775977
 20
-19856.96824799999
 30
0.0
 11
22975.804001
 21
-19856.96824799999
 31
0.0
  0
LINE
  5
319
330
A
100
AcDbEntity
  8
0
  6
Continuous
 62
     1
100
AcDbLine
 10
23329.744658
 20
-19441.136482
 30
0.0
 11
22975.804001
 21
-19441.136483
 31
0.0
  0
LINE
  5
31A
330
A
100
AcDbEntity
  8
0
  6
Continuous
 62
     1
100
AcDbLine
 10
23280.746489
 20
-19449.133244
 30
0.0
 11
22975.804001
 21
-19449.133248
 31
0.0
  0
LINE
  5
31B
330
A
100
AcDbEntity
  8
0
  6
Continuous
 62
     1
100
AcDbLine
 10
23220.275094
 20
-19486.451487
 30
0.0
 11
22975.804001
 21
-19486.451483
 31
0.0
  0
LINE
  5
31C
330
A
100
AcDbEntity
  8
0
  6
Continuous
 62
     1
100
AcDbLine
 10
23212.805952
 20
-19494.448249
 30
0.0
 11
22975.804001
 21
-19494.448248
 31
0.0
  0
LINE
  5
31D
330
A
100
AcDbEntity
  8
0
  6
Continuous
 62
     1
100
AcDbLine
 10
23838.775966
 20
-19803.656477
 30
0.0
 11
22975.804001
 21
-19803.656483
 31
0.0
  0
LINE
  5
31E
330
A
100
AcDbEntity
  8
0
  6
Continuous
 62
     1
100
AcDbLine
 10
23838.77597
 20
-19434.028244
 30
0.0
 11
22975.804001
 21
-19434.028248
 31
0.0
  0
ARC
  5
31F
330
A
100
AcDbEntity
  8
0
  6
Continuous
 62
     7
100
AcDbCircle
 10
23845.680778
 20
-19769.892366
 30
0.0
 40
7.765832
100
AcDbArc
 50
152.763726
 51
207.236274
  0
ARC
  5
320
330
A
100
AcDbEntity
  8
0
  6
Continuous
 62
     7
100
AcDbCircle
 10
23845.680778
 20
-19800.102363
 30
0.0
 40
7.765832
100
AcDbArc
 50
152.763726
 51
207.236274
  0
ARC
  5
321
330
A
100
AcDbEntity
  8
0
  6
Continuous
 62
     7
100
AcDbCircle
 10
23845.680778
 20
-19392.267368
 30
0.0
 40
7.765832
100
AcDbArc
 50
152.763726
 51
207.236274
  0
ARC
  5
322
330
A
100
AcDbEntity
  8
0
  6
Continuous
 62
     7
100
AcDbCircle
 10
23845.680778
 20
-19784.997364
 30
0.0
 40
7.765832
100
AcDbArc
 50
152.763726
 51
207.236274
  0
ARC
  5
323
330
A
100
AcDbEntity
  8
0
  6
Continuous
 62
     7
100
AcDbCircle
 10
23845.680778
 20
-19407.372367
 30
0.0
 40
7.765832
100
AcDbArc
 50
152.763726
 51
207.236274
  0
ARC
  5
324
330
A
100
AcDbEntity
  8
0
  6
Continuous
 62
     7
100
AcDbCircle
 10
23845.680778
 20
-19362.057371
 30
0.0
 40
7.765832
100
AcDbArc
 50
152.763726
 51
207.236274
  0
ARC
  5
325
330
A
100
AcDbEntity
  8
0
  6
Continuous
 62
     7
100
AcDbCircle
 10
23845.680778
 20
-19830.31236
 30
0.0
 40
7.765832
100
AcDbArc
 50
152.763726
 51
207.236274
  0
ARC
  5
326
330
A
100
AcDbEntity
  8
0
  6
Continuous
 62
     7
100
AcDbCircle
 10
23845.680755
 20
-19996.467368
 30
0.0
 40
7.765807999999999
100
AcDbArc
 50
152.763697
 51
207.236303
  0
ARC
  5
327
330
A
100
AcDbEntity
  8
0
  6
Continuous
 62
     7
100
AcDbCircle
 10
23845.680801
 20
-19905.837361
 30
0.0
 40
7.765855999999999
100
AcDbArc
 50
152.763755
 51
207.236245
  0
ARC
  5
328
330
A
100
AcDbEntity
  8
0
  6
Continuous
 62
     7
100
AcDbCircle
 10
23845.680801
 20
-19981.36237
 30
0.0
 40
7.765855999999999
100
AcDbArc
 50
152.763755
 51
207.236245
  0
ARC
  5
329
330
A
100
AcDbEntity
  8
0
  6
Continuous
 62
     7
100
AcDbCircle
 10
23845.68072
 20
-19966.257371
 30
0.0
 40
7.765778
100
AcDbArc
 50
152.763581
 51
207.236419
  0
ARC
  5
32A
330
A
100
AcDbEntity
  8
0
  6
Continuous
 62
     7
100
AcDbCircle
 10
23845.68072
 20
-19920.94236
 30
0.0
 40
7.765778
100
AcDbArc
 50
152.763581
 51
207.236419
  0
ARC
  5
32B
330
A
100
AcDbEntity
  8
0
  6
Continuous
 62
     7
100
AcDbCircle
 10
23845.680801
 20
-19951.152372
 30
0.0
 40
7.765855999999999
100
AcDbArc
 50
152.763755
 51
207.236245
  0
ARC
  5
32C
330
A
100
AcDbEntity
  8
0
  6
Continuous
 62
     7
100
AcDbCircle
 10
23845.680801
 20
-19936.047359
 30
0.0
 40
7.765855999999999
100
AcDbArc
 50
152.763755
 51
207.236245
  0
ARC
  5
32D
330
A
100
AcDbEntity
  8
0
  6
Continuous
 62
     7
100
AcDbCircle
 10
23845.680755
 20
-20026.677366
 30
0.0
 40
7.765807999999999
100
AcDbArc
 50
152.763697
 51
157.334933
  0
ARC
  5
32E
330
A
100
AcDbEntity
  8
0
  6
Continuous
 62
     7
100
AcDbCircle
 10
23845.680801
 20
-20011.572367
 30
0.0
 40
7.765855999999999
100
AcDbArc
 50
152.763755
 51
207.236245
  0
ARC
  5
32F
330
A
100
AcDbEntity
  8
0
  6
Continuous
 62
     7
100
AcDbCircle
 10
23845.680755
 20
-19331.847366
 30
0.0
 40
7.765807999999999
100
AcDbArc
 50
152.763697
 51
207.236303
  0
ARC
  5
330
330
A
100
AcDbEntity
  8
0
  6
Continuous
 62
     7
100
AcDbCircle
 10
23845.680755
 20
-19301.637369
 30
0.0
 40
7.765807999999999
100
AcDbArc
 50
152.763697
 51
207.236303
  0
ARC
  5
331
330
A
100
AcDbEntity
  8
0
  6
Continuous
 62
     7
100
AcDbCircle
 10
23845.680801
 20
-19180.797364
 30
0.0
 40
7.765855999999999
100
AcDbArc
 50
152.763755
 51
207.236245
  0
ARC
  5
332
330
A
100
AcDbEntity
  8
0
  6
Continuous
 62
     7
100
AcDbCircle
 10
23845.68072
 20
-19226.11236
 30
0.0
 40
7.765778
100
AcDbArc
 50
152.763581
 51
207.236419
  0
ARC
  5
333
330
A
100
AcDbEntity
  8
0
  6
Continuous
 62
     7
100
AcDbCircle
 10
23845.680801
 20
-19286.53236999999
 30
0.0
 40
7.765855999999999
100
AcDbArc
 50
152.763755
 51
207.236245
  0
ARC
  5
334
330
A
100
AcDbEntity
  8
0
  6
Continuous
 62
     7
100
AcDbCircle
 10
23845.680755
 20
-19890.732363
 30
0.0
 40
7.765807999999999
100
AcDbArc
 50
152.763697
 51
207.236303
  0
ARC
  5
335
330
A
100
AcDbEntity
  8
0
  6
Continuous
 62
     7
100
AcDbCircle
 10
23845.680755
 20
-19195.902363
 30
0.0
 40
7.765807999999999
100
AcDbArc
 50
152.763697
 51
207.236303
  0
ARC
  5
336
330
A
100
AcDbEntity
  8
0
  6
Continuous
 62
     7
100
AcDbCircle
 10
23845.680755
 20
-19860.522365
 30
0.0
 40
7.765807999999999
100
AcDbArc
 50
152.763697
 51
207.236303
  0
ARC
  5
337
330
A
100
AcDbEntity
  8
0
  6
Continuous
 62
     7
100
AcDbCircle
 10
23845.680801
 20
-19316.742367
 30
0.0
 40
7.765855999999999
100
AcDbArc
 50
152.763755
 51
207.236245
  0
ARC
  5
338
330
A
100
AcDbEntity
  8
0
  6
Continuous
 62
     7
100
AcDbCircle
 10
23845.680801
 20
-19875.627364
 30
0.0
 40
7.765855999999999
100
AcDbArc
 50
152.763755
 51
207.236245
  0
ARC
  5
339
330
A
100
AcDbEntity
  8
0
  6
Continuous
 62
     7
100
AcDbCircle
 10
23845.680801
 20
-19211.007362
 30
0.0
 40
7.765855999999999
100
AcDbArc
 50
152.763755
 51
207.236245
  0
ARC
  5
33A
330
A
100
AcDbEntity
  8
0
  6
Continuous
 62
     7
100
AcDbCircle
 10
23845.68072
 20
-19271.427371
 30
0.0
 40
7.765778
100
AcDbArc
 50
152.763581
 51
207.236419
  0
ARC
  5
33B
330
A
100
AcDbEntity
  8
0
  6
Continuous
 62
     7
100
AcDbCircle
 10
23845.680801
 20
-19241.217359
 30
0.0
 40
7.765855999999999
100
AcDbArc
 50
152.763755
 51
207.236245
  0
ARC
  5
33C
330
A
100
AcDbEntity
  8
0
  6
Continuous
 62
     7
100
AcDbCircle
 10
23845.680801
 20
-19256.322373
 30
0.0
 40
7.765855999999999
100
AcDbArc
 50
152.763755
 51
207.236245
  0
ARC
  5
33D
330
A
100
AcDbEntity
  8
0
  6
Continuous
 62
     7
100
AcDbCircle
 10
23831.008432
 20
-19837.86485999999
 30
0.0
 40
8.736228
100
AcDbArc
 50
332.76261
 51
27.23739
  0
ARC
  5
33E
330
A
100
AcDbEntity
  8
0
  6
Continuous
 62
     7
100
AcDbCircle
 10
23831.008432
 20
-19354.504872
 30
0.0
 40
8.736228
100
AcDbArc
 50
332.76261
 51
27.23739
  0
ARC
  5
33F
330
A
100
AcDbEntity
  8
0
  6
Continuous
 62
     7
100
AcDbCircle
 10
23845.680778
 20
-19437.582364
 30
0.0
 40
7.765832
100
AcDbArc
 50
152.763726
 51
207.236274
  0
LINE
  5
340
330
A
100
AcDbEntity
  8
0
  6
Continuous
 62
     1
100
AcDbLine
 10
23838.775977
 20
-19441.136483
 30
0.0
 11
23329.744658
 21
-19441.136482
 31
0.0
  0
LINE
  5
341
330
A
100
AcDbEntity
  8
0
  6
Continuous
 62
     1
100
AcDbLine
 10
23838.775977
 20
-19751.233248
 30
0.0
 11
23329.744658
 21
-19751.23325
 31
0.0
  0
ARC
  5
342
330
A
100
AcDbEntity
  8
0
  6
Continuous
 62
     7
100
AcDbCircle
 10
23845.680778
 20
-19754.78736699999
 30
0.0
 40
7.765832
100
AcDbArc
 50
152.763726
 51
207.236274
  0
ARC
  5
343
330
A
100
AcDbEntity
  8
0
  6
Continuous
 62
     7
100
AcDbCircle
 10
23831.008432
 20
-19822.759861
 30
0.0
 40
8.736228
100
AcDbArc
 50
332.76261
 51
27.23739
  0
ARC
  5
344
330
A
100
AcDbEntity
  8
0
  6
Continuous
 62
     7
100
AcDbCircle
 10
23831.008432
 20
-19369.60987
 30
0.0
 40
8.736228
100
AcDbArc
 50
332.76261
 51
27.23739
  0
LINE
  5
345
330
A
100
AcDbEntity
  8
0
  6
Continuous
 62
     1
100
AcDbLine
 10
23838.775977
 20
-19449.133248
 30
0.0
 11
23378.742827
 21
-19449.133244
 31
0.0
  0
ARC
  5
346
330
A
100
AcDbEntity
  8
0
  6
Continuous
 62
     7
100
AcDbCircle
 10
23845.680778
 20
-19452.687363
 30
0.0
 40
7.765832
100
AcDbArc
 50
152.763726
 51
207.236274
  0
LINE
  5
347
330
A
100
AcDbEntity
  8
0
  6
Continuous
 62
     1
100
AcDbLine
 10
23838.775977
 20
-19456.241483
 30
0.0
 11
23396.384351
 21
-19456.24148
 31
0.0
  0
LINE
  5
348
330
A
100
AcDbEntity
  8
0
  6
Continuous
 62
     1
100
AcDbLine
 10
23838.775977
 20
-19736.12824799999
 30
0.0
 11
23396.384351
 21
-19736.128252
 31
0.0
  0
ARC
  5
349
330
A
100
AcDbEntity
  8
0
  6
Continuous
 62
     7
100
AcDbCircle
 10
23845.680778
 20
-19739.682368
 30
0.0
 40
7.765832
100
AcDbArc
 50
152.763726
 51
207.236274
  0
LINE
  5
34A
330
A
100
AcDbEntity
  8
0
  6
Continuous
 62
     1
100
AcDbLine
 10
23838.775977
 20
-19743.236483
 30
0.0
 11
23378.742827
 21
-19743.236487
 31
0.0
  0
LINE
  5
34B
330
A
100
AcDbEntity
  8
0
  6
Continuous
 62
     1
100
AcDbLine
 10
23838.775977
 20
-19464.238248
 30
0.0
 11
23411.077853
 21
-19464.238242
 31
0.0
  0
ARC
  5
34C
330
A
100
AcDbEntity
  8
0
  6
Continuous
 62
     7
100
AcDbCircle
 10
23845.680778
 20
-19467.792362
 30
0.0
 40
7.765832
100
AcDbArc
 50
152.763726
 51
207.236274
  0
LINE
  5
34D
330
A
100
AcDbEntity
  8
0
  6
Continuous
 62
     1
100
AcDbLine
 10
23838.775977
 20
-19471.346483
 30
0.0
 11
23421.616182
 21
-19471.346478
 31
0.0
  0
LINE
  5
34E
330
A
100
AcDbEntity
  8
0
  6
Continuous
 62
     1
100
AcDbLine
 10
23838.775977
 20
-19721.02324799999
 30
0.0
 11
23421.616182
 21
-19721.023253
 31
0.0
  0
ARC
  5
34F
330
A
100
AcDbEntity
  8
0
  6
Continuous
 62
     7
100
AcDbCircle
 10
23845.680778
 20
-19724.57737
 30
0.0
 40
7.765832
100
AcDbArc
 50
152.763726
 51
207.236274
  0
LINE
  5
350
330
A
100
AcDbEntity
  8
0
  6
Continuous
 62
     1
100
AcDbLine
 10
23838.775977
 20
-19728.131483
 30
0.0
 11
23411.077853
 21
-19728.131489
 31
0.0
  0
ARC
  5
351
330
A
100
AcDbEntity
  8
0
  6
Continuous
 62
     7
100
AcDbCircle
 10
23831.008432
 20
-19384.714869
 30
0.0
 40
8.736228
100
AcDbArc
 50
332.76261
 51
27.23739
  0
ARC
  5
352
330
A
100
AcDbEntity
  8
0
  6
Continuous
 62
     7
100
AcDbCircle
 10
23831.008432
 20
-19807.654862
 30
0.0
 40
8.736228
100
AcDbArc
 50
332.76261
 51
27.23739
  0
LINE
  5
353
330
A
100
AcDbEntity
  8
0
  6
Continuous
 62
     1
100
AcDbLine
 10
23838.775977
 20
-19479.343248
 30
0.0
 11
23431.592766
 21
-19479.343251
 31
0.0
  0
ARC
  5
354
330
A
100
AcDbEntity
  8
0
  6
Continuous
 62
     7
100
AcDbCircle
 10
23845.680769
 20
-19482.897368
 30
0.0
 40
7.765824
100
AcDbArc
 50
152.763697
 51
207.236303
  0
LINE
  5
355
330
A
100
AcDbEntity
  8
0
  6
Continuous
 62
     1
100
AcDbLine
 10
23838.775977
 20
-19486.451483
 30
0.0
 11
23439.214222
 21
-19486.451487
 31
0.0
  0
LINE
  5
356
330
A
100
AcDbEntity
  8
0
  6
Continuous
 62
     1
100
AcDbLine
 10
23838.775977
 20
-19705.91824799999
 30
0.0
 11
23439.214222
 21
-19705.91824499999
 31
0.0
  0
ARC
  5
357
330
A
100
AcDbEntity
  8
0
  6
Continuous
 62
     7
100
AcDbCircle
 10
23845.680769
 20
-19709.472363
 30
0.0
 40
7.765824
100
AcDbArc
 50
152.763697
 51
207.236303
  0
LINE
  5
358
330
A
100
AcDbEntity
  8
0
  6
Continuous
 62
     1
100
AcDbLine
 10
23838.775977
 20
-19713.026483
 30
0.0
 11
23431.592766
 21
-19713.02648
 31
0.0
  0
ARC
  5
359
330
A
100
AcDbEntity
  8
0
  6
Continuous
 62
     7
100
AcDbCircle
 10
23831.008432
 20
-19399.819868
 30
0.0
 40
8.736228
100
AcDbArc
 50
332.76261
 51
27.23739
  0
ARC
  5
35A
330
A
100
AcDbEntity
  8
0
  6
Continuous
 62
     7
100
AcDbCircle
 10
23831.008432
 20
-19792.54986399999
 30
0.0
 40
8.736228
100
AcDbArc
 50
332.76261
 51
27.23739
  0
LINE
  5
35B
330
A
100
AcDbEntity
  8
0
  6
Continuous
 62
     1
100
AcDbLine
 10
23838.775977
 20
-19494.448248
 30
0.0
 11
23446.683364
 21
-19494.448249
 31
0.0
  0
ARC
  5
35C
330
A
100
AcDbEntity
  8
0
  6
Continuous
 62
     7
100
AcDbCircle
 10
23845.680778
 20
-19498.00236699999
 30
0.0
 40
7.765832
100
AcDbArc
 50
152.763726
 51
207.236274
  0
LINE
  5
35D
330
A
100
AcDbEntity
  8
0
  6
Continuous
 62
     1
100
AcDbLine
 10
23838.775977
 20
-19501.556483
 30
0.0
 11
23452.506499
 21
-19501.556485
 31
0.0
  0
LINE
  5
35E
330
A
100
AcDbEntity
  8
0
  6
Continuous
 62
     1
100
AcDbLine
 10
23838.775977
 20
-19690.813248
 30
0.0
 11
23452.506499
 21
-19690.813246
 31
0.0
  0
ARC
  5
35F
330
A
100
AcDbEntity
  8
0
  6
Continuous
 62
     7
100
AcDbCircle
 10
23845.680778
 20
-19694.367365
 30
0.0
 40
7.765832
100
AcDbArc
 50
152.763726
 51
207.236274
  0
LINE
  5
360
330
A
100
AcDbEntity
  8
0
  6
Continuous
 62
     1
100
AcDbLine
 10
23838.775977
 20
-19697.921483
 30
0.0
 11
23446.683364
 21
-19697.92148199999
 31
0.0
  0
LINE
  5
361
330
A
100
AcDbEntity
  8
0
  6
Continuous
 62
     1
100
AcDbLine
 10
23838.775977
 20
-19509.553248
 30
0.0
 11
23458.274665
 21
-19509.553247
 31
0.0
  0
ARC
  5
362
330
A
100
AcDbEntity
  8
0
  6
Continuous
 62
     7
100
AcDbCircle
 10
23845.680778
 20
-19513.107365
 30
0.0
 40
7.765832
100
AcDbArc
 50
152.763726
 51
207.236274
  0
LINE
  5
363
330
A
100
AcDbEntity
  8
0
  6
Continuous
 62
     1
100
AcDbLine
 10
23838.775977
 20
-19516.661483
 30
0.0
 11
23462.789882
 21
-19516.661483
 31
0.0
  0
LINE
  5
364
330
A
100
AcDbEntity
  8
0
  6
Continuous
 62
     1
100
AcDbLine
 10
23838.775977
 20
-19675.708248
 30
0.0
 11
23462.789882
 21
-19675.708248
 31
0.0
  0
ARC
  5
365
330
A
100
AcDbEntity
  8
0
  6
Continuous
 62
     7
100
AcDbCircle
 10
23845.680778
 20
-19679.262366
 30
0.0
 40
7.765832
100
AcDbArc
 50
152.763726
 51
207.236274
  0
LINE
  5
366
330
A
100
AcDbEntity
  8
0
  6
Continuous
 62
     1
100
AcDbLine
 10
23838.775977
 20
-19682.816483
 30
0.0
 11
23458.274665
 21
-19682.816484
 31
0.0
  0
ARC
  5
367
330
A
100
AcDbEntity
  8
0
  6
Continuous
 62
     7
100
AcDbCircle
 10
23831.008432
 20
-19414.924866
 30
0.0
 40
8.736228
100
AcDbArc
 50
332.76261
 51
27.23739
  0
ARC
  5
368
330
A
100
AcDbEntity
  8
0
  6
Continuous
 62
     7
100
AcDbCircle
 10
23831.008432
 20
-19777.444865
 30
0.0
 40
8.736228
100
AcDbArc
 50
332.76261
 51
27.23739
  0
LINE
  5
369
330
A
100
AcDbEntity
  8
0
  6
Continuous
 62
     1
100
AcDbLine
 10
23838.775977
 20
-19524.658248
 30
0.0
 11
23467.254449
 21
-19524.658246
 31
0.0
  0
ARC
  5
36A
330
A
100
AcDbEntity
  8
0
  6
Continuous
 62
     7
100
AcDbCircle
 10
23845.680769
 20
-19528.212364
 30
0.0
 40
7.765824
100
AcDbArc
 50
152.763697
 51
207.236303
  0
LINE
  5
36B
330
A
100
AcDbEntity
  8
0
  6
Continuous
 62
     1
100
AcDbLine
 10
23838.775977
 20
-19531.766483
 30
0.0
 11
23470.724344
 21
-19531.766481
 31
0.0
  0
LINE
  5
36C
330
A
100
AcDbEntity
  8
0
  6
Continuous
 62
     1
100
AcDbLine
 10
23838.775977
 20
-19660.603248
 30
0.0
 11
23470.724344
 21
-19660.60325
 31
0.0
  0
ARC
  5
36D
330
A
100
AcDbEntity
  8
0
  6
Continuous
 62
     7
100
AcDbCircle
 10
23845.680769
 20
-19664.157367
 30
0.0
 40
7.765824
100
AcDbArc
 50
152.763697
 51
207.236303
  0
LINE
  5
36E
330
A
100
AcDbEntity
  8
0
  6
Continuous
 62
     1
100
AcDbLine
 10
23838.775977
 20
-19667.711483
 30
0.0
 11
23467.254449
 21
-19667.711486
 31
0.0
  0
LINE
  5
36F
330
A
100
AcDbEntity
  8
0
  6
Continuous
 62
     1
100
AcDbLine
 10
23838.775977
 20
-19539.763248
 30
0.0
 11
23474.110863
 21
-19539.763249
 31
0.0
  0
ARC
  5
370
330
A
100
AcDbEntity
  8
0
  6
Continuous
 62
     7
100
AcDbCircle
 10
23845.680773
 20
-19543.317367
 30
0.0
 40
7.765827999999999
100
AcDbArc
 50
152.763711
 51
207.236289
  0
LINE
  5
371
330
A
100
AcDbEntity
  8
0
  6
Continuous
 62
     1
100
AcDbLine
 10
23838.775977
 20
-19546.871483
 30
0.0
 11
23476.690874
 21
-19546.871485
 31
0.0
  0
LINE
  5
372
330
A
100
AcDbEntity
  8
0
  6
Continuous
 62
     1
100
AcDbLine
 10
23838.775977
 20
-19645.498248
 30
0.0
 11
23476.690874
 21
-19645.498247
 31
0.0
  0
ARC
  5
373
330
A
100
AcDbEntity
  8
0
  6
Continuous
 62
     7
100
AcDbCircle
 10
23845.680773
 20
-19649.052365
 30
0.0
 40
7.765827999999999
100
AcDbArc
 50
152.763711
 51
207.236289
  0
LINE
  5
374
330
A
100
AcDbEntity
  8
0
  6
Continuous
 62
     1
100
AcDbLine
 10
23838.775977
 20
-19652.606483
 30
0.0
 11
23474.110863
 21
-19652.606482
 31
0.0
  0
ARC
  5
375
330
A
100
AcDbEntity
  8
0
  6
Continuous
 62
     7
100
AcDbCircle
 10
23831.008432
 20
-19430.029865
 30
0.0
 40
8.736228
100
AcDbArc
 50
332.76261
 51
27.23739
  0
ARC
  5
376
330
A
100
AcDbEntity
  8
0
  6
Continuous
 62
     7
100
AcDbCircle
 10
23831.008432
 20
-19762.339866
 30
0.0
 40
8.736228
100
AcDbArc
 50
332.76261
 51
27.23739
  0
LINE
  5
377
330
A
100
AcDbEntity
  8
0
  6
Continuous
 62
     1
100
AcDbLine
 10
23838.775977
 20
-19554.868248
 30
0.0
 11
23479.136549
 21
-19554.868247
 31
0.0
  0
ARC
  5
378
330
A
100
AcDbEntity
  8
0
  6
Continuous
 62
     7
100
AcDbCircle
 10
23845.680773
 20
-19558.422365
 30
0.0
 40
7.765827999999999
100
AcDbArc
 50
152.763711
 51
207.236289
  0
LINE
  5
379
330
A
100
AcDbEntity
  8
0
  6
Continuous
 62
     1
100
AcDbLine
 10
23838.775977
 20
-19561.976483
 30
0.0
 11
23480.922654
 21
-19561.976483
 31
0.0
  0
LINE
  5
37A
330
A
100
AcDbEntity
  8
0
  6
Continuous
 62
     1
100
AcDbLine
 10
23838.775977
 20
-19630.393248
 30
0.0
 11
23480.922654
 21
-19630.393249
 31
0.0
  0
ARC
  5
37B
330
A
100
AcDbEntity
  8
0
  6
Continuous
 62
     7
100
AcDbCircle
 10
23845.680773
 20
-19633.947366
 30
0.0
 40
7.765827999999999
100
AcDbArc
 50
152.763711
 51
207.236289
  0
LINE
  5
37C
330
A
100
AcDbEntity
  8
0
  6
Continuous
 62
     1
100
AcDbLine
 10
23838.775977
 20
-19637.501483
 30
0.0
 11
23479.136549
 21
-19637.501484
 31
0.0
  0
LINE
  5
37D
330
A
100
AcDbEntity
  8
0
  6
Continuous
 62
     1
100
AcDbLine
 10
23838.775977
 20
-19569.973248
 30
0.0
 11
23482.512296
 21
-19569.973248
 31
0.0
  0
ARC
  5
37E
330
A
100
AcDbEntity
  8
0
  6
Continuous
 62
     7
100
AcDbCircle
 10
23845.680773
 20
-19573.527366
 30
0.0
 40
7.765827999999999
100
AcDbArc
 50
152.763711
 51
207.236289
  0
LINE
  5
37F
330
A
100
AcDbEntity
  8
0
  6
Continuous
 62
     1
100
AcDbLine
 10
23838.775977
 20
-19577.081483
 30
0.0
 11
23483.56293
 21
-19577.081484
 31
0.0
  0
LINE
  5
380
330
A
100
AcDbEntity
  8
0
  6
Continuous
 62
     1
100
AcDbLine
 10
23838.775977
 20
-19615.288248
 30
0.0
 11
23483.56293
 21
-19615.288248
 31
0.0
  0
ARC
  5
381
330
A
100
AcDbEntity
  8
0
  6
Continuous
 62
     7
100
AcDbCircle
 10
23845.680773
 20
-19618.842366
 30
0.0
 40
7.765827999999999
100
AcDbArc
 50
152.763711
 51
207.236289
  0
LINE
  5
382
330
A
100
AcDbEntity
  8
0
  6
Continuous
 62
     1
100
AcDbLine
 10
23838.775977
 20
-19622.396483
 30
0.0
 11
23482.512296
 21
-19622.396483
 31
0.0
  0
LINE
  5
383
330
A
100
AcDbEntity
  8
0
  6
Continuous
 62
     1
100
AcDbLine
 10
23838.775977
 20
-19585.078248
 30
0.0
 11
23484.34622
 21
-19585.078248
 31
0.0
  0
ARC
  5
384
330
A
100
AcDbEntity
  8
0
  6
Continuous
 62
     7
100
AcDbCircle
 10
23845.680773
 20
-19588.632365
 30
0.0
 40
7.765827999999999
100
AcDbArc
 50
152.76371
 51
207.23629
  0
LINE
  5
385
330
A
100
AcDbEntity
  8
0
  6
Continuous
 62
     1
100
AcDbLine
 10
23838.775977
 20
-19592.186483
 30
0.0
 11
23484.693078
 21
-19592.186483
 31
0.0
  0
LINE
  5
386
330
A
100
AcDbEntity
  8
0
  6
Continuous
 62
     1
100
AcDbLine
 10
23838.775977
 20
-19600.183248
 30
0.0
 11
23484.693078
 21
-19600.183248
 31
0.0
  0
ARC
  5
387
330
A
100
AcDbEntity
  8
0
  6
Continuous
 62
     7
100
AcDbCircle
 10
23845.680773
 20
-19603.737366
 30
0.0
 40
7.765827999999999
100
AcDbArc
 50
152.76371
 51
207.23629
  0
LINE
  5
388
330
A
100
AcDbEntity
  8
0
  6
Continuous
 62
     1
100
AcDbLine
 10
23838.775977
 20
-19607.291483
 30
0.0
 11
23484.34622
 21
-19607.291484
 31
0.0
  0
ARC
  5
389
330
A
100
AcDbEntity
  8
0
  6
Continuous
 62
     7
100
AcDbCircle
 10
23831.008432
 20
-19445.134864
 30
0.0
 40
8.736228
100
AcDbArc
 50
332.76261
 51
27.23739
  0
ARC
  5
38A
330
A
100
AcDbEntity
  8
0
  6
Continuous
 62
     7
100
AcDbCircle
 10
23831.008432
 20
-19747.234868
 30
0.0
 40
8.736228
100
AcDbArc
 50
332.76261
 51
27.23739
  0
ARC
  5
38B
330
A
100
AcDbEntity
  8
0
  6
Continuous
 62
     7
100
AcDbCircle
 10
23831.008432
 20
-19460.239863
 30
0.0
 40
8.736228
100
AcDbArc
 50
332.76261
 51
27.23739
  0
ARC
  5
38C
330
A
100
AcDbEntity
  8
0
  6
Continuous
 62
     7
100
AcDbCircle
 10
23831.008432
 20
-19732.129869
 30
0.0
 40
8.736228
100
AcDbArc
 50
332.76261
 51
27.23739
  0
ARC
  5
38D
330
A
100
AcDbEntity
  8
0
  6
Continuous
 62
     7
100
AcDbCircle
 10
23831.008412
 20
-19475.344865
 30
0.0
 40
8.736247999999999
100
AcDbArc
 50
332.762648
 51
27.237352
  0
ARC
  5
38E
330
A
100
AcDbEntity
  8
0
  6
Continuous
 62
     7
100
AcDbCircle
 10
23831.008412
 20
-19717.024866
 30
0.0
 40
8.736247999999999
100
AcDbArc
 50
332.762648
 51
27.237352
  0
ARC
  5
38F
330
A
100
AcDbEntity
  8
0
  6
Continuous
 62
     7
100
AcDbCircle
 10
23831.008432
 20
-19490.449867
 30
0.0
 40
8.736228
100
AcDbArc
 50
332.76261
 51
27.23739
  0
ARC
  5
390
330
A
100
AcDbEntity
  8
0
  6
Continuous
 62
     7
100
AcDbCircle
 10
23831.008432
 20
-19701.919864
 30
0.0
 40
8.736228
100
AcDbArc
 50
332.76261
 51
27.23739
  0
ARC
  5
391
330
A
100
AcDbEntity
  8
0
  6
Continuous
 62
     7
100
AcDbCircle
 10
23831.008432
 20
-19505.554866
 30
0.0
 40
8.736228
100
AcDbArc
 50
332.76261
 51
27.23739
  0
ARC
  5
392
330
A
100
AcDbEntity
  8
0
  6
Continuous
 62
     7
100
AcDbCircle
 10
23831.008432
 20
-19686.814865
 30
0.0
 40
8.736228
100
AcDbArc
 50
332.76261
 51
27.23739
  0
ARC
  5
393
330
A
100
AcDbEntity
  8
0
  6
Continuous
 62
     7
100
AcDbCircle
 10
23831.008432
 20
-19520.659865
 30
0.0
 40
8.736228
100
AcDbArc
 50
332.76261
 51
27.23739
  0
ARC
  5
394
330
A
100
AcDbEntity
  8
0
  6
Continuous
 62
     7
100
AcDbCircle
 10
23831.008432
 20
-19671.709867
 30
0.0
 40
8.736228
100
AcDbArc
 50
332.76261
 51
27.23739
  0
ARC
  5
395
330
A
100
AcDbEntity
  8
0
  6
Continuous
 62
     7
100
AcDbCircle
 10
23831.008426
 20
-19535.764865
 30
0.0
 40
8.736233999999999
100
AcDbArc
 50
332.762616
 51
27.237384
  0
ARC
  5
396
330
A
100
AcDbEntity
  8
0
  6
Continuous
 62
     7
100
AcDbCircle
 10
23831.008426
 20
-19656.604866
 30
0.0
 40
8.736233999999999
100
AcDbArc
 50
332.762616
 51
27.237384
  0
ARC
  5
397
330
A
100
AcDbEntity
  8
0
  6
Continuous
 62
     7
100
AcDbCircle
 10
23831.008432
 20
-19550.869866
 30
0.0
 40
8.736228
100
AcDbArc
 50
332.76261
 51
27.23739
  0
ARC
  5
398
330
A
100
AcDbEntity
  8
0
  6
Continuous
 62
     7
100
AcDbCircle
 10
23831.008432
 20
-19641.499866
 30
0.0
 40
8.736228
100
AcDbArc
 50
332.76261
 51
27.23739
  0
ARC
  5
399
330
A
100
AcDbEntity
  8
0
  6
Continuous
 62
     7
100
AcDbCircle
 10
23831.008427
 20
-19565.974866
 30
0.0
 40
8.736233
100
AcDbArc
 50
332.762619
 51
27.237381
  0
ARC
  5
39A
330
A
100
AcDbEntity
  8
0
  6
Continuous
 62
     7
100
AcDbCircle
 10
23831.008427
 20
-19626.394866
 30
0.0
 40
8.736233
100
AcDbArc
 50
332.762619
 51
27.237381
  0
ARC
  5
39B
330
A
100
AcDbEntity
  8
0
  6
Continuous
 62
     7
100
AcDbCircle
 10
23831.008429
 20
-19581.079866
 30
0.0
 40
8.736231
100
AcDbArc
 50
332.762615
 51
27.237385
  0
ARC
  5
39C
330
A
100
AcDbEntity
  8
0
  6
Continuous
 62
     7
100
AcDbCircle
 10
23831.008429
 20
-19611.289866
 30
0.0
 40
8.736231
100
AcDbArc
 50
332.762615
 51
27.237385
  0
ARC
  5
39D
330
A
100
AcDbEntity
  8
0
  6
Continuous
 62
     7
100
AcDbCircle
 10
23831.008426
 20
-19596.184866
 30
0.0
 40
8.736233999999999
100
AcDbArc
 50
332.762623
 51
27.237377
  0
DIMENSION
  5
3A7
330
A
100
AcDbEntity
  8
0
  6
Continuous
 62
     5
100
AcDbDimension
  2
*D4
 10
22810.76367
 20
-19168.684866
 30
0.0
 11
22798.26367
 21
-19596.184866
 31
0.0
 70
    32
 71
     5
 42
-1.0
  3
DIMSTYLE001
100
AcDbAlignedDimension
 13
22882.169479
 23
-20023.684866
 33
0.0
 14
22882.294479
 24
-19168.684866
 34
0.0
 50
90.0
100
AcDbRotatedDimension
1001
ACAD
1000
DSTYLE
1002
{
1070
    43
1040
1000.0
1070
    73
1070
     0
1070
    74
1070
     0
1070
    77
1070
     1
1070
   277
1070
     2
1070
   172
1070
     1
1070
   174
1070
     1
1070
   179
1070
     0
1070
   287
1070
     3
1070
   289
1070
     3
1070
     5
1000
_ORIGIN
1002
}
  0
DIMENSION
  5
3B1
330
A
100
AcDbEntity
  8
0
  6
Continuous
 62
     5
100
AcDbDimension
  2
*D5
 10
22974.744658
 20
-19014.049436
 30
0.0
 11
23408.29369010052
 21
-19001.549436
 31
0.0
 70
   160
 71
     5
 42
865.0
  3
DIMSTYLE001
100
AcDbAlignedDimension
 13
23839.744658
 23
-19071.95142
 33
0.0
 14
22974.744658
 24
-19071.95142
 34
0.0
100
AcDbRotatedDimension
1001
ACAD
1000
DSTYLE
1002
{
1070
    43
1040
1000.0
1070
    73
1070
     0
1070
    74
1070
     0
1070
    77
1070
     1
1070
   277
1070
     2
1070
   172
1070
     1
1070
   174
1070
     1
1070
   179
1070
     0
1070
   279
1070
     2
1070
   287
1070
     5
1070
   289
1070
     3
1070
     5
1000
_ORIGIN
1002
}
  0
DIMENSION
  5
3BB
330
A
100
AcDbEntity
  8
0
  6
Continuous
 62
     5
100
AcDbDimension
  2
*D6
 10
23839.744658
 20
-20234.475885
 30
0.0
 11
23584.744658
 21
-20221.975885
 31
0.0
 70
    32
 71
     5
 42
-1.0
  3
DIMSTYLE001
100
AcDbAlignedDimension
 13
23329.744658
 23
-20130.429081
 33
0.0
 14
23839.744658
 24
-20130.429081
 34
0.0
100
AcDbRotatedDimension
1001
ACAD
1000
DSTYLE
1002
{
1070
    43
1040
1000.0
1070
    73
1070
     0
1070
    74
1070
     0
1070
    77
1070
     1
1070
   277
1070
     2
1070
   172
1070
     1
1070
   174
1070
     1
1070
   179
1070
     0
1070
   287
1070
     3
1070
   289
1070
     3
1070
     5
1000
_ORIGIN
1002
}
  0
DIMENSION
  5
3C5
330
A
100
AcDbEntity
  8
0
  6
Continuous
 62
     5
100
AcDbDimension
  2
*D7
 10
23329.744658
 20
-20234.475885
 30
0.0
 11
23152.244658
 21
-20221.975885
 31
0.0
 70
    32
 71
     5
 42
-1.0
  3
DIMSTYLE001
100
AcDbAlignedDimension
 13
22974.744658
 23
-20130.429081
 33
0.0
 14
23329.744658
 24
-20130.429081
 34
0.0
100
AcDbRotatedDimension
1001
ACAD
1000
DSTYLE
1002
{
1070
    43
1040
1000.0
1070
    73
1070
     0
1070
    74
1070
     0
1070
    77
1070
     1
1070
   277
1070
     2
1070
   172
1070
     1
1070
   174
1070
     1
1070
   179
1070
     0
1070
   287
1070
     3
1070
   289
1070
     3
1070
     5
1000
_ORIGIN
1002
}
  0
LINE
  5
3C6
330
A
100
AcDbEntity
  8
0
  6
Continuous
 62
     7
100
AcDbLine
 10
22974.744654
 20
-20593.57536
 30
0.0
 11
23839.744658
 21
-20593.57536
 31
0.0
  0
LINE
  5
3C7
330
A
100
AcDbEntity
  8
0
  6
Continuous
 62
     7
100
AcDbLine
 10
23185.454757
 20
-20560.809625
 30
0.0
 11
23174.706868
 21
-20592.57536
 31
0.0
  0
LINE
  5
3C8
330
A
100
AcDbEntity
  8
0
  6
Continuous
 62
     7
100
AcDbLine
 10
23427.477483
 20
-20465.809625
 30
0.0
 11
23485.105834
 21
-20592.57536
 31
0.0
  0
DIMENSION
  5
3D2
330
A
100
AcDbEntity
  8
0
  6
Continuous
 62
     5
100
AcDbDimension
  2
*D8
 10
22768.953639
 20
-20518.57536
 30
0.0
 11
22756.453639
 21
-20556.07536
 31
0.0
 70
    32
 71
     5
 42
-1.0
  3
DIMSTYLE001
100
AcDbAlignedDimension
 13
22873.000443
 23
-20593.57536
 33
0.0
 14
22873.000443
 24
-20518.57536
 34
0.0
 50
90.0
100
AcDbRotatedDimension
1001
ACAD
1000
DSTYLE
1002
{
1070
    43
1040
1000.0
1070
    73
1070
     0
1070
    74
1070
     0
1070
    77
1070
     1
1070
   277
1070
     2
1070
   172
1070
     1
1070
   174
1070
     1
1070
   179
1070
     0
1070
   287
1070
     3
1070
   289
1070
     3
1070
     5
1000
_ORIGIN
1002
}
  0
DIMENSION
  5
3DC
330
A
100
AcDbEntity
  8
0
  6
Continuous
 62
     5
100
AcDbDimension
  2
*D9
 10
22768.953639
 20
-20488.57536
 30
0.0
 11
22756.453639
 21
-20503.57536
 31
0.0
 70
    32
 71
     5
 42
-1.0
  3
DIMSTYLE001
100
AcDbAlignedDimension
 13
22873.000443
 23
-20518.57536
 33
0.0
 14
22873.000443
 24
-20488.57536
 34
0.0
 50
90.0
100
AcDbRotatedDimension
1001
ACAD
1000
DSTYLE
1002
{
1070
    43
1040
1000.0
1070
    73
1070
     0
1070
    74
1070
     0
1070
    77
1070
     1
1070
   277
1070
     2
1070
   172
1070
     1
1070
   174
1070
     1
1070
   179
1070
     0
1070
   287
1070
     3
1070
   289
1070
     3
1070
     5
1000
_ORIGIN
1002
}
  0
DIMENSION
  5
3E6
330
A
100
AcDbEntity
  8
0
  6
Continuous
 62
     5
100
AcDbDimension
  2
*D10
 10
22708.953639
 20
-20488.57536
 30
0.0
 11
22696.453639
 21
-20541.07536
 31
0.0
 70
    32
 71
     5
 42
-1.0
  3
DIMSTYLE001
100
AcDbAlignedDimension
 13
22813.000443
 23
-20593.57536
 33
0.0
 14
22813.000443
 24
-20488.57536
 34
0.0
 50
90.0
100
AcDbRotatedDimension
1001
ACAD
1000
DSTYLE
1002
{
1070
    43
1040
1000.0
1070
    73
1070
     0
1070
    74
1070
     0
1070
    77
1070
     1
1070
   277
1070
     2
1070
   172
1070
     1
1070
   174
1070
     1
1070
   179
1070
     0
1070
   287
1070
     3
1070
   289
1070
     3
1070
     5
1000
_ORIGIN
1002
}
  0
DIMENSION
  5
3F0
330
A
100
AcDbEntity
  8
0
  6
Continuous
 62
     5
100
AcDbDimension
  2
*D11
 10
23381.844651
 20
-20349.555072
 30
0.0
 11
23256.26598
 21
-20385.419364
 31
0.0
 70
    32
 71
     5
 42
-1.0
  3
DIMSTYLE001
100
AcDbAlignedDimension
 13
23159.877834
 23
-20495.64966
 33
0.0
 14
23401.90056
 24
-20400.64966
 34
0.0
 50
21.431255
100
AcDbRotatedDimension
1001
ACAD
1000
DSTYLE
1002
{
1070
    43
1040
1000.0
1070
    73
1070
     0
1070
    74
1070
     0
1070
    77
1070
     1
1070
   277
1070
     2
1070
   172
1070
     1
1070
   174
1070
     1
1070
   179
1070
     0
1070
   287
1070
     3
1070
   289
1070
     3
1070
     5
1000
_ORIGIN
1002
}
  0
DIMENSION
  5
3FA
330
A
100
AcDbEntity
  8
0
  6
Continuous
 62
     5
100
AcDbDimension
  2
*D12
 10
23484.744658
 20
-20755.98477
 30
0.0
 11
23329.744658
 21
-20743.48477
 31
0.0
 70
    32
 71
     5
 42
-1.0
  3
DIMSTYLE001
100
AcDbAlignedDimension
 13
23174.744658
 23
-20673.914729
 33
0.0
 14
23484.744658
 24
-20673.914729
 34
0.0
100
AcDbRotatedDimension
1001
ACAD
1000
DSTYLE
1002
{
1070
    43
1040
1000.0
1070
    73
1070
     0
1070
    74
1070
     0
1070
    77
1070
     1
1070
   277
1070
     2
1070
   172
1070
     1
1070
   174
1070
     1
1070
   179
1070
     0
1070
   287
1070
     3
1070
   289
1070
     3
1070
     5
1000
_ORIGIN
1002
}
  0
LINE
  5
3FB
330
A
100
AcDbEntity
  8
0
  6
Continuous
 62
     1
100
AcDbLine
 10
23838.775977
 20
-19342.509719
 30
0.0
 11
22975.804001
 21
-19342.509719
 31
0.0
  0
LINE
  5
3FC
330
A
100
AcDbEntity
  8
0
  6
Continuous
 62
     1
100
AcDbLine
 10
23838.775977
 20
-19350.506483
 30
0.0
 11
22975.804001
 21
-19350.506483
 31
0.0
  0
LINE
  5
3FD
330
A
100
AcDbEntity
  8
0
  6
Continuous
 62
     1
100
AcDbLine
 10
23838.775977
 20
-19357.614719
 30
0.0
 11
22975.804001
 21
-19357.614719
 31
0.0
  0
LINE
  5
3FE
330
A
100
AcDbEntity
  8
0
  6
Continuous
 62
     1
100
AcDbLine
 10
23838.775977
 20
-19365.611483
 30
0.0
 11
22975.804001
 21
-19365.611483
 31
0.0
  0
LINE
  5
3FF
330
A
100
AcDbEntity
  8
0
  6
Continuous
 62
     1
100
AcDbLine
 10
23838.775977
 20
-19372.719719
 30
0.0
 11
22975.804001
 21
-19372.719719
 31
0.0
  0
LINE
  5
400
330
A
100
AcDbEntity
  8
0
  6
Continuous
 62
     1
100
AcDbLine
 10
23838.821307
 20
-19379.827954
 30
0.0
 11
22975.849331
 21
-19379.827954
 31
0.0
  0
LINE
  5
401
330
A
100
AcDbEntity
  8
0
  6
Continuous
 62
     1
100
AcDbLine
 10
23838.821307
 20
-19387.824719
 30
0.0
 11
22975.849331
 21
-19387.824719
 31
0.0
  0
LINE
  5
402
330
A
100
AcDbEntity
  8
0
  6
Continuous
 62
     1
100
AcDbLine
 10
23838.821307
 20
-19394.932954
 30
0.0
 11
22975.849331
 21
-19394.932954
 31
0.0
  0
LINE
  5
403
330
A
100
AcDbEntity
  8
0
  6
Continuous
 62
     1
100
AcDbLine
 10
23838.821307
 20
-19402.929719
 30
0.0
 11
22975.849331
 21
-19402.929719
 31
0.0
  0
DIMENSION
  5
40D
330
A
100
AcDbEntity
  8
0
  6
Continuous
 62
     5
100
AcDbDimension
  2
*D13
 10
24051.513268
 20
-19596.184866
 30
0.0
 11
24039.013268
 21
-19809.934864
 31
0.0
 70
    32
 71
     5
 42
-1.0
  3
DIMSTYLE002
100
AcDbAlignedDimension
 13
23989.364482
 23
-20023.684862
 33
0.0
 14
23989.364482
 24
-19596.184866
 34
0.0
 50
90.0
100
AcDbRotatedDimension
1001
ACAD
1000
DSTYLE
1002
{
1070
    43
1040
1000.0
1070
    73
1070
     0
1070
    74
1070
     0
1070
    77
1070
     1
1070
   277
1070
     2
1070
   172
1070
     1
1070
   174
1070
     1
1070
   179
1070
     1
1070
   287
1070
     3
1070
   289
1070
     3
1070
     5
1000
_ORIGIN
1002
}
  0
DIMENSION
  5
417
330
A
100
AcDbEntity
  8
0
  6
Continuous
 62
     5
100
AcDbDimension
  2
*D14
 10
24051.513268
 20
-19168.684866
 30
0.0
 11
24039.013268
 21
-19382.434866
 31
0.0
 70
    32
 71
     5
 42
-1.0
  3
DIMSTYLE002
100
AcDbAlignedDimension
 13
23989.364482
 23
-19596.184866
 33
0.0
 14
23989.364482
 24
-19168.684866
 34
0.0
 50
90.0
100
AcDbRotatedDimension
1001
ACAD
1000
DSTYLE
1002
{
1070
    43
1040
1000.0
1070
    73
1070
     0
1070
    74
1070
     0
1070
    77
1070
     1
1070
   277
1070
     2
1070
   172
1070
     1
1070
   174
1070
     1
1070
   179
1070
     1
1070
   287
1070
     3
1070
   289
1070
     3
1070
     5
1000
_ORIGIN
1002
}
  0
LINE
  5
418
330
A
100
AcDbEntity
  8
0
  6
Continuous
 62
     7
100
AcDbLine
 10
23838.514675
 20
-20023.684862
 30
0.0
 11
22975.094491
 21
-20023.684862
 31
0.0
  0
LINE
  5
419
330
A
100
AcDbEntity
  8
0
  6
Continuous
 62
     7
100
AcDbLine
 10
22975.273145
 20
-19168.684866
 30
0.0
 11
23838.460154
 21
-19168.684866
 31
0.0
  0
CIRCLE
  5
41A
330
A
100
AcDbEntity
  8
0
  6
Continuous
 62
     7
100
AcDbCircle
 10
23329.744658
 20
-19596.184866
 30
0.0
 40
155.0
  0
LINE
  5
41B
330
A
100
AcDbEntity
  8
0
  6
Continuous
 62
     5
100
AcDbLine
 10
23412.862099
 20
-20428.57536
 30
0.0
 11
23170.839373
 21
-20523.57536
 31
0.0
  0
LINE
  5
41C
330
A
100
AcDbEntity
  8
0
  6
Continuous
 62
     7
100
AcDbLine
 10
23170.839373
 20
-20523.57536
 30
0.0
 11
23185.454757
 21
-20560.809625
 31
0.0
  0
LINE
  5
41D
330
A
100
AcDbEntity
  8
0
  6
Continuous
 62
     5
100
AcDbLine
 10
23427.477483
 20
-20465.809625
 30
0.0
 11
23185.454757
 21
-20560.809625
 31
0.0
  0
LINE
  5
41E
330
A
100
AcDbEntity
  8
0
  6
Continuous
 62
     7
100
AcDbLine
 10
23412.862099
 20
-20428.57536
 30
0.0
 11
23427.477483
 21
-20465.809625
 31
0.0
  0
LINE
  5
41F
330
A
100
AcDbEntity
  8
0
  6
Continuous
 62
     7
100
AcDbLine
 10
23171.770229
 20
-20523.209975
 30
0.0
 11
23186.519052
 21
-20560.78419
 31
0.0
  0
LINE
  5
420
330
A
100
AcDbEntity
  8
0
  6
Continuous
 62
     7
100
AcDbLine
 10
23411.931242
 20
-20428.940744
 30
0.0
 11
23426.556244
 21
-20466.199511
 31
0.0
  0
LINE
  5
421
330
A
100
AcDbEntity
  8
0
  6
Continuous
 62
     7
100
AcDbLine
 10
23426.556244
 20
-20466.199511
 30
0.0
 11
23484.461956
 21
-20593.57536
 31
0.0
  0
LINE
  5
422
330
A
100
AcDbEntity
  8
0
  6
Continuous
 62
     7
100
AcDbLine
 10
23186.519052
 20
-20560.78419
 30
0.0
 11
23175.424209
 21
-20593.57536
 31
0.0
  0
LINE
  5
423
330
A
100
AcDbEntity
  8
0
  6
Continuous
 62
     7
100
AcDbLine
 10
22974.744654
 20
-20592.57536
 30
0.0
 11
23174.706868
 21
-20592.57536
 31
0.0
  0
LINE
  5
424
330
A
100
AcDbEntity
  8
0
  6
Continuous
 62
     7
100
AcDbLine
 10
23485.105834
 20
-20592.57536
 30
0.0
 11
23839.744658
 21
-20592.57536
 31
0.0
  0
ELLIPSE
  5
425
330
A
100
AcDbEntity
  8
0
  6
Continuous
 62
     7
100
AcDbEllipse
 10
23293.803378
 20
-19596.184866
 30
0.0
 11
0.000000000000008
 21
130.0
 31
0.0
210
0.0
220
0.0
230
1.0
 40
0.9158360000000001
 41
0.0
 42
6.283185307179585
  0
POLYLINE
  5
426
330
A
100
AcDbEntity
  8
0
  6
Continuous
 62
     7
100
AcDb2dPolyline
 66
     1
 10
0.0
 20
0.0
 30
0.0
 70
   133
 75
     6
  0
VERTEX
  5
427
330
426
100
AcDbEntity
  8
0
  6
Continuous
 62
     7
100
AcDbVertex
100
AcDb2dVertex
 10
23293.803378
 20
-19467.184866
 30
0.0
 70
    16
  0
VERTEX
  5
428
330
426
100
AcDbEntity
  8
0
  6
Continuous
 62
     7
100
AcDbVertex
100
AcDb2dVertex
 10
23293.310462
 20
-19467.184866
 30
0.0
 70
     8
  0
VERTEX
  5
429
330
426
100
AcDbEntity
  8
0
  6
Continuous
 62
     7
100
AcDbVertex
100
AcDb2dVertex
 10
23292.973805
 20
-19467.184917
 30
0.0
 70
     8
  0
VERTEX
  5
42A
330
426
100
AcDbEntity
  8
0
  6
Continuous
 62
     7
100
AcDbVertex
100
AcDb2dVertex
 10
23292.610531
 20
-19467.185276
 30
0.0
 70
     8
  0
VERTEX
  5
42B
330
426
100
AcDbEntity
  8
0
  6
Continuous
 62
     7
100
AcDbVertex
100
AcDb2dVertex
 10
23292.223597
 20
-19467.186249
 30
0.0
 70
     8
  0
VERTEX
  5
42C
330
426
100
AcDbEntity
  8
0
  6
Continuous
 62
     7
100
AcDbVertex
100
AcDb2dVertex
 10
23291.815961
 20
-19467.188144
 30
0.0
 70
     8
  0
VERTEX
  5
42D
330
426
100
AcDbEntity
  8
0
  6
Continuous
 62
     7
100
AcDbVertex
100
AcDb2dVertex
 10
23291.390579
 20
-19467.191269
 30
0.0
 70
     8
  0
VERTEX
  5
42E
330
426
100
AcDbEntity
  8
0
  6
Continuous
 62
     7
100
AcDbVertex
100
AcDb2dVertex
 10
23290.95041
 20
-19467.195931
 30
0.0
 70
     8
  0
VERTEX
  5
42F
330
426
100
AcDbEntity
  8
0
  6
Continuous
 62
     7
100
AcDbVertex
100
AcDb2dVertex
 10
23290.498412
 20
-19467.202437
 30
0.0
 70
     8
  0
VERTEX
  5
430
330
426
100
AcDbEntity
  8
0
  6
Continuous
 62
     7
100
AcDbVertex
100
AcDb2dVertex
 10
23290.03754
 20
-19467.211094
 30
0.0
 70
     8
  0
VERTEX
  5
431
330
426
100
AcDbEntity
  8
0
  6
Continuous
 62
     7
100
AcDbVertex
100
AcDb2dVertex
 10
23289.570754
 20
-19467.222211
 30
0.0
 70
     8
  0
VERTEX
  5
432
330
426
100
AcDbEntity
  8
0
  6
Continuous
 62
     7
100
AcDbVertex
100
AcDb2dVertex
 10
23289.101011
 20
-19467.236093
 30
0.0
 70
     8
  0
VERTEX
  5
433
330
426
100
AcDbEntity
  8
0
  6
Continuous
 62
     7
100
AcDbVertex
100
AcDb2dVertex
 10
23288.629496
 20
-19467.253167
 30
0.0
 70
     8
  0
VERTEX
  5
434
330
426
100
AcDbEntity
  8
0
  6
Continuous
 62
     7
100
AcDbVertex
100
AcDb2dVertex
 10
23288.150308
 20
-19467.274323
 30
0.0
 70
     8
  0
VERTEX
  5
435
330
426
100
AcDbEntity
  8
0
  6
Continuous
 62
     7
100
AcDbVertex
100
AcDb2dVertex
 10
23287.655772
 20
-19467.30057
 30
0.0
 70
     8
  0
VERTEX
  5
436
330
426
100
AcDbEntity
  8
0
  6
Continuous
 62
     7
100
AcDbVertex
100
AcDb2dVertex
 10
23287.138217
 20
-19467.332918
 30
0.0
 70
     8
  0
VERTEX
  5
437
330
426
100
AcDbEntity
  8
0
  6
Continuous
 62
     7
100
AcDbVertex
100
AcDb2dVertex
 10
23286.589968
 20
-19467.372376
 30
0.0
 70
     8
  0
VERTEX
  5
438
330
426
100
AcDbEntity
  8
0
  6
Continuous
 62
     7
100
AcDbVertex
100
AcDb2dVertex
 10
23286.003351
 20
-19467.419953
 30
0.0
 70
     8
  0
VERTEX
  5
439
330
426
100
AcDbEntity
  8
0
  6
Continuous
 62
     7
100
AcDbVertex
100
AcDb2dVertex
 10
23285.370694
 20
-19467.476657
 30
0.0
 70
     8
  0
VERTEX
  5
43A
330
426
100
AcDbEntity
  8
0
  6
Continuous
 62
     7
100
AcDbVertex
100
AcDb2dVertex
 10
23284.684323
 20
-19467.543497
 30
0.0
 70
     8
  0
VERTEX
  5
43B
330
426
100
AcDbEntity
  8
0
  6
Continuous
 62
     7
100
AcDbVertex
100
AcDb2dVertex
 10
23283.936564
 20
-19467.621483
 30
0.0
 70
     8
  0
VERTEX
  5
43C
330
426
100
AcDbEntity
  8
0
  6
Continuous
 62
     7
100
AcDbVertex
100
AcDb2dVertex
 10
23283.119743
 20
-19467.711624
 30
0.0
 70
     8
  0
VERTEX
  5
43D
330
426
100
AcDbEntity
  8
0
  6
Continuous
 62
     7
100
AcDbVertex
100
AcDb2dVertex
 10
23282.22954
 20
-19467.814577
 30
0.0
 70
     8
  0
VERTEX
  5
43E
330
426
100
AcDbEntity
  8
0
  6
Continuous
 62
     7
100
AcDbVertex
100
AcDb2dVertex
 10
23281.275035
 20
-19467.929599
 30
0.0
 70
     8
  0
VERTEX
  5
43F
330
426
100
AcDbEntity
  8
0
  6
Continuous
 62
     7
100
AcDbVertex
100
AcDb2dVertex
 10
23280.268664
 20
-19468.05559199999
 30
0.0
 70
     8
  0
VERTEX
  5
440
330
426
100
AcDbEntity
  8
0
  6
Continuous
 62
     7
100
AcDbVertex
100
AcDb2dVertex
 10
23279.222859
 20
-19468.191462
 30
0.0
 70
     8
  0
VERTEX
  5
441
330
426
100
AcDbEntity
  8
0
  6
Continuous
 62
     7
100
AcDbVertex
100
AcDb2dVertex
 10
23278.150055
 20
-19468.336113
 30
0.0
 70
     8
  0
VERTEX
  5
442
330
426
100
AcDbEntity
  8
0
  6
Continuous
 62
     7
100
AcDbVertex
100
AcDb2dVertex
 10
23277.062686
 20
-19468.488449
 30
0.0
 70
     8
  0
VERTEX
  5
443
330
426
100
AcDbEntity
  8
0
  6
Continuous
 62
     7
100
AcDbVertex
100
AcDb2dVertex
 10
23275.973184
 20
-19468.647374
 30
0.0
 70
     8
  0
VERTEX
  5
444
330
426
100
AcDbEntity
  8
0
  6
Continuous
 62
     7
100
AcDbVertex
100
AcDb2dVertex
 10
23274.893985
 20
-19468.811793
 30
0.0
 70
     8
  0
VERTEX
  5
445
330
426
100
AcDbEntity
  8
0
  6
Continuous
 62
     7
100
AcDbVertex
100
AcDb2dVertex
 10
23273.837522
 20
-19468.98061
 30
0.0
 70
     8
  0
VERTEX
  5
446
330
426
100
AcDbEntity
  8
0
  6
Continuous
 62
     7
100
AcDbVertex
100
AcDb2dVertex
 10
23272.816228
 20
-19469.15273
 30
0.0
 70
     8
  0
VERTEX
  5
447
330
426
100
AcDbEntity
  8
0
  6
Continuous
 62
     7
100
AcDbVertex
100
AcDb2dVertex
 10
23271.838482
 20
-19469.327775
 30
0.0
 70
     8
  0
VERTEX
  5
448
330
426
100
AcDbEntity
  8
0
  6
Continuous
 62
     7
100
AcDbVertex
100
AcDb2dVertex
 10
23270.89644
 20
-19469.508247
 30
0.0
 70
     8
  0
VERTEX
  5
449
330
426
100
AcDbEntity
  8
0
  6
Continuous
 62
     7
100
AcDbVertex
100
AcDb2dVertex
 10
23269.978203
 20
-19469.697365
 30
0.0
 70
     8
  0
VERTEX
  5
44A
330
426
100
AcDbEntity
  8
0
  6
Continuous
 62
     7
100
AcDbVertex
100
AcDb2dVertex
 10
23269.071872
 20
-19469.898349
 30
0.0
 70
     8
  0
VERTEX
  5
44B
330
426
100
AcDbEntity
  8
0
  6
Continuous
 62
     7
100
AcDbVertex
100
AcDb2dVertex
 10
23268.165548
 20
-19470.114418
 30
0.0
 70
     8
  0
VERTEX
  5
44C
330
426
100
AcDbEntity
  8
0
  6
Continuous
 62
     7
100
AcDbVertex
100
AcDb2dVertex
 10
23267.247331
 20
-19470.348793
 30
0.0
 70
     8
  0
VERTEX
  5
44D
330
426
100
AcDbEntity
  8
0
  6
Continuous
 62
     7
100
AcDbVertex
100
AcDb2dVertex
 10
23266.305322
 20
-19470.604694
 30
0.0
 70
     8
  0
VERTEX
  5
44E
330
426
100
AcDbEntity
  8
0
  6
Continuous
 62
     7
100
AcDbVertex
100
AcDb2dVertex
 10
23265.327622
 20
-19470.885339
 30
0.0
 70
     8
  0
VERTEX
  5
44F
330
426
100
AcDbEntity
  8
0
  6
Continuous
 62
     7
100
AcDbVertex
100
AcDb2dVertex
 10
23264.302332
 20
-19471.193949
 30
0.0
 70
     8
  0
VERTEX
  5
450
330
426
100
AcDbEntity
  8
0
  6
Continuous
 62
     7
100
AcDbVertex
100
AcDb2dVertex
 10
23263.217552
 20
-19471.533744
 30
0.0
 70
     8
  0
VERTEX
  5
451
330
426
100
AcDbEntity
  8
0
  6
Continuous
 62
     7
100
AcDbVertex
100
AcDb2dVertex
 10
23262.065826
 20
-19471.906525
 30
0.0
 70
     8
  0
VERTEX
  5
452
330
426
100
AcDbEntity
  8
0
  6
Continuous
 62
     7
100
AcDbVertex
100
AcDb2dVertex
 10
23260.857466
 20
-19472.308426
 30
0.0
 70
     8
  0
VERTEX
  5
453
330
426
100
AcDbEntity
  8
0
  6
Continuous
 62
     7
100
AcDbVertex
100
AcDb2dVertex
 10
23259.607227
 20
-19472.734161
 30
0.0
 70
     8
  0
VERTEX
  5
454
330
426
100
AcDbEntity
  8
0
  6
Continuous
 62
     7
100
AcDbVertex
100
AcDb2dVertex
 10
23258.329863
 20
-19473.178446
 30
0.0
 70
     8
  0
VERTEX
  5
455
330
426
100
AcDbEntity
  8
0
  6
Continuous
 62
     7
100
AcDbVertex
100
AcDb2dVertex
 10
23257.040129
 20
-19473.635996
 30
0.0
 70
     8
  0
VERTEX
  5
456
330
426
100
AcDbEntity
  8
0
  6
Continuous
 62
     7
100
AcDbVertex
100
AcDb2dVertex
 10
23255.75278
 20
-19474.101525
 30
0.0
 70
     8
  0
VERTEX
  5
457
330
426
100
AcDbEntity
  8
0
  6
Continuous
 62
     7
100
AcDbVertex
100
AcDb2dVertex
 10
23254.482571
 20
-19474.569749
 30
0.0
 70
     8
  0
VERTEX
  5
458
330
426
100
AcDbEntity
  8
0
  6
Continuous
 62
     7
100
AcDbVertex
100
AcDb2dVertex
 10
23253.244256
 20
-19475.035382
 30
0.0
 70
     8
  0
VERTEX
  5
459
330
426
100
AcDbEntity
  8
0
  6
Continuous
 62
     7
100
AcDbVertex
100
AcDb2dVertex
 10
23252.05259
 20
-19475.493141
 30
0.0
 70
     8
  0
VERTEX
  5
45A
330
426
100
AcDbEntity
  8
0
  6
Continuous
 62
     7
100
AcDbVertex
100
AcDb2dVertex
 10
23250.922327
 20
-19475.93774
 30
0.0
 70
     8
  0
VERTEX
  5
45B
330
426
100
AcDbEntity
  8
0
  6
Continuous
 62
     7
100
AcDbVertex
100
AcDb2dVertex
 10
23249.86343
 20
-19476.365899
 30
0.0
 70
     8
  0
VERTEX
  5
45C
330
426
100
AcDbEntity
  8
0
  6
Continuous
 62
     7
100
AcDbVertex
100
AcDb2dVertex
 10
23248.866691
 20
-19476.782362
 30
0.0
 70
     8
  0
VERTEX
  5
45D
330
426
100
AcDbEntity
  8
0
  6
Continuous
 62
     7
100
AcDbVertex
100
AcDb2dVertex
 10
23247.918109
 20
-19477.193877
 30
0.0
 70
     8
  0
VERTEX
  5
45E
330
426
100
AcDbEntity
  8
0
  6
Continuous
 62
     7
100
AcDbVertex
100
AcDb2dVertex
 10
23247.003682
 20
-19477.607194
 30
0.0
 70
     8
  0
VERTEX
  5
45F
330
426
100
AcDbEntity
  8
0
  6
Continuous
 62
     7
100
AcDbVertex
100
AcDb2dVertex
 10
23246.109411
 20
-19478.029062
 30
0.0
 70
     8
  0
VERTEX
  5
460
330
426
100
AcDbEntity
  8
0
  6
Continuous
 62
     7
100
AcDbVertex
100
AcDb2dVertex
 10
23245.221295
 20
-19478.466228
 30
0.0
 70
     8
  0
VERTEX
  5
461
330
426
100
AcDbEntity
  8
0
  6
Continuous
 62
     7
100
AcDbVertex
100
AcDb2dVertex
 10
23244.325332
 20
-19478.925442
 30
0.0
 70
     8
  0
VERTEX
  5
462
330
426
100
AcDbEntity
  8
0
  6
Continuous
 62
     7
100
AcDbVertex
100
AcDb2dVertex
 10
23243.407522
 20
-19479.413453
 30
0.0
 70
     8
  0
VERTEX
  5
463
330
426
100
AcDbEntity
  8
0
  6
Continuous
 62
     7
100
AcDbVertex
100
AcDb2dVertex
 10
23242.453864
 20
-19479.937009
 30
0.0
 70
     8
  0
VERTEX
  5
464
330
426
100
AcDbEntity
  8
0
  6
Continuous
 62
     7
100
AcDbVertex
100
AcDb2dVertex
 10
23241.450357
 20
-19480.50286
 30
0.0
 70
     8
  0
VERTEX
  5
465
330
426
100
AcDbEntity
  8
0
  6
Continuous
 62
     7
100
AcDbVertex
100
AcDb2dVertex
 10
23240.387588
 20
-19481.115238
 30
0.0
 70
     8
  0
VERTEX
  5
466
330
426
100
AcDbEntity
  8
0
  6
Continuous
 62
     7
100
AcDbVertex
100
AcDb2dVertex
 10
23239.274494
 20
-19481.76831399999
 30
0.0
 70
     8
  0
VERTEX
  5
467
330
426
100
AcDbEntity
  8
0
  6
Continuous
 62
     7
100
AcDbVertex
100
AcDb2dVertex
 10
23238.124598
 20
-19482.453744
 30
0.0
 70
     8
  0
VERTEX
  5
468
330
426
100
AcDbEntity
  8
0
  6
Continuous
 62
     7
100
AcDbVertex
100
AcDb2dVertex
 10
23236.951424
 20
-19483.163183
 30
0.0
 70
     8
  0
VERTEX
  5
469
330
426
100
AcDbEntity
  8
0
  6
Continuous
 62
     7
100
AcDbVertex
100
AcDb2dVertex
 10
23235.768496
 20
-19483.888285
 30
0.0
 70
     8
  0
VERTEX
  5
46A
330
426
100
AcDbEntity
  8
0
  6
Continuous
 62
     7
100
AcDbVertex
100
AcDb2dVertex
 10
23234.589337
 20
-19484.620706
 30
0.0
 70
     8
  0
VERTEX
  5
46B
330
426
100
AcDbEntity
  8
0
  6
Continuous
 62
     7
100
AcDbVertex
100
AcDb2dVertex
 10
23233.427471
 20
-19485.352102
 30
0.0
 70
     8
  0
VERTEX
  5
46C
330
426
100
AcDbEntity
  8
0
  6
Continuous
 62
     7
100
AcDbVertex
100
AcDb2dVertex
 10
23232.296423
 20
-19486.074127
 30
0.0
 70
     8
  0
VERTEX
  5
46D
330
426
100
AcDbEntity
  8
0
  6
Continuous
 62
     7
100
AcDbVertex
100
AcDb2dVertex
 10
23231.209716
 20
-19486.778436
 30
0.0
 70
     8
  0
VERTEX
  5
46E
330
426
100
AcDbEntity
  8
0
  6
Continuous
 62
     7
100
AcDbVertex
100
AcDb2dVertex
 10
23230.180873
 20
-19487.456685
 30
0.0
 70
     8
  0
VERTEX
  5
46F
330
426
100
AcDbEntity
  8
0
  6
Continuous
 62
     7
100
AcDbVertex
100
AcDb2dVertex
 10
23229.219078
 20
-19488.103523
 30
0.0
 70
     8
  0
VERTEX
  5
470
330
426
100
AcDbEntity
  8
0
  6
Continuous
 62
     7
100
AcDbVertex
100
AcDb2dVertex
 10
23228.31615
 20
-19488.725575
 30
0.0
 70
     8
  0
VERTEX
  5
471
330
426
100
AcDbEntity
  8
0
  6
Continuous
 62
     7
100
AcDbVertex
100
AcDb2dVertex
 10
23227.459569
 20
-19489.332462
 30
0.0
 70
     8
  0
VERTEX
  5
472
330
426
100
AcDbEntity
  8
0
  6
Continuous
 62
     7
100
AcDbVertex
100
AcDb2dVertex
 10
23226.636812
 20
-19489.933802
 30
0.0
 70
     8
  0
VERTEX
  5
473
330
426
100
AcDbEntity
  8
0
  6
Continuous
 62
     7
100
AcDbVertex
100
AcDb2dVertex
 10
23225.835358
 20
-19490.539214
 30
0.0
 70
     8
  0
VERTEX
  5
474
330
426
100
AcDbEntity
  8
0
  6
Continuous
 62
     7
100
AcDbVertex
100
AcDb2dVertex
 10
23225.042687
 20
-19491.15832
 30
0.0
 70
     8
  0
VERTEX
  5
475
330
426
100
AcDbEntity
  8
0
  6
Continuous
 62
     7
100
AcDbVertex
100
AcDb2dVertex
 10
23224.246276
 20
-19491.800737
 30
0.0
 70
     8
  0
VERTEX
  5
476
330
426
100
AcDbEntity
  8
0
  6
Continuous
 62
     7
100
AcDbVertex
100
AcDb2dVertex
 10
23223.433605
 20
-19492.476086
 30
0.0
 70
     8
  0
VERTEX
  5
477
330
426
100
AcDbEntity
  8
0
  6
Continuous
 62
     7
100
AcDbVertex
100
AcDb2dVertex
 10
23222.592153
 20
-19493.193986
 30
0.0
 70
     8
  0
VERTEX
  5
478
330
426
100
AcDbEntity
  8
0
  6
Continuous
 62
     7
100
AcDbVertex
100
AcDb2dVertex
 10
23221.709397
 20
-19493.964057
 30
0.0
 70
     8
  0
VERTEX
  5
479
330
426
100
AcDbEntity
  8
0
  6
Continuous
 62
     7
100
AcDbVertex
100
AcDb2dVertex
 10
23220.776865
 20
-19494.792467
 30
0.0
 70
     8
  0
VERTEX
  5
47A
330
426
100
AcDbEntity
  8
0
  6
Continuous
 62
     7
100
AcDbVertex
100
AcDb2dVertex
 10
23219.802276
 20
-19495.671584
 30
0.0
 70
     8
  0
VERTEX
  5
47B
330
426
100
AcDbEntity
  8
0
  6
Continuous
 62
     7
100
AcDbVertex
100
AcDb2dVertex
 10
23218.797398
 20
-19496.590325
 30
0.0
 70
     8
  0
VERTEX
  5
47C
330
426
100
AcDbEntity
  8
0
  6
Continuous
 62
     7
100
AcDbVertex
100
AcDb2dVertex
 10
23217.773997
 20
-19497.537605
 30
0.0
 70
     8
  0
VERTEX
  5
47D
330
426
100
AcDbEntity
  8
0
  6
Continuous
 62
     7
100
AcDbVertex
100
AcDb2dVertex
 10
23216.743842
 20
-19498.502342
 30
0.0
 70
     8
  0
VERTEX
  5
47E
330
426
100
AcDbEntity
  8
0
  6
Continuous
 62
     7
100
AcDbVertex
100
AcDb2dVertex
 10
23215.718698
 20
-19499.473452
 30
0.0
 70
     8
  0
VERTEX
  5
47F
330
426
100
AcDbEntity
  8
0
  6
Continuous
 62
     7
100
AcDbVertex
100
AcDb2dVertex
 10
23214.710335
 20
-19500.439852
 30
0.0
 70
     8
  0
VERTEX
  5
480
330
426
100
AcDbEntity
  8
0
  6
Continuous
 62
     7
100
AcDbVertex
100
AcDb2dVertex
 10
23213.730519
 20
-19501.390458
 30
0.0
 70
     8
  0
VERTEX
  5
481
330
426
100
AcDbEntity
  8
0
  6
Continuous
 62
     7
100
AcDbVertex
100
AcDb2dVertex
 10
23212.791017
 20
-19502.314187
 30
0.0
 70
     8
  0
VERTEX
  5
482
330
426
100
AcDbEntity
  8
0
  6
Continuous
 62
     7
100
AcDbVertex
100
AcDb2dVertex
 10
23211.903596
 20
-19503.199955
 30
0.0
 70
     8
  0
VERTEX
  5
483
330
426
100
AcDbEntity
  8
0
  6
Continuous
 62
     7
100
AcDbVertex
100
AcDb2dVertex
 10
23211.076305
 20
-19504.040547
 30
0.0
 70
     8
  0
VERTEX
  5
484
330
426
100
AcDbEntity
  8
0
  6
Continuous
 62
     7
100
AcDbVertex
100
AcDb2dVertex
 10
23210.302308
 20
-19504.844214
 30
0.0
 70
     8
  0
VERTEX
  5
485
330
426
100
AcDbEntity
  8
0
  6
Continuous
 62
     7
100
AcDbVertex
100
AcDb2dVertex
 10
23209.571051
 20
-19505.623074
 30
0.0
 70
     8
  0
VERTEX
  5
486
330
426
100
AcDbEntity
  8
0
  6
Continuous
 62
     7
100
AcDbVertex
100
AcDb2dVertex
 10
23208.871979
 20
-19506.389247
 30
0.0
 70
     8
  0
VERTEX
  5
487
330
426
100
AcDbEntity
  8
0
  6
Continuous
 62
     7
100
AcDbVertex
100
AcDb2dVertex
 10
23208.194538
 20
-19507.154851
 30
0.0
 70
     8
  0
VERTEX
  5
488
330
426
100
AcDbEntity
  8
0
  6
Continuous
 62
     7
100
AcDbVertex
100
AcDb2dVertex
 10
23207.528173
 20
-19507.932006
 30
0.0
 70
     8
  0
VERTEX
  5
489
330
426
100
AcDbEntity
  8
0
  6
Continuous
 62
     7
100
AcDbVertex
100
AcDb2dVertex
 10
23206.862329
 20
-19508.732829
 30
0.0
 70
     8
  0
VERTEX
  5
48A
330
426
100
AcDbEntity
  8
0
  6
Continuous
 62
     7
100
AcDbVertex
100
AcDb2dVertex
 10
23206.186452
 20
-19509.569441
 30
0.0
 70
     8
  0
VERTEX
  5
48B
330
426
100
AcDbEntity
  8
0
  6
Continuous
 62
     7
100
AcDbVertex
100
AcDb2dVertex
 10
23205.489988
 20
-19510.453959
 30
0.0
 70
     8
  0
VERTEX
  5
48C
330
426
100
AcDbEntity
  8
0
  6
Continuous
 62
     7
100
AcDbVertex
100
AcDb2dVertex
 10
23204.762381
 20
-19511.398502
 30
0.0
 70
     8
  0
VERTEX
  5
48D
330
426
100
AcDbEntity
  8
0
  6
Continuous
 62
     7
100
AcDbVertex
100
AcDb2dVertex
 10
23203.996428
 20
-19512.410938
 30
0.0
 70
     8
  0
VERTEX
  5
48E
330
426
100
AcDbEntity
  8
0
  6
Continuous
 62
     7
100
AcDbVertex
100
AcDb2dVertex
 10
23203.198331
 20
-19513.482124
 30
0.0
 70
     8
  0
VERTEX
  5
48F
330
426
100
AcDbEntity
  8
0
  6
Continuous
 62
     7
100
AcDbVertex
100
AcDb2dVertex
 10
23202.377641
 20
-19514.598668
 30
0.0
 70
     8
  0
VERTEX
  5
490
330
426
100
AcDbEntity
  8
0
  6
Continuous
 62
     7
100
AcDbVertex
100
AcDb2dVertex
 10
23201.54391
 20
-19515.747175
 30
0.0
 70
     8
  0
VERTEX
  5
491
330
426
100
AcDbEntity
  8
0
  6
Continuous
 62
     7
100
AcDbVertex
100
AcDb2dVertex
 10
23200.70669
 20
-19516.914253
 30
0.0
 70
     8
  0
VERTEX
  5
492
330
426
100
AcDbEntity
  8
0
  6
Continuous
 62
     7
100
AcDbVertex
100
AcDb2dVertex
 10
23199.875534
 20
-19518.086507
 30
0.0
 70
     8
  0
VERTEX
  5
493
330
426
100
AcDbEntity
  8
0
  6
Continuous
 62
     7
100
AcDbVertex
100
AcDb2dVertex
 10
23199.059993
 20
-19519.250545
 30
0.0
 70
     8
  0
VERTEX
  5
494
330
426
100
AcDbEntity
  8
0
  6
Continuous
 62
     7
100
AcDbVertex
100
AcDb2dVertex
 10
23198.269619
 20
-19520.392972
 30
0.0
 70
     8
  0
VERTEX
  5
495
330
426
100
AcDbEntity
  8
0
  6
Continuous
 62
     7
100
AcDbVertex
100
AcDb2dVertex
 10
23197.513965
 20
-19521.500395
 30
0.0
 70
     8
  0
VERTEX
  5
496
330
426
100
AcDbEntity
  8
0
  6
Continuous
 62
     7
100
AcDbVertex
100
AcDb2dVertex
 10
23196.802583
 20
-19522.559422
 30
0.0
 70
     8
  0
VERTEX
  5
497
330
426
100
AcDbEntity
  8
0
  6
Continuous
 62
     7
100
AcDbVertex
100
AcDb2dVertex
 10
23196.14207
 20
-19523.561247
 30
0.0
 70
     8
  0
VERTEX
  5
498
330
426
100
AcDbEntity
  8
0
  6
Continuous
 62
     7
100
AcDbVertex
100
AcDb2dVertex
 10
23195.527205
 20
-19524.515431
 30
0.0
 70
     8
  0
VERTEX
  5
499
330
426
100
AcDbEntity
  8
0
  6
Continuous
 62
     7
100
AcDbVertex
100
AcDb2dVertex
 10
23194.949811
 20
-19525.436121
 30
0.0
 70
     8
  0
VERTEX
  5
49A
330
426
100
AcDbEntity
  8
0
  6
Continuous
 62
     7
100
AcDbVertex
100
AcDb2dVertex
 10
23194.401712
 20
-19526.337466
 30
0.0
 70
     8
  0
VERTEX
  5
49B
330
426
100
AcDbEntity
  8
0
  6
Continuous
 62
     7
100
AcDbVertex
100
AcDb2dVertex
 10
23193.874733
 20
-19527.233615
 30
0.0
 70
     8
  0
VERTEX
  5
49C
330
426
100
AcDbEntity
  8
0
  6
Continuous
 62
     7
100
AcDbVertex
100
AcDb2dVertex
 10
23193.360697
 20
-19528.138717
 30
0.0
 70
     8
  0
VERTEX
  5
49D
330
426
100
AcDbEntity
  8
0
  6
Continuous
 62
     7
100
AcDbVertex
100
AcDb2dVertex
 10
23192.851428
 20
-19529.06691999999
 30
0.0
 70
     8
  0
VERTEX
  5
49E
330
426
100
AcDbEntity
  8
0
  6
Continuous
 62
     7
100
AcDbVertex
100
AcDb2dVertex
 10
23192.33875
 20
-19530.032373
 30
0.0
 70
     8
  0
VERTEX
  5
49F
330
426
100
AcDbEntity
  8
0
  6
Continuous
 62
     7
100
AcDbVertex
100
AcDb2dVertex
 10
23191.814487
 20
-19531.049225
 30
0.0
 70
     8
  0
VERTEX
  5
4A0
330
426
100
AcDbEntity
  8
0
  6
Continuous
 62
     7
100
AcDbVertex
100
AcDb2dVertex
 10
23191.270463
 20
-19532.131624
 30
0.0
 70
     8
  0
VERTEX
  5
4A1
330
426
100
AcDbEntity
  8
0
  6
Continuous
 62
     7
100
AcDbVertex
100
AcDb2dVertex
 10
23190.701024
 20
-19533.28883
 30
0.0
 70
     8
  0
VERTEX
  5
4A2
330
426
100
AcDbEntity
  8
0
  6
Continuous
 62
     7
100
AcDbVertex
100
AcDb2dVertex
 10
23190.110612
 20
-19534.510548
 30
0.0
 70
     8
  0
VERTEX
  5
4A3
330
426
100
AcDbEntity
  8
0
  6
Continuous
 62
     7
100
AcDbVertex
100
AcDb2dVertex
 10
23189.506189
 20
-19535.781594
 30
0.0
 70
     8
  0
VERTEX
  5
4A4
330
426
100
AcDbEntity
  8
0
  6
Continuous
 62
     7
100
AcDbVertex
100
AcDb2dVertex
 10
23188.894719
 20
-19537.086784
 30
0.0
 70
     8
  0
VERTEX
  5
4A5
330
426
100
AcDbEntity
  8
0
  6
Continuous
 62
     7
100
AcDbVertex
100
AcDb2dVertex
 10
23188.283165
 20
-19538.410933
 30
0.0
 70
     8
  0
VERTEX
  5
4A6
330
426
100
AcDbEntity
  8
0
  6
Continuous
 62
     7
100
AcDbVertex
100
AcDb2dVertex
 10
23187.67849
 20
-19539.738858
 30
0.0
 70
     8
  0
VERTEX
  5
4A7
330
426
100
AcDbEntity
  8
0
  6
Continuous
 62
     7
100
AcDbVertex
100
AcDb2dVertex
 10
23187.087658
 20
-19541.055375
 30
0.0
 70
     8
  0
VERTEX
  5
4A8
330
426
100
AcDbEntity
  8
0
  6
Continuous
 62
     7
100
AcDbVertex
100
AcDb2dVertex
 10
23186.51763300001
 20
-19542.345299
 30
0.0
 70
     8
  0
VERTEX
  5
4A9
330
426
100
AcDbEntity
  8
0
  6
Continuous
 62
     7
100
AcDbVertex
100
AcDb2dVertex
 10
23185.975377
 20
-19543.593447
 30
0.0
 70
     8
  0
VERTEX
  5
4AA
330
426
100
AcDbEntity
  8
0
  6
Continuous
 62
     7
100
AcDbVertex
100
AcDb2dVertex
 10
23185.467853
 20
-19544.784633
 30
0.0
 70
     8
  0
VERTEX
  5
4AB
330
426
100
AcDbEntity
  8
0
  6
Continuous
 62
     7
100
AcDbVertex
100
AcDb2dVertex
 10
23184.999953
 20
-19545.908811
 30
0.0
 70
     8
  0
VERTEX
  5
4AC
330
426
100
AcDbEntity
  8
0
  6
Continuous
 62
     7
100
AcDbVertex
100
AcDb2dVertex
 10
23184.568271
 20
-19546.976473
 30
0.0
 70
     8
  0
VERTEX
  5
4AD
330
426
100
AcDbEntity
  8
0
  6
Continuous
 62
     7
100
AcDbVertex
100
AcDb2dVertex
 10
23184.167329
 20
-19548.003248
 30
0.0
 70
     8
  0
VERTEX
  5
4AE
330
426
100
AcDbEntity
  8
0
  6
Continuous
 62
     7
100
AcDbVertex
100
AcDb2dVertex
 10
23183.79165
 20
-19549.004765
 30
0.0
 70
     8
  0
VERTEX
  5
4AF
330
426
100
AcDbEntity
  8
0
  6
Continuous
 62
     7
100
AcDbVertex
100
AcDb2dVertex
 10
23183.435756
 20
-19549.996654
 30
0.0
 70
     8
  0
VERTEX
  5
4B0
330
426
100
AcDbEntity
  8
0
  6
Continuous
 62
     7
100
AcDbVertex
100
AcDb2dVertex
 10
23183.094168
 20
-19550.994544
 30
0.0
 70
     8
  0
VERTEX
  5
4B1
330
426
100
AcDbEntity
  8
0
  6
Continuous
 62
     7
100
AcDbVertex
100
AcDb2dVertex
 10
23182.76141
 20
-19552.014063
 30
0.0
 70
     8
  0
VERTEX
  5
4B2
330
426
100
AcDbEntity
  8
0
  6
Continuous
 62
     7
100
AcDbVertex
100
AcDb2dVertex
 10
23182.432002
 20
-19553.070841
 30
0.0
 70
     8
  0
VERTEX
  5
4B3
330
426
100
AcDbEntity
  8
0
  6
Continuous
 62
     7
100
AcDbVertex
100
AcDb2dVertex
 10
23182.100468
 20
-19554.180507
 30
0.0
 70
     8
  0
VERTEX
  5
4B4
330
426
100
AcDbEntity
  8
0
  6
Continuous
 62
     7
100
AcDbVertex
100
AcDb2dVertex
 10
23181.76133
 20
-19555.358689
 30
0.0
 70
     8
  0
VERTEX
  5
4B5
330
426
100
AcDbEntity
  8
0
  6
Continuous
 62
     7
100
AcDbVertex
100
AcDb2dVertex
 10
23181.410705
 20
-19556.615682
 30
0.0
 70
     8
  0
VERTEX
  5
4B6
330
426
100
AcDbEntity
  8
0
  6
Continuous
 62
     7
100
AcDbVertex
100
AcDb2dVertex
 10
23181.0511
 20
-19557.940437
 30
0.0
 70
     8
  0
VERTEX
  5
4B7
330
426
100
AcDbEntity
  8
0
  6
Continuous
 62
     7
100
AcDbVertex
100
AcDb2dVertex
 10
23180.686616
 20
-19559.316569
 30
0.0
 70
     8
  0
VERTEX
  5
4B8
330
426
100
AcDbEntity
  8
0
  6
Continuous
 62
     7
100
AcDbVertex
100
AcDb2dVertex
 10
23180.321356
 20
-19560.727694
 30
0.0
 70
     8
  0
VERTEX
  5
4B9
330
426
100
AcDbEntity
  8
0
  6
Continuous
 62
     7
100
AcDbVertex
100
AcDb2dVertex
 10
23179.95942
 20
-19562.157429
 30
0.0
 70
     8
  0
VERTEX
  5
4BA
330
426
100
AcDbEntity
  8
0
  6
Continuous
 62
     7
100
AcDbVertex
100
AcDb2dVertex
 10
23179.604912
 20
-19563.589388
 30
0.0
 70
     8
  0
VERTEX
  5
4BB
330
426
100
AcDbEntity
  8
0
  6
Continuous
 62
     7
100
AcDbVertex
100
AcDb2dVertex
 10
23179.261933
 20
-19565.007188
 30
0.0
 70
     8
  0
VERTEX
  5
4BC
330
426
100
AcDbEntity
  8
0
  6
Continuous
 62
     7
100
AcDbVertex
100
AcDb2dVertex
 10
23178.934584
 20
-19566.394444
 30
0.0
 70
     8
  0
VERTEX
  5
4BD
330
426
100
AcDbEntity
  8
0
  6
Continuous
 62
     7
100
AcDbVertex
100
AcDb2dVertex
 10
23178.626968
 20
-19567.734772
 30
0.0
 70
     8
  0
VERTEX
  5
4BE
330
426
100
AcDbEntity
  8
0
  6
Continuous
 62
     7
100
AcDbVertex
100
AcDb2dVertex
 10
23178.343187
 20
-19569.011788
 30
0.0
 70
     8
  0
VERTEX
  5
4BF
330
426
100
AcDbEntity
  8
0
  6
Continuous
 62
     7
100
AcDbVertex
100
AcDb2dVertex
 10
23178.086231
 20
-19570.214588
 30
0.0
 70
     8
  0
VERTEX
  5
4C0
330
426
100
AcDbEntity
  8
0
  6
Continuous
 62
     7
100
AcDbVertex
100
AcDb2dVertex
 10
23177.854646
 20
-19571.354194
 30
0.0
 70
     8
  0
VERTEX
  5
4C1
330
426
100
AcDbEntity
  8
0
  6
Continuous
 62
     7
100
AcDbVertex
100
AcDb2dVertex
 10
23177.645868
 20
-19572.447106
 30
0.0
 70
     8
  0
VERTEX
  5
4C2
330
426
100
AcDbEntity
  8
0
  6
Continuous
 62
     7
100
AcDbVertex
100
AcDb2dVertex
 10
23177.457332
 20
-19573.509826
 30
0.0
 70
     8
  0
VERTEX
  5
4C3
330
426
100
AcDbEntity
  8
0
  6
Continuous
 62
     7
100
AcDbVertex
100
AcDb2dVertex
 10
23177.286471
 20
-19574.558855
 30
0.0
 70
     8
  0
VERTEX
  5
4C4
330
426
100
AcDbEntity
  8
0
  6
Continuous
 62
     7
100
AcDbVertex
100
AcDb2dVertex
 10
23177.130721
 20
-19575.610694
 30
0.0
 70
     8
  0
VERTEX
  5
4C5
330
426
100
AcDbEntity
  8
0
  6
Continuous
 62
     7
100
AcDbVertex
100
AcDb2dVertex
 10
23176.987518
 20
-19576.681846
 30
0.0
 70
     8
  0
VERTEX
  5
4C6
330
426
100
AcDbEntity
  8
0
  6
Continuous
 62
     7
100
AcDbVertex
100
AcDb2dVertex
 10
23176.854295
 20
-19577.78881
 30
0.0
 70
     8
  0
VERTEX
  5
4C7
330
426
100
AcDbEntity
  8
0
  6
Continuous
 62
     7
100
AcDbVertex
100
AcDb2dVertex
 10
23176.728488
 20
-19578.948089
 30
0.0
 70
     8
  0
VERTEX
  5
4C8
330
426
100
AcDbEntity
  8
0
  6
Continuous
 62
     7
100
AcDbVertex
100
AcDb2dVertex
 10
23176.607532
 20
-19580.176184
 30
0.0
 70
     8
  0
VERTEX
  5
4C9
330
426
100
AcDbEntity
  8
0
  6
Continuous
 62
     7
100
AcDbVertex
100
AcDb2dVertex
 10
23176.489469
 20
-19581.484022
 30
0.0
 70
     8
  0
VERTEX
  5
4CA
330
426
100
AcDbEntity
  8
0
  6
Continuous
 62
     7
100
AcDbVertex
100
AcDb2dVertex
 10
23176.374771
 20
-19582.860231
 30
0.0
 70
     8
  0
VERTEX
  5
4CB
330
426
100
AcDbEntity
  8
0
  6
Continuous
 62
     7
100
AcDbVertex
100
AcDb2dVertex
 10
23176.264517
 20
-19584.287865
 30
0.0
 70
     8
  0
VERTEX
  5
4CC
330
426
100
AcDbEntity
  8
0
  6
Continuous
 62
     7
100
AcDbVertex
100
AcDb2dVertex
 10
23176.159789
 20
-19585.749976
 30
0.0
 70
     8
  0
VERTEX
  5
4CD
330
426
100
AcDbEntity
  8
0
  6
Continuous
 62
     7
100
AcDbVertex
100
AcDb2dVertex
 10
23176.061664
 20
-19587.22962
 30
0.0
 70
     8
  0
VERTEX
  5
4CE
330
426
100
AcDbEntity
  8
0
  6
Continuous
 62
     7
100
AcDbVertex
100
AcDb2dVertex
 10
23175.971223
 20
-19588.70985
 30
0.0
 70
     8
  0
VERTEX
  5
4CF
330
426
100
AcDbEntity
  8
0
  6
Continuous
 62
     7
100
AcDbVertex
100
AcDb2dVertex
 10
23175.889545
 20
-19590.173718
 30
0.0
 70
     8
  0
VERTEX
  5
4D0
330
426
100
AcDbEntity
  8
0
  6
Continuous
 62
     7
100
AcDbVertex
100
AcDb2dVertex
 10
23175.81771
 20
-19591.60428
 30
0.0
 70
     8
  0
VERTEX
  5
4D1
330
426
100
AcDbEntity
  8
0
  6
Continuous
 62
     7
100
AcDbVertex
100
AcDb2dVertex
 10
23175.756797
 20
-19592.984589
 30
0.0
 70
     8
  0
VERTEX
  5
4D2
330
426
100
AcDbEntity
  8
0
  6
Continuous
 62
     7
100
AcDbVertex
100
AcDb2dVertex
 10
23175.707887
 20
-19594.297697
 30
0.0
 70
     8
  0
VERTEX
  5
4D3
330
426
100
AcDbEntity
  8
0
  6
Continuous
 62
     7
100
AcDbVertex
100
AcDb2dVertex
 10
23175.671953
 20
-19595.532273
 30
0.0
 70
     8
  0
VERTEX
  5
4D4
330
426
100
AcDbEntity
  8
0
  6
Continuous
 62
     7
100
AcDbVertex
100
AcDb2dVertex
 10
23175.649548
 20
-19596.699433
 30
0.0
 70
     8
  0
VERTEX
  5
4D5
330
426
100
AcDbEntity
  8
0
  6
Continuous
 62
     7
100
AcDbVertex
100
AcDb2dVertex
 10
23175.641122
 20
-19597.815909
 30
0.0
 70
     8
  0
VERTEX
  5
4D6
330
426
100
AcDbEntity
  8
0
  6
Continuous
 62
     7
100
AcDbVertex
100
AcDb2dVertex
 10
23175.647123
 20
-19598.898432
 30
0.0
 70
     8
  0
VERTEX
  5
4D7
330
426
100
AcDbEntity
  8
0
  6
Continuous
 62
     7
100
AcDbVertex
100
AcDb2dVertex
 10
23175.667998
 20
-19599.963733
 30
0.0
 70
     8
  0
VERTEX
  5
4D8
330
426
100
AcDbEntity
  8
0
  6
Continuous
 62
     7
100
AcDbVertex
100
AcDb2dVertex
 10
23175.704196
 20
-19601.028543
 30
0.0
 70
     8
  0
VERTEX
  5
4D9
330
426
100
AcDbEntity
  8
0
  6
Continuous
 62
     7
100
AcDbVertex
100
AcDb2dVertex
 10
23175.756164
 20
-19602.109593
 30
0.0
 70
     8
  0
VERTEX
  5
4DA
330
426
100
AcDbEntity
  8
0
  6
Continuous
 62
     7
100
AcDbVertex
100
AcDb2dVertex
 10
23175.824353
 20
-19603.223613
 30
0.0
 70
     8
  0
VERTEX
  5
4DB
330
426
100
AcDbEntity
  8
0
  6
Continuous
 62
     7
100
AcDbVertex
100
AcDb2dVertex
 10
23175.909208
 20
-19604.387335
 30
0.0
 70
     8
  0
VERTEX
  5
4DC
330
426
100
AcDbEntity
  8
0
  6
Continuous
 62
     7
100
AcDbVertex
100
AcDb2dVertex
 10
23176.01118
 20
-19605.617491
 30
0.0
 70
     8
  0
VERTEX
  5
4DD
330
426
100
AcDbEntity
  8
0
  6
Continuous
 62
     7
100
AcDbVertex
100
AcDb2dVertex
 10
23176.130309
 20
-19606.925213
 30
0.0
 70
     8
  0
VERTEX
  5
4DE
330
426
100
AcDbEntity
  8
0
  6
Continuous
 62
     7
100
AcDbVertex
100
AcDb2dVertex
 10
23176.265018
 20
-19608.299251
 30
0.0
 70
     8
  0
VERTEX
  5
4DF
330
426
100
AcDbEntity
  8
0
  6
Continuous
 62
     7
100
AcDbVertex
100
AcDb2dVertex
 10
23176.413321
 20
-19609.722757
 30
0.0
 70
     8
  0
VERTEX
  5
4E0
330
426
100
AcDbEntity
  8
0
  6
Continuous
 62
     7
100
AcDbVertex
100
AcDb2dVertex
 10
23176.573232
 20
-19611.178882
 30
0.0
 70
     8
  0
VERTEX
  5
4E1
330
426
100
AcDbEntity
  8
0
  6
Continuous
 62
     7
100
AcDbVertex
100
AcDb2dVertex
 10
23176.742768
 20
-19612.650778
 30
0.0
 70
     8
  0
VERTEX
  5
4E2
330
426
100
AcDbEntity
  8
0
  6
Continuous
 62
     7
100
AcDbVertex
100
AcDb2dVertex
 10
23176.919942
 20
-19614.121598
 30
0.0
 70
     8
  0
VERTEX
  5
4E3
330
426
100
AcDbEntity
  8
0
  6
Continuous
 62
     7
100
AcDbVertex
100
AcDb2dVertex
 10
23177.10277
 20
-19615.574493
 30
0.0
 70
     8
  0
VERTEX
  5
4E4
330
426
100
AcDbEntity
  8
0
  6
Continuous
 62
     7
100
AcDbVertex
100
AcDb2dVertex
 10
23177.289266
 20
-19616.992615
 30
0.0
 70
     8
  0
VERTEX
  5
4E5
330
426
100
AcDbEntity
  8
0
  6
Continuous
 62
     7
100
AcDbVertex
100
AcDb2dVertex
 10
23177.477447
 20
-19618.359115
 30
0.0
 70
     8
  0
VERTEX
  5
4E6
330
426
100
AcDbEntity
  8
0
  6
Continuous
 62
     7
100
AcDbVertex
100
AcDb2dVertex
 10
23177.665326
 20
-19619.65714699999
 30
0.0
 70
     8
  0
VERTEX
  5
4E7
330
426
100
AcDbEntity
  8
0
  6
Continuous
 62
     7
100
AcDbVertex
100
AcDb2dVertex
 10
23177.851823
 20
-19620.875387
 30
0.0
 70
     8
  0
VERTEX
  5
4E8
330
426
100
AcDbEntity
  8
0
  6
Continuous
 62
     7
100
AcDbVertex
100
AcDb2dVertex
 10
23178.039478
 20
-19622.024619
 30
0.0
 70
     8
  0
VERTEX
  5
4E9
330
426
100
AcDbEntity
  8
0
  6
Continuous
 62
     7
100
AcDbVertex
100
AcDb2dVertex
 10
23178.231734
 20
-19623.121151
 30
0.0
 70
     8
  0
VERTEX
  5
4EA
330
426
100
AcDbEntity
  8
0
  6
Continuous
 62
     7
100
AcDbVertex
100
AcDb2dVertex
 10
23178.432036
 20
-19624.18129199999
 30
0.0
 70
     8
  0
VERTEX
  5
4EB
330
426
100
AcDbEntity
  8
0
  6
Continuous
 62
     7
100
AcDbVertex
100
AcDb2dVertex
 10
23178.643828
 20
-19625.221351
 30
0.0
 70
     8
  0
VERTEX
  5
4EC
330
426
100
AcDbEntity
  8
0
  6
Continuous
 62
     7
100
AcDbVertex
100
AcDb2dVertex
 10
23178.870553
 20
-19626.257637
 30
0.0
 70
     8
  0
VERTEX
  5
4ED
330
426
100
AcDbEntity
  8
0
  6
Continuous
 62
     7
100
AcDbVertex
100
AcDb2dVertex
 10
23179.115655
 20
-19627.306459
 30
0.0
 70
     8
  0
VERTEX
  5
4EE
330
426
100
AcDbEntity
  8
0
  6
Continuous
 62
     7
100
AcDbVertex
100
AcDb2dVertex
 10
23179.382579
 20
-19628.384124
 30
0.0
 70
     8
  0
VERTEX
  5
4EF
330
426
100
AcDbEntity
  8
0
  6
Continuous
 62
     7
100
AcDbVertex
100
AcDb2dVertex
 10
23179.674769
 20
-19629.506943
 30
0.0
 70
     8
  0
VERTEX
  5
4F0
330
426
100
AcDbEntity
  8
0
  6
Continuous
 62
     7
100
AcDbVertex
100
AcDb2dVertex
 10
23179.995668
 20
-19630.691224
 30
0.0
 70
     8
  0
VERTEX
  5
4F1
330
426
100
AcDbEntity
  8
0
  6
Continuous
 62
     7
100
AcDbVertex
100
AcDb2dVertex
 10
23180.347317
 20
-19631.947875
 30
0.0
 70
     8
  0
VERTEX
  5
4F2
330
426
100
AcDbEntity
  8
0
  6
Continuous
 62
     7
100
AcDbVertex
100
AcDb2dVertex
 10
23180.726148
 20
-19633.266204
 30
0.0
 70
     8
  0
VERTEX
  5
4F3
330
426
100
AcDbEntity
  8
0
  6
Continuous
 62
     7
100
AcDbVertex
100
AcDb2dVertex
 10
23181.127189
 20
-19634.630116
 30
0.0
 70
     8
  0
VERTEX
  5
4F4
330
426
100
AcDbEntity
  8
0
  6
Continuous
 62
     7
100
AcDbVertex
100
AcDb2dVertex
 10
23181.545468
 20
-19636.023519
 30
0.0
 70
     8
  0
VERTEX
  5
4F5
330
426
100
AcDbEntity
  8
0
  6
Continuous
 62
     7
100
AcDbVertex
100
AcDb2dVertex
 10
23181.976013
 20
-19637.430319
 30
0.0
 70
     8
  0
VERTEX
  5
4F6
330
426
100
AcDbEntity
  8
0
  6
Continuous
 62
     7
100
AcDbVertex
100
AcDb2dVertex
 10
23182.413853
 20
-19638.834422
 30
0.0
 70
     8
  0
VERTEX
  5
4F7
330
426
100
AcDbEntity
  8
0
  6
Continuous
 62
     7
100
AcDbVertex
100
AcDb2dVertex
 10
23182.854015
 20
-19640.219736
 30
0.0
 70
     8
  0
VERTEX
  5
4F8
330
426
100
AcDbEntity
  8
0
  6
Continuous
 62
     7
100
AcDbVertex
100
AcDb2dVertex
 10
23183.291527
 20
-19641.570166
 30
0.0
 70
     8
  0
VERTEX
  5
4F9
330
426
100
AcDbEntity
  8
0
  6
Continuous
 62
     7
100
AcDbVertex
100
AcDb2dVertex
 10
23183.721419
 20
-19642.86962
 30
0.0
 70
     8
  0
VERTEX
  5
4FA
330
426
100
AcDbEntity
  8
0
  6
Continuous
 62
     7
100
AcDbVertex
100
AcDb2dVertex
 10
23184.138717
 20
-19644.102003
 30
0.0
 70
     8
  0
VERTEX
  5
4FB
330
426
100
AcDbEntity
  8
0
  6
Continuous
 62
     7
100
AcDbVertex
100
AcDb2dVertex
 10
23184.54033
 20
-19645.256447
 30
0.0
 70
     8
  0
VERTEX
  5
4FC
330
426
100
AcDbEntity
  8
0
  6
Continuous
 62
     7
100
AcDbVertex
100
AcDb2dVertex
 10
23184.930684
 20
-19646.342979
 30
0.0
 70
     8
  0
VERTEX
  5
4FD
330
426
100
AcDbEntity
  8
0
  6
Continuous
 62
     7
100
AcDbVertex
100
AcDb2dVertex
 10
23185.316081
 20
-19647.376851
 30
0.0
 70
     8
  0
VERTEX
  5
4FE
330
426
100
AcDbEntity
  8
0
  6
Continuous
 62
     7
100
AcDbVertex
100
AcDb2dVertex
 10
23185.702829
 20
-19648.373314
 30
0.0
 70
     8
  0
VERTEX
  5
4FF
330
426
100
AcDbEntity
  8
0
  6
Continuous
 62
     7
100
AcDbVertex
100
AcDb2dVertex
 10
23186.09723
 20
-19649.347619
 30
0.0
 70
     8
  0
VERTEX
  5
500
330
426
100
AcDbEntity
  8
0
  6
Continuous
 62
     7
100
AcDbVertex
100
AcDb2dVertex
 10
23186.505591
 20
-19650.315019
 30
0.0
 70
     8
  0
VERTEX
  5
501
330
426
100
AcDbEntity
  8
0
  6
Continuous
 62
     7
100
AcDbVertex
100
AcDb2dVertex
 10
23186.934215
 20
-19651.290765
 30
0.0
 70
     8
  0
VERTEX
  5
502
330
426
100
AcDbEntity
  8
0
  6
Continuous
 62
     7
100
AcDbVertex
100
AcDb2dVertex
 10
23187.389408
 20
-19652.290109
 30
0.0
 70
     8
  0
VERTEX
  5
503
330
426
100
AcDbEntity
  8
0
  6
Continuous
 62
     7
100
AcDbVertex
100
AcDb2dVertex
 10
23187.877474
 20
-19653.328301
 30
0.0
 70
     8
  0
VERTEX
  5
504
330
426
100
AcDbEntity
  8
0
  6
Continuous
 62
     7
100
AcDbVertex
100
AcDb2dVertex
 10
23188.404718
 20
-19654.420594
 30
0.0
 70
     8
  0
VERTEX
  5
505
330
426
100
AcDbEntity
  8
0
  6
Continuous
 62
     7
100
AcDbVertex
100
AcDb2dVertex
 10
23188.975101
 20
-19655.577246
 30
0.0
 70
     8
  0
VERTEX
  5
506
330
426
100
AcDbEntity
  8
0
  6
Continuous
 62
     7
100
AcDbVertex
100
AcDb2dVertex
 10
23189.583202
 20
-19656.788537
 30
0.0
 70
     8
  0
VERTEX
  5
507
330
426
100
AcDbEntity
  8
0
  6
Continuous
 62
     7
100
AcDbVertex
100
AcDb2dVertex
 10
23190.221259
 20
-19658.039757
 30
0.0
 70
     8
  0
VERTEX
  5
508
330
426
100
AcDbEntity
  8
0
  6
Continuous
 62
     7
100
AcDbVertex
100
AcDb2dVertex
 10
23190.881507
 20
-19659.316191
 30
0.0
 70
     8
  0
VERTEX
  5
509
330
426
100
AcDbEntity
  8
0
  6
Continuous
 62
     7
100
AcDbVertex
100
AcDb2dVertex
 10
23191.556184
 20
-19660.603129
 30
0.0
 70
     8
  0
VERTEX
  5
50A
330
426
100
AcDbEntity
  8
0
  6
Continuous
 62
     7
100
AcDbVertex
100
AcDb2dVertex
 10
23192.237525
 20
-19661.885858
 30
0.0
 70
     8
  0
VERTEX
  5
50B
330
426
100
AcDbEntity
  8
0
  6
Continuous
 62
     7
100
AcDbVertex
100
AcDb2dVertex
 10
23192.917766
 20
-19663.149666
 30
0.0
 70
     8
  0
VERTEX
  5
50C
330
426
100
AcDbEntity
  8
0
  6
Continuous
 62
     7
100
AcDbVertex
100
AcDb2dVertex
 10
23193.589145
 20
-19664.37984
 30
0.0
 70
     8
  0
VERTEX
  5
50D
330
426
100
AcDbEntity
  8
0
  6
Continuous
 62
     7
100
AcDbVertex
100
AcDb2dVertex
 10
23194.243896
 20
-19665.561668
 30
0.0
 70
     8
  0
VERTEX
  5
50E
330
426
100
AcDbEntity
  8
0
  6
Continuous
 62
     7
100
AcDbVertex
100
AcDb2dVertex
 10
23194.874257
 20
-19666.680439
 30
0.0
 70
     8
  0
VERTEX
  5
50F
330
426
100
AcDbEntity
  8
0
  6
Continuous
 62
     7
100
AcDbVertex
100
AcDb2dVertex
 10
23195.475245
 20
-19667.726157
 30
0.0
 70
     8
  0
VERTEX
  5
510
330
426
100
AcDbEntity
  8
0
  6
Continuous
 62
     7
100
AcDbVertex
100
AcDb2dVertex
 10
23196.052997
 20
-19668.707707
 30
0.0
 70
     8
  0
VERTEX
  5
511
330
426
100
AcDbEntity
  8
0
  6
Continuous
 62
     7
100
AcDbVertex
100
AcDb2dVertex
 10
23196.616432
 20
-19669.638689
 30
0.0
 70
     8
  0
VERTEX
  5
512
330
426
100
AcDbEntity
  8
0
  6
Continuous
 62
     7
100
AcDbVertex
100
AcDb2dVertex
 10
23197.174469
 20
-19670.532704
 30
0.0
 70
     8
  0
VERTEX
  5
513
330
426
100
AcDbEntity
  8
0
  6
Continuous
 62
     7
100
AcDbVertex
100
AcDb2dVertex
 10
23197.736026
 20
-19671.403353
 30
0.0
 70
     8
  0
VERTEX
  5
514
330
426
100
AcDbEntity
  8
0
  6
Continuous
 62
     7
100
AcDbVertex
100
AcDb2dVertex
 10
23198.310023
 20
-19672.264239
 30
0.0
 70
     8
  0
VERTEX
  5
515
330
426
100
AcDbEntity
  8
0
  6
Continuous
 62
     7
100
AcDbVertex
100
AcDb2dVertex
 10
23198.905378
 20
-19673.128961
 30
0.0
 70
     8
  0
VERTEX
  5
516
330
426
100
AcDbEntity
  8
0
  6
Continuous
 62
     7
100
AcDbVertex
100
AcDb2dVertex
 10
23199.53101
 20
-19674.011122
 30
0.0
 70
     8
  0
VERTEX
  5
517
330
426
100
AcDbEntity
  8
0
  6
Continuous
 62
     7
100
AcDbVertex
100
AcDb2dVertex
 10
23200.195837
 20
-19674.924322
 30
0.0
 70
     8
  0
VERTEX
  5
518
330
426
100
AcDbEntity
  8
0
  6
Continuous
 62
     7
100
AcDbVertex
100
AcDb2dVertex
 10
23200.908778
 20
-19675.882163
 30
0.0
 70
     8
  0
VERTEX
  5
519
330
426
100
AcDbEntity
  8
0
  6
Continuous
 62
     7
100
AcDbVertex
100
AcDb2dVertex
 10
23201.675557
 20
-19676.893853
 30
0.0
 70
     8
  0
VERTEX
  5
51A
330
426
100
AcDbEntity
  8
0
  6
Continuous
 62
     7
100
AcDbVertex
100
AcDb2dVertex
 10
23202.489117
 20
-19677.951025
 30
0.0
 70
     8
  0
VERTEX
  5
51B
330
426
100
AcDbEntity
  8
0
  6
Continuous
 62
     7
100
AcDbVertex
100
AcDb2dVertex
 10
23203.339207
 20
-19679.040921
 30
0.0
 70
     8
  0
VERTEX
  5
51C
330
426
100
AcDbEntity
  8
0
  6
Continuous
 62
     7
100
AcDbVertex
100
AcDb2dVertex
 10
23204.215574
 20
-19680.15078
 30
0.0
 70
     8
  0
VERTEX
  5
51D
330
426
100
AcDbEntity
  8
0
  6
Continuous
 62
     7
100
AcDbVertex
100
AcDb2dVertex
 10
23205.107968
 20
-19681.267844
 30
0.0
 70
     8
  0
VERTEX
  5
51E
330
426
100
AcDbEntity
  8
0
  6
Continuous
 62
     7
100
AcDbVertex
100
AcDb2dVertex
 10
23206.006137
 20
-19682.379353
 30
0.0
 70
     8
  0
VERTEX
  5
51F
330
426
100
AcDbEntity
  8
0
  6
Continuous
 62
     7
100
AcDbVertex
100
AcDb2dVertex
 10
23206.899828
 20
-19683.472548
 30
0.0
 70
     8
  0
VERTEX
  5
520
330
426
100
AcDbEntity
  8
0
  6
Continuous
 62
     7
100
AcDbVertex
100
AcDb2dVertex
 10
23207.778791
 20
-19684.534669
 30
0.0
 70
     8
  0
VERTEX
  5
521
330
426
100
AcDbEntity
  8
0
  6
Continuous
 62
     7
100
AcDbVertex
100
AcDb2dVertex
 10
23208.632774
 20
-19685.552958
 30
0.0
 70
     8
  0
VERTEX
  5
522
330
426
100
AcDbEntity
  8
0
  6
Continuous
 62
     7
100
AcDbVertex
100
AcDb2dVertex
 10
23209.451525
 20
-19686.514654
 30
0.0
 70
     8
  0
VERTEX
  5
523
330
426
100
AcDbEntity
  8
0
  6
Continuous
 62
     7
100
AcDbVertex
100
AcDb2dVertex
 10
23210.228365
 20
-19687.411028
 30
0.0
 70
     8
  0
VERTEX
  5
524
330
426
100
AcDbEntity
  8
0
  6
Continuous
 62
     7
100
AcDbVertex
100
AcDb2dVertex
 10
23210.970906
 20
-19688.249474
 30
0.0
 70
     8
  0
VERTEX
  5
525
330
426
100
AcDbEntity
  8
0
  6
Continuous
 62
     7
100
AcDbVertex
100
AcDb2dVertex
 10
23211.690331
 20
-19689.041414
 30
0.0
 70
     8
  0
VERTEX
  5
526
330
426
100
AcDbEntity
  8
0
  6
Continuous
 62
     7
100
AcDbVertex
100
AcDb2dVertex
 10
23212.397825
 20
-19689.798272
 30
0.0
 70
     8
  0
VERTEX
  5
527
330
426
100
AcDbEntity
  8
0
  6
Continuous
 62
     7
100
AcDbVertex
100
AcDb2dVertex
 10
23213.104572
 20
-19690.53147
 30
0.0
 70
     8
  0
VERTEX
  5
528
330
426
100
AcDbEntity
  8
0
  6
Continuous
 62
     7
100
AcDbVertex
100
AcDb2dVertex
 10
23213.821756
 20
-19691.252432
 30
0.0
 70
     8
  0
VERTEX
  5
529
330
426
100
AcDbEntity
  8
0
  6
Continuous
 62
     7
100
AcDbVertex
100
AcDb2dVertex
 10
23214.560561
 20
-19691.97258
 30
0.0
 70
     8
  0
VERTEX
  5
52A
330
426
100
AcDbEntity
  8
0
  6
Continuous
 62
     7
100
AcDbVertex
100
AcDb2dVertex
 10
23215.332171
 20
-19692.703337
 30
0.0
 70
     8
  0
VERTEX
  5
52B
330
426
100
AcDbEntity
  8
0
  6
Continuous
 62
     7
100
AcDbVertex
100
AcDb2dVertex
 10
23216.147769
 20
-19693.456127
 30
0.0
 70
     8
  0
VERTEX
  5
52C
330
426
100
AcDbEntity
  8
0
  6
Continuous
 62
     7
100
AcDbVertex
100
AcDb2dVertex
 10
23217.018541
 20
-19694.242373
 30
0.0
 70
     8
  0
VERTEX
  5
52D
330
426
100
AcDbEntity
  8
0
  6
Continuous
 62
     7
100
AcDbVertex
100
AcDb2dVertex
 10
23217.95175
 20
-19695.069875
 30
0.0
 70
     8
  0
VERTEX
  5
52E
330
426
100
AcDbEntity
  8
0
  6
Continuous
 62
     7
100
AcDbVertex
100
AcDb2dVertex
 10
23218.938977
 20
-19695.931943
 30
0.0
 70
     8
  0
VERTEX
  5
52F
330
426
100
AcDbEntity
  8
0
  6
Continuous
 62
     7
100
AcDbVertex
100
AcDb2dVertex
 10
23219.967883
 20
-19696.818266
 30
0.0
 70
     8
  0
VERTEX
  5
530
330
426
100
AcDbEntity
  8
0
  6
Continuous
 62
     7
100
AcDbVertex
100
AcDb2dVertex
 10
23221.026129
 20
-19697.718532
 30
0.0
 70
     8
  0
VERTEX
  5
531
330
426
100
AcDbEntity
  8
0
  6
Continuous
 62
     7
100
AcDbVertex
100
AcDb2dVertex
 10
23222.101376
 20
-19698.622428
 30
0.0
 70
     8
  0
VERTEX
  5
532
330
426
100
AcDbEntity
  8
0
  6
Continuous
 62
     7
100
AcDbVertex
100
AcDb2dVertex
 10
23223.181286
 20
-19699.519643
 30
0.0
 70
     8
  0
VERTEX
  5
533
330
426
100
AcDbEntity
  8
0
  6
Continuous
 62
     7
100
AcDbVertex
100
AcDb2dVertex
 10
23224.253518
 20
-19700.399865
 30
0.0
 70
     8
  0
VERTEX
  5
534
330
426
100
AcDbEntity
  8
0
  6
Continuous
 62
     7
100
AcDbVertex
100
AcDb2dVertex
 10
23225.305734
 20
-19701.252781
 30
0.0
 70
     8
  0
VERTEX
  5
535
330
426
100
AcDbEntity
  8
0
  6
Continuous
 62
     7
100
AcDbVertex
100
AcDb2dVertex
 10
23226.325594
 20
-19702.06808
 30
0.0
 70
     8
  0
VERTEX
  5
536
330
426
100
AcDbEntity
  8
0
  6
Continuous
 62
     7
100
AcDbVertex
100
AcDb2dVertex
 10
23227.300761
 20
-19702.83545
 30
0.0
 70
     8
  0
VERTEX
  5
537
330
426
100
AcDbEntity
  8
0
  6
Continuous
 62
     7
100
AcDbVertex
100
AcDb2dVertex
 10
23228.223119
 20
-19703.547764
 30
0.0
 70
     8
  0
VERTEX
  5
538
330
426
100
AcDbEntity
  8
0
  6
Continuous
 62
     7
100
AcDbVertex
100
AcDb2dVertex
 10
23229.101458
 20
-19704.21064
 30
0.0
 70
     8
  0
VERTEX
  5
539
330
426
100
AcDbEntity
  8
0
  6
Continuous
 62
     7
100
AcDbVertex
100
AcDb2dVertex
 10
23229.94879
 20
-19704.83288
 30
0.0
 70
     8
  0
VERTEX
  5
53A
330
426
100
AcDbEntity
  8
0
  6
Continuous
 62
     7
100
AcDbVertex
100
AcDb2dVertex
 10
23230.778129
 20
-19705.423287
 30
0.0
 70
     8
  0
VERTEX
  5
53B
330
426
100
AcDbEntity
  8
0
  6
Continuous
 62
     7
100
AcDbVertex
100
AcDb2dVertex
 10
23231.602489
 20
-19705.990663
 30
0.0
 70
     8
  0
VERTEX
  5
53C
330
426
100
AcDbEntity
  8
0
  6
Continuous
 62
     7
100
AcDbVertex
100
AcDb2dVertex
 10
23232.434882
 20
-19706.543813
 30
0.0
 70
     8
  0
VERTEX
  5
53D
330
426
100
AcDbEntity
  8
0
  6
Continuous
 62
     7
100
AcDbVertex
100
AcDb2dVertex
 10
23233.288322
 20
-19707.091537
 30
0.0
 70
     8
  0
VERTEX
  5
53E
330
426
100
AcDbEntity
  8
0
  6
Continuous
 62
     7
100
AcDbVertex
100
AcDb2dVertex
 10
23234.175823
 20
-19707.64264
 30
0.0
 70
     8
  0
VERTEX
  5
53F
330
426
100
AcDbEntity
  8
0
  6
Continuous
 62
     7
100
AcDbVertex
100
AcDb2dVertex
 10
23235.110398
 20
-19708.205923
 30
0.0
 70
     8
  0
VERTEX
  5
540
330
426
100
AcDbEntity
  8
0
  6
Continuous
 62
     7
100
AcDbVertex
100
AcDb2dVertex
 10
23236.10506
 20
-19708.79019
 30
0.0
 70
     8
  0
VERTEX
  5
541
330
426
100
AcDbEntity
  8
0
  6
Continuous
 62
     7
100
AcDbVertex
100
AcDb2dVertex
 10
23237.16833
 20
-19709.401532
 30
0.0
 70
     8
  0
VERTEX
  5
542
330
426
100
AcDbEntity
  8
0
  6
Continuous
 62
     7
100
AcDbVertex
100
AcDb2dVertex
 10
23238.290755
 20
-19710.035193
 30
0.0
 70
     8
  0
VERTEX
  5
543
330
426
100
AcDbEntity
  8
0
  6
Continuous
 62
     7
100
AcDbVertex
100
AcDb2dVertex
 10
23239.458389
 20
-19710.683708
 30
0.0
 70
     8
  0
VERTEX
  5
544
330
426
100
AcDbEntity
  8
0
  6
Continuous
 62
     7
100
AcDbVertex
100
AcDb2dVertex
 10
23240.657286
 20
-19711.339611
 30
0.0
 70
     8
  0
VERTEX
  5
545
330
426
100
AcDbEntity
  8
0
  6
Continuous
 62
     7
100
AcDbVertex
100
AcDb2dVertex
 10
23241.873501
 20
-19711.995433
 30
0.0
 70
     8
  0
VERTEX
  5
546
330
426
100
AcDbEntity
  8
0
  6
Continuous
 62
     7
100
AcDbVertex
100
AcDb2dVertex
 10
23243.093087
 20
-19712.64371
 30
0.0
 70
     8
  0
VERTEX
  5
547
330
426
100
AcDbEntity
  8
0
  6
Continuous
 62
     7
100
AcDbVertex
100
AcDb2dVertex
 10
23244.302099
 20
-19713.276975
 30
0.0
 70
     8
  0
VERTEX
  5
548
330
426
100
AcDbEntity
  8
0
  6
Continuous
 62
     7
100
AcDbVertex
100
AcDb2dVertex
 10
23245.486591
 20
-19713.887762
 30
0.0
 70
     8
  0
VERTEX
  5
549
330
426
100
AcDbEntity
  8
0
  6
Continuous
 62
     7
100
AcDbVertex
100
AcDb2dVertex
 10
23246.632617
 20
-19714.468603
 30
0.0
 70
     8
  0
VERTEX
  5
54A
330
426
100
AcDbEntity
  8
0
  6
Continuous
 62
     7
100
AcDbVertex
100
AcDb2dVertex
 10
23247.726232
 20
-19715.012033
 30
0.0
 70
     8
  0
VERTEX
  5
54B
330
426
100
AcDbEntity
  8
0
  6
Continuous
 62
     7
100
AcDbVertex
100
AcDb2dVertex
 10
23248.758203
 20
-19715.512803
 30
0.0
 70
     8
  0
VERTEX
  5
54C
330
426
100
AcDbEntity
  8
0
  6
Continuous
 62
     7
100
AcDbVertex
100
AcDb2dVertex
 10
23249.738153
 20
-19715.974539
 30
0.0
 70
     8
  0
VERTEX
  5
54D
330
426
100
AcDbEntity
  8
0
  6
Continuous
 62
     7
100
AcDbVertex
100
AcDb2dVertex
 10
23250.680419
 20
-19716.403082
 30
0.0
 70
     8
  0
VERTEX
  5
54E
330
426
100
AcDbEntity
  8
0
  6
Continuous
 62
     7
100
AcDbVertex
100
AcDb2dVertex
 10
23251.599339
 20
-19716.804277
 30
0.0
 70
     8
  0
VERTEX
  5
54F
330
426
100
AcDbEntity
  8
0
  6
Continuous
 62
     7
100
AcDbVertex
100
AcDb2dVertex
 10
23252.509248
 20
-19717.183965
 30
0.0
 70
     8
  0
VERTEX
  5
550
330
426
100
AcDbEntity
  8
0
  6
Continuous
 62
     7
100
AcDbVertex
100
AcDb2dVertex
 10
23253.424484
 20
-19717.54799
 30
0.0
 70
     8
  0
VERTEX
  5
551
330
426
100
AcDbEntity
  8
0
  6
Continuous
 62
     7
100
AcDbVertex
100
AcDb2dVertex
 10
23254.359384
 20
-19717.902195
 30
0.0
 70
     8
  0
VERTEX
  5
552
330
426
100
AcDbEntity
  8
0
  6
Continuous
 62
     7
100
AcDbVertex
100
AcDb2dVertex
 10
23255.328284
 20
-19718.252423
 30
0.0
 70
     8
  0
VERTEX
  5
553
330
426
100
AcDbEntity
  8
0
  6
Continuous
 62
     7
100
AcDbVertex
100
AcDb2dVertex
 10
23256.345522
 20
-19718.604516
 30
0.0
 70
     8
  0
VERTEX
  5
554
330
426
100
AcDbEntity
  8
0
  6
Continuous
 62
     7
100
AcDbVertex
100
AcDb2dVertex
 10
23257.425434
 20
-19718.964317
 30
0.0
 70
     8
  0
VERTEX
  5
555
330
426
100
AcDbEntity
  8
0
  6
Continuous
 62
     7
100
AcDbVertex
100
AcDb2dVertex
 10
23258.577465
 20
-19719.335975
 30
0.0
 70
     8
  0
VERTEX
  5
556
330
426
100
AcDbEntity
  8
0
  6
Continuous
 62
     7
100
AcDbVertex
100
AcDb2dVertex
 10
23259.791497
 20
-19719.716849
 30
0.0
 70
     8
  0
VERTEX
  5
557
330
426
100
AcDbEntity
  8
0
  6
Continuous
 62
     7
100
AcDbVertex
100
AcDb2dVertex
 10
23261.052517
 20
-19720.102608
 30
0.0
 70
     8
  0
VERTEX
  5
558
330
426
100
AcDbEntity
  8
0
  6
Continuous
 62
     7
100
AcDbVertex
100
AcDb2dVertex
 10
23262.345515
 20
-19720.488917
 30
0.0
 70
     8
  0
VERTEX
  5
559
330
426
100
AcDbEntity
  8
0
  6
Continuous
 62
     7
100
AcDbVertex
100
AcDb2dVertex
 10
23263.655479
 20
-19720.871443
 30
0.0
 70
     8
  0
VERTEX
  5
55A
330
426
100
AcDbEntity
  8
0
  6
Continuous
 62
     7
100
AcDbVertex
100
AcDb2dVertex
 10
23264.967398
 20
-19721.245852
 30
0.0
 70
     8
  0
VERTEX
  5
55B
330
426
100
AcDbEntity
  8
0
  6
Continuous
 62
     7
100
AcDbVertex
100
AcDb2dVertex
 10
23266.266261
 20
-19721.60781
 30
0.0
 70
     8
  0
VERTEX
  5
55C
330
426
100
AcDbEntity
  8
0
  6
Continuous
 62
     7
100
AcDbVertex
100
AcDb2dVertex
 10
23267.537057
 20
-19721.952984
 30
0.0
 70
     8
  0
VERTEX
  5
55D
330
426
100
AcDbEntity
  8
0
  6
Continuous
 62
     7
100
AcDbVertex
100
AcDb2dVertex
 10
23268.764774
 20
-19722.27703899999
 30
0.0
 70
     8
  0
VERTEX
  5
55E
330
426
100
AcDbEntity
  8
0
  6
Continuous
 62
     7
100
AcDbVertex
100
AcDb2dVertex
 10
23269.934402
 20
-19722.575643
 30
0.0
 70
     8
  0
VERTEX
  5
55F
330
426
100
AcDbEntity
  8
0
  6
Continuous
 62
     7
100
AcDbVertex
100
AcDb2dVertex
 10
23271.035947
 20
-19722.845626
 30
0.0
 70
     8
  0
VERTEX
  5
560
330
426
100
AcDbEntity
  8
0
  6
Continuous
 62
     7
100
AcDbVertex
100
AcDb2dVertex
 10
23272.079497
 20
-19723.088483
 30
0.0
 70
     8
  0
VERTEX
  5
561
330
426
100
AcDbEntity
  8
0
  6
Continuous
 62
     7
100
AcDbVertex
100
AcDb2dVertex
 10
23273.080155
 20
-19723.30687
 30
0.0
 70
     8
  0
VERTEX
  5
562
330
426
100
AcDbEntity
  8
0
  6
Continuous
 62
     7
100
AcDbVertex
100
AcDb2dVertex
 10
23274.053025
 20
-19723.503447
 30
0.0
 70
     8
  0
VERTEX
  5
563
330
426
100
AcDbEntity
  8
0
  6
Continuous
 62
     7
100
AcDbVertex
100
AcDb2dVertex
 10
23275.013213
 20
-19723.68087299999
 30
0.0
 70
     8
  0
VERTEX
  5
564
330
426
100
AcDbEntity
  8
0
  6
Continuous
 62
     7
100
AcDbVertex
100
AcDb2dVertex
 10
23275.975822
 20
-19723.841805
 30
0.0
 70
     8
  0
VERTEX
  5
565
330
426
100
AcDbEntity
  8
0
  6
Continuous
 62
     7
100
AcDbVertex
100
AcDb2dVertex
 10
23276.955958
 20
-19723.988901
 30
0.0
 70
     8
  0
VERTEX
  5
566
330
426
100
AcDbEntity
  8
0
  6
Continuous
 62
     7
100
AcDbVertex
100
AcDb2dVertex
 10
23277.968725
 20
-19724.124821
 30
0.0
 70
     8
  0
VERTEX
  5
567
330
426
100
AcDbEntity
  8
0
  6
Continuous
 62
     7
100
AcDbVertex
100
AcDb2dVertex
 10
23279.029226
 20
-19724.252223
 30
0.0
 70
     8
  0
VERTEX
  5
568
330
426
100
AcDbEntity
  8
0
  6
Continuous
 62
     7
100
AcDbVertex
100
AcDb2dVertex
 10
23280.152568
 20
-19724.373765
 30
0.0
 70
     8
  0
VERTEX
  5
569
330
426
100
AcDbEntity
  8
0
  6
Continuous
 62
     7
100
AcDbVertex
100
AcDb2dVertex
 10
23281.348755
 20
-19724.491489
 30
0.0
 70
     8
  0
VERTEX
  5
56A
330
426
100
AcDbEntity
  8
0
  6
Continuous
 62
     7
100
AcDbVertex
100
AcDb2dVertex
 10
23282.60739
 20
-19724.604977
 30
0.0
 70
     8
  0
VERTEX
  5
56B
330
426
100
AcDbEntity
  8
0
  6
Continuous
 62
     7
100
AcDbVertex
100
AcDb2dVertex
 10
23283.912978
 20
-19724.713194
 30
0.0
 70
     8
  0
VERTEX
  5
56C
330
426
100
AcDbEntity
  8
0
  6
Continuous
 62
     7
100
AcDbVertex
100
AcDb2dVertex
 10
23285.250024
 20
-19724.815105
 30
0.0
 70
     8
  0
VERTEX
  5
56D
330
426
100
AcDbEntity
  8
0
  6
Continuous
 62
     7
100
AcDbVertex
100
AcDb2dVertex
 10
23286.603033
 20
-19724.909674
 30
0.0
 70
     8
  0
VERTEX
  5
56E
330
426
100
AcDbEntity
  8
0
  6
Continuous
 62
     7
100
AcDbVertex
100
AcDb2dVertex
 10
23287.956508
 20
-19724.995867
 30
0.0
 70
     8
  0
VERTEX
  5
56F
330
426
100
AcDbEntity
  8
0
  6
Continuous
 62
     7
100
AcDbVertex
100
AcDb2dVertex
 10
23289.294954
 20
-19725.072649
 30
0.0
 70
     8
  0
VERTEX
  5
570
330
426
100
AcDbEntity
  8
0
  6
Continuous
 62
     7
100
AcDbVertex
100
AcDb2dVertex
 10
23290.602875
 20
-19725.138985
 30
0.0
 70
     8
  0
VERTEX
  5
571
330
426
100
AcDbEntity
  8
0
  6
Continuous
 62
     7
100
AcDbVertex
100
AcDb2dVertex
 10
23291.864777
 20
-19725.19384
 30
0.0
 70
     8
  0
VERTEX
  5
572
330
426
100
AcDbEntity
  8
0
  6
Continuous
 62
     7
100
AcDbVertex
100
AcDb2dVertex
 10
23293.065163
 20
-19725.236179
 30
0.0
 70
     8
  0
VERTEX
  5
573
330
426
100
AcDbEntity
  8
0
  6
Continuous
 62
     7
100
AcDbVertex
100
AcDb2dVertex
 10
23294.193669
 20
-19725.265036
 30
0.0
 70
     8
  0
VERTEX
  5
574
330
426
100
AcDbEntity
  8
0
  6
Continuous
 62
     7
100
AcDbVertex
100
AcDb2dVertex
 10
23295.260451
 20
-19725.279713
 30
0.0
 70
     8
  0
VERTEX
  5
575
330
426
100
AcDbEntity
  8
0
  6
Continuous
 62
     7
100
AcDbVertex
100
AcDb2dVertex
 10
23296.280798
 20
-19725.279584
 30
0.0
 70
     8
  0
VERTEX
  5
576
330
426
100
AcDbEntity
  8
0
  6
Continuous
 62
     7
100
AcDbVertex
100
AcDb2dVertex
 10
23297.269997
 20
-19725.264019
 30
0.0
 70
     8
  0
VERTEX
  5
577
330
426
100
AcDbEntity
  8
0
  6
Continuous
 62
     7
100
AcDbVertex
100
AcDb2dVertex
 10
23298.243336
 20
-19725.232391
 30
0.0
 70
     8
  0
VERTEX
  5
578
330
426
100
AcDbEntity
  8
0
  6
Continuous
 62
     7
100
AcDbVertex
100
AcDb2dVertex
 10
23299.216103
 20
-19725.184071
 30
0.0
 70
     8
  0
VERTEX
  5
579
330
426
100
AcDbEntity
  8
0
  6
Continuous
 62
     7
100
AcDbVertex
100
AcDb2dVertex
 10
23300.203586
 20
-19725.118432
 30
0.0
 70
     8
  0
VERTEX
  5
57A
330
426
100
AcDbEntity
  8
0
  6
Continuous
 62
     7
100
AcDbVertex
100
AcDb2dVertex
 10
23301.221072
 20
-19725.034846
 30
0.0
 70
     8
  0
VERTEX
  5
57B
330
426
100
AcDbEntity
  8
0
  6
Continuous
 62
     7
100
AcDbVertex
100
AcDb2dVertex
 10
23302.28385
 20
-19724.932683
 30
0.0
 70
     8
  0
VERTEX
  5
57C
330
426
100
AcDbEntity
  8
0
  6
Continuous
 62
     7
100
AcDbVertex
100
AcDb2dVertex
 10
23303.407206
 20
-19724.811316
 30
0.0
 70
     8
  0
VERTEX
  5
57D
330
426
100
AcDbEntity
  8
0
  6
Continuous
 62
     7
100
AcDbVertex
100
AcDb2dVertex
 10
23304.601318
 20
-19724.670606
 30
0.0
 70
     8
  0
VERTEX
  5
57E
330
426
100
AcDbEntity
  8
0
  6
Continuous
 62
     7
100
AcDbVertex
100
AcDb2dVertex
 10
23305.855916
 20
-19724.512367
 30
0.0
 70
     8
  0
VERTEX
  5
57F
330
426
100
AcDbEntity
  8
0
  6
Continuous
 62
     7
100
AcDbVertex
100
AcDb2dVertex
 10
23307.155618
 20
-19724.338903
 30
0.0
 70
     8
  0
VERTEX
  5
580
330
426
100
AcDbEntity
  8
0
  6
Continuous
 62
     7
100
AcDbVertex
100
AcDb2dVertex
 10
23308.485044
 20
-19724.152517
 30
0.0
 70
     8
  0
VERTEX
  5
581
330
426
100
AcDbEntity
  8
0
  6
Continuous
 62
     7
100
AcDbVertex
100
AcDb2dVertex
 10
23309.828812
 20
-19723.955513
 30
0.0
 70
     8
  0
VERTEX
  5
582
330
426
100
AcDbEntity
  8
0
  6
Continuous
 62
     7
100
AcDbVertex
100
AcDb2dVertex
 10
23311.171542
 20
-19723.750193
 30
0.0
 70
     8
  0
VERTEX
  5
583
330
426
100
AcDbEntity
  8
0
  6
Continuous
 62
     7
100
AcDbVertex
100
AcDb2dVertex
 10
23312.497851
 20
-19723.538862
 30
0.0
 70
     8
  0
VERTEX
  5
584
330
426
100
AcDbEntity
  8
0
  6
Continuous
 62
     7
100
AcDbVertex
100
AcDb2dVertex
 10
23313.79236
 20
-19723.323823
 30
0.0
 70
     8
  0
VERTEX
  5
585
330
426
100
AcDbEntity
  8
0
  6
Continuous
 62
     7
100
AcDbVertex
100
AcDb2dVertex
 10
23315.039686
 20
-19723.107379
 30
0.0
 70
     8
  0
VERTEX
  5
586
330
426
100
AcDbEntity
  8
0
  6
Continuous
 62
     7
100
AcDbVertex
100
AcDb2dVertex
 10
23316.224449
 20
-19722.891834
 30
0.0
 70
     8
  0
VERTEX
  5
587
330
426
100
AcDbEntity
  8
0
  6
Continuous
 62
     7
100
AcDbVertex
100
AcDb2dVertex
 10
23317.336311
 20
-19722.678459
 30
0.0
 70
     8
  0
VERTEX
  5
588
330
426
100
AcDbEntity
  8
0
  6
Continuous
 62
     7
100
AcDbVertex
100
AcDb2dVertex
 10
23318.385108
 20
-19722.464396
 30
0.0
 70
     8
  0
VERTEX
  5
589
330
426
100
AcDbEntity
  8
0
  6
Continuous
 62
     7
100
AcDbVertex
100
AcDb2dVertex
 10
23319.385721
 20
-19722.245753
 30
0.0
 70
     8
  0
VERTEX
  5
58A
330
426
100
AcDbEntity
  8
0
  6
Continuous
 62
     7
100
AcDbVertex
100
AcDb2dVertex
 10
23320.353029
 20
-19722.018641
 30
0.0
 70
     8
  0
VERTEX
  5
58B
330
426
100
AcDbEntity
  8
0
  6
Continuous
 62
     7
100
AcDbVertex
100
AcDb2dVertex
 10
23321.301912
 20
-19721.779169
 30
0.0
 70
     8
  0
VERTEX
  5
58C
330
426
100
AcDbEntity
  8
0
  6
Continuous
 62
     7
100
AcDbVertex
100
AcDb2dVertex
 10
23322.24725
 20
-19721.523446
 30
0.0
 70
     8
  0
VERTEX
  5
58D
330
426
100
AcDbEntity
  8
0
  6
Continuous
 62
     7
100
AcDbVertex
100
AcDb2dVertex
 10
23323.203923
 20
-19721.247582
 30
0.0
 70
     8
  0
VERTEX
  5
58E
330
426
100
AcDbEntity
  8
0
  6
Continuous
 62
     7
100
AcDbVertex
100
AcDb2dVertex
 10
23324.186811
 20
-19720.947686
 30
0.0
 70
     8
  0
VERTEX
  5
58F
330
426
100
AcDbEntity
  8
0
  6
Continuous
 62
     7
100
AcDbVertex
100
AcDb2dVertex
 10
23325.210792
 20
-19720.61986699999
 30
0.0
 70
     8
  0
VERTEX
  5
590
330
426
100
AcDbEntity
  8
0
  6
Continuous
 62
     7
100
AcDbVertex
100
AcDb2dVertex
 10
23326.290749
 20
-19720.26023499999
 30
0.0
 70
     8
  0
VERTEX
  5
591
330
426
100
AcDbEntity
  8
0
  6
Continuous
 62
     7
100
AcDbVertex
100
AcDb2dVertex
 10
23327.436634
 20
-19719.866474
 30
0.0
 70
     8
  0
VERTEX
  5
592
330
426
100
AcDbEntity
  8
0
  6
Continuous
 62
     7
100
AcDbVertex
100
AcDb2dVertex
 10
23328.638702
 20
-19719.442562
 30
0.0
 70
     8
  0
VERTEX
  5
593
330
426
100
AcDbEntity
  8
0
  6
Continuous
 62
     7
100
AcDbVertex
100
AcDb2dVertex
 10
23329.882279
 20
-19718.994055
 30
0.0
 70
     8
  0
VERTEX
  5
594
330
426
100
AcDbEntity
  8
0
  6
Continuous
 62
     7
100
AcDbVertex
100
AcDb2dVertex
 10
23331.152695
 20
-19718.52650399999
 30
0.0
 70
     8
  0
VERTEX
  5
595
330
426
100
AcDbEntity
  8
0
  6
Continuous
 62
     7
100
AcDbVertex
100
AcDb2dVertex
 10
23332.435276
 20
-19718.045465
 30
0.0
 70
     8
  0
VERTEX
  5
596
330
426
100
AcDbEntity
  8
0
  6
Continuous
 62
     7
100
AcDbVertex
100
AcDb2dVertex
 10
23333.715351
 20
-19717.55649
 30
0.0
 70
     8
  0
VERTEX
  5
597
330
426
100
AcDbEntity
  8
0
  6
Continuous
 62
     7
100
AcDbVertex
100
AcDb2dVertex
 10
23334.978247
 20
-19717.065133
 30
0.0
 70
     8
  0
VERTEX
  5
598
330
426
100
AcDbEntity
  8
0
  6
Continuous
 62
     7
100
AcDbVertex
100
AcDb2dVertex
 10
23336.209294
 20
-19716.576948
 30
0.0
 70
     8
  0
VERTEX
  5
599
330
426
100
AcDbEntity
  8
0
  6
Continuous
 62
     7
100
AcDbVertex
100
AcDb2dVertex
 10
23337.393817
 20
-19716.097489
 30
0.0
 70
     8
  0
VERTEX
  5
59A
330
426
100
AcDbEntity
  8
0
  6
Continuous
 62
     7
100
AcDbVertex
100
AcDb2dVertex
 10
23338.517146
 20
-19715.632309
 30
0.0
 70
     8
  0
VERTEX
  5
59B
330
426
100
AcDbEntity
  8
0
  6
Continuous
 62
     7
100
AcDbVertex
100
AcDb2dVertex
 10
23339.569369
 20
-19715.184869
 30
0.0
 70
     8
  0
VERTEX
  5
59C
330
426
100
AcDbEntity
  8
0
  6
Continuous
 62
     7
100
AcDbVertex
100
AcDb2dVertex
 10
23340.559621
 20
-19714.750258
 30
0.0
 70
     8
  0
VERTEX
  5
59D
330
426
100
AcDbEntity
  8
0
  6
Continuous
 62
     7
100
AcDbVertex
100
AcDb2dVertex
 10
23341.501798
 20
-19714.321473
 30
0.0
 70
     8
  0
VERTEX
  5
59E
330
426
100
AcDbEntity
  8
0
  6
Continuous
 62
     7
100
AcDbVertex
100
AcDb2dVertex
 10
23342.409796
 20
-19713.89151
 30
0.0
 70
     8
  0
VERTEX
  5
59F
330
426
100
AcDbEntity
  8
0
  6
Continuous
 62
     7
100
AcDbVertex
100
AcDb2dVertex
 10
23343.297511
 20
-19713.453365
 30
0.0
 70
     8
  0
VERTEX
  5
5A0
330
426
100
AcDbEntity
  8
0
  6
Continuous
 62
     7
100
AcDbVertex
100
AcDb2dVertex
 10
23344.178838
 20
-19713.000034
 30
0.0
 70
     8
  0
VERTEX
  5
5A1
330
426
100
AcDbEntity
  8
0
  6
Continuous
 62
     7
100
AcDbVertex
100
AcDb2dVertex
 10
23345.067674
 20
-19712.524515
 30
0.0
 70
     8
  0
VERTEX
  5
5A2
330
426
100
AcDbEntity
  8
0
  6
Continuous
 62
     7
100
AcDbVertex
100
AcDb2dVertex
 10
23345.977914
 20
-19712.019803
 30
0.0
 70
     8
  0
VERTEX
  5
5A3
330
426
100
AcDbEntity
  8
0
  6
Continuous
 62
     7
100
AcDbVertex
100
AcDb2dVertex
 10
23346.923454
 20
-19711.478895
 30
0.0
 70
     8
  0
VERTEX
  5
5A4
330
426
100
AcDbEntity
  8
0
  6
Continuous
 62
     7
100
AcDbVertex
100
AcDb2dVertex
 10
23347.918191
 20
-19710.894787
 30
0.0
 70
     8
  0
VERTEX
  5
5A5
330
426
100
AcDbEntity
  8
0
  6
Continuous
 62
     7
100
AcDbVertex
100
AcDb2dVertex
 10
23348.971471
 20
-19710.263074
 30
0.0
 70
     8
  0
VERTEX
  5
5A6
330
426
100
AcDbEntity
  8
0
  6
Continuous
 62
     7
100
AcDbVertex
100
AcDb2dVertex
 10
23350.074448
 20
-19709.589749
 30
0.0
 70
     8
  0
VERTEX
  5
5A7
330
426
100
AcDbEntity
  8
0
  6
Continuous
 62
     7
100
AcDbVertex
100
AcDb2dVertex
 10
23351.213728
 20
-19708.883402
 30
0.0
 70
     8
  0
VERTEX
  5
5A8
330
426
100
AcDbEntity
  8
0
  6
Continuous
 62
     7
100
AcDbVertex
100
AcDb2dVertex
 10
23352.375916
 20
-19708.152623
 30
0.0
 70
     8
  0
VERTEX
  5
5A9
330
426
100
AcDbEntity
  8
0
  6
Continuous
 62
     7
100
AcDbVertex
100
AcDb2dVertex
 10
23353.547618
 20
-19707.406005
 30
0.0
 70
     8
  0
VERTEX
  5
5AA
330
426
100
AcDbEntity
  8
0
  6
Continuous
 62
     7
100
AcDbVertex
100
AcDb2dVertex
 10
23354.715439
 20
-19706.652137
 30
0.0
 70
     8
  0
VERTEX
  5
5AB
330
426
100
AcDbEntity
  8
0
  6
Continuous
 62
     7
100
AcDbVertex
100
AcDb2dVertex
 10
23355.865984
 20
-19705.89961
 30
0.0
 70
     8
  0
VERTEX
  5
5AC
330
426
100
AcDbEntity
  8
0
  6
Continuous
 62
     7
100
AcDbVertex
100
AcDb2dVertex
 10
23356.985859
 20
-19705.157015
 30
0.0
 70
     8
  0
VERTEX
  5
5AD
330
426
100
AcDbEntity
  8
0
  6
Continuous
 62
     7
100
AcDbVertex
100
AcDb2dVertex
 10
23358.061669
 20
-19704.432943
 30
0.0
 70
     8
  0
VERTEX
  5
5AE
330
426
100
AcDbEntity
  8
0
  6
Continuous
 62
     7
100
AcDbVertex
100
AcDb2dVertex
 10
23359.08002
 20
-19703.735984
 30
0.0
 70
     8
  0
VERTEX
  5
5AF
330
426
100
AcDbEntity
  8
0
  6
Continuous
 62
     7
100
AcDbVertex
100
AcDb2dVertex
 10
23360.031811
 20
-19703.071658
 30
0.0
 70
     8
  0
VERTEX
  5
5B0
330
426
100
AcDbEntity
  8
0
  6
Continuous
 62
     7
100
AcDbVertex
100
AcDb2dVertex
 10
23360.925121
 20
-19702.433188
 30
0.0
 70
     8
  0
VERTEX
  5
5B1
330
426
100
AcDbEntity
  8
0
  6
Continuous
 62
     7
100
AcDbVertex
100
AcDb2dVertex
 10
23361.772321
 20
-19701.810729
 30
0.0
 70
     8
  0
VERTEX
  5
5B2
330
426
100
AcDbEntity
  8
0
  6
Continuous
 62
     7
100
AcDbVertex
100
AcDb2dVertex
 10
23362.585786
 20
-19701.194433
 30
0.0
 70
     8
  0
VERTEX
  5
5B3
330
426
100
AcDbEntity
  8
0
  6
Continuous
 62
     7
100
AcDbVertex
100
AcDb2dVertex
 10
23363.377888
 20
-19700.574453
 30
0.0
 70
     8
  0
VERTEX
  5
5B4
330
426
100
AcDbEntity
  8
0
  6
Continuous
 62
     7
100
AcDbVertex
100
AcDb2dVertex
 10
23364.160998
 20
-19699.940943
 30
0.0
 70
     8
  0
VERTEX
  5
5B5
330
426
100
AcDbEntity
  8
0
  6
Continuous
 62
     7
100
AcDbVertex
100
AcDb2dVertex
 10
23364.947491
 20
-19699.284054
 30
0.0
 70
     8
  0
VERTEX
  5
5B6
330
426
100
AcDbEntity
  8
0
  6
Continuous
 62
     7
100
AcDbVertex
100
AcDb2dVertex
 10
23365.749738
 20
-19698.593941
 30
0.0
 70
     8
  0
VERTEX
  5
5B7
330
426
100
AcDbEntity
  8
0
  6
Continuous
 62
     7
100
AcDbVertex
100
AcDb2dVertex
 10
23366.580112
 20
-19697.860755
 30
0.0
 70
     8
  0
VERTEX
  5
5B8
330
426
100
AcDbEntity
  8
0
  6
Continuous
 62
     7
100
AcDbVertex
100
AcDb2dVertex
 10
23367.450986
 20
-19697.074651
 30
0.0
 70
     8
  0
VERTEX
  5
5B9
330
426
100
AcDbEntity
  8
0
  6
Continuous
 62
     7
100
AcDbVertex
100
AcDb2dVertex
 10
23368.370739
 20
-19696.229304
 30
0.0
 70
     8
  0
VERTEX
  5
5BA
330
426
100
AcDbEntity
  8
0
  6
Continuous
 62
     7
100
AcDbVertex
100
AcDb2dVertex
 10
23369.331767
 20
-19695.332488
 30
0.0
 70
     8
  0
VERTEX
  5
5BB
330
426
100
AcDbEntity
  8
0
  6
Continuous
 62
     7
100
AcDbVertex
100
AcDb2dVertex
 10
23370.322475
 20
-19694.395499
 30
0.0
 70
     8
  0
VERTEX
  5
5BC
330
426
100
AcDbEntity
  8
0
  6
Continuous
 62
     7
100
AcDbVertex
100
AcDb2dVertex
 10
23371.331266
 20
-19693.429636
 30
0.0
 70
     8
  0
VERTEX
  5
5BD
330
426
100
AcDbEntity
  8
0
  6
Continuous
 62
     7
100
AcDbVertex
100
AcDb2dVertex
 10
23372.346545
 20
-19692.446195
 30
0.0
 70
     8
  0
VERTEX
  5
5BE
330
426
100
AcDbEntity
  8
0
  6
Continuous
 62
     7
100
AcDbVertex
100
AcDb2dVertex
 10
23373.356713
 20
-19691.456473
 30
0.0
 70
     8
  0
VERTEX
  5
5BF
330
426
100
AcDbEntity
  8
0
  6
Continuous
 62
     7
100
AcDbVertex
100
AcDb2dVertex
 10
23374.350176
 20
-19690.471767
 30
0.0
 70
     8
  0
VERTEX
  5
5C0
330
426
100
AcDbEntity
  8
0
  6
Continuous
 62
     7
100
AcDbVertex
100
AcDb2dVertex
 10
23375.315337
 20
-19689.503374
 30
0.0
 70
     8
  0
VERTEX
  5
5C1
330
426
100
AcDbEntity
  8
0
  6
Continuous
 62
     7
100
AcDbVertex
100
AcDb2dVertex
 10
23376.240598
 20
-19688.562591
 30
0.0
 70
     8
  0
VERTEX
  5
5C2
330
426
100
AcDbEntity
  8
0
  6
Continuous
 62
     7
100
AcDbVertex
100
AcDb2dVertex
 10
23377.114365
 20
-19687.660716
 30
0.0
 70
     8
  0
VERTEX
  5
5C3
330
426
100
AcDbEntity
  8
0
  6
Continuous
 62
     7
100
AcDbVertex
100
AcDb2dVertex
 10
23377.928701
 20
-19686.80511
 30
0.0
 70
     8
  0
VERTEX
  5
5C4
330
426
100
AcDbEntity
  8
0
  6
Continuous
 62
     7
100
AcDbVertex
100
AcDb2dVertex
 10
23378.690312
 20
-19685.98739799999
 30
0.0
 70
     8
  0
VERTEX
  5
5C5
330
426
100
AcDbEntity
  8
0
  6
Continuous
 62
     7
100
AcDbVertex
100
AcDb2dVertex
 10
23379.409569
 20
-19685.195271
 30
0.0
 70
     8
  0
VERTEX
  5
5C6
330
426
100
AcDbEntity
  8
0
  6
Continuous
 62
     7
100
AcDbVertex
100
AcDb2dVertex
 10
23380.096837
 20
-19684.416417
 30
0.0
 70
     8
  0
VERTEX
  5
5C7
330
426
100
AcDbEntity
  8
0
  6
Continuous
 62
     7
100
AcDbVertex
100
AcDb2dVertex
 10
23380.762485
 20
-19683.638527
 30
0.0
 70
     8
  0
VERTEX
  5
5C8
330
426
100
AcDbEntity
  8
0
  6
Continuous
 62
     7
100
AcDbVertex
100
AcDb2dVertex
 10
23381.416882
 20
-19682.84929
 30
0.0
 70
     8
  0
VERTEX
  5
5C9
330
426
100
AcDbEntity
  8
0
  6
Continuous
 62
     7
100
AcDbVertex
100
AcDb2dVertex
 10
23382.070395
 20
-19682.036397
 30
0.0
 70
     8
  0
VERTEX
  5
5CA
330
426
100
AcDbEntity
  8
0
  6
Continuous
 62
     7
100
AcDbVertex
100
AcDb2dVertex
 10
23382.733391
 20
-19681.187537
 30
0.0
 70
     8
  0
VERTEX
  5
5CB
330
426
100
AcDbEntity
  8
0
  6
Continuous
 62
     7
100
AcDbVertex
100
AcDb2dVertex
 10
23383.416239
 20
-19680.290399
 30
0.0
 70
     8
  0
VERTEX
  5
5CC
330
426
100
AcDbEntity
  8
0
  6
Continuous
 62
     7
100
AcDbVertex
100
AcDb2dVertex
 10
23384.129307
 20
-19679.332675
 30
0.0
 70
     8
  0
VERTEX
  5
5CD
330
426
100
AcDbEntity
  8
0
  6
Continuous
 62
     7
100
AcDbVertex
100
AcDb2dVertex
 10
23384.879678
 20
-19678.306365
 30
0.0
 70
     8
  0
VERTEX
  5
5CE
330
426
100
AcDbEntity
  8
0
  6
Continuous
 62
     7
100
AcDbVertex
100
AcDb2dVertex
 10
23385.66129
 20
-19677.220725
 30
0.0
 70
     8
  0
VERTEX
  5
5CF
330
426
100
AcDbEntity
  8
0
  6
Continuous
 62
     7
100
AcDbVertex
100
AcDb2dVertex
 10
23386.464797
 20
-19676.08932
 30
0.0
 70
     8
  0
VERTEX
  5
5D0
330
426
100
AcDbEntity
  8
0
  6
Continuous
 62
     7
100
AcDbVertex
100
AcDb2dVertex
 10
23387.280855
 20
-19674.925717
 30
0.0
 70
     8
  0
VERTEX
  5
5D1
330
426
100
AcDbEntity
  8
0
  6
Continuous
 62
     7
100
AcDbVertex
100
AcDb2dVertex
 10
23388.100116
 20
-19673.743482
 30
0.0
 70
     8
  0
VERTEX
  5
5D2
330
426
100
AcDbEntity
  8
0
  6
Continuous
 62
     7
100
AcDbVertex
100
AcDb2dVertex
 10
23388.913236
 20
-19672.556182
 30
0.0
 70
     8
  0
VERTEX
  5
5D3
330
426
100
AcDbEntity
  8
0
  6
Continuous
 62
     7
100
AcDbVertex
100
AcDb2dVertex
 10
23389.710867
 20
-19671.377383
 30
0.0
 70
     8
  0
VERTEX
  5
5D4
330
426
100
AcDbEntity
  8
0
  6
Continuous
 62
     7
100
AcDbVertex
100
AcDb2dVertex
 10
23390.483664
 20
-19670.220652
 30
0.0
 70
     8
  0
VERTEX
  5
5D5
330
426
100
AcDbEntity
  8
0
  6
Continuous
 62
     7
100
AcDbVertex
100
AcDb2dVertex
 10
23391.222281
 20
-19669.099555
 30
0.0
 70
     8
  0
VERTEX
  5
5D6
330
426
100
AcDbEntity
  8
0
  6
Continuous
 62
     7
100
AcDbVertex
100
AcDb2dVertex
 10
23391.917371
 20
-19668.027658
 30
0.0
 70
     8
  0
VERTEX
  5
5D7
330
426
100
AcDbEntity
  8
0
  6
Continuous
 62
     7
100
AcDbVertex
100
AcDb2dVertex
 10
23392.562474
 20
-19667.013884
 30
0.0
 70
     8
  0
VERTEX
  5
5D8
330
426
100
AcDbEntity
  8
0
  6
Continuous
 62
     7
100
AcDbVertex
100
AcDb2dVertex
 10
23393.162664
 20
-19666.048581
 30
0.0
 70
     8
  0
VERTEX
  5
5D9
330
426
100
AcDbEntity
  8
0
  6
Continuous
 62
     7
100
AcDbVertex
100
AcDb2dVertex
 10
23393.725898
 20
-19665.117452
 30
0.0
 70
     8
  0
VERTEX
  5
5DA
330
426
100
AcDbEntity
  8
0
  6
Continuous
 62
     7
100
AcDbVertex
100
AcDb2dVertex
 10
23394.260136
 20
-19664.206201
 30
0.0
 70
     8
  0
VERTEX
  5
5DB
330
426
100
AcDbEntity
  8
0
  6
Continuous
 62
     7
100
AcDbVertex
100
AcDb2dVertex
 10
23394.773337
 20
-19663.300532
 30
0.0
 70
     8
  0
VERTEX
  5
5DC
330
426
100
AcDbEntity
  8
0
  6
Continuous
 62
     7
100
AcDbVertex
100
AcDb2dVertex
 10
23395.273458
 20
-19662.386148
 30
0.0
 70
     8
  0
VERTEX
  5
5DD
330
426
100
AcDbEntity
  8
0
  6
Continuous
 62
     7
100
AcDbVertex
100
AcDb2dVertex
 10
23395.768459
 20
-19661.448752
 30
0.0
 70
     8
  0
VERTEX
  5
5DE
330
426
100
AcDbEntity
  8
0
  6
Continuous
 62
     7
100
AcDbVertex
100
AcDb2dVertex
 10
23396.266298
 20
-19660.474049
 30
0.0
 70
     8
  0
VERTEX
  5
5DF
330
426
100
AcDbEntity
  8
0
  6
Continuous
 62
     7
100
AcDbVertex
100
AcDb2dVertex
 10
23396.774934
 20
-19659.447743
 30
0.0
 70
     8
  0
VERTEX
  5
5E0
330
426
100
AcDbEntity
  8
0
  6
Continuous
 62
     7
100
AcDbVertex
100
AcDb2dVertex
 10
23397.302324
 20
-19658.355536
 30
0.0
 70
     8
  0
VERTEX
  5
5E1
330
426
100
AcDbEntity
  8
0
  6
Continuous
 62
     7
100
AcDbVertex
100
AcDb2dVertex
 10
23397.853981
 20
-19657.188067
 30
0.0
 70
     8
  0
VERTEX
  5
5E2
330
426
100
AcDbEntity
  8
0
  6
Continuous
 62
     7
100
AcDbVertex
100
AcDb2dVertex
 10
23398.425621
 20
-19655.955712
 30
0.0
 70
     8
  0
VERTEX
  5
5E3
330
426
100
AcDbEntity
  8
0
  6
Continuous
 62
     7
100
AcDbVertex
100
AcDb2dVertex
 10
23399.010514
 20
-19654.673778
 30
0.0
 70
     8
  0
VERTEX
  5
5E4
330
426
100
AcDbEntity
  8
0
  6
Continuous
 62
     7
100
AcDbVertex
100
AcDb2dVertex
 10
23399.601931
 20
-19653.357577
 30
0.0
 70
     8
  0
VERTEX
  5
5E5
330
426
100
AcDbEntity
  8
0
  6
Continuous
 62
     7
100
AcDbVertex
100
AcDb2dVertex
 10
23400.193142
 20
-19652.022416
 30
0.0
 70
     8
  0
VERTEX
  5
5E6
330
426
100
AcDbEntity
  8
0
  6
Continuous
 62
     7
100
AcDbVertex
100
AcDb2dVertex
 10
23400.777416
 20
-19650.683607
 30
0.0
 70
     8
  0
VERTEX
  5
5E7
330
426
100
AcDbEntity
  8
0
  6
Continuous
 62
     7
100
AcDbVertex
100
AcDb2dVertex
 10
23401.348023
 20
-19649.356458
 30
0.0
 70
     8
  0
VERTEX
  5
5E8
330
426
100
AcDbEntity
  8
0
  6
Continuous
 62
     7
100
AcDbVertex
100
AcDb2dVertex
 10
23401.898234
 20
-19648.056278
 30
0.0
 70
     8
  0
VERTEX
  5
5E9
330
426
100
AcDbEntity
  8
0
  6
Continuous
 62
     7
100
AcDbVertex
100
AcDb2dVertex
 10
23402.421317
 20
-19646.798378
 30
0.0
 70
     8
  0
VERTEX
  5
5EA
330
426
100
AcDbEntity
  8
0
  6
Continuous
 62
     7
100
AcDbVertex
100
AcDb2dVertex
 10
23402.910544
 20
-19645.598066
 30
0.0
 70
     8
  0
VERTEX
  5
5EB
330
426
100
AcDbEntity
  8
0
  6
Continuous
 62
     7
100
AcDbVertex
100
AcDb2dVertex
 10
23403.361178
 20
-19644.465479
 30
0.0
 70
     8
  0
VERTEX
  5
5EC
330
426
100
AcDbEntity
  8
0
  6
Continuous
 62
     7
100
AcDbVertex
100
AcDb2dVertex
 10
23403.776463
 20
-19643.390063
 30
0.0
 70
     8
  0
VERTEX
  5
5ED
330
426
100
AcDbEntity
  8
0
  6
Continuous
 62
     7
100
AcDbVertex
100
AcDb2dVertex
 10
23404.161637
 20
-19642.35609
 30
0.0
 70
     8
  0
VERTEX
  5
5EE
330
426
100
AcDbEntity
  8
0
  6
Continuous
 62
     7
100
AcDbVertex
100
AcDb2dVertex
 10
23404.521938
 20
-19641.347834
 30
0.0
 70
     8
  0
VERTEX
  5
5EF
330
426
100
AcDbEntity
  8
0
  6
Continuous
 62
     7
100
AcDbVertex
100
AcDb2dVertex
 10
23404.862604
 20
-19640.349567
 30
0.0
 70
     8
  0
VERTEX
  5
5F0
330
426
100
AcDbEntity
  8
0
  6
Continuous
 62
     7
100
AcDbVertex
100
AcDb2dVertex
 10
23405.188872
 20
-19639.345562
 30
0.0
 70
     8
  0
VERTEX
  5
5F1
330
426
100
AcDbEntity
  8
0
  6
Continuous
 62
     7
100
AcDbVertex
100
AcDb2dVertex
 10
23405.505981
 20
-19638.320093
 30
0.0
 70
     8
  0
VERTEX
  5
5F2
330
426
100
AcDbEntity
  8
0
  6
Continuous
 62
     7
100
AcDbVertex
100
AcDb2dVertex
 10
23405.819168
 20
-19637.257431
 30
0.0
 70
     8
  0
VERTEX
  5
5F3
330
426
100
AcDbEntity
  8
0
  6
Continuous
 62
     7
100
AcDbVertex
100
AcDb2dVertex
 10
23406.133672
 20
-19636.141849
 30
0.0
 70
     8
  0
VERTEX
  5
5F4
330
426
100
AcDbEntity
  8
0
  6
Continuous
 62
     7
100
AcDbVertex
100
AcDb2dVertex
 10
23406.454731
 20
-19634.957621
 30
0.0
 70
     8
  0
VERTEX
  5
5F5
330
426
100
AcDbEntity
  8
0
  6
Continuous
 62
     7
100
AcDbVertex
100
AcDb2dVertex
 10
23406.786067
 20
-19633.694383
 30
0.0
 70
     8
  0
VERTEX
  5
5F6
330
426
100
AcDbEntity
  8
0
  6
Continuous
 62
     7
100
AcDbVertex
100
AcDb2dVertex
 10
23407.125346
 20
-19632.363229
 30
0.0
 70
     8
  0
VERTEX
  5
5F7
330
426
100
AcDbEntity
  8
0
  6
Continuous
 62
     7
100
AcDbVertex
100
AcDb2dVertex
 10
23407.468715
 20
-19630.980615
 30
0.0
 70
     8
  0
VERTEX
  5
5F8
330
426
100
AcDbEntity
  8
0
  6
Continuous
 62
     7
100
AcDbVertex
100
AcDb2dVertex
 10
23407.812326
 20
-19629.562998
 30
0.0
 70
     8
  0
VERTEX
  5
5F9
330
426
100
AcDbEntity
  8
0
  6
Continuous
 62
     7
100
AcDbVertex
100
AcDb2dVertex
 10
23408.152326
 20
-19628.126836
 30
0.0
 70
     8
  0
VERTEX
  5
5FA
330
426
100
AcDbEntity
  8
0
  6
Continuous
 62
     7
100
AcDbVertex
100
AcDb2dVertex
 10
23408.484867
 20
-19626.688585
 30
0.0
 70
     8
  0
VERTEX
  5
5FB
330
426
100
AcDbEntity
  8
0
  6
Continuous
 62
     7
100
AcDbVertex
100
AcDb2dVertex
 10
23408.806096
 20
-19625.264703
 30
0.0
 70
     8
  0
VERTEX
  5
5FC
330
426
100
AcDbEntity
  8
0
  6
Continuous
 62
     7
100
AcDbVertex
100
AcDb2dVertex
 10
23409.112165
 20
-19623.871647
 30
0.0
 70
     8
  0
VERTEX
  5
5FD
330
426
100
AcDbEntity
  8
0
  6
Continuous
 62
     7
100
AcDbVertex
100
AcDb2dVertex
 10
23409.399221
 20
-19622.525873
 30
0.0
 70
     8
  0
VERTEX
  5
5FE
330
426
100
AcDbEntity
  8
0
  6
Continuous
 62
     7
100
AcDbVertex
100
AcDb2dVertex
 10
23409.663415
 20
-19621.243839
 30
0.0
 70
     8
  0
VERTEX
  5
5FF
330
426
100
AcDbEntity
  8
0
  6
Continuous
 62
     7
100
AcDbVertex
100
AcDb2dVertex
 10
23409.901923
 20
-19620.036501
 30
0.0
 70
     8
  0
VERTEX
  5
600
330
426
100
AcDbEntity
  8
0
  6
Continuous
 62
     7
100
AcDbVertex
100
AcDb2dVertex
 10
23410.11603
 20
-19618.892814
 30
0.0
 70
     8
  0
VERTEX
  5
601
330
426
100
AcDbEntity
  8
0
  6
Continuous
 62
     7
100
AcDbVertex
100
AcDb2dVertex
 10
23410.308049
 20
-19617.796231
 30
0.0
 70
     8
  0
VERTEX
  5
602
330
426
100
AcDbEntity
  8
0
  6
Continuous
 62
     7
100
AcDbVertex
100
AcDb2dVertex
 10
23410.480291
 20
-19616.730208
 30
0.0
 70
     8
  0
VERTEX
  5
603
330
426
100
AcDbEntity
  8
0
  6
Continuous
 62
     7
100
AcDbVertex
100
AcDb2dVertex
 10
23410.635068
 20
-19615.678196
 30
0.0
 70
     8
  0
VERTEX
  5
604
330
426
100
AcDbEntity
  8
0
  6
Continuous
 62
     7
100
AcDbVertex
100
AcDb2dVertex
 10
23410.774694
 20
-19614.623652
 30
0.0
 70
     8
  0
VERTEX
  5
605
330
426
100
AcDbEntity
  8
0
  6
Continuous
 62
     7
100
AcDbVertex
100
AcDb2dVertex
 10
23410.901479
 20
-19613.550028
 30
0.0
 70
     8
  0
VERTEX
  5
606
330
426
100
AcDbEntity
  8
0
  6
Continuous
 62
     7
100
AcDbVertex
100
AcDb2dVertex
 10
23411.017736
 20
-19612.440778
 30
0.0
 70
     8
  0
VERTEX
  5
607
330
426
100
AcDbEntity
  8
0
  6
Continuous
 62
     7
100
AcDbVertex
100
AcDb2dVertex
 10
23411.125777
 20
-19611.279358
 30
0.0
 70
     8
  0
VERTEX
  5
608
330
426
100
AcDbEntity
  8
0
  6
Continuous
 62
     7
100
AcDbVertex
100
AcDb2dVertex
 10
23411.227915
 20
-19610.049219
 30
0.0
 70
     8
  0
VERTEX
  5
609
330
426
100
AcDbEntity
  8
0
  6
Continuous
 62
     7
100
AcDbVertex
100
AcDb2dVertex
 10
23411.325939
 20
-19608.739402
 30
0.0
 70
     8
  0
VERTEX
  5
60A
330
426
100
AcDbEntity
  8
0
  6
Continuous
 62
     7
100
AcDbVertex
100
AcDb2dVertex
 10
23411.419552
 20
-19607.361286
 30
0.0
 70
     8
  0
VERTEX
  5
60B
330
426
100
AcDbEntity
  8
0
  6
Continuous
 62
     7
100
AcDbVertex
100
AcDb2dVertex
 10
23411.507933
 20
-19605.931833
 30
0.0
 70
     8
  0
VERTEX
  5
60C
330
426
100
AcDbEntity
  8
0
  6
Continuous
 62
     7
100
AcDbVertex
100
AcDb2dVertex
 10
23411.590263
 20
-19604.468008
 30
0.0
 70
     8
  0
VERTEX
  5
60D
330
426
100
AcDbEntity
  8
0
  6
Continuous
 62
     7
100
AcDbVertex
100
AcDb2dVertex
 10
23411.665721
 20
-19602.986774
 30
0.0
 70
     8
  0
VERTEX
  5
60E
330
426
100
AcDbEntity
  8
0
  6
Continuous
 62
     7
100
AcDbVertex
100
AcDb2dVertex
 10
23411.733488
 20
-19601.505096
 30
0.0
 70
     8
  0
VERTEX
  5
60F
330
426
100
AcDbEntity
  8
0
  6
Continuous
 62
     7
100
AcDbVertex
100
AcDb2dVertex
 10
23411.792742
 20
-19600.039937
 30
0.0
 70
     8
  0
VERTEX
  5
610
330
426
100
AcDbEntity
  8
0
  6
Continuous
 62
     7
100
AcDbVertex
100
AcDb2dVertex
 10
23411.842666
 20
-19598.60826
 30
0.0
 70
     8
  0
VERTEX
  5
611
330
426
100
AcDbEntity
  8
0
  6
Continuous
 62
     7
100
AcDbVertex
100
AcDb2dVertex
 10
23411.882437
 20
-19597.227029
 30
0.0
 70
     8
  0
VERTEX
  5
612
330
426
100
AcDbEntity
  8
0
  6
Continuous
 62
     7
100
AcDbVertex
100
AcDb2dVertex
 10
23411.911237
 20
-19595.913209
 30
0.0
 70
     8
  0
VERTEX
  5
613
330
426
100
AcDbEntity
  8
0
  6
Continuous
 62
     7
100
AcDbVertex
100
AcDb2dVertex
 10
23411.928265
 20
-19594.678149
 30
0.0
 70
     8
  0
VERTEX
  5
614
330
426
100
AcDbEntity
  8
0
  6
Continuous
 62
     7
100
AcDbVertex
100
AcDb2dVertex
 10
23411.932797
 20
-19593.510742
 30
0.0
 70
     8
  0
VERTEX
  5
615
330
426
100
AcDbEntity
  8
0
  6
Continuous
 62
     7
100
AcDbVertex
100
AcDb2dVertex
 10
23411.924129
 20
-19592.394268
 30
0.0
 70
     8
  0
VERTEX
  5
616
330
426
100
AcDbEntity
  8
0
  6
Continuous
 62
     7
100
AcDbVertex
100
AcDb2dVertex
 10
23411.901556
 20
-19591.312006
 30
0.0
 70
     8
  0
VERTEX
  5
617
330
426
100
AcDbEntity
  8
0
  6
Continuous
 62
     7
100
AcDbVertex
100
AcDb2dVertex
 10
23411.864374
 20
-19590.247237
 30
0.0
 70
     8
  0
VERTEX
  5
618
330
426
100
AcDbEntity
  8
0
  6
Continuous
 62
     7
100
AcDbVertex
100
AcDb2dVertex
 10
23411.811879
 20
-19589.183239
 30
0.0
 70
     8
  0
VERTEX
  5
619
330
426
100
AcDbEntity
  8
0
  6
Continuous
 62
     7
100
AcDbVertex
100
AcDb2dVertex
 10
23411.743367
 20
-19588.103293
 30
0.0
 70
     8
  0
VERTEX
  5
61A
330
426
100
AcDbEntity
  8
0
  6
Continuous
 62
     7
100
AcDbVertex
100
AcDb2dVertex
 10
23411.658133
 20
-19586.990678
 30
0.0
 70
     8
  0
VERTEX
  5
61B
330
426
100
AcDbEntity
  8
0
  6
Continuous
 62
     7
100
AcDbVertex
100
AcDb2dVertex
 10
23411.555473
 20
-19585.828673
 30
0.0
 70
     8
  0
VERTEX
  5
61C
330
426
100
AcDbEntity
  8
0
  6
Continuous
 62
     7
100
AcDbVertex
100
AcDb2dVertex
 10
23411.434683
 20
-19584.600558
 30
0.0
 70
     8
  0
VERTEX
  5
61D
330
426
100
AcDbEntity
  8
0
  6
Continuous
 62
     7
100
AcDbVertex
100
AcDb2dVertex
 10
23411.295549
 20
-19583.295201
 30
0.0
 70
     8
  0
VERTEX
  5
61E
330
426
100
AcDbEntity
  8
0
  6
Continuous
 62
     7
100
AcDbVertex
100
AcDb2dVertex
 10
23411.139824
 20
-19581.923822
 30
0.0
 70
     8
  0
VERTEX
  5
61F
330
426
100
AcDbEntity
  8
0
  6
Continuous
 62
     7
100
AcDbVertex
100
AcDb2dVertex
 10
23410.969749
 20
-19580.503233
 30
0.0
 70
     8
  0
VERTEX
  5
620
330
426
100
AcDbEntity
  8
0
  6
Continuous
 62
     7
100
AcDbVertex
100
AcDb2dVertex
 10
23410.787568
 20
-19579.05024
 30
0.0
 70
     8
  0
VERTEX
  5
621
330
426
100
AcDbEntity
  8
0
  6
Continuous
 62
     7
100
AcDbVertex
100
AcDb2dVertex
 10
23410.595523
 20
-19577.581655
 30
0.0
 70
     8
  0
VERTEX
  5
622
330
426
100
AcDbEntity
  8
0
  6
Continuous
 62
     7
100
AcDbVertex
100
AcDb2dVertex
 10
23410.395857
 20
-19576.114287
 30
0.0
 70
     8
  0
VERTEX
  5
623
330
426
100
AcDbEntity
  8
0
  6
Continuous
 62
     7
100
AcDbVertex
100
AcDb2dVertex
 10
23410.190813
 20
-19574.664944
 30
0.0
 70
     8
  0
VERTEX
  5
624
330
426
100
AcDbEntity
  8
0
  6
Continuous
 62
     7
100
AcDbVertex
100
AcDb2dVertex
 10
23409.982633
 20
-19573.250437
 30
0.0
 70
     8
  0
VERTEX
  5
625
330
426
100
AcDbEntity
  8
0
  6
Continuous
 62
     7
100
AcDbVertex
100
AcDb2dVertex
 10
23409.773559
 20
-19571.887574
 30
0.0
 70
     8
  0
VERTEX
  5
626
330
426
100
AcDbEntity
  8
0
  6
Continuous
 62
     7
100
AcDbVertex
100
AcDb2dVertex
 10
23409.565836
 20
-19570.593166
 30
0.0
 70
     8
  0
VERTEX
  5
627
330
426
100
AcDbEntity
  8
0
  6
Continuous
 62
     7
100
AcDbVertex
100
AcDb2dVertex
 10
23409.360715
 20
-19569.378512
 30
0.0
 70
     8
  0
VERTEX
  5
628
330
426
100
AcDbEntity
  8
0
  6
Continuous
 62
     7
100
AcDbVertex
100
AcDb2dVertex
 10
23409.155494
 20
-19568.232878
 30
0.0
 70
     8
  0
VERTEX
  5
629
330
426
100
AcDbEntity
  8
0
  6
Continuous
 62
     7
100
AcDbVertex
100
AcDb2dVertex
 10
23408.946479
 20
-19567.140021
 30
0.0
 70
     8
  0
VERTEX
  5
62A
330
426
100
AcDbEntity
  8
0
  6
Continuous
 62
     7
100
AcDbVertex
100
AcDb2dVertex
 10
23408.729977
 20
-19566.08369699999
 30
0.0
 70
     8
  0
VERTEX
  5
62B
330
426
100
AcDbEntity
  8
0
  6
Continuous
 62
     7
100
AcDbVertex
100
AcDb2dVertex
 10
23408.502294
 20
-19565.047662
 30
0.0
 70
     8
  0
VERTEX
  5
62C
330
426
100
AcDbEntity
  8
0
  6
Continuous
 62
     7
100
AcDbVertex
100
AcDb2dVertex
 10
23408.259739
 20
-19564.015674
 30
0.0
 70
     8
  0
VERTEX
  5
62D
330
426
100
AcDbEntity
  8
0
  6
Continuous
 62
     7
100
AcDbVertex
100
AcDb2dVertex
 10
23407.998617
 20
-19562.971488
 30
0.0
 70
     8
  0
VERTEX
  5
62E
330
426
100
AcDbEntity
  8
0
  6
Continuous
 62
     7
100
AcDbVertex
100
AcDb2dVertex
 10
23407.715235
 20
-19561.898861
 30
0.0
 70
     8
  0
VERTEX
  5
62F
330
426
100
AcDbEntity
  8
0
  6
Continuous
 62
     7
100
AcDbVertex
100
AcDb2dVertex
 10
23407.405901
 20
-19560.781551
 30
0.0
 70
     8
  0
VERTEX
  5
630
330
426
100
AcDbEntity
  8
0
  6
Continuous
 62
     7
100
AcDbVertex
100
AcDb2dVertex
 10
23407.066922
 20
-19559.603313
 30
0.0
 70
     8
  0
VERTEX
  5
631
330
426
100
AcDbEntity
  8
0
  6
Continuous
 62
     7
100
AcDbVertex
100
AcDb2dVertex
 10
23406.696088
 20
-19558.353277
 30
0.0
 70
     8
  0
VERTEX
  5
632
330
426
100
AcDbEntity
  8
0
  6
Continuous
 62
     7
100
AcDbVertex
100
AcDb2dVertex
 10
23406.297133
 20
-19557.04207
 30
0.0
 70
     8
  0
VERTEX
  5
633
330
426
100
AcDbEntity
  8
0
  6
Continuous
 62
     7
100
AcDbVertex
100
AcDb2dVertex
 10
23405.875274
 20
-19555.685693
 30
0.0
 70
     8
  0
VERTEX
  5
634
330
426
100
AcDbEntity
  8
0
  6
Continuous
 62
     7
100
AcDbVertex
100
AcDb2dVertex
 10
23405.435729
 20
-19554.300145
 30
0.0
 70
     8
  0
VERTEX
  5
635
330
426
100
AcDbEntity
  8
0
  6
Continuous
 62
     7
100
AcDbVertex
100
AcDb2dVertex
 10
23404.983714
 20
-19552.901426
 30
0.0
 70
     8
  0
VERTEX
  5
636
330
426
100
AcDbEntity
  8
0
  6
Continuous
 62
     7
100
AcDbVertex
100
AcDb2dVertex
 10
23404.524448
 20
-19551.505537
 30
0.0
 70
     8
  0
VERTEX
  5
637
330
426
100
AcDbEntity
  8
0
  6
Continuous
 62
     7
100
AcDbVertex
100
AcDb2dVertex
 10
23404.063147
 20
-19550.128477
 30
0.0
 70
     8
  0
VERTEX
  5
638
330
426
100
AcDbEntity
  8
0
  6
Continuous
 62
     7
100
AcDbVertex
100
AcDb2dVertex
 10
23403.605029
 20
-19548.786248
 30
0.0
 70
     8
  0
VERTEX
  5
639
330
426
100
AcDbEntity
  8
0
  6
Continuous
 62
     7
100
AcDbVertex
100
AcDb2dVertex
 10
23403.155312
 20
-19547.494848
 30
0.0
 70
     8
  0
VERTEX
  5
63A
330
426
100
AcDbEntity
  8
0
  6
Continuous
 62
     7
100
AcDbVertex
100
AcDb2dVertex
 10
23402.719213
 20
-19546.270278
 30
0.0
 70
     8
  0
VERTEX
  5
63B
330
426
100
AcDbEntity
  8
0
  6
Continuous
 62
     7
100
AcDbVertex
100
AcDb2dVertex
 10
23402.29999
 20
-19545.12335
 30
0.0
 70
     8
  0
VERTEX
  5
63C
330
426
100
AcDbEntity
  8
0
  6
Continuous
 62
     7
100
AcDbVertex
100
AcDb2dVertex
 10
23401.893065
 20
-19544.044118
 30
0.0
 70
     8
  0
VERTEX
  5
63D
330
426
100
AcDbEntity
  8
0
  6
Continuous
 62
     7
100
AcDbVertex
100
AcDb2dVertex
 10
23401.491902
 20
-19543.017448
 30
0.0
 70
     8
  0
VERTEX
  5
63E
330
426
100
AcDbEntity
  8
0
  6
Continuous
 62
     7
100
AcDbVertex
100
AcDb2dVertex
 10
23401.089962
 20
-19542.028206
 30
0.0
 70
     8
  0
VERTEX
  5
63F
330
426
100
AcDbEntity
  8
0
  6
Continuous
 62
     7
100
AcDbVertex
100
AcDb2dVertex
 10
23400.680708
 20
-19541.061258
 30
0.0
 70
     8
  0
VERTEX
  5
640
330
426
100
AcDbEntity
  8
0
  6
Continuous
 62
     7
100
AcDbVertex
100
AcDb2dVertex
 10
23400.257604
 20
-19540.10147
 30
0.0
 70
     8
  0
VERTEX
  5
641
330
426
100
AcDbEntity
  8
0
  6
Continuous
 62
     7
100
AcDbVertex
100
AcDb2dVertex
 10
23399.814111
 20
-19539.133708
 30
0.0
 70
     8
  0
VERTEX
  5
642
330
426
100
AcDbEntity
  8
0
  6
Continuous
 62
     7
100
AcDbVertex
100
AcDb2dVertex
 10
23399.343694
 20
-19538.142838
 30
0.0
 70
     8
  0
VERTEX
  5
643
330
426
100
AcDbEntity
  8
0
  6
Continuous
 62
     7
100
AcDbVertex
100
AcDb2dVertex
 10
23398.839814
 20
-19537.113726
 30
0.0
 70
     8
  0
VERTEX
  5
644
330
426
100
AcDbEntity
  8
0
  6
Continuous
 62
     7
100
AcDbVertex
100
AcDb2dVertex
 10
23398.295935
 20
-19536.031237
 30
0.0
 70
     8
  0
VERTEX
  5
645
330
426
100
AcDbEntity
  8
0
  6
Continuous
 62
     7
100
AcDbVertex
100
AcDb2dVertex
 10
23397.70794
 20
-19534.885189
 30
0.0
 70
     8
  0
VERTEX
  5
646
330
426
100
AcDbEntity
  8
0
  6
Continuous
 62
     7
100
AcDbVertex
100
AcDb2dVertex
 10
23397.081395
 20
-19533.685199
 30
0.0
 70
     8
  0
VERTEX
  5
647
330
426
100
AcDbEntity
  8
0
  6
Continuous
 62
     7
100
AcDbVertex
100
AcDb2dVertex
 10
23396.424289
 20
-19532.445835
 30
0.0
 70
     8
  0
VERTEX
  5
648
330
426
100
AcDbEntity
  8
0
  6
Continuous
 62
     7
100
AcDbVertex
100
AcDb2dVertex
 10
23395.74461
 20
-19531.181665
 30
0.0
 70
     8
  0
VERTEX
  5
649
330
426
100
AcDbEntity
  8
0
  6
Continuous
 62
     7
100
AcDbVertex
100
AcDb2dVertex
 10
23395.050344
 20
-19529.907257
 30
0.0
 70
     8
  0
VERTEX
  5
64A
330
426
100
AcDbEntity
  8
0
  6
Continuous
 62
     7
100
AcDbVertex
100
AcDb2dVertex
 10
23394.349479
 20
-19528.63718
 30
0.0
 70
     8
  0
VERTEX
  5
64B
330
426
100
AcDbEntity
  8
0
  6
Continuous
 62
     7
100
AcDbVertex
100
AcDb2dVertex
 10
23393.650004
 20
-19527.386
 30
0.0
 70
     8
  0
VERTEX
  5
64C
330
426
100
AcDbEntity
  8
0
  6
Continuous
 62
     7
100
AcDbVertex
100
AcDb2dVertex
 10
23392.959905
 20
-19526.168288
 30
0.0
 70
     8
  0
VERTEX
  5
64D
330
426
100
AcDbEntity
  8
0
  6
Continuous
 62
     7
100
AcDbVertex
100
AcDb2dVertex
 10
23392.28717
 20
-19524.998609
 30
0.0
 70
     8
  0
VERTEX
  5
64E
330
426
100
AcDbEntity
  8
0
  6
Continuous
 62
     7
100
AcDbVertex
100
AcDb2dVertex
 10
23391.639788
 20
-19523.891534
 30
0.0
 70
     8
  0
VERTEX
  5
64F
330
426
100
AcDbEntity
  8
0
  6
Continuous
 62
     7
100
AcDbVertex
100
AcDb2dVertex
 10
23391.022893
 20
-19522.856962
 30
0.0
 70
     8
  0
VERTEX
  5
650
330
426
100
AcDbEntity
  8
0
  6
Continuous
 62
     7
100
AcDbVertex
100
AcDb2dVertex
 10
23390.430212
 20
-19521.886124
 30
0.0
 70
     8
  0
VERTEX
  5
651
330
426
100
AcDbEntity
  8
0
  6
Continuous
 62
     7
100
AcDbVertex
100
AcDb2dVertex
 10
23389.85262
 20
-19520.965585
 30
0.0
 70
     8
  0
VERTEX
  5
652
330
426
100
AcDbEntity
  8
0
  6
Continuous
 62
     7
100
AcDbVertex
100
AcDb2dVertex
 10
23389.280991
 20
-19520.081908
 30
0.0
 70
     8
  0
VERTEX
  5
653
330
426
100
AcDbEntity
  8
0
  6
Continuous
 62
     7
100
AcDbVertex
100
AcDb2dVertex
 10
23388.7062
 20
-19519.221657
 30
0.0
 70
     8
  0
VERTEX
  5
654
330
426
100
AcDbEntity
  8
0
  6
Continuous
 62
     7
100
AcDbVertex
100
AcDb2dVertex
 10
23388.119122
 20
-19518.371397
 30
0.0
 70
     8
  0
VERTEX
  5
655
330
426
100
AcDbEntity
  8
0
  6
Continuous
 62
     7
100
AcDbVertex
100
AcDb2dVertex
 10
23387.510631
 20
-19517.51769
 30
0.0
 70
     8
  0
VERTEX
  5
656
330
426
100
AcDbEntity
  8
0
  6
Continuous
 62
     7
100
AcDbVertex
100
AcDb2dVertex
 10
23386.871602
 20
-19516.647101
 30
0.0
 70
     8
  0
VERTEX
  5
657
330
426
100
AcDbEntity
  8
0
  6
Continuous
 62
     7
100
AcDbVertex
100
AcDb2dVertex
 10
23386.192909
 20
-19515.746193
 30
0.0
 70
     8
  0
VERTEX
  5
658
330
426
100
AcDbEntity
  8
0
  6
Continuous
 62
     7
100
AcDbVertex
100
AcDb2dVertex
 10
23385.465427
 20
-19514.801531
 30
0.0
 70
     8
  0
VERTEX
  5
659
330
426
100
AcDbEntity
  8
0
  6
Continuous
 62
     7
100
AcDbVertex
100
AcDb2dVertex
 10
23384.683293
 20
-19513.804012
 30
0.0
 70
     8
  0
VERTEX
  5
65A
330
426
100
AcDbEntity
  8
0
  6
Continuous
 62
     7
100
AcDbVertex
100
AcDb2dVertex
 10
23383.853689
 20
-19512.761873
 30
0.0
 70
     8
  0
VERTEX
  5
65B
330
426
100
AcDbEntity
  8
0
  6
Continuous
 62
     7
100
AcDbVertex
100
AcDb2dVertex
 10
23382.987062
 20
-19511.687683
 30
0.0
 70
     8
  0
VERTEX
  5
65C
330
426
100
AcDbEntity
  8
0
  6
Continuous
 62
     7
100
AcDbVertex
100
AcDb2dVertex
 10
23382.093855
 20
-19510.594013
 30
0.0
 70
     8
  0
VERTEX
  5
65D
330
426
100
AcDbEntity
  8
0
  6
Continuous
 62
     7
100
AcDbVertex
100
AcDb2dVertex
 10
23381.184515
 20
-19509.493431
 30
0.0
 70
     8
  0
VERTEX
  5
65E
330
426
100
AcDbEntity
  8
0
  6
Continuous
 62
     7
100
AcDbVertex
100
AcDb2dVertex
 10
23380.269486
 20
-19508.39851
 30
0.0
 70
     8
  0
VERTEX
  5
65F
330
426
100
AcDbEntity
  8
0
  6
Continuous
 62
     7
100
AcDbVertex
100
AcDb2dVertex
 10
23379.359214
 20
-19507.321818
 30
0.0
 70
     8
  0
VERTEX
  5
660
330
426
100
AcDbEntity
  8
0
  6
Continuous
 62
     7
100
AcDbVertex
100
AcDb2dVertex
 10
23378.464144
 20
-19506.275925
 30
0.0
 70
     8
  0
VERTEX
  5
661
330
426
100
AcDbEntity
  8
0
  6
Continuous
 62
     7
100
AcDbVertex
100
AcDb2dVertex
 10
23377.594721
 20
-19505.273402
 30
0.0
 70
     8
  0
VERTEX
  5
662
330
426
100
AcDbEntity
  8
0
  6
Continuous
 62
     7
100
AcDbVertex
100
AcDb2dVertex
 10
23376.76139
 20
-19504.326818
 30
0.0
 70
     8
  0
VERTEX
  5
663
330
426
100
AcDbEntity
  8
0
  6
Continuous
 62
     7
100
AcDbVertex
100
AcDb2dVertex
 10
23375.970963
 20
-19503.444779
 30
0.0
 70
     8
  0
VERTEX
  5
664
330
426
100
AcDbEntity
  8
0
  6
Continuous
 62
     7
100
AcDbVertex
100
AcDb2dVertex
 10
23375.215716
 20
-19502.620034
 30
0.0
 70
     8
  0
VERTEX
  5
665
330
426
100
AcDbEntity
  8
0
  6
Continuous
 62
     7
100
AcDbVertex
100
AcDb2dVertex
 10
23374.484293
 20
-19501.841364
 30
0.0
 70
     8
  0
VERTEX
  5
666
330
426
100
AcDbEntity
  8
0
  6
Continuous
 62
     7
100
AcDbVertex
100
AcDb2dVertex
 10
23373.765336
 20
-19501.097552
 30
0.0
 70
     8
  0
VERTEX
  5
667
330
426
100
AcDbEntity
  8
0
  6
Continuous
 62
     7
100
AcDbVertex
100
AcDb2dVertex
 10
23373.047488
 20
-19500.377383
 30
0.0
 70
     8
  0
VERTEX
  5
668
330
426
100
AcDbEntity
  8
0
  6
Continuous
 62
     7
100
AcDbVertex
100
AcDb2dVertex
 10
23372.319393
 20
-19499.669639
 30
0.0
 70
     8
  0
VERTEX
  5
669
330
426
100
AcDbEntity
  8
0
  6
Continuous
 62
     7
100
AcDbVertex
100
AcDb2dVertex
 10
23371.569694
 20
-19498.963103
 30
0.0
 70
     8
  0
VERTEX
  5
66A
330
426
100
AcDbEntity
  8
0
  6
Continuous
 62
     7
100
AcDbVertex
100
AcDb2dVertex
 10
23370.787032
 20
-19498.246558
 30
0.0
 70
     8
  0
VERTEX
  5
66B
330
426
100
AcDbEntity
  8
0
  6
Continuous
 62
     7
100
AcDbVertex
100
AcDb2dVertex
 10
23369.960052
 20
-19497.508787
 30
0.0
 70
     8
  0
VERTEX
  5
66C
330
426
100
AcDbEntity
  8
0
  6
Continuous
 62
     7
100
AcDbVertex
100
AcDb2dVertex
 10
23369.077396
 20
-19496.738573
 30
0.0
 70
     8
  0
VERTEX
  5
66D
330
426
100
AcDbEntity
  8
0
  6
Continuous
 62
     7
100
AcDbVertex
100
AcDb2dVertex
 10
23368.131683
 20
-19495.928251
 30
0.0
 70
     8
  0
VERTEX
  5
66E
330
426
100
AcDbEntity
  8
0
  6
Continuous
 62
     7
100
AcDbVertex
100
AcDb2dVertex
 10
23367.131432
 20
-19495.084354
 30
0.0
 70
     8
  0
VERTEX
  5
66F
330
426
100
AcDbEntity
  8
0
  6
Continuous
 62
     7
100
AcDbVertex
100
AcDb2dVertex
 10
23366.089138
 20
-19494.216967
 30
0.0
 70
     8
  0
VERTEX
  5
670
330
426
100
AcDbEntity
  8
0
  6
Continuous
 62
     7
100
AcDbVertex
100
AcDb2dVertex
 10
23365.017296
 20
-19493.336175
 30
0.0
 70
     8
  0
VERTEX
  5
671
330
426
100
AcDbEntity
  8
0
  6
Continuous
 62
     7
100
AcDbVertex
100
AcDb2dVertex
 10
23363.9284
 20
-19492.452064
 30
0.0
 70
     8
  0
VERTEX
  5
672
330
426
100
AcDbEntity
  8
0
  6
Continuous
 62
     7
100
AcDbVertex
100
AcDb2dVertex
 10
23362.834945
 20
-19491.574718
 30
0.0
 70
     8
  0
VERTEX
  5
673
330
426
100
AcDbEntity
  8
0
  6
Continuous
 62
     7
100
AcDbVertex
100
AcDb2dVertex
 10
23361.749426
 20
-19490.714222
 30
0.0
 70
     8
  0
VERTEX
  5
674
330
426
100
AcDbEntity
  8
0
  6
Continuous
 62
     7
100
AcDbVertex
100
AcDb2dVertex
 10
23360.684337
 20
-19489.880661
 30
0.0
 70
     8
  0
VERTEX
  5
675
330
426
100
AcDbEntity
  8
0
  6
Continuous
 62
     7
100
AcDbVertex
100
AcDb2dVertex
 10
23359.652174
 20
-19489.08412
 30
0.0
 70
     8
  0
VERTEX
  5
676
330
426
100
AcDbEntity
  8
0
  6
Continuous
 62
     7
100
AcDbVertex
100
AcDb2dVertex
 10
23358.665431
 20
-19488.334685
 30
0.0
 70
     8
  0
VERTEX
  5
677
330
426
100
AcDbEntity
  8
0
  6
Continuous
 62
     7
100
AcDbVertex
100
AcDb2dVertex
 10
23357.73233
 20
-19487.639331
 30
0.0
 70
     8
  0
VERTEX
  5
678
330
426
100
AcDbEntity
  8
0
  6
Continuous
 62
     7
100
AcDbVertex
100
AcDb2dVertex
 10
23356.843997
 20
-19486.992603
 30
0.0
 70
     8
  0
VERTEX
  5
679
330
426
100
AcDbEntity
  8
0
  6
Continuous
 62
     7
100
AcDbVertex
100
AcDb2dVertex
 10
23355.987288
 20
-19486.385938
 30
0.0
 70
     8
  0
VERTEX
  5
67A
330
426
100
AcDbEntity
  8
0
  6
Continuous
 62
     7
100
AcDbVertex
100
AcDb2dVertex
 10
23355.149055
 20
-19485.810772
 30
0.0
 70
     8
  0
VERTEX
  5
67B
330
426
100
AcDbEntity
  8
0
  6
Continuous
 62
     7
100
AcDbVertex
100
AcDb2dVertex
 10
23354.316154
 20
-19485.258541
 30
0.0
 70
     8
  0
VERTEX
  5
67C
330
426
100
AcDbEntity
  8
0
  6
Continuous
 62
     7
100
AcDbVertex
100
AcDb2dVertex
 10
23353.475438
 20
-19484.720682
 30
0.0
 70
     8
  0
VERTEX
  5
67D
330
426
100
AcDbEntity
  8
0
  6
Continuous
 62
     7
100
AcDbVertex
100
AcDb2dVertex
 10
23352.613761
 20
-19484.18863
 30
0.0
 70
     8
  0
VERTEX
  5
67E
330
426
100
AcDbEntity
  8
0
  6
Continuous
 62
     7
100
AcDbVertex
100
AcDb2dVertex
 10
23351.717977
 20
-19483.653823
 30
0.0
 70
     8
  0
VERTEX
  5
67F
330
426
100
AcDbEntity
  8
0
  6
Continuous
 62
     7
100
AcDbVertex
100
AcDb2dVertex
 10
23350.774941
 20
-19483.107695
 30
0.0
 70
     8
  0
VERTEX
  5
680
330
426
100
AcDbEntity
  8
0
  6
Continuous
 62
     7
100
AcDbVertex
100
AcDb2dVertex
 10
23349.771506
 20
-19482.541685
 30
0.0
 70
     8
  0
VERTEX
  5
681
330
426
100
AcDbEntity
  8
0
  6
Continuous
 62
     7
100
AcDbVertex
100
AcDb2dVertex
 10
23348.69906
 20
-19481.949856
 30
0.0
 70
     8
  0
VERTEX
  5
682
330
426
100
AcDbEntity
  8
0
  6
Continuous
 62
     7
100
AcDbVertex
100
AcDb2dVertex
 10
23347.567128
 20
-19481.336791
 30
0.0
 70
     8
  0
VERTEX
  5
683
330
426
100
AcDbEntity
  8
0
  6
Continuous
 62
     7
100
AcDbVertex
100
AcDb2dVertex
 10
23346.389767
 20
-19480.7097
 30
0.0
 70
     8
  0
VERTEX
  5
684
330
426
100
AcDbEntity
  8
0
  6
Continuous
 62
     7
100
AcDbVertex
100
AcDb2dVertex
 10
23345.181034
 20
-19480.075793
 30
0.0
 70
     8
  0
VERTEX
  5
685
330
426
100
AcDbEntity
  8
0
  6
Continuous
 62
     7
100
AcDbVertex
100
AcDb2dVertex
 10
23343.954988
 20
-19479.442282
 30
0.0
 70
     8
  0
VERTEX
  5
686
330
426
100
AcDbEntity
  8
0
  6
Continuous
 62
     7
100
AcDbVertex
100
AcDb2dVertex
 10
23342.725686
 20
-19478.816377
 30
0.0
 70
     8
  0
VERTEX
  5
687
330
426
100
AcDbEntity
  8
0
  6
Continuous
 62
     7
100
AcDbVertex
100
AcDb2dVertex
 10
23341.50718600001
 20
-19478.205288
 30
0.0
 70
     8
  0
VERTEX
  5
688
330
426
100
AcDbEntity
  8
0
  6
Continuous
 62
     7
100
AcDbVertex
100
AcDb2dVertex
 10
23340.313545
 20
-19477.616226
 30
0.0
 70
     8
  0
VERTEX
  5
689
330
426
100
AcDbEntity
  8
0
  6
Continuous
 62
     7
100
AcDbVertex
100
AcDb2dVertex
 10
23339.158822
 20
-19477.056402
 30
0.0
 70
     8
  0
VERTEX
  5
68A
330
426
100
AcDbEntity
  8
0
  6
Continuous
 62
     7
100
AcDbVertex
100
AcDb2dVertex
 10
23338.057075
 20
-19476.533026
 30
0.0
 70
     8
  0
VERTEX
  5
68B
330
426
100
AcDbEntity
  8
0
  6
Continuous
 62
     7
100
AcDbVertex
100
AcDb2dVertex
 10
23337.017613
 20
-19476.051177
 30
0.0
 70
     8
  0
VERTEX
  5
68C
330
426
100
AcDbEntity
  8
0
  6
Continuous
 62
     7
100
AcDbVertex
100
AcDb2dVertex
 10
23336.03076
 20
-19475.607406
 30
0.0
 70
     8
  0
VERTEX
  5
68D
330
426
100
AcDbEntity
  8
0
  6
Continuous
 62
     7
100
AcDbVertex
100
AcDb2dVertex
 10
23335.082092
 20
-19475.196134
 30
0.0
 70
     8
  0
VERTEX
  5
68E
330
426
100
AcDbEntity
  8
0
  6
Continuous
 62
     7
100
AcDbVertex
100
AcDb2dVertex
 10
23334.157185
 20
-19474.811779
 30
0.0
 70
     8
  0
VERTEX
  5
68F
330
426
100
AcDbEntity
  8
0
  6
Continuous
 62
     7
100
AcDbVertex
100
AcDb2dVertex
 10
23333.241615
 20
-19474.448763
 30
0.0
 70
     8
  0
VERTEX
  5
690
330
426
100
AcDbEntity
  8
0
  6
Continuous
 62
     7
100
AcDbVertex
100
AcDb2dVertex
 10
23332.320959
 20
-19474.101503
 30
0.0
 70
     8
  0
VERTEX
  5
691
330
426
100
AcDbEntity
  8
0
  6
Continuous
 62
     7
100
AcDbVertex
100
AcDb2dVertex
 10
23331.380791
 20
-19473.764421
 30
0.0
 70
     8
  0
VERTEX
  5
692
330
426
100
AcDbEntity
  8
0
  6
Continuous
 62
     7
100
AcDbVertex
100
AcDb2dVertex
 10
23330.406689
 20
-19473.431937
 30
0.0
 70
     8
  0
VERTEX
  5
693
330
426
100
AcDbEntity
  8
0
  6
Continuous
 62
     7
100
AcDbVertex
100
AcDb2dVertex
 10
23329.384228
 20
-19473.098468
 30
0.0
 70
     8
  0
VERTEX
  5
694
330
426
100
AcDbEntity
  8
0
  6
Continuous
 62
     7
100
AcDbVertex
100
AcDb2dVertex
 10
23328.298984
 20
-19472.758437
 30
0.0
 70
     8
  0
VERTEX
  5
695
330
426
100
AcDbEntity
  8
0
  6
Continuous
 62
     7
100
AcDbVertex
100
AcDb2dVertex
 10
23327.141449
 20
-19472.407868
 30
0.0
 70
     8
  0
VERTEX
  5
696
330
426
100
AcDbEntity
  8
0
  6
Continuous
 62
     7
100
AcDbVertex
100
AcDb2dVertex
 10
23325.921783
 20
-19472.049214
 30
0.0
 70
     8
  0
VERTEX
  5
697
330
426
100
AcDbEntity
  8
0
  6
Continuous
 62
     7
100
AcDbVertex
100
AcDb2dVertex
 10
23324.655061
 20
-19471.686535
 30
0.0
 70
     8
  0
VERTEX
  5
698
330
426
100
AcDbEntity
  8
0
  6
Continuous
 62
     7
100
AcDbVertex
100
AcDb2dVertex
 10
23323.356357
 20
-19471.323889
 30
0.0
 70
     8
  0
VERTEX
  5
699
330
426
100
AcDbEntity
  8
0
  6
Continuous
 62
     7
100
AcDbVertex
100
AcDb2dVertex
 10
23322.040748
 20
-19470.965335
 30
0.0
 70
     8
  0
VERTEX
  5
69A
330
426
100
AcDbEntity
  8
0
  6
Continuous
 62
     7
100
AcDbVertex
100
AcDb2dVertex
 10
23320.723307
 20
-19470.614932
 30
0.0
 70
     8
  0
VERTEX
  5
69B
330
426
100
AcDbEntity
  8
0
  6
Continuous
 62
     7
100
AcDbVertex
100
AcDb2dVertex
 10
23319.41911
 20
-19470.27674
 30
0.0
 70
     8
  0
VERTEX
  5
69C
330
426
100
AcDbEntity
  8
0
  6
Continuous
 62
     7
100
AcDbVertex
100
AcDb2dVertex
 10
23318.143232
 20
-19469.954817
 30
0.0
 70
     8
  0
VERTEX
  5
69D
330
426
100
AcDbEntity
  8
0
  6
Continuous
 62
     7
100
AcDbVertex
100
AcDb2dVertex
 10
23316.910749
 20
-19469.653222
 30
0.0
 70
     8
  0
VERTEX
  5
69E
330
426
100
AcDbEntity
  8
0
  6
Continuous
 62
     7
100
AcDbVertex
100
AcDb2dVertex
 10
23315.736735
 20
-19469.376015
 30
0.0
 70
     8
  0
VERTEX
  5
69F
330
426
100
AcDbEntity
  8
0
  6
Continuous
 62
     7
100
AcDbVertex
100
AcDb2dVertex
 10
23314.632232
 20
-19469.126228
 30
0.0
 70
     8
  0
VERTEX
  5
6A0
330
426
100
AcDbEntity
  8
0
  6
Continuous
 62
     7
100
AcDbVertex
100
AcDb2dVertex
 10
23313.592141
 20
-19468.902798
 30
0.0
 70
     8
  0
VERTEX
  5
6A1
330
426
100
AcDbEntity
  8
0
  6
Continuous
 62
     7
100
AcDbVertex
100
AcDb2dVertex
 10
23312.607331
 20
-19468.703632
 30
0.0
 70
     8
  0
VERTEX
  5
6A2
330
426
100
AcDbEntity
  8
0
  6
Continuous
 62
     7
100
AcDbVertex
100
AcDb2dVertex
 10
23311.668671
 20
-19468.52664
 30
0.0
 70
     8
  0
VERTEX
  5
6A3
330
426
100
AcDbEntity
  8
0
  6
Continuous
 62
     7
100
AcDbVertex
100
AcDb2dVertex
 10
23310.767029
 20
-19468.369731
 30
0.0
 70
     8
  0
VERTEX
  5
6A4
330
426
100
AcDbEntity
  8
0
  6
Continuous
 62
     7
100
AcDbVertex
100
AcDb2dVertex
 10
23309.893273
 20
-19468.230814
 30
0.0
 70
     8
  0
VERTEX
  5
6A5
330
426
100
AcDbEntity
  8
0
  6
Continuous
 62
     7
100
AcDbVertex
100
AcDb2dVertex
 10
23309.038271
 20
-19468.107799
 30
0.0
 70
     8
  0
VERTEX
  5
6A6
330
426
100
AcDbEntity
  8
0
  6
Continuous
 62
     7
100
AcDbVertex
100
AcDb2dVertex
 10
23308.192892
 20
-19467.998594
 30
0.0
 70
     8
  0
VERTEX
  5
6A7
330
426
100
AcDbEntity
  8
0
  6
Continuous
 62
     7
100
AcDbVertex
100
AcDb2dVertex
 10
23307.348003
 20
-19467.901109
 30
0.0
 70
     8
  0
VERTEX
  5
6A8
330
426
100
AcDbEntity
  8
0
  6
Continuous
 62
     7
100
AcDbVertex
100
AcDb2dVertex
 10
23306.494474
 20
-19467.813253
 30
0.0
 70
     8
  0
VERTEX
  5
6A9
330
426
100
AcDbEntity
  8
0
  6
Continuous
 62
     7
100
AcDbVertex
100
AcDb2dVertex
 10
23305.626283
 20
-19467.733228
 30
0.0
 70
     8
  0
VERTEX
  5
6AA
330
426
100
AcDbEntity
  8
0
  6
Continuous
 62
     7
100
AcDbVertex
100
AcDb2dVertex
 10
23304.749849
 20
-19467.660405
 30
0.0
 70
     8
  0
VERTEX
  5
6AB
330
426
100
AcDbEntity
  8
0
  6
Continuous
 62
     7
100
AcDbVertex
100
AcDb2dVertex
 10
23303.874702
 20
-19467.59445
 30
0.0
 70
     8
  0
VERTEX
  5
6AC
330
426
100
AcDbEntity
  8
0
  6
Continuous
 62
     7
100
AcDbVertex
100
AcDb2dVertex
 10
23303.010373
 20
-19467.535026
 30
0.0
 70
     8
  0
VERTEX
  5
6AD
330
426
100
AcDbEntity
  8
0
  6
Continuous
 62
     7
100
AcDbVertex
100
AcDb2dVertex
 10
23302.166391
 20
-19467.481797
 30
0.0
 70
     8
  0
VERTEX
  5
6AE
330
426
100
AcDbEntity
  8
0
  6
Continuous
 62
     7
100
AcDbVertex
100
AcDb2dVertex
 10
23301.352286
 20
-19467.434428
 30
0.0
 70
     8
  0
VERTEX
  5
6AF
330
426
100
AcDbEntity
  8
0
  6
Continuous
 62
     7
100
AcDbVertex
100
AcDb2dVertex
 10
23300.577588
 20
-19467.392584
 30
0.0
 70
     8
  0
VERTEX
  5
6B0
330
426
100
AcDbEntity
  8
0
  6
Continuous
 62
     7
100
AcDbVertex
100
AcDb2dVertex
 10
23299.851828
 20
-19467.355929
 30
0.0
 70
     8
  0
VERTEX
  5
6B1
330
426
100
AcDbEntity
  8
0
  6
Continuous
 62
     7
100
AcDbVertex
100
AcDb2dVertex
 10
23299.184534
 20
-19467.324127
 30
0.0
 70
     8
  0
VERTEX
  5
6B2
330
426
100
AcDbEntity
  8
0
  6
Continuous
 62
     7
100
AcDbVertex
100
AcDb2dVertex
 10
23298.585237
 20
-19467.296843
 30
0.0
 70
     8
  0
VERTEX
  5
6B3
330
426
100
AcDbEntity
  8
0
  6
Continuous
 62
     7
100
AcDbVertex
100
AcDb2dVertex
 10
23298.060587
 20
-19467.273733
 30
0.0
 70
     8
  0
VERTEX
  5
6B4
330
426
100
AcDbEntity
  8
0
  6
Continuous
 62
     7
100
AcDbVertex
100
AcDb2dVertex
 10
23297.605711
 20
-19467.25443
 30
0.0
 70
     8
  0
VERTEX
  5
6B5
330
426
100
AcDbEntity
  8
0
  6
Continuous
 62
     7
100
AcDbVertex
100
AcDb2dVertex
 10
23297.212856
 20
-19467.238557
 30
0.0
 70
     8
  0
VERTEX
  5
6B6
330
426
100
AcDbEntity
  8
0
  6
Continuous
 62
     7
100
AcDbVertex
100
AcDb2dVertex
 10
23296.87427
 20
-19467.225738
 30
0.0
 70
     8
  0
VERTEX
  5
6B7
330
426
100
AcDbEntity
  8
0
  6
Continuous
 62
     7
100
AcDbVertex
100
AcDb2dVertex
 10
23296.582201
 20
-19467.215598
 30
0.0
 70
     8
  0
VERTEX
  5
6B8
330
426
100
AcDbEntity
  8
0
  6
Continuous
 62
     7
100
AcDbVertex
100
AcDb2dVertex
 10
23296.328895
 20
-19467.20776
 30
0.0
 70
     8
  0
VERTEX
  5
6B9
330
426
100
AcDbEntity
  8
0
  6
Continuous
 62
     7
100
AcDbVertex
100
AcDb2dVertex
 10
23296.106599
 20
-19467.201848
 30
0.0
 70
     8
  0
VERTEX
  5
6BA
330
426
100
AcDbEntity
  8
0
  6
Continuous
 62
     7
100
AcDbVertex
100
AcDb2dVertex
 10
23295.907562
 20
-19467.197487
 30
0.0
 70
     8
  0
VERTEX
  5
6BB
330
426
100
AcDbEntity
  8
0
  6
Continuous
 62
     7
100
AcDbVertex
100
AcDb2dVertex
 10
23295.72403
 20
-19467.1943
 30
0.0
 70
     8
  0
VERTEX
  5
6BC
330
426
100
AcDbEntity
  8
0
  6
Continuous
 62
     7
100
AcDbVertex
100
AcDb2dVertex
 10
23295.54825
 20
-19467.191912
 30
0.0
 70
     8
  0
VERTEX
  5
6BD
330
426
100
AcDbEntity
  8
0
  6
Continuous
 62
     7
100
AcDbVertex
100
AcDb2dVertex
 10
23295.37327
 20
-19467.190002
 30
0.0
 70
     8
  0
VERTEX
  5
6BE
330
426
100
AcDbEntity
  8
0
  6
Continuous
 62
     7
100
AcDbVertex
100
AcDb2dVertex
 10
23295.195333
 20
-19467.188473
 30
0.0
 70
     8
  0
VERTEX
  5
6BF
330
426
100
AcDbEntity
  8
0
  6
Continuous
 62
     7
100
AcDbVertex
100
AcDb2dVertex
 10
23295.01148
 20
-19467.187283
 30
0.0
 70
     8
  0
VERTEX
  5
6C0
330
426
100
AcDbEntity
  8
0
  6
Continuous
 62
     7
100
AcDbVertex
100
AcDb2dVertex
 10
23294.818755
 20
-19467.186388
 30
0.0
 70
     8
  0
VERTEX
  5
6C1
330
426
100
AcDbEntity
  8
0
  6
Continuous
 62
     7
100
AcDbVertex
100
AcDb2dVertex
 10
23294.6142
 20
-19467.185746
 30
0.0
 70
     8
  0
VERTEX
  5
6C2
330
426
100
AcDbEntity
  8
0
  6
Continuous
 62
     7
100
AcDbVertex
100
AcDb2dVertex
 10
23294.394857
 20
-19467.185317
 30
0.0
 70
     8
  0
VERTEX
  5
6C3
330
426
100
AcDbEntity
  8
0
  6
Continuous
 62
     7
100
AcDbVertex
100
AcDb2dVertex
 10
23294.15777
 20
-19467.185056
 30
0.0
 70
     8
  0
VERTEX
  5
6C4
330
426
100
AcDbEntity
  8
0
  6
Continuous
 62
     7
100
AcDbVertex
100
AcDb2dVertex
 10
23293.89998
 20
-19467.184922
 30
0.0
 70
     8
  0
VERTEX
  5
6C5
330
426
100
AcDbEntity
  8
0
  6
Continuous
 62
     7
100
AcDbVertex
100
AcDb2dVertex
 10
23293.61853
 20
-19467.184873
 30
0.0
 70
     8
  0
VERTEX
  5
6C6
330
426
100
AcDbEntity
  8
0
  6
Continuous
 62
     7
100
AcDbVertex
100
AcDb2dVertex
 10
23293.310462
 20
-19467.184866
 30
0.0
 70
     8
  0
VERTEX
  5
6C7
330
426
100
AcDbEntity
  8
0
  6
Continuous
 62
     7
100
AcDbVertex
100
AcDb2dVertex
 10
23289.101009
 20
-19467.184866
 30
0.0
 70
    16
  0
VERTEX
  5
6C8
330
426
100
AcDbEntity
  8
0
  6
Continuous
 62
     7
100
AcDbVertex
100
AcDb2dVertex
 10
23284.398654
 20
-19467.492231
 30
0.0
 70
    16
  0
VERTEX
  5
6C9
330
426
100
AcDbEntity
  8
0
  6
Continuous
 62
     7
100
AcDbVertex
100
AcDb2dVertex
 10
23272.022837
 20
-19469.115952
 30
0.0
 70
    16
  0
VERTEX
  5
6CA
330
426
100
AcDbEntity
  8
0
  6
Continuous
 62
     7
100
AcDbVertex
100
AcDb2dVertex
 10
23264.407364
 20
-19470.960339
 30
0.0
 70
    16
  0
VERTEX
  5
6CB
330
426
100
AcDbEntity
  8
0
  6
Continuous
 62
     7
100
AcDbVertex
100
AcDb2dVertex
 10
23249.653021
 20
-19476.245156
 30
0.0
 70
    16
  0
VERTEX
  5
6CC
330
426
100
AcDbEntity
  8
0
  6
Continuous
 62
     7
100
AcDbVertex
100
AcDb2dVertex
 10
23242.514514
 20
-19479.685475
 30
0.0
 70
    16
  0
VERTEX
  5
6CD
330
426
100
AcDbEntity
  8
0
  6
Continuous
 62
     7
100
AcDbVertex
100
AcDb2dVertex
 10
23228.991064
 20
-19488.030103
 30
0.0
 70
    16
  0
VERTEX
  5
6CE
330
426
100
AcDbEntity
  8
0
  6
Continuous
 62
     7
100
AcDbVertex
100
AcDb2dVertex
 10
23222.606468
 20
-19492.934221
 30
0.0
 70
    16
  0
VERTEX
  5
6CF
330
426
100
AcDbEntity
  8
0
  6
Continuous
 62
     7
100
AcDbVertex
100
AcDb2dVertex
 10
23210.839445
 20
-19504.017353
 30
0.0
 70
    16
  0
VERTEX
  5
6D0
330
426
100
AcDbEntity
  8
0
  6
Continuous
 62
     7
100
AcDbVertex
100
AcDb2dVertex
 10
23205.45733
 20
-19510.196098
 30
0.0
 70
    16
  0
VERTEX
  5
6D1
330
426
100
AcDbEntity
  8
0
  6
Continuous
 62
     7
100
AcDbVertex
100
AcDb2dVertex
 10
23195.905521
 20
-19523.589269
 30
0.0
 70
    16
  0
VERTEX
  5
6D2
330
426
100
AcDbEntity
  8
0
  6
Continuous
 62
     7
100
AcDbVertex
100
AcDb2dVertex
 10
23191.736085
 20
-19530.803357
 30
0.0
 70
    16
  0
VERTEX
  5
6D3
330
426
100
AcDbEntity
  8
0
  6
Continuous
 62
     7
100
AcDbVertex
100
AcDb2dVertex
 10
23184.772916
 20
-19545.987046
 30
0.0
 70
    16
  0
VERTEX
  5
6D4
330
426
100
AcDbEntity
  8
0
  6
Continuous
 62
     7
100
AcDbVertex
100
AcDb2dVertex
 10
23181.979371
 20
-19553.95625699999
 30
0.0
 70
    16
  0
VERTEX
  5
6D5
330
426
100
AcDbEntity
  8
0
  6
Continuous
 62
     7
100
AcDbVertex
100
AcDb2dVertex
 10
23177.877578
 20
-19570.34006
 30
0.0
 70
    16
  0
VERTEX
  5
6D6
330
426
100
AcDbEntity
  8
0
  6
Continuous
 62
     7
100
AcDbVertex
100
AcDb2dVertex
 10
23176.569439
 20
-19578.754229
 30
0.0
 70
    16
  0
VERTEX
  5
6D7
330
426
100
AcDbEntity
  8
0
  6
Continuous
 62
     7
100
AcDbVertex
100
AcDb2dVertex
 10
23175.489859
 20
-19595.700132
 30
0.0
 70
    16
  0
VERTEX
  5
6D8
330
426
100
AcDbEntity
  8
0
  6
Continuous
 62
     7
100
AcDbVertex
100
AcDb2dVertex
 10
23175.718447
 20
-19604.231427
 30
0.0
 70
    16
  0
VERTEX
  5
6D9
330
426
100
AcDbEntity
  8
0
  6
Continuous
 62
     7
100
AcDbVertex
100
AcDb2dVertex
 10
23177.703432
 20
-19621.079102
 30
0.0
 70
    16
  0
VERTEX
  5
6DA
330
426
100
AcDbEntity
  8
0
  6
Continuous
 62
     7
100
AcDbVertex
100
AcDb2dVertex
 10
23179.459777
 20
-19629.39504499999
 30
0.0
 70
    16
  0
VERTEX
  5
6DB
330
426
100
AcDbEntity
  8
0
  6
Continuous
 62
     7
100
AcDbVertex
100
AcDb2dVertex
 10
23184.431464
 20
-19645.488063
 30
0.0
 70
    16
  0
VERTEX
  5
6DC
330
426
100
AcDbEntity
  8
0
  6
Continuous
 62
     7
100
AcDbVertex
100
AcDb2dVertex
 10
23187.646672
 20
-19653.264723
 30
0.0
 70
    16
  0
VERTEX
  5
6DD
330
426
100
AcDbEntity
  8
0
  6
Continuous
 62
     7
100
AcDbVertex
100
AcDb2dVertex
 10
23195.41016
 20
-19667.976611
 30
0.0
 70
    16
  0
VERTEX
  5
6DE
330
426
100
AcDbEntity
  8
0
  6
Continuous
 62
     7
100
AcDbVertex
100
AcDb2dVertex
 10
23199.958231
 20
-19674.911464
 30
0.0
 70
    16
  0
VERTEX
  5
6DF
330
426
100
AcDbEntity
  8
0
  6
Continuous
 62
     7
100
AcDbVertex
100
AcDb2dVertex
 10
23210.209583
 20
-19687.670516
 30
0.0
 70
    16
  0
VERTEX
  5
6E0
330
426
100
AcDbEntity
  8
0
  6
Continuous
 62
     7
100
AcDbVertex
100
AcDb2dVertex
 10
23215.912588
 20
-19693.494396
 30
0.0
 70
    16
  0
VERTEX
  5
6E1
330
426
100
AcDbEntity
  8
0
  6
Continuous
 62
     7
100
AcDbVertex
100
AcDb2dVertex
 10
23228.251316
 20
-19703.806138
 30
0.0
 70
    16
  0
VERTEX
  5
6E2
330
426
100
AcDbEntity
  8
0
  6
Continuous
 62
     7
100
AcDbVertex
100
AcDb2dVertex
 10
23234.886714
 20
-19708.293752
 30
0.0
 70
    16
  0
VERTEX
  5
6E3
330
426
100
AcDbEntity
  8
0
  6
Continuous
 62
     7
100
AcDbVertex
100
AcDb2dVertex
 10
23248.832191
 20
-19715.759996
 30
0.0
 70
    16
  0
VERTEX
  5
6E4
330
426
100
AcDbEntity
  8
0
  6
Continuous
 62
     7
100
AcDbVertex
100
AcDb2dVertex
 10
23256.141915
 20
-19718.73846
 30
0.0
 70
    16
  0
VERTEX
  5
6E5
330
426
100
AcDbEntity
  8
0
  6
Continuous
 62
     7
100
AcDbVertex
100
AcDb2dVertex
 10
23271.15275
 20
-19723.072068
 30
0.0
 70
    16
  0
VERTEX
  5
6E6
330
426
100
AcDbEntity
  8
0
  6
Continuous
 62
     7
100
AcDbVertex
100
AcDb2dVertex
 10
23278.853495
 20
-19724.427123
 30
0.0
 70
    16
  0
VERTEX
  5
6E7
330
426
100
AcDbEntity
  8
0
  6
Continuous
 62
     7
100
AcDbVertex
100
AcDb2dVertex
 10
23294.348682
 20
-19725.462025
 30
0.0
 70
    16
  0
VERTEX
  5
6E8
330
426
100
AcDbEntity
  8
0
  6
Continuous
 62
     7
100
AcDbVertex
100
AcDb2dVertex
 10
23302.142758
 20
-19725.141852
 30
0.0
 70
    16
  0
VERTEX
  5
6E9
330
426
100
AcDbEntity
  8
0
  6
Continuous
 62
     7
100
AcDbVertex
100
AcDb2dVertex
 10
23317.523523
 20
-19722.838465
 30
0.0
 70
    16
  0
VERTEX
  5
6EA
330
426
100
AcDbEntity
  8
0
  6
Continuous
 62
     7
100
AcDbVertex
100
AcDb2dVertex
 10
23325.109844
 20
-19720.855296
 30
0.0
 70
    16
  0
VERTEX
  5
6EB
330
426
100
AcDbEntity
  8
0
  6
Continuous
 62
     7
100
AcDbVertex
100
AcDb2dVertex
 10
23339.781593
 20
-19715.301761
 30
0.0
 70
    16
  0
VERTEX
  5
6EC
330
426
100
AcDbEntity
  8
0
  6
Continuous
 62
     7
100
AcDbVertex
100
AcDb2dVertex
 10
23346.866657
 20
-19711.731512
 30
0.0
 70
    16
  0
VERTEX
  5
6ED
330
426
100
AcDbEntity
  8
0
  6
Continuous
 62
     7
100
AcDbVertex
100
AcDb2dVertex
 10
23360.260922
 20
-19703.14091
 30
0.0
 70
    16
  0
VERTEX
  5
6EE
330
426
100
AcDbEntity
  8
0
  6
Continuous
 62
     7
100
AcDbVertex
100
AcDb2dVertex
 10
23366.569776
 20
-19698.120754
 30
0.0
 70
    16
  0
VERTEX
  5
6EF
330
426
100
AcDbEntity
  8
0
  6
Continuous
 62
     7
100
AcDbVertex
100
AcDb2dVertex
 10
23378.165892
 20
-19686.823977
 30
0.0
 70
    16
  0
VERTEX
  5
6F0
330
426
100
AcDbEntity
  8
0
  6
Continuous
 62
     7
100
AcDbVertex
100
AcDb2dVertex
 10
23383.452845
 20
-19680.54763199999
 30
0.0
 70
    16
  0
VERTEX
  5
6F1
330
426
100
AcDbEntity
  8
0
  6
Continuous
 62
     7
100
AcDbVertex
100
AcDb2dVertex
 10
23392.798572
 20
-19666.981543
 30
0.0
 70
    16
  0
VERTEX
  5
6F2
330
426
100
AcDbEntity
  8
0
  6
Continuous
 62
     7
100
AcDbVertex
100
AcDb2dVertex
 10
23396.857095
 20
-19659.692143
 30
0.0
 70
    16
  0
VERTEX
  5
6F3
330
426
100
AcDbEntity
  8
0
  6
Continuous
 62
     7
100
AcDbVertex
100
AcDb2dVertex
 10
23403.586994
 20
-19644.3831
 30
0.0
 70
    16
  0
VERTEX
  5
6F4
330
426
100
AcDbEntity
  8
0
  6
Continuous
 62
     7
100
AcDbVertex
100
AcDb2dVertex
 10
23406.25819
 20
-19636.36385
 30
0.0
 70
    16
  0
VERTEX
  5
6F5
330
426
100
AcDbEntity
  8
0
  6
Continuous
 62
     7
100
AcDbVertex
100
AcDb2dVertex
 10
23410.108632
 20
-19619.907226
 30
0.0
 70
    16
  0
VERTEX
  5
6F6
330
426
100
AcDbEntity
  8
0
  6
Continuous
 62
     7
100
AcDbVertex
100
AcDb2dVertex
 10
23411.287774
 20
-19611.470278
 30
0.0
 70
    16
  0
VERTEX
  5
6F7
330
426
100
AcDbEntity
  8
0
  6
Continuous
 62
     7
100
AcDbVertex
100
AcDb2dVertex
 10
23412.107765
 20
-19594.506978
 30
0.0
 70
    16
  0
VERTEX
  5
6F8
330
426
100
AcDbEntity
  8
0
  6
Continuous
 62
     7
100
AcDbVertex
100
AcDb2dVertex
 10
23411.748592
 20
-19585.981065
 30
0.0
 70
    16
  0
VERTEX
  5
6F9
330
426
100
AcDbEntity
  8
0
  6
Continuous
 62
     7
100
AcDbVertex
100
AcDb2dVertex
 10
23409.505964
 20
-19569.172108
 30
0.0
 70
    16
  0
VERTEX
  5
6FA
330
426
100
AcDbEntity
  8
0
  6
Continuous
 62
     7
100
AcDbVertex
100
AcDb2dVertex
 10
23407.622569
 20
-19560.889498
 30
0.0
 70
    16
  0
VERTEX
  5
6FB
330
426
100
AcDbEntity
  8
0
  6
Continuous
 62
     7
100
AcDbVertex
100
AcDb2dVertex
 10
23402.405291
 20
-19544.889775
 30
0.0
 70
    16
  0
VERTEX
  5
6FC
330
426
100
AcDbEntity
  8
0
  6
Continuous
 62
     7
100
AcDbVertex
100
AcDb2dVertex
 10
23399.071548
 20
-19537.173074
 30
0.0
 70
    16
  0
VERTEX
  5
6FD
330
426
100
AcDbEntity
  8
0
  6
Continuous
 62
     7
100
AcDbVertex
100
AcDb2dVertex
 10
23391.084128
 20
-19522.605355
 30
0.0
 70
    16
  0
VERTEX
  5
6FE
330
426
100
AcDbEntity
  8
0
  6
Continuous
 62
     7
100
AcDbVertex
100
AcDb2dVertex
 10
23386.430667
 20
-19515.75471
 30
0.0
 70
    16
  0
VERTEX
  5
6FF
330
426
100
AcDbEntity
  8
0
  6
Continuous
 62
     7
100
AcDbVertex
100
AcDb2dVertex
 10
23375.985767
 20
-19503.184991
 30
0.0
 70
    16
  0
VERTEX
  5
700
330
426
100
AcDbEntity
  8
0
  6
Continuous
 62
     7
100
AcDbVertex
100
AcDb2dVertex
 10
23370.194607
 20
-19497.466233
 30
0.0
 70
    16
  0
VERTEX
  5
701
330
426
100
AcDbEntity
  8
0
  6
Continuous
 62
     7
100
AcDbVertex
100
AcDb2dVertex
 10
23357.700183
 20
-19487.381518
 30
0.0
 70
    16
  0
VERTEX
  5
702
330
426
100
AcDbEntity
  8
0
  6
Continuous
 62
     7
100
AcDbVertex
100
AcDb2dVertex
 10
23350.997248
 20
-19483.015802
 30
0.0
 70
    16
  0
VERTEX
  5
703
330
426
100
AcDbEntity
  8
0
  6
Continuous
 62
     7
100
AcDbVertex
100
AcDb2dVertex
 10
23336.939859
 20
-19475.80538
 30
0.0
 70
    16
  0
VERTEX
  5
704
330
426
100
AcDbEntity
  8
0
  6
Continuous
 62
     7
100
AcDbVertex
100
AcDb2dVertex
 10
23329.585763
 20
-19472.960833
 30
0.0
 70
    16
  0
VERTEX
  5
705
330
426
100
AcDbEntity
  8
0
  6
Continuous
 62
     7
100
AcDbVertex
100
AcDb2dVertex
 10
23314.510992
 20
-19468.90191
 30
0.0
 70
    16
  0
VERTEX
  5
706
330
426
100
AcDbEntity
  8
0
  6
Continuous
 62
     7
100
AcDbVertex
100
AcDb2dVertex
 10
23306.790683
 20
-19467.687617
 30
0.0
 70
    16
  0
VERTEX
  5
707
330
426
100
AcDbEntity
  8
0
  6
Continuous
 62
     7
100
AcDbVertex
100
AcDb2dVertex
 10
23297.293122
 20
-19467.227143
 30
0.0
 70
    16
  0
VERTEX
  5
708
330
426
100
AcDbEntity
  8
0
  6
Continuous
 62
     7
100
AcDbVertex
100
AcDb2dVertex
 10
23295.54825
 20
-19467.184866
 30
0.0
 70
    16
  0
SEQEND
  5
709
330
426
100
AcDbEntity
  8
0
  6
Continuous
 62
     7
  0
DIMENSION
  5
713
330
A
100
AcDbEntity
  8
0
  6
Continuous
 62
     5
100
AcDbDimension
  2
*D15
 10
23629.284584
 20
-20593.57536
 30
0.0
 11
23616.784584
 21
-20511.07536
 31
0.0
 70
    32
 71
     5
 42
-1.0
  3
DIMSTYLE001
100
AcDbAlignedDimension
 13
23583.379566
 23
-20428.57536
 33
0.0
 14
23583.379566
 24
-20593.57536
 34
0.0
 50
270.0
100
AcDbRotatedDimension
1001
ACAD
1000
DSTYLE
1002
{
1070
    43
1040
1000.0
1070
    73
1070
     0
1070
    74
1070
     0
1070
    77
1070
     1
1070
   277
1070
     2
1070
   172
1070
     1
1070
   174
1070
     1
1070
   179
1070
     0
1070
   287
1070
     3
1070
   289
1070
     3
1070
     5
1000
_ORIGIN
1002
}
  0
TEXT
  5
714
330
A
100
AcDbEntity
  8
002
  6
Continuous
 62
     7
100
AcDbText
 10
24256.696013
 20
-20845.933956
 30
0.0
 40
15.0
  1
ＲＢ-ＵＰ
 41
1.089324617283929
  7
DRACAD
 72
     5
 11
24344.931307
 21
-20845.933956
 31
0.0
100
AcDbText
  0
ENDSEC
  0
SECTION
  2
OBJECTS
  0
DICTIONARY
  5
19
330
0
100
AcDbDictionary
281
     1
  3
ACAD_COLOR
350
745
  3
ACAD_GROUP
350
1A
  3
ACAD_LAYOUT
350
76D
  3
ACAD_MATERIAL
350
71B
  3
ACAD_MLEADERSTYLE
350
76A
  3
ACAD_MLINESTYLE
350
1B
  3
ACAD_PLOTSETTINGS
350
76E
  3
ACAD_PLOTSTYLENAME
350
719
  3
ACAD_SCALELIST
350
748
  3
ACAD_TABLESTYLE
350
746
  3
ACAD_VISUALSTYLE
350
734
  3
ACDB_RECOMPOSE_DATA
350
793
  3
AcDbVariableDictionary
350
78A
  3
ASE_INDEX_DICTIONARY
350
787
  3
DWGPROPS
350
794
  0
DICTIONARY
  5
77C
330
14
100
AcDbDictionary
280
     1
281
     1
  3
ADSK_XREC_LAYER_RECONCILED
360
77D
  0
DICTIONARY
  5
77E
330
27
100
AcDbDictionary
280
     1
281
     1
  3
ADSK_XREC_LAYER_RECONCILED
360
77F
  0
DICTIONARY
  5
780
330
28
100
AcDbDictionary
280
     1
281
     1
  3
ADSK_XREC_LAYER_RECONCILED
360
781
  0
DICTIONARY
  5
782
330
29
100
AcDbDictionary
280
     1
281
     1
  3
ADSK_XREC_LAYER_RECONCILED
360
783
  0
DICTIONARY
  5
784
330
2A
100
AcDbDictionary
280
     1
281
     1
  3
ADSK_XREC_LAYER_RECONCILED
360
785
  0
DICTIONARY
  5
745
102
{ACAD_REACTORS
330
19
102
}
330
19
100
AcDbDictionary
281
     1
  0
DICTIONARY
  5
1A
102
{ACAD_REACTORS
330
19
102
}
330
19
100
AcDbDictionary
281
     1
  0
DICTIONARY
  5
76D
102
{ACAD_REACTORS
330
19
102
}
330
19
100
AcDbDictionary
281
     1
  3
Model
350
76F
  3
レイアウト1
350
770
  0
DICTIONARY
  5
71B
102
{ACAD_REACTORS
330
19
102
}
330
19
100
AcDbDictionary
281
     1
  3
ByBlock
350
724
  3
ByLayer
350
71C
  3
Global
350
72C
  0
DICTIONARY
  5
76A
102
{ACAD_REACTORS
330
19
102
}
330
19
100
AcDbDictionary
281
     1
  3
Standard
350
76B
  0
DICTIONARY
  5
1B
102
{ACAD_REACTORS
330
19
102
}
330
19
100
AcDbDictionary
281
     1
  3
STANDARD
350
1C
  0
DICTIONARY
  5
76E
102
{ACAD_REACTORS
330
19
102
}
330
19
100
AcDbDictionary
281
     1
  0
ACDBDICTIONARYWDFLT
  5
719
102
{ACAD_REACTORS
330
19
102
}
330
19
100
AcDbDictionary
281
     1
  3
Normal
350
71A
100
AcDbDictionaryWithDefault
340
71A
  0
DICTIONARY
  5
748
102
{ACAD_REACTORS
330
19
102
}
330
19
100
AcDbDictionary
281
     1
  3
A0
350
749
  3
A1
350
74A
  3
A2
350
74B
  3
A3
350
74C
  3
A4
350
74D
  3
A5
350
74E
  3
A6
350
74F
  3
A7
350
750
  3
A8
350
751
  3
A9
350
752
  3
B0
350
753
  3
B1
350
754
  3
B2
350
755
  3
B3
350
756
  3
B4
350
757
  3
B5
350
758
  3
B6
350
759
  3
B7
350
75A
  3
B8
350
75B
  3
B9
350
75C
  3
C0
350
75D
  3
C1
350
75E
  3
C2
350
75F
  3
C3
350
760
  3
C4
350
761
  3
C5
350
762
  3
C6
350
763
  3
C7
350
764
  3
C8
350
765
  3
C9
350
766
  3
D0
350
767
  3
D1
350
768
  3
D2
350
769
  0
DICTIONARY
  5
746
102
{ACAD_REACTORS
330
19
102
}
330
19
100
AcDbDictionary
281
     1
  3
Standard
350
747
  0
DICTIONARY
  5
734
102
{ACAD_REACTORS
330
19
102
}
330
19
100
AcDbDictionary
281
     1
  3
2dWireframe
350
73A
  3
3D Hidden
350
73C
  3
3dWireframe
350
73B
  3
Basic
350
739
  3
Brighten
350
740
  3
ColorChange
350
744
  3
Conceptual
350
73D
  3
Dim
350
73F
  3
Facepattern
350
743
  3
Flat
350
735
  3
FlatWithEdges
350
736
  3
Gouraud
350
737
  3
GouraudWithEdges
350
738
  3
Linepattern
350
742
  3
Realistic
350
73E
  3
Thicken
350
741
  0
XRECORD
  5
793
102
{ACAD_REACTORS
330
19
102
}
330
19
100
AcDbXrecord
280
     1
 90
        1
330
747
  0
DICTIONARY
  5
78A
102
{ACAD_REACTORS
330
19
102
}
330
19
100
AcDbDictionary
281
     1
  3
CANNOSCALE
350
78D
  3
CMLEADERSTYLE
350
78C
  3
CTABLESTYLE
350
78B
  3
DIMASSOC
350
790
  3
INDEXCTL
350
78F
  3
SORTENTS
350
78E
  0
DICTIONARY
  5
787
102
{ACAD_REACTORS
330
19
102
}
330
19
100
AcDbDictionary
281
     1
  3
ASEBlockHierarchyIndexRecord
350
789
1001
DCO15
1040
1714115727.796
  0
XRECORD
  5
794
102
{ACAD_REACTORS
330
19
102
}
330
19
100
AcDbXrecord
280
     1
  1
DWGPROPS COOKIE
  2

  3

  4

  6

  7

  8
toshi
  9

300
=
301
=
302
=
303
=
304
=
305
=
306
=
307
=
308
=
309
=
 40
0.0006061111111111
 41
2305814.416979977
 42
2455642.514256898
  1

 90
        0
  0
XRECORD
  5
77D
102
{ACAD_REACTORS
330
77C
102
}
330
77C
100
AcDbXrecord
280
     1
290
     1
  0
XRECORD
  5
77F
102
{ACAD_REACTORS
330
77E
102
}
330
77E
100
AcDbXrecord
280
     1
290
     1
  0
XRECORD
  5
781
102
{ACAD_REACTORS
330
780
102
}
330
780
100
AcDbXrecord
280
     1
290
     1
  0
XRECORD
  5
783
102
{ACAD_REACTORS
330
782
102
}
330
782
100
AcDbXrecord
280
     1
290
     1
  0
XRECORD
  5
785
102
{ACAD_REACTORS
330
784
102
}
330
784
100
AcDbXrecord
280
     1
290
     1
  0
LAYOUT
  5
76F
102
{ACAD_XDICTIONARY
360
799
102
}
102
{ACAD_REACTORS
330
76D
102
}
330
76D
100
AcDbPlotSettings
  1

  2
OneNote 2007 に送る
  4

  6

 40
0.0
 41
0.0
 42
0.0
 43
0.0
 44
0.0
 45
0.0
 46
0.0
 47
0.0
 48
0.0
 49
0.0
140
0.0
141
0.0
142
1.0
143
1.0
 70
  1712
 72
     0
 73
     0
 74
     0
  7
hiroya.ctb
 75
     0
147
1.0
148
0.0
149
0.0
100
AcDbLayout
  1
Model
 70
     1
 71
     0
 10
0.0
 20
0.0
 11
12.0
 21
9.0
 12
0.0
 22
0.0
 32
0.0
 14
0.0
 24
0.0
 34
0.0
 15
0.0
 25
0.0
 35
0.0
146
0.0
 13
0.0
 23
0.0
 33
0.0
 16
1.0
 26
0.0
 36
0.0
 17
0.0
 27
1.0
 37
0.0
 76
     0
330
A
331
15
  0
LAYOUT
  5
770
102
{ACAD_XDICTIONARY
360
79B
102
}
102
{ACAD_REACTORS
330
76D
102
}
330
76D
100
AcDbPlotSettings
  1

  2
OneNote 2007 に送る
  4

  6

 40
0.0
 41
0.0
 42
0.0
 43
0.0
 44
0.0
 45
0.0
 46
0.0
 47
0.0
 48
0.0
 49
0.0
140
0.0
141
0.0
142
1.0
143
1.0
 70
   688
 72
     0
 73
     0
 74
     5
  7
hiroya.ctb
 75
    16
147
1.0
148
0.0
149
0.0
100
AcDbLayout
  1
レイアウト1
 70
     0
 71
     1
 10
0.0
 20
0.0
 11
12.0
 21
9.0
 12
0.0
 22
0.0
 32
0.0
 14
1.000000000000000E+20
 24
1.000000000000000E+20
 34
1.000000000000000E+20
 15
-1.000000000000000E+20
 25
-1.000000000000000E+20
 35
-1.000000000000000E+20
146
0.0
 13
0.0
 23
0.0
 33
0.0
 16
1.0
 26
0.0
 36
0.0
 17
0.0
 27
1.0
 37
0.0
 76
     0
330
B
  0
MATERIAL
  5
724
102
{ACAD_XDICTIONARY
360
725
102
}
102
{ACAD_REACTORS
330
71B
102
}
330
71B
100
AcDbMaterial
  1
ByBlock
 72
     0
 43
0.0208333333333333
 43
0.0
 43
0.0
 43
0.0
 43
0.0
 43
0.0208333333333333
 43
0.0
 43
0.0
 43
0.0
 43
0.0
 43
1.0
 43
0.0
 43
0.0
 43
0.0
 43
0.0
 43
1.0
 77
     0
 47
0.0208333333333333
 47
0.0
 47
0.0
 47
0.0
 47
0.0
 47
0.0208333333333333
 47
0.0
 47
0.0
 47
0.0
 47
0.0
 47
1.0
 47
0.0
 47
0.0
 47
0.0
 47
0.0
 47
1.0
171
     0
 49
0.0208333333333333
 49
0.0
 49
0.0
 49
0.0
 49
0.0
 49
0.0208333333333333
 49
0.0
 49
0.0
 49
0.0
 49
0.0
 49
1.0
 49
0.0
 49
0.0
 49
0.0
 49
0.0
 49
1.0
175
     0
142
0.0208333333333333
142
0.0
142
0.0
142
0.0
142
0.0
142
0.0208333333333333
142
0.0
142
0.0
142
0.0
142
0.0
142
1.0
142
0.0
142
0.0
142
0.0
142
0.0
142
1.0
179
     0
144
0.0208333333333333
144
0.0
144
0.0
144
0.0
144
0.0
144
0.0208333333333333
144
0.0
144
0.0
144
0.0
144
0.0
144
1.0
144
0.0
144
0.0
144
0.0
144
0.0
144
1.0
147
0.0208333333333333
147
0.0
147
0.0
147
0.0
147
0.0
147
0.0208333333333333
147
0.0
147
0.0
147
0.0
147
0.0
147
1.0
147
0.0
147
0.0
147
0.0
147
0.0
147
1.0
  0
MATERIAL
  5
71C
102
{ACAD_XDICTIONARY
360
71D
102
}
102
{ACAD_REACTORS
330
71B
102
}
330
71B
100
AcDbMaterial
  1
ByLayer
 72
     0
 43
0.0208333333333333
 43
0.0
 43
0.0
 43
0.0
 43
0.0
 43
0.0208333333333333
 43
0.0
 43
0.0
 43
0.0
 43
0.0
 43
1.0
 43
0.0
 43
0.0
 43
0.0
 43
0.0
 43
1.0
 77
     0
 47
0.0208333333333333
 47
0.0
 47
0.0
 47
0.0
 47
0.0
 47
0.0208333333333333
 47
0.0
 47
0.0
 47
0.0
 47
0.0
 47
1.0
 47
0.0
 47
0.0
 47
0.0
 47
0.0
 47
1.0
171
     0
 49
0.0208333333333333
 49
0.0
 49
0.0
 49
0.0
 49
0.0
 49
0.0208333333333333
 49
0.0
 49
0.0
 49
0.0
 49
0.0
 49
1.0
 49
0.0
 49
0.0
 49
0.0
 49
0.0
 49
1.0
175
     0
142
0.0208333333333333
142
0.0
142
0.0
142
0.0
142
0.0
142
0.0208333333333333
142
0.0
142
0.0
142
0.0
142
0.0
142
1.0
142
0.0
142
0.0
142
0.0
142
0.0
142
1.0
179
     0
144
0.0208333333333333
144
0.0
144
0.0
144
0.0
144
0.0
144
0.0208333333333333
144
0.0
144
0.0
144
0.0
144
0.0
144
1.0
144
0.0
144
0.0
144
0.0
144
0.0
144
1.0
147
0.0208333333333333
147
0.0
147
0.0
147
0.0
147
0.0
147
0.0208333333333333
147
0.0
147
0.0
147
0.0
147
0.0
147
1.0
147
0.0
147
0.0
147
0.0
147
0.0
147
1.0
  0
MATERIAL
  5
72C
102
{ACAD_XDICTIONARY
360
72D
102
}
102
{ACAD_REACTORS
330
71B
102
}
330
71B
100
AcDbMaterial
  1
Global
 72
     0
 43
0.0208333333333333
 43
0.0
 43
0.0
 43
0.0
 43
0.0
 43
0.0208333333333333
 43
0.0
 43
0.0
 43
0.0
 43
0.0
 43
1.0
 43
0.0
 43
0.0
 43
0.0
 43
0.0
 43
1.0
 77
     0
 47
0.0208333333333333
 47
0.0
 47
0.0
 47
0.0
 47
0.0
 47
0.0208333333333333
 47
0.0
 47
0.0
 47
0.0
 47
0.0
 47
1.0
 47
0.0
 47
0.0
 47
0.0
 47
0.0
 47
1.0
171
     0
 49
0.0208333333333333
 49
0.0
 49
0.0
 49
0.0
 49
0.0
 49
0.0208333333333333
 49
0.0
 49
0.0
 49
0.0
 49
0.0
 49
1.0
 49
0.0
 49
0.0
 49
0.0
 49
0.0
 49
1.0
175
     0
142
0.0208333333333333
142
0.0
142
0.0
142
0.0
142
0.0
142
0.0208333333333333
142
0.0
142
0.0
142
0.0
142
0.0
142
1.0
142
0.0
142
0.0
142
0.0
142
0.0
142
1.0
179
     0
144
0.0208333333333333
144
0.0
144
0.0
144
0.0
144
0.0
144
0.0208333333333333
144
0.0
144
0.0
144
0.0
144
0.0
144
1.0
144
0.0
144
0.0
144
0.0
144
0.0
144
1.0
147
0.0208333333333333
147
0.0
147
0.0
147
0.0
147
0.0
147
0.0208333333333333
147
0.0
147
0.0
147
0.0
147
0.0
147
1.0
147
0.0
147
0.0
147
0.0
147
0.0
147
1.0
  0
MLEADERSTYLE
  5
76B
102
{ACAD_REACTORS
330
76A
102
}
330
76A
100
AcDbMLeaderStyle
170
     2
171
     1
172
     0
 90
        2
 40
0.0
 41
0.0
173
     1
 91
-1056964608
340
11
 92
       -2
290
     1
 42
0.09
291
     1
 43
0.36
  3
Standard
 44
0.18
300

342
17
174
     1
178
     6
175
     1
176
     0
 93
-1056964608
 45
0.18
292
     0
297
     0
 46
0.18
 94
-1056964608
 47
1.0
 49
1.0
140
1.0
293
     1
141
0.0
294
     1
177
     0
142
1.0
295
     0
296
     0
143
0.125
1001
ACAD_MLEADERVER
1070
     2
  0
MLINESTYLE
  5
1C
102
{ACAD_REACTORS
330
1B
102
}
330
1B
100
AcDbMlineStyle
  2
STANDARD
 70
     0
  3

 62
     0
 51
90.0
 52
90.0
 71
     2
 49
0.5
 62
   256
  6
BYLAYER
 49
-0.5
 62
   256
  6
BYLAYER
  0
ACDBPLACEHOLDER
  5
71A
102
{ACAD_REACTORS
330
719
102
}
330
719
  0
SCALE
  5
749
102
{ACAD_REACTORS
330
748
102
}
330
748
100
AcDbScale
 70
     0
300
1:1
140
1.0
141
1.0
290
     1
  0
SCALE
  5
74A
102
{ACAD_REACTORS
330
748
102
}
330
748
100
AcDbScale
 70
     0
300
1:2
140
1.0
141
2.0
290
     0
  0
SCALE
  5
74B
102
{ACAD_REACTORS
330
748
102
}
330
748
100
AcDbScale
 70
     0
300
1:4
140
1.0
141
4.0
290
     0
  0
SCALE
  5
74C
102
{ACAD_REACTORS
330
748
102
}
330
748
100
AcDbScale
 70
     0
300
1:5
140
1.0
141
5.0
290
     0
  0
SCALE
  5
74D
102
{ACAD_REACTORS
330
748
102
}
330
748
100
AcDbScale
 70
     0
300
1:8
140
1.0
141
8.0
290
     0
  0
SCALE
  5
74E
102
{ACAD_REACTORS
330
748
102
}
330
748
100
AcDbScale
 70
     0
300
1:10
140
1.0
141
10.0
290
     0
  0
SCALE
  5
74F
102
{ACAD_REACTORS
330
748
102
}
330
748
100
AcDbScale
 70
     0
300
1:16
140
1.0
141
16.0
290
     0
  0
SCALE
  5
750
102
{ACAD_REACTORS
330
748
102
}
330
748
100
AcDbScale
 70
     0
300
1:20
140
1.0
141
20.0
290
     0
  0
SCALE
  5
751
102
{ACAD_REACTORS
330
748
102
}
330
748
100
AcDbScale
 70
     0
300
1:30
140
1.0
141
30.0
290
     0
  0
SCALE
  5
752
102
{ACAD_REACTORS
330
748
102
}
330
748
100
AcDbScale
 70
     0
300
1:40
140
1.0
141
40.0
290
     0
  0
SCALE
  5
753
102
{ACAD_REACTORS
330
748
102
}
330
748
100
AcDbScale
 70
     0
300
1:50
140
1.0
141
50.0
290
     0
  0
SCALE
  5
754
102
{ACAD_REACTORS
330
748
102
}
330
748
100
AcDbScale
 70
     0
300
1:100
140
1.0
141
100.0
290
     0
  0
SCALE
  5
755
102
{ACAD_REACTORS
330
748
102
}
330
748
100
AcDbScale
 70
     0
300
2:1
140
2.0
141
1.0
290
     0
  0
SCALE
  5
756
102
{ACAD_REACTORS
330
748
102
}
330
748
100
AcDbScale
 70
     0
300
4:1
140
4.0
141
1.0
290
     0
  0
SCALE
  5
757
102
{ACAD_REACTORS
330
748
102
}
330
748
100
AcDbScale
 70
     0
300
8:1
140
8.0
141
1.0
290
     0
  0
SCALE
  5
758
102
{ACAD_REACTORS
330
748
102
}
330
748
100
AcDbScale
 70
     0
300
10:1
140
10.0
141
1.0
290
     0
  0
SCALE
  5
759
102
{ACAD_REACTORS
330
748
102
}
330
748
100
AcDbScale
 70
     0
300
100:1
140
100.0
141
1.0
290
     0
  0
SCALE
  5
75A
102
{ACAD_REACTORS
330
748
102
}
330
748
100
AcDbScale
 70
     0
300
1/128" = 1'-0"
140
0.0078125
141
12.0
290
     0
  0
SCALE
  5
75B
102
{ACAD_REACTORS
330
748
102
}
330
748
100
AcDbScale
 70
     0
300
1/64" = 1'-0"
140
0.015625
141
12.0
290
     0
  0
SCALE
  5
75C
102
{ACAD_REACTORS
330
748
102
}
330
748
100
AcDbScale
 70
     0
300
1/32" = 1'-0"
140
0.03125
141
12.0
290
     0
  0
SCALE
  5
75D
102
{ACAD_REACTORS
330
748
102
}
330
748
100
AcDbScale
 70
     0
300
1/16" = 1'-0"
140
0.0625
141
12.0
290
     0
  0
SCALE
  5
75E
102
{ACAD_REACTORS
330
748
102
}
330
748
100
AcDbScale
 70
     0
300
3/32" = 1'-0"
140
0.09375
141
12.0
290
     0
  0
SCALE
  5
75F
102
{ACAD_REACTORS
330
748
102
}
330
748
100
AcDbScale
 70
     0
300
1/8" = 1'-0"
140
0.125
141
12.0
290
     0
  0
SCALE
  5
760
102
{ACAD_REACTORS
330
748
102
}
330
748
100
AcDbScale
 70
     0
300
3/16" = 1'-0"
140
0.1875
141
12.0
290
     0
  0
SCALE
  5
761
102
{ACAD_REACTORS
330
748
102
}
330
748
100
AcDbScale
 70
     0
300
1/4" = 1'-0"
140
0.25
141
12.0
290
     0
  0
SCALE
  5
762
102
{ACAD_REACTORS
330
748
102
}
330
748
100
AcDbScale
 70
     0
300
3/8" = 1'-0"
140
0.375
141
12.0
290
     0
  0
SCALE
  5
763
102
{ACAD_REACTORS
330
748
102
}
330
748
100
AcDbScale
 70
     0
300
1/2" = 1'-0"
140
0.5
141
12.0
290
     0
  0
SCALE
  5
764
102
{ACAD_REACTORS
330
748
102
}
330
748
100
AcDbScale
 70
     0
300
3/4" = 1'-0"
140
0.75
141
12.0
290
     0
  0
SCALE
  5
765
102
{ACAD_REACTORS
330
748
102
}
330
748
100
AcDbScale
 70
     0
300
1" = 1'-0"
140
1.0
141
12.0
290
     0
  0
SCALE
  5
766
102
{ACAD_REACTORS
330
748
102
}
330
748
100
AcDbScale
 70
     0
300
1-1/2" = 1'-0"
140
1.5
141
12.0
290
     0
  0
SCALE
  5
767
102
{ACAD_REACTORS
330
748
102
}
330
748
100
AcDbScale
 70
     0
300
3" = 1'-0"
140
3.0
141
12.0
290
     0
  0
SCALE
  5
768
102
{ACAD_REACTORS
330
748
102
}
330
748
100
AcDbScale
 70
     0
300
6" = 1'-0"
140
6.0
141
12.0
290
     0
  0
SCALE
  5
769
102
{ACAD_REACTORS
330
748
102
}
330
748
100
AcDbScale
 70
     0
300
1'-0" = 1'-0"
140
12.0
141
12.0
290
     0
  0
TABLESTYLE
  5
747
102
{ACAD_XDICTIONARY
360
791
102
}
102
{ACAD_REACTORS
330
746
102
}
330
746
100
AcDbTableStyle
  3
Standard
 70
     0
 71
     0
 40
0.06
 41
0.06
280
     0
281
     0
  7
STANDARD
140
0.18
170
     2
 62
     0
 63
     7
283
     0
274
    -2
284
     1
 64
     0
275
    -2
285
     1
 65
     0
276
    -2
286
     1
 66
     0
277
    -2
287
     1
 67
     0
278
    -2
288
     1
 68
     0
279
    -2
289
     1
 69
     0
  7
STANDARD
140
0.25
170
     5
 62
     0
 63
     7
283
     0
274
    -2
284
     1
 64
     0
275
    -2
285
     1
 65
     0
276
    -2
286
     1
 66
     0
277
    -2
287
     1
 67
     0
278
    -2
288
     1
 68
     0
279
    -2
289
     1
 69
     0
  7
STANDARD
140
0.18
170
     5
 62
     0
 63
     7
283
     0
274
    -2
284
     1
 64
     0
275
    -2
285
     1
 65
     0
276
    -2
286
     1
 66
     0
277
    -2
287
     1
 67
     0
278
    -2
288
     1
 68
     0
279
    -2
289
     1
 69
     0
  0
VISUALSTYLE
  5
73A
102
{ACAD_REACTORS
330
734
102
}
330
734
100
AcDbVisualStyle
  2
2dWireframe
 70
     4
 71
     0
 72
     2
 73
     0
 90
        0
 40
-0.6
 41
-30.0
 62
     5
 63
     7
 74
     1
 91
        4
 64
     7
 65
   257
 75
     1
175
     1
 42
1.0
 92
        0
 66
   257
 43
1.0
 76
     1
 77
     6
 78
     2
 67
     7
 79
     5
170
     0
171
     0
290
     0
174
     0
 93
        1
 44
0.0
173
     0
291
     0
 45
0.0
1001
ACAD
1000
AcDbSavedByObjectVersion
1070
     0
  0
VISUALSTYLE
  5
73C
102
{ACAD_REACTORS
330
734
102
}
330
734
100
AcDbVisualStyle
  2
3D Hidden
 70
     6
 71
     1
 72
     2
 73
     2
 90
        0
 40
-0.6
 41
-30.0
 62
     5
 63
     7
 74
     2
 91
        2
 64
     7
 65
   257
 75
     2
175
     1
 42
40.0
 92
        0
 66
   257
 43
1.0
 76
     1
 77
     6
 78
     2
 67
     7
 79
     3
170
     0
171
     0
290
     0
174
     0
 93
        1
 44
0.0
173
     0
291
     0
 45
0.0
1001
ACAD
1000
AcDbSavedByObjectVersion
1070
     0
  0
VISUALSTYLE
  5
73B
102
{ACAD_REACTORS
330
734
102
}
330
734
100
AcDbVisualStyle
  2
3dWireframe
 70
     5
 71
     0
 72
     2
 73
     0
 90
        0
 40
-0.6
 41
-30.0
 62
     5
 63
     7
 74
     1
 91
        4
 64
     7
 65
   257
 75
     1
175
     1
 42
1.0
 92
        0
 66
   257
 43
1.0
 76
     1
 77
     6
 78
     2
 67
     7
 79
     5
170
     0
171
     0
290
     0
174
     0
 93
        1
 44
0.0
173
     0
291
     0
 45
0.0
1001
ACAD
1000
AcDbSavedByObjectVersion
1070
     0
  0
VISUALSTYLE
  5
739
102
{ACAD_REACTORS
330
734
102
}
330
734
100
AcDbVisualStyle
  2
Basic
 70
     7
 71
     1
 72
     0
 73
     1
 90
        0
 40
-0.6
 41
-30.0
 62
     5
 63
     7
 74
     0
 91
        4
 64
     7
 65
   257
 75
     1
175
     1
 42
1.0
 92
        8
 66
     7
 43
1.0
 76
     1
 77
     6
 78
     2
 67
     7
 79
     5
170
     0
171
     0
290
     0
174
     0
 93
        1
 44
0.0
173
     0
291
     1
 45
0.0
1001
ACAD
1000
AcDbSavedByObjectVersion
1070
     0
  0
VISUALSTYLE
  5
740
102
{ACAD_REACTORS
330
734
102
}
330
734
100
AcDbVisualStyle
  2
Brighten
 70
    12
 71
     2
 72
     2
 73
     0
 90
        0
 40
-0.6
 41
-30.0
 62
     5
 63
     7
 74
     1
 91
        4
 64
     7
 65
   257
 75
     1
175
     1
 42
1.0
 92
        8
 66
     7
 43
1.0
 76
     1
 77
     6
 78
     2
 67
     7
 79
     5
170
     0
171
     0
290
     0
174
     0
 93
        1
 44
50.0
173
     0
291
     1
 45
0.0
1001
ACAD
1000
AcDbSavedByObjectVersion
1070
     0
  0
VISUALSTYLE
  5
744
102
{ACAD_REACTORS
330
734
102
}
330
734
100
AcDbVisualStyle
  2
ColorChange
 70
    16
 71
     2
 72
     2
 73
     3
 90
        0
 40
-0.6
 41
-30.0
 62
     5
 63
     8
 74
     1
 91
        4
 64
     7
 65
   257
 75
     1
175
     1
 42
1.0
 92
        8
 66
     8
 43
1.0
 76
     1
 77
     6
 78
     2
 67
     7
 79
     5
170
     0
171
     0
290
     0
174
     0
 93
        1
 44
0.0
173
     0
291
     1
 45
0.0
1001
ACAD
1000
AcDbSavedByObjectVersion
1070
     0
  0
VISUALSTYLE
  5
73D
102
{ACAD_REACTORS
330
734
102
}
330
734
100
AcDbVisualStyle
  2
Conceptual
 70
     9
 71
     3
 72
     2
 73
     0
 90
        0
 40
-0.6
 41
-30.0
 62
     5
 63
     7
 74
     2
 91
        2
 64
     7
 65
   257
 75
     1
175
     1
 42
40.0
 92
        8
 66
     7
 43
1.0
 76
     1
 77
     6
 78
     2
 67
     7
 79
     3
170
     0
171
     0
290
     0
174
     0
 93
        1
 44
0.0
173
     0
291
     0
 45
0.0
1001
ACAD
1000
AcDbSavedByObjectVersion
1070
     0
  0
VISUALSTYLE
  5
73F
102
{ACAD_REACTORS
330
734
102
}
330
734
100
AcDbVisualStyle
  2
Dim
 70
    11
 71
     2
 72
     2
 73
     0
 90
        0
 40
-0.6
 41
-30.0
 62
     5
 63
     7
 74
     1
 91
        4
 64
     7
 65
   257
 75
     1
175
     1
 42
1.0
 92
        8
 66
     7
 43
1.0
 76
     1
 77
     6
 78
     2
 67
     7
 79
     5
170
     0
171
     0
290
     0
174
     0
 93
        1
 44
-50.0
173
     0
291
     1
 45
0.0
1001
ACAD
1000
AcDbSavedByObjectVersion
1070
     0
  0
VISUALSTYLE
  5
743
102
{ACAD_REACTORS
330
734
102
}
330
734
100
AcDbVisualStyle
  2
Facepattern
 70
    15
 71
     2
 72
     2
 73
     0
 90
        0
 40
-0.6
 41
-30.0
 62
     5
 63
     7
 74
     1
 91
        4
 64
     7
 65
   257
 75
     1
175
     1
 42
1.0
 92
        8
 66
     7
 43
1.0
 76
     1
 77
     6
 78
     2
 67
     7
 79
     5
170
     0
171
     0
290
     0
174
     0
 93
        1
 44
0.0
173
     0
291
     1
 45
0.0
1001
ACAD
1000
AcDbSavedByObjectVersion
1070
     0
  0
VISUALSTYLE
  5
735
102
{ACAD_REACTORS
330
734
102
}
330
734
100
AcDbVisualStyle
  2
Flat
 70
     0
 71
     2
 72
     1
 73
     1
 90
        2
 40
-0.6
 41
30.0
 62
     5
 63
     7
 74
     0
 91
        4
 64
     7
 65
   257
 75
     1
175
     1
 42
1.0
 92
        8
 66
     7
 43
1.0
 76
     1
 77
     6
 78
     2
 67
     7
 79
     5
170
     0
171
     0
290
     0
174
     0
 93
       13
 44
0.0
173
     0
291
     1
 45
0.0
1001
ACAD
1000
AcDbSavedByObjectVersion
1070
     0
  0
VISUALSTYLE
  5
736
102
{ACAD_REACTORS
330
734
102
}
330
734
100
AcDbVisualStyle
  2
FlatWithEdges
 70
     1
 71
     2
 72
     1
 73
     1
 90
        2
 40
-0.6
 41
30.0
 62
     5
 63
     7
 74
     1
 91
        4
 64
     7
 65
   257
 75
     1
175
     1
 42
1.0
 92
        0
 66
   257
 43
1.0
 76
     1
 77
     6
 78
     2
 67
     7
 79
     5
170
     0
171
     0
290
     0
174
     0
 93
       13
 44
0.0
173
     0
291
     1
 45
0.0
1001
ACAD
1000
AcDbSavedByObjectVersion
1070
     0
  0
VISUALSTYLE
  5
737
102
{ACAD_REACTORS
330
734
102
}
330
734
100
AcDbVisualStyle
  2
Gouraud
 70
     2
 71
     2
 72
     2
 73
     1
 90
        2
 40
-0.6
 41
30.0
 62
     5
 63
     7
 74
     0
 91
        4
 64
     7
 65
   257
 75
     1
175
     1
 42
1.0
 92
        0
 66
     7
 43
1.0
 76
     1
 77
     6
 78
     2
 67
     7
 79
     5
170
     0
171
     0
290
     0
174
     0
 93
       13
 44
0.0
173
     0
291
     1
 45
0.0
1001
ACAD
1000
AcDbSavedByObjectVersion
1070
     0
  0
VISUALSTYLE
  5
738
102
{ACAD_REACTORS
330
734
102
}
330
734
100
AcDbVisualStyle
  2
GouraudWithEdges
 70
     3
 71
     2
 72
     2
 73
     1
 90
        2
 40
-0.6
 41
30.0
 62
     5
 63
     7
 74
     1
 91
        4
 64
     7
 65
   257
 75
     1
175
     1
 42
1.0
 92
        0
 66
   257
 43
1.0
 76
     1
 77
     6
 78
     2
 67
     7
 79
     5
170
     0
171
     0
290
     0
174
     0
 93
       13
 44
0.0
173
     0
291
     1
 45
0.0
1001
ACAD
1000
AcDbSavedByObjectVersion
1070
     0
  0
VISUALSTYLE
  5
742
102
{ACAD_REACTORS
330
734
102
}
330
734
100
AcDbVisualStyle
  2
Linepattern
 70
    14
 71
     2
 72
     2
 73
     0
 90
        0
 40
-0.6
 41
-30.0
 62
     5
 63
     7
 74
     1
 91
        4
 64
     7
 65
   257
 75
     7
175
     7
 42
1.0
 92
        8
 66
     7
 43
1.0
 76
     1
 77
     6
 78
     2
 67
     7
 79
     5
170
     0
171
     0
290
     0
174
     0
 93
        1
 44
0.0
173
     0
291
     1
 45
0.0
1001
ACAD
1000
AcDbSavedByObjectVersion
1070
     0
  0
VISUALSTYLE
  5
73E
102
{ACAD_REACTORS
330
734
102
}
330
734
100
AcDbVisualStyle
  2
Realistic
 70
     8
 71
     2
 72
     2
 73
     0
 90
        0
 40
-0.6
 41
-30.0
 62
     5
 63
     7
 74
     1
 91
        0
 64
     7
 65
   257
 75
     1
175
     1
 42
1.0
 92
        8
 66
     8
 43
1.0
 76
     1
 77
     6
 78
     2
 67
     7
 79
     5
170
     0
171
     0
290
     0
174
     0
 93
       13
 44
0.0
173
     0
291
     0
 45
0.0
1001
ACAD
1000
AcDbSavedByObjectVersion
1070
     0
  0
VISUALSTYLE
  5
741
102
{ACAD_REACTORS
330
734
102
}
330
734
100
AcDbVisualStyle
  2
Thicken
 70
    13
 71
     2
 72
     2
 73
     0
 90
        0
 40
-0.6
 41
-30.0
 62
     5
 63
     7
 74
     1
 91
        4
 64
     7
 65
   257
 75
     1
175
     1
 42
1.0
 92
       12
 66
     7
 43
1.0
 76
     1
 77
     6
 78
     2
 67
     7
 79
     5
170
     0
171
     0
290
     0
174
     0
 93
        1
 44
0.0
173
     0
291
     1
 45
0.0
1001
ACAD
1000
AcDbSavedByObjectVersion
1070
     0
  0
DICTIONARYVAR
  5
78D
102
{ACAD_REACTORS
330
78A
102
}
330
78A
100
DictionaryVariables
280
     0
  1
1:1
  0
DICTIONARYVAR
  5
78C
102
{ACAD_REACTORS
330
78A
102
}
330
78A
100
DictionaryVariables
280
     0
  1
STANDARD
  0
DICTIONARYVAR
  5
78B
102
{ACAD_REACTORS
330
78A
102
}
330
78A
100
DictionaryVariables
280
     0
  1
STANDARD
  0
DICTIONARYVAR
  5
790
102
{ACAD_REACTORS
330
78A
102
}
330
78A
100
DictionaryVariables
280
     0
  1
1
  0
DICTIONARYVAR
  5
78F
102
{ACAD_REACTORS
330
78A
102
}
330
78A
100
DictionaryVariables
280
     0
  1
0
  0
DICTIONARYVAR
  5
78E
102
{ACAD_REACTORS
330
78A
102
}
330
78A
100
DictionaryVariables
280
     0
  1
127
  0
XRECORD
  5
789
102
{ACAD_REACTORS
330
787
102
}
330
787
100
AcDbXrecord
280
     1
330
1B6
330
193
330
196
330
3A3
330
3A4
330
777
330
778
330
3B7
330
3B8
330
3C1
330
3C2
330
3CE
330
3CF
330
3D8
330
3D9
330
3E2
330
3E3
330
3EC
330
3ED
330
3F6
330
3F7
330
409
330
40A
330
413
330
414
330
710
330
70F
  0
DICTIONARY
  5
799
330
76F
100
AcDbDictionary
280
     1
281
     1
  3
ACAD_XREC_ROUNDTRIP
360
79A
  0
DICTIONARY
  5
79B
330
770
100
AcDbDictionary
280
     1
281
     1
  3
ACAD_XREC_ROUNDTRIP
360
79C
  0
DICTIONARY
  5
725
330
724
100
AcDbDictionary
280
     1
281
     1
  3
ACAD_XREC_ROUNDTRIP
360
796
  3
BUMPTILE
360
727
  3
DIFFUSETILE
360
726
  3
OPACITYTILE
360
72A
  3
REFLECTIONTILE
360
729
  3
REFRACTIONTILE
360
72B
  3
SPECULARTILE
360
728
  0
DICTIONARY
  5
71D
330
71C
100
AcDbDictionary
280
     1
281
     1
  3
ACAD_XREC_ROUNDTRIP
360
795
  3
BUMPTILE
360
71F
  3
DIFFUSETILE
360
71E
  3
OPACITYTILE
360
722
  3
REFLECTIONTILE
360
721
  3
REFRACTIONTILE
360
723
  3
SPECULARTILE
360
720
  0
DICTIONARY
  5
72D
330
72C
100
AcDbDictionary
280
     1
281
     1
  3
ACAD_XREC_ROUNDTRIP
360
797
  3
BUMPTILE
360
72F
  3
DIFFUSETILE
360
72E
  3
OPACITYTILE
360
732
  3
REFLECTIONTILE
360
731
  3
REFRACTIONTILE
360
733
  3
SPECULARTILE
360
730
  0
DICTIONARY
  5
791
330
747
100
AcDbDictionary
280
     1
281
     1
  3
ACAD_ROUNDTRIP_2008_TABLESTYLE_CELLSTYLEMAP
360
792
  3
ACAD_XREC_ROUNDTRIP
360
798
  0
XRECORD
  5
79A
102
{ACAD_REACTORS
330
799
102
}
330
799
100
AcDbXrecord
280
     1
102
SHADEPLOT
 70
     0
102
SHADEPLOTRESLEVEL
 70
     2
102
SHADEPLOTCUSTOMDPI
 70
   300
  0
XRECORD
  5
79C
102
{ACAD_REACTORS
330
79B
102
}
330
79B
100
AcDbXrecord
280
     1
102
SHADEPLOT
 70
     0
102
SHADEPLOTRESLEVEL
 70
     2
102
SHADEPLOTCUSTOMDPI
 70
   300
  0
XRECORD
  5
796
102
{ACAD_REACTORS
330
725
102
}
330
725
100
AcDbXrecord
280
     1
102
MATERIAL
148
0.0
149
0.0
149
0.0
 93
        0
 94
      127
282
     0
 72
     0
 77
     0
171
     0
175
     0
179
     0
273
     0
  0
XRECORD
  5
727
102
{ACAD_REACTORS
330
725
102
}
330
725
100
AcDbXrecord
280
     1
270
     1
271
     1
  0
XRECORD
  5
726
102
{ACAD_REACTORS
330
725
102
}
330
725
100
AcDbXrecord
280
     1
270
     1
271
     1
  0
XRECORD
  5
72A
102
{ACAD_REACTORS
330
725
102
}
330
725
100
AcDbXrecord
280
     1
270
     1
271
     1
  0
XRECORD
  5
729
102
{ACAD_REACTORS
330
725
102
}
330
725
100
AcDbXrecord
280
     1
270
     1
271
     1
  0
XRECORD
  5
72B
102
{ACAD_REACTORS
330
725
102
}
330
725
100
AcDbXrecord
280
     1
270
     1
271
     1
  0
XRECORD
  5
728
102
{ACAD_REACTORS
330
725
102
}
330
725
100
AcDbXrecord
280
     1
270
     1
271
     1
  0
XRECORD
  5
795
102
{ACAD_REACTORS
330
71D
102
}
330
71D
100
AcDbXrecord
280
     1
102
MATERIAL
148
0.0
149
0.0
149
0.0
 93
        0
 94
      127
282
     0
 72
     0
 77
     0
171
     0
175
     0
179
     0
273
     0
  0
XRECORD
  5
71F
102
{ACAD_REACTORS
330
71D
102
}
330
71D
100
AcDbXrecord
280
     1
270
     1
271
     1
  0
XRECORD
  5
71E
102
{ACAD_REACTORS
330
71D
102
}
330
71D
100
AcDbXrecord
280
     1
270
     1
271
     1
  0
XRECORD
  5
722
102
{ACAD_REACTORS
330
71D
102
}
330
71D
100
AcDbXrecord
280
     1
270
     1
271
     1
  0
XRECORD
  5
721
102
{ACAD_REACTORS
330
71D
102
}
330
71D
100
AcDbXrecord
280
     1
270
     1
271
     1
  0
XRECORD
  5
723
102
{ACAD_REACTORS
330
71D
102
}
330
71D
100
AcDbXrecord
280
     1
270
     1
271
     1
  0
XRECORD
  5
720
102
{ACAD_REACTORS
330
71D
102
}
330
71D
100
AcDbXrecord
280
     1
270
     1
271
     1
  0
XRECORD
  5
797
102
{ACAD_REACTORS
330
72D
102
}
330
72D
100
AcDbXrecord
280
     1
102
MATERIAL
148
0.0
149
0.0
149
0.0
 93
        0
 94
      127
282
     0
 72
     0
 77
     0
171
     0
175
     0
179
     0
273
     0
  0
XRECORD
  5
72F
102
{ACAD_REACTORS
330
72D
102
}
330
72D
100
AcDbXrecord
280
     1
270
     1
271
     1
  0
XRECORD
  5
72E
102
{ACAD_REACTORS
330
72D
102
}
330
72D
100
AcDbXrecord
280
     1
270
     1
271
     1
  0
XRECORD
  5
732
102
{ACAD_REACTORS
330
72D
102
}
330
72D
100
AcDbXrecord
280
     1
270
     1
271
     1
  0
XRECORD
  5
731
102
{ACAD_REACTORS
330
72D
102
}
330
72D
100
AcDbXrecord
280
     1
270
     1
271
     1
  0
XRECORD
  5
733
102
{ACAD_REACTORS
330
72D
102
}
330
72D
100
AcDbXrecord
280
     1
270
     1
271
     1
  0
XRECORD
  5
730
102
{ACAD_REACTORS
330
72D
102
}
330
72D
100
AcDbXrecord
280
     1
270
     1
271
     1
  0
CELLSTYLEMAP
  5
792
102
{ACAD_REACTORS
330
791
102
}
330
791
100
AcDbCellStyleMap
 90
        3
300
CELLSTYLE
  1
TABLEFORMAT_BEGIN
 90
        5
170
     1
 91
        0
 92
    32768
 62
   257
 93
        1
300
CONTENTFORMAT
  1
CONTENTFORMAT_BEGIN
 90
        0
 91
        0
 92
      512
 93
        0
300

 40
0.0
140
1.0
 94
        5
 62
     0
340
17
144
0.25
309
CONTENTFORMAT_END
171
     0
 94
        0
309
TABLEFORMAT_END
  1
CELLSTYLE_BEGIN
 90
        1
 91
        1
300
_TITLE
309
CELLSTYLE_END
300
CELLSTYLE
  1
TABLEFORMAT_BEGIN
 90
        5
170
     1
 91
        0
 92
        0
 62
   257
 93
        1
300
CONTENTFORMAT
  1
CONTENTFORMAT_BEGIN
 90
        0
 91
        0
 92
      512
 93
        0
300

 40
0.0
140
1.0
 94
        5
 62
     0
340
17
144
0.18
309
CONTENTFORMAT_END
171
     0
 94
        0
309
TABLEFORMAT_END
  1
CELLSTYLE_BEGIN
 90
        2
 91
        1
300
_HEADER
309
CELLSTYLE_END
300
CELLSTYLE
  1
TABLEFORMAT_BEGIN
 90
        5
170
     1
 91
        0
 92
        0
 62
   257
 93
        1
300
CONTENTFORMAT
  1
CONTENTFORMAT_BEGIN
 90
        0
 91
        0
 92
      512
 93
        0
300

 40
0.0
140
1.0
 94
        2
 62
     0
340
17
144
0.18
309
CONTENTFORMAT_END
171
     0
 94
        0
309
TABLEFORMAT_END
  1
CELLSTYLE_BEGIN
 90
        3
 91
        2
300
_DATA
309
CELLSTYLE_END
  0
XRECORD
  5
798
102
{ACAD_REACTORS
330
791
102
}
330
791
100
AcDbXrecord
280
     1
102
ACAD_ROUNDTRIP_PRE2007_TABLESTYLE
 90
      512
 91
        0
  1

 92
      512
 93
        0
  2

 94
      512
 95
        0
  3

  0
ENDSEC
  0
EOF
