  0
SECTION
  2
HEADER
  9
$ACADVER
  1
AC1015
  9
$ACADMAINTVER
 70
    20
  9
$DWGCODEPAGE
  3
ANSI_932
  9
$INSBASE
 10
0.0
 20
0.0
 30
0.0
  9
$EXTMIN
 10
39267.64067263833
 20
-4149.470000000001
 30
0.0
  9
$EXTMAX
 10
43342.64067263832
 20
-1319.470000000001
 30
0.0
  9
$LIMMIN
 10
0.0
 20
0.0
  9
$LIMMAX
 10
0.0
 20
0.0
  9
$ORTHOMODE
 70
     0
  9
$REGENMODE
 70
     1
  9
$FILLMODE
 70
     1
  9
$QTEXTMODE
 70
     0
  9
$MIRRTEXT
 70
     0
  9
$LTSCALE
 40
12.7
  9
$ATTMODE
 70
     1
  9
$TEXTSIZE
 40
0.0
  9
$TRACEWID
 40
1.0
  9
$TEXTSTYLE
  7
STANDARD
  9
$CLAYER
  8
__
  9
$CELTYPE
  6
CONTINUOUS
  9
$CECOLOR
 62
     4
  9
$CELTSCALE
 40
1.0
  9
$DISPSILH
 70
     0
  9
$DIMSCALE
 40
1.0
  9
$DIMASZ
 40
8.0
  9
$DIMEXO
 40
0.0625
  9
$DIMDLI
 40
0.38
  9
$DIMRND
 40
0.0
  9
$DIMDLE
 40
0.0
  9
$DIMEXE
 40
0.18
  9
$DIMTP
 40
0.0
  9
$DIMTM
 40
0.0
  9
$DIMTXT
 40
30.0
  9
$DIMCEN
 40
0.09
  9
$DIMTSZ
 40
0.0
  9
$DIMTOL
 70
     0
  9
$DIMLIM
 70
     0
  9
$DIMTIH
 70
     0
  9
$DIMTOH
 70
     0
  9
$DIMSE1
 70
     0
  9
$DIMSE2
 70
     0
  9
$DIMTAD
 70
     1
  9
$DIMZIN
 70
     0
  9
$DIMBLK
  1
Origin
  9
$DIMASO
 70
     0
  9
$DIMSHO
 70
     1
  9
$DIMPOST
  1

  9
$DIMAPOST
  1

  9
$DIMALT
 70
     0
  9
$DIMALTD
 70
     2
  9
$DIMALTF
 40
25.4
  9
$DIMLFAC
 40
1.0
  9
$DIMTOFL
 70
     1
  9
$DIMTVP
 40
0.0
  9
$DIMTIX
 70
     1
  9
$DIMSOXD
 70
     1
  9
$DIMSAH
 70
     0
  9
$DIMBLK1
  1

  9
$DIMBLK2
  1

  9
$DIMSTYLE
  2
10.0
  9
$DIMCLRD
 70
     0
  9
$DIMCLRE
 70
     0
  9
$DIMCLRT
 70
     0
  9
$DIMTFAC
 40
1.0
  9
$DIMGAP
 40
0.09
  9
$DIMJUST
 70
     0
  9
$DIMSD1
 70
     0
  9
$DIMSD2
 70
     0
  9
$DIMTOLJ
 70
     1
  9
$DIMTZIN
 70
     0
  9
$DIMALTZ
 70
     0
  9
$DIMALTTZ
 70
     0
  9
$DIMUPT
 70
     0
  9
$DIMDEC
 70
     1
  9
$DIMTDEC
 70
     1
  9
$DIMALTU
 70
     2
  9
$DIMALTTD
 70
     2
  9
$DIMTXSTY
  7
STANDARD
  9
$DIMAUNIT
 70
     0
  9
$DIMADEC
 70
     0
  9
$DIMALTRND
 40
0.0
  9
$DIMAZIN
 70
     0
  9
$DIMDSEP
 70
    46
  9
$DIMATFIT
 70
     0
  9
$DIMFRAC
 70
     0
  9
$DIMLDRBLK
  1

  9
$DIMLUNIT
 70
     2
  9
$DIMLWD
 70
    -2
  9
$DIMLWE
 70
    -2
  9
$DIMTMOVE
 70
     0
  9
$LUNITS
 70
     2
  9
$LUPREC
 70
     4
  9
$SKETCHINC
 40
0.1
  9
$FILLETRAD
 40
0.0
  9
$AUNITS
 70
     0
  9
$AUPREC
 70
     0
  9
$MENU
  1
acad
  9
$ELEVATION
 40
0.0
  9
$PELEVATION
 40
0.0
  9
$THICKNESS
 40
0.0
  9
$LIMCHECK
 70
     0
  9
$CHAMFERA
 40
0.0
  9
$CHAMFERB
 40
0.0
  9
$CHAMFERC
 40
0.0
  9
$CHAMFERD
 40
0.0
  9
$SKPOLY
 70
     0
  9
$TDCREATE
 40
2455027.645046296
  9
$TDUCREATE
 40
2455027.270046296
  9
$TDUPDATE
 40
2455671.754032188
  9
$TDUUPDATE
 40
2455671.379032188
  9
$TDINDWG
 40
0.4474675000
  9
$TDUSRTIMER
 40
0.4474675000
  9
$USRTIMER
 70
     1
  9
$ANGBASE
 50
0.0
  9
$ANGDIR
 70
     0
  9
$PDMODE
 70
     1
  9
$PDSIZE
 40
-2.0
  9
$PLINEWID
 40
0.0
  9
$SPLFRAME
 70
     0
  9
$SPLINETYPE
 70
     6
  9
$SPLINESEGS
 70
     8
  9
$HANDSEED
  5
302D
  9
$SURFTAB1
 70
     6
  9
$SURFTAB2
 70
     6
  9
$SURFTYPE
 70
     6
  9
$SURFU
 70
     6
  9
$SURFV
 70
     6
  9
$UCSBASE
  2

  9
$UCSNAME
  2

  9
$UCSORG
 10
0.0
 20
0.0
 30
0.0
  9
$UCSXDIR
 10
1.0
 20
0.0
 30
0.0
  9
$UCSYDIR
 10
0.0
 20
1.0
 30
0.0
  9
$UCSORTHOREF
  2

  9
$UCSORTHOVIEW
 70
     0
  9
$UCSORGTOP
 10
0.0
 20
0.0
 30
0.0
  9
$UCSORGBOTTOM
 10
0.0
 20
0.0
 30
0.0
  9
$UCSORGLEFT
 10
0.0
 20
0.0
 30
0.0
  9
$UCSORGRIGHT
 10
0.0
 20
0.0
 30
0.0
  9
$UCSORGFRONT
 10
0.0
 20
0.0
 30
0.0
  9
$UCSORGBACK
 10
0.0
 20
0.0
 30
0.0
  9
$PUCSBASE
  2

  9
$PUCSNAME
  2

  9
$PUCSORG
 10
0.0
 20
0.0
 30
0.0
  9
$PUCSXDIR
 10
1.0
 20
0.0
 30
0.0
  9
$PUCSYDIR
 10
0.0
 20
1.0
 30
0.0
  9
$PUCSORTHOREF
  2

  9
$PUCSORTHOVIEW
 70
     0
  9
$PUCSORGTOP
 10
0.0
 20
0.0
 30
0.0
  9
$PUCSORGBOTTOM
 10
0.0
 20
0.0
 30
0.0
  9
$PUCSORGLEFT
 10
0.0
 20
0.0
 30
0.0
  9
$PUCSORGRIGHT
 10
0.0
 20
0.0
 30
0.0
  9
$PUCSORGFRONT
 10
0.0
 20
0.0
 30
0.0
  9
$PUCSORGBACK
 10
0.0
 20
0.0
 30
0.0
  9
$USERI1
 70
     0
  9
$USERI2
 70
     0
  9
$USERI3
 70
     0
  9
$USERI4
 70
     0
  9
$USERI5
 70
     0
  9
$USERR1
 40
0.0
  9
$USERR2
 40
0.0
  9
$USERR3
 40
0.0
  9
$USERR4
 40
0.0
  9
$USERR5
 40
0.0
  9
$WORLDVIEW
 70
     1
  9
$SHADEDGE
 70
     3
  9
$SHADEDIF
 70
    70
  9
$TILEMODE
 70
     1
  9
$MAXACTVP
 70
    64
  9
$PINSBASE
 10
0.0
 20
0.0
 30
0.0
  9
$PLIMCHECK
 70
     0
  9
$PEXTMIN
 10
1.000000000000000E+20
 20
1.000000000000000E+20
 30
1.000000000000000E+20
  9
$PEXTMAX
 10
-1.000000000000000E+20
 20
-1.000000000000000E+20
 30
-1.000000000000000E+20
  9
$PLIMMIN
 10
0.0
 20
0.0
  9
$PLIMMAX
 10
12.0
 20
9.0
  9
$UNITMODE
 70
     0
  9
$VISRETAIN
 70
     1
  9
$PLINEGEN
 70
     0
  9
$PSLTSCALE
 70
     0
  9
$TREEDEPTH
 70
  3020
  9
$CMLSTYLE
  2
Standard
  9
$CMLJUST
 70
     0
  9
$CMLSCALE
 40
1.0
  9
$PROXYGRAPHICS
 70
     1
  9
$MEASUREMENT
 70
     0
  9
$CELWEIGHT
370
    -1
  9
$ENDCAPS
280
     0
  9
$JOINSTYLE
280
     0
  9
$LWDISPLAY
290
     0
  9
$INSUNITS
 70
     0
  9
$HYPERLINKBASE
  1

  9
$STYLESHEET
  1
netak.ctb
  9
$XEDIT
290
     1
  9
$CEPSNTYPE
380
     0
  9
$PSTYLEMODE
290
     1
  9
$FINGERPRINTGUID
  2
{27B06043-753D-4809-A7AC-1C9058A71DBE}
  9
$VERSIONGUID
  2
{23940AA7-8A0E-457B-993D-0AC92C42E1FC}
  9
$EXTNAMES
290
     1
  9
$PSVPSCALE
 40
0.0
  9
$OLESTARTUP
290
     0
  0
ENDSEC
  0
SECTION
  2
CLASSES
  0
CLASS
  1
ACDBDICTIONARYWDFLT
  2
AcDbDictionaryWithDefault
  3
ObjectDBX Classes
 90
        0
280
     0
281
     0
  0
CLASS
  1
TABLESTYLE
  2
AcDbTableStyle
  3
ObjectDBX Classes
 90
     4095
280
     0
281
     0
  0
CLASS
  1
DICTIONARYVAR
  2
AcDbDictionaryVar
  3
ObjectDBX Classes
 90
        0
280
     0
281
     0
  0
CLASS
  1
DIMASSOC
  2
AcDbDimAssoc
  3
"AcDbDimAssoc|Product Desc:     AcDim ARX App For Dimension|Company:          Autodesk, Inc.|WEB Address:      www.autodesk.com"
 90
        0
280
     0
281
     0
  0
CLASS
  1
MATERIAL
  2
AcDbMaterial
  3
ObjectDBX Classes
 90
     1153
280
     0
281
     0
  0
CLASS
  1
VISUALSTYLE
  2
AcDbVisualStyle
  3
ObjectDBX Classes
 90
     4095
280
     0
281
     0
  0
CLASS
  1
SCALE
  2
AcDbScale
  3
ObjectDBX Classes
 90
     1153
280
     0
281
     0
  0
CLASS
  1
MLEADERSTYLE
  2
AcDbMLeaderStyle
  3
ACDB_MLEADERSTYLE_CLASS
 90
     4095
280
     0
281
     0
  0
CLASS
  1
CELLSTYLEMAP
  2
AcDbCellStyleMap
  3
ObjectDBX Classes
 90
     1152
280
     0
281
     0
  0
CLASS
  1
ACDBPLACEHOLDER
  2
AcDbPlaceHolder
  3
ObjectDBX Classes
 90
        0
280
     0
281
     0
  0
CLASS
  1
LAYOUT
  2
AcDbLayout
  3
ObjectDBX Classes
 90
        0
280
     0
281
     0
  0
CLASS
  1
SORTENTSTABLE
  2
AcDbSortentsTable
  3
ObjectDBX Classes
 90
        0
280
     0
281
     0
  0
CLASS
  1
ACAD_EVALUATION_GRAPH
  2
AcDbEvalGraph
  3
ObjectDBX Classes
 90
    33921
280
     0
281
     0
  0
CLASS
  1
ACAECUSTOBJ
  2
AcAeEditorObj
  3
AcAeEditorObj
 90
    33792
280
     0
281
     0
  0
CLASS
  1
ACDB_DYNAMICBLOCKPURGEPREVENTER_VERSION
  2
AcDbDynamicBlockPurgePreventer
  3
ObjectDBX Classes
 90
    33921
280
     0
281
     0
  0
ENDSEC
  0
SECTION
  2
TABLES
  0
TABLE
  2
VPORT
  5
8
102
{ACAD_XDICTIONARY
360
2D62
102
}
330
0
100
AcDbSymbolTable
 70
     1
  0
VPORT
  5
2C66
330
8
100
AcDbSymbolTableRecord
100
AcDbViewportTableRecord
  2
*Active
 70
     0
 10
0.0
 20
0.0
 11
1.0
 21
1.0
 12
41975.22873154992
 22
-2614.112125007425
 13
0.0
 23
0.0
 14
1.0
 24
1.0
 15
0.0
 25
0.0
 16
0.0
 26
0.0
 36
1.0
 17
0.0
 27
0.0
 37
0.0
 40
4812.179276863247
 41
1.698473282442748
 42
50.0
 43
0.0
 44
0.0
 50
0.0
 51
0.0
 71
     0
 72
   100
 73
     1
 74
     3
 75
     0
 76
     0
 77
     0
 78
     0
281
     0
 65
     1
110
0.0
120
0.0
130
0.0
111
1.0
121
0.0
131
0.0
112
0.0
122
1.0
132
0.0
 79
     0
146
0.0
  0
ENDTAB
  0
TABLE
  2
LTYPE
  5
5
330
0
100
AcDbSymbolTable
 70
    27
  0
LTYPE
  5
13
330
5
100
AcDbSymbolTableRecord
100
AcDbLinetypeTableRecord
  2
ByBlock
 70
     0
  3

 72
    65
 73
     0
 40
0.0
  0
LTYPE
  5
14
330
5
100
AcDbSymbolTableRecord
100
AcDbLinetypeTableRecord
  2
ByLayer
 70
     0
  3

 72
    65
 73
     0
 40
0.0
  0
LTYPE
  5
15
330
5
100
AcDbSymbolTableRecord
100
AcDbLinetypeTableRecord
  2
CONTINUOUS
 70
     0
  3
Solid line
 72
    65
 73
     0
 40
0.0
  0
LTYPE
  5
2B
330
5
100
AcDbSymbolTableRecord
100
AcDbLinetypeTableRecord
  2
STYLE_01
 70
     0
  3

 72
    65
 73
     2
 40
1.66656
 49
0.8331199999999999
 74
     0
 49
-0.8334399999999998
 74
     0
  0
LTYPE
  5
2C
330
5
100
AcDbSymbolTableRecord
100
AcDbLinetypeTableRecord
  2
STYLE_02
 70
     0
  3

 72
    65
 73
     2
 40
2.7777
 49
1.94428
 74
     0
 49
-0.8334200000000002
 74
     0
  0
LTYPE
  5
2D
330
5
100
AcDbSymbolTableRecord
100
AcDbLinetypeTableRecord
  2
STYLE_03
 70
     0
  3

 72
    65
 73
     2
 40
5.0
 49
4.16656
 74
     0
 49
-0.8334399999999996
 74
     0
  0
LTYPE
  5
2E
330
5
100
AcDbSymbolTableRecord
100
AcDbLinetypeTableRecord
  2
STYLE_04
 70
     0
  3

 72
    65
 73
     2
 40
6.110839999999999
 49
5.277699999999999
 74
     0
 49
-0.83314
 74
     0
  0
LTYPE
  5
2F
330
5
100
AcDbSymbolTableRecord
100
AcDbLinetypeTableRecord
  2
STYLE_05
 70
     0
  3

 72
    65
 73
     2
 40
0.8331199999999999
 49
0.2777
 74
     0
 49
-0.5554199999999999
 74
     0
  0
LTYPE
  5
30
330
5
100
AcDbSymbolTableRecord
100
AcDbLinetypeTableRecord
  2
STYLE_06
 70
     0
  3

 72
    65
 73
     4
 40
4.16656
 49
2.5
 74
     0
 49
-0.8331199999999999
 74
     0
 49
0.2777200000000002
 74
     0
 49
-0.5557200000000001
 74
     0
  0
LTYPE
  5
31
330
5
100
AcDbSymbolTableRecord
100
AcDbLinetypeTableRecord
  2
STYLE_07
 70
     0
  3

 72
    65
 73
     6
 40
7.5
 49
2.5
 74
     0
 49
-0.8331199999999999
 74
     0
 49
2.5
 74
     0
 49
-0.8334399999999996
 74
     0
 49
0.2777200000000002
 74
     0
 49
-0.5557199999999996
 74
     0
  0
LTYPE
  5
32
330
5
100
AcDbSymbolTableRecord
100
AcDbLinetypeTableRecord
  2
STYLE_08
 70
     0
  3

 72
    65
 73
     6
 40
5.0
 49
2.5
 74
     0
 49
-0.8331199999999999
 74
     0
 49
0.2777200000000002
 74
     0
 49
-0.5557200000000001
 74
     0
 49
0.2777199999999996
 74
     0
 49
-0.5557200000000001
 74
     0
  0
LTYPE
  5
33
330
5
100
AcDbSymbolTableRecord
100
AcDbLinetypeTableRecord
  2
STYLE_09
 70
     0
  3

 72
    65
 73
     4
 40
20.0
 49
15.0
 74
     0
 49
-1.111139999999999
 74
     0
 49
2.777720000000001
 74
     0
 49
-1.111139999999999
 74
     0
  0
LTYPE
  5
34
330
5
100
AcDbSymbolTableRecord
100
AcDbLinetypeTableRecord
  2
STYLE_10
 70
     0
  3

 72
    65
 73
     6
 40
23.75
 49
15.0
 74
     0
 49
-1.111139999999999
 74
     0
 49
2.777720000000001
 74
     0
 49
-1.111139999999999
 74
     0
 49
2.5
 74
     0
 49
-1.25
 74
     0
  0
LTYPE
  5
35
330
5
100
AcDbSymbolTableRecord
100
AcDbLinetypeTableRecord
  2
STYLE_11
 70
     0
  3

 72
    65
 73
     6
 40
0.53131103515625
 49
0.26580810546875
 74
     0
 49
-0.0531005859375
 74
     0
 49
0.0531005859375
 74
     0
 49
-0.0531005859375
 74
     0
 49
0.0531005859375
 74
     0
 49
-0.0531005859375
 74
     0
  0
LTYPE
  5
36
330
5
100
AcDbSymbolTableRecord
100
AcDbLinetypeTableRecord
  2
STYLE_12
 70
     0
  3

 72
    65
 73
     6
 40
0.20111083984375
 49
0.10040283203125
 74
     0
 49
-0.0201416015625
 74
     0
 49
0.0201416015625
 74
     0
 49
-0.0201416015625
 74
     0
 49
0.0201416015625
 74
     0
 49
-0.0201416015625
 74
     0
  0
LTYPE
  5
37
330
5
100
AcDbSymbolTableRecord
100
AcDbLinetypeTableRecord
  2
STYLE_13
 70
     0
  3

 72
    65
 73
     6
 40
0.2191162109375
 49
0.1092529296875
 74
     0
 49
-0.02197265625
 74
     0
 49
0.02197265625
 74
     0
 49
-0.02197265625
 74
     0
 49
0.02197265625
 74
     0
 49
-0.02197265625
 74
     0
  0
LTYPE
  5
38
330
5
100
AcDbSymbolTableRecord
100
AcDbLinetypeTableRecord
  2
STYLE_14
 70
     0
  3

 72
    65
 73
     6
 40
0.45440673828125
 49
0.22705078125
 74
     0
 49
-0.04547119140625
 74
     0
 49
0.04547119140625
 74
     0
 49
-0.04547119140625
 74
     0
 49
0.04547119140625
 74
     0
 49
-0.04547119140625
 74
     0
  0
LTYPE
  5
39
330
5
100
AcDbSymbolTableRecord
100
AcDbLinetypeTableRecord
  2
STYLE_15
 70
     0
  3

 72
    65
 73
     6
 40
0.579833984375
 49
0.2899169921875
 74
     0
 49
-0.0579833984375
 74
     0
 49
0.0579833984375
 74
     0
 49
-0.0579833984375
 74
     0
 49
0.0579833984375
 74
     0
 49
-0.0579833984375
 74
     0
  0
LTYPE
  5
3A
330
5
100
AcDbSymbolTableRecord
100
AcDbLinetypeTableRecord
  2
STYLE_16
 70
     0
  3

 72
    65
 73
     6
 40
0.4888916015625
 49
0.2447509765625
 74
     0
 49
-0.048828125
 74
     0
 49
0.048828125
 74
     0
 49
-0.048828125
 74
     0
 49
0.048828125
 74
     0
 49
-0.048828125
 74
     0
  0
LTYPE
  5
3B
330
5
100
AcDbSymbolTableRecord
100
AcDbLinetypeTableRecord
  2
STYLE_17
 70
     0
  3

 72
    65
 73
     4
 40
5.007874015748033
 49
4.724409448818898
 74
     0
 49
-0.0944881889763783
 74
     0
 49
0.0944881889763783
 74
     0
 49
-0.0944881889763783
 74
     0
  0
LTYPE
  5
3C
330
5
100
AcDbSymbolTableRecord
100
AcDbLinetypeTableRecord
  2
STYLE_18
 70
     0
  3

 72
    65
 73
     2
 40
0.5511811023622048
 49
0.3149606299212598
 74
     0
 49
-0.2362204724409449
 74
     0
  0
LTYPE
  5
3D
330
5
100
AcDbSymbolTableRecord
100
AcDbLinetypeTableRecord
  2
STYLE_19
 70
     0
  3

 72
    65
 73
     2
 40
0.3937007874015748
 49
0.1574803149606299
 74
     0
 49
-0.2362204724409449
 74
     0
  0
LTYPE
  5
3E
330
5
100
AcDbSymbolTableRecord
100
AcDbLinetypeTableRecord
  2
STYLE_20
 70
     0
  3

 72
    65
 73
     4
 40
1.023622047244094
 49
0.4724409448818898
 74
     0
 49
-0.2362204724409449
 74
     0
 49
0.078740157480315
 74
     0
 49
-0.2362204724409449
 74
     0
  0
LTYPE
  5
3F
330
5
100
AcDbSymbolTableRecord
100
AcDbLinetypeTableRecord
  2
STYLE_21
 70
     0
  3

 72
    65
 73
     6
 40
0.3937007874015748
 49
0.1968503937007874
 74
     0
 49
-0.0393700787401575
 74
     0
 49
0.0393700787401575
 74
     0
 49
-0.0393700787401575
 74
     0
 49
0.0393700787401575
 74
     0
 49
-0.0393700787401575
 74
     0
  0
LTYPE
  5
40
330
5
100
AcDbSymbolTableRecord
100
AcDbLinetypeTableRecord
  2
STYLE_22
 70
     0
  3

 72
    65
 73
     6
 40
0.61981201171875
 49
0.31005859375
 74
     0
 49
-0.06195068359375
 74
     0
 49
0.06195068359375
 74
     0
 49
-0.06195068359375
 74
     0
 49
0.06195068359375
 74
     0
 49
-0.06195068359375
 74
     0
  0
LTYPE
  5
41
330
5
100
AcDbSymbolTableRecord
100
AcDbLinetypeTableRecord
  2
STYLE_23
 70
     0
  3

 72
    65
 73
     2
 40
0.0203636363636364
 49
0.0115966796875
 74
     0
 49
-0.00885009765625
 74
     0
  0
LTYPE
  5
42
330
5
100
AcDbSymbolTableRecord
100
AcDbLinetypeTableRecord
  2
STYLE_24
 70
     0
  3

 72
    65
 73
     2
 40
0.2362204724409449
 49
0.1574803149606299
 74
     0
 49
-0.078740157480315
 74
     0
  0
LTYPE
  5
2E1F
330
5
100
AcDbSymbolTableRecord
100
AcDbLinetypeTableRecord
  2
SLDHIDDEN0
 70
     0
  3

 72
    65
 73
     2
 40
0.075
 49
0.05
 74
     0
 49
-0.025
 74
     0
  0
LTYPE
  5
2E20
330
5
100
AcDbSymbolTableRecord
100
AcDbLinetypeTableRecord
  2
SLD-Chain
 70
     0
  3
SolidWorks Line Style
 72
    65
 73
     4
 40
0.4
 49
0.25
 74
     0
 49
-0.05
 74
     0
 49
0.05
 74
     0
 49
-0.05
 74
     0
  0
ENDTAB
  0
TABLE
  2
LAYER
  5
2
330
0
100
AcDbSymbolTable
 70
    48
  0
LAYER
  5
10
102
{ACAD_XDICTIONARY
360
2CC0
102
}
330
2
100
AcDbSymbolTableRecord
100
AcDbLayerTableRecord
  2
0
 70
     0
 62
     7
  6
CONTINUOUS
370
    -3
390
F
  0
LAYER
  5
43
330
2
100
AcDbSymbolTableRecord
100
AcDbLayerTableRecord
  2
DEFPOINTS
 70
     0
 62
     7
  6
CONTINUOUS
290
     0
370
    -3
390
F
  0
LAYER
  5
44
102
{ACAD_XDICTIONARY
360
2CC2
102
}
330
2
100
AcDbSymbolTableRecord
100
AcDbLayerTableRecord
  2
__
 70
     0
 62
     7
  6
CONTINUOUS
370
    -3
390
F
  0
LAYER
  5
45
102
{ACAD_XDICTIONARY
360
2CC4
102
}
330
2
100
AcDbSymbolTableRecord
100
AcDbLayerTableRecord
  2
__-1
 70
     0
 62
     7
  6
CONTINUOUS
370
    -3
390
F
  0
LAYER
  5
46
102
{ACAD_XDICTIONARY
360
2CC6
102
}
330
2
100
AcDbSymbolTableRecord
100
AcDbLayerTableRecord
  2
__-2
 70
     0
 62
     5
  6
STYLE_06
370
    -3
390
F
  0
LAYER
  5
47
102
{ACAD_XDICTIONARY
360
2CC8
102
}
330
2
100
AcDbSymbolTableRecord
100
AcDbLayerTableRecord
  2
__-3
 70
     0
 62
     7
  6
CONTINUOUS
370
    -3
390
F
  0
LAYER
  5
48
102
{ACAD_XDICTIONARY
360
2CCA
102
}
330
2
100
AcDbSymbolTableRecord
100
AcDbLayerTableRecord
  2
_______-1
 70
     0
 62
     7
  6
CONTINUOUS
370
    -3
390
F
  0
LAYER
  5
49
102
{ACAD_XDICTIONARY
360
2CCC
102
}
330
2
100
AcDbSymbolTableRecord
100
AcDbLayerTableRecord
  2
__-4
 70
     0
 62
     7
  6
CONTINUOUS
370
    -3
390
F
  0
LAYER
  5
4A
102
{ACAD_XDICTIONARY
360
2CCE
102
}
330
2
100
AcDbSymbolTableRecord
100
AcDbLayerTableRecord
  2
_
 70
     0
 62
    87
  6
CONTINUOUS
370
    -3
390
F
  0
LAYER
  5
4B
102
{ACAD_XDICTIONARY
360
2CD0
102
}
330
2
100
AcDbSymbolTableRecord
100
AcDbLayerTableRecord
  2
____
 70
     0
 62
    43
  6
CONTINUOUS
370
    -3
390
F
  0
LAYER
  5
4C
102
{ACAD_XDICTIONARY
360
2CD2
102
}
330
2
100
AcDbSymbolTableRecord
100
AcDbLayerTableRecord
  2
____-1
 70
     0
 62
     7
  6
CONTINUOUS
370
    -3
390
F
  0
LAYER
  5
4D
102
{ACAD_XDICTIONARY
360
2CD4
102
}
330
2
100
AcDbSymbolTableRecord
100
AcDbLayerTableRecord
  2
NONPLOT
 70
     0
 62
     7
  6
CONTINUOUS
370
    -3
390
F
  0
LAYER
  5
4E
102
{ACAD_XDICTIONARY
360
2CD6
102
}
330
2
100
AcDbSymbolTableRecord
100
AcDbLayerTableRecord
  2
__-___-1
 70
     0
 62
     7
  6
CONTINUOUS
370
    -3
390
F
  0
LAYER
  5
4F
102
{ACAD_XDICTIONARY
360
2CD8
102
}
330
2
100
AcDbSymbolTableRecord
100
AcDbLayerTableRecord
  2
__-__
 70
     0
 62
     7
  6
CONTINUOUS
370
    -3
390
F
  0
LAYER
  5
50
102
{ACAD_XDICTIONARY
360
2CDA
102
}
330
2
100
AcDbSymbolTableRecord
100
AcDbLayerTableRecord
  2
__-5
 70
     0
 62
     7
  6
CONTINUOUS
370
    -3
390
F
  0
LAYER
  5
51
102
{ACAD_XDICTIONARY
360
2CDC
102
}
330
2
100
AcDbSymbolTableRecord
100
AcDbLayerTableRecord
  2
_-1
 70
     0
 62
   104
  6
CONTINUOUS
370
    -3
390
F
  0
LAYER
  5
52
102
{ACAD_XDICTIONARY
360
2CDE
102
}
330
2
100
AcDbSymbolTableRecord
100
AcDbLayerTableRecord
  2
__-6
 70
     0
 62
     7
  6
STYLE_22
370
    -3
390
F
  0
LAYER
  5
53
102
{ACAD_XDICTIONARY
360
2CE0
102
}
330
2
100
AcDbSymbolTableRecord
100
AcDbLayerTableRecord
  2
NONE
 70
     0
 62
     7
  6
CONTINUOUS
370
    -3
390
F
  0
LAYER
  5
54
102
{ACAD_XDICTIONARY
360
2CE2
102
}
330
2
100
AcDbSymbolTableRecord
100
AcDbLayerTableRecord
  2
______-1
 70
     0
 62
   250
  6
CONTINUOUS
370
    -3
390
F
  0
LAYER
  5
55
102
{ACAD_XDICTIONARY
360
2CE4
102
}
330
2
100
AcDbSymbolTableRecord
100
AcDbLayerTableRecord
  2
____-2
 70
     0
 62
     7
  6
CONTINUOUS
370
    -3
390
F
  0
LAYER
  5
56
102
{ACAD_XDICTIONARY
360
2CE6
102
}
330
2
100
AcDbSymbolTableRecord
100
AcDbLayerTableRecord
  2
_______-2
 70
     0
 62
     7
  6
CONTINUOUS
370
    -3
390
F
  0
LAYER
  5
57
102
{ACAD_XDICTIONARY
360
2CE8
102
}
330
2
100
AcDbSymbolTableRecord
100
AcDbLayerTableRecord
  2
____-3
 70
     0
 62
     7
  6
CONTINUOUS
370
    -3
390
F
  0
LAYER
  5
58
102
{ACAD_XDICTIONARY
360
2CEA
102
}
330
2
100
AcDbSymbolTableRecord
100
AcDbLayerTableRecord
  2
_-___-1
 70
     0
 62
     7
  6
CONTINUOUS
370
    -3
390
F
  0
LAYER
  5
59
102
{ACAD_XDICTIONARY
360
2CEC
102
}
330
2
100
AcDbSymbolTableRecord
100
AcDbLayerTableRecord
  2
_____1
 70
     0
 62
   160
  6
CONTINUOUS
370
    -3
390
F
  0
LAYER
  5
5A
102
{ACAD_XDICTIONARY
360
2CEE
102
}
330
2
100
AcDbSymbolTableRecord
100
AcDbLayerTableRecord
  2
_____
 70
     0
 62
     7
  6
CONTINUOUS
370
    -3
390
F
  0
LAYER
  5
5B
102
{ACAD_XDICTIONARY
360
2CF0
102
}
330
2
100
AcDbSymbolTableRecord
100
AcDbLayerTableRecord
  2
___
 70
     0
 62
     5
  6
CONTINUOUS
370
    -3
390
F
  0
LAYER
  5
5C
102
{ACAD_XDICTIONARY
360
2CF2
102
}
330
2
100
AcDbSymbolTableRecord
100
AcDbLayerTableRecord
  2
__-7
 70
     0
 62
     7
  6
CONTINUOUS
370
    -3
390
F
  0
LAYER
  5
5D
102
{ACAD_XDICTIONARY
360
2CF4
102
}
330
2
100
AcDbSymbolTableRecord
100
AcDbLayerTableRecord
  2
__-8
 70
     0
 62
     7
  6
CONTINUOUS
370
    -3
390
F
  0
LAYER
  5
5E
102
{ACAD_XDICTIONARY
360
2CF6
102
}
330
2
100
AcDbSymbolTableRecord
100
AcDbLayerTableRecord
  2
A
 70
     0
 62
     7
  6
CONTINUOUS
370
    -3
390
F
  0
LAYER
  5
5F
102
{ACAD_XDICTIONARY
360
2CF8
102
}
330
2
100
AcDbSymbolTableRecord
100
AcDbLayerTableRecord
  2
PV
 70
     0
 62
     7
  6
CONTINUOUS
370
    -3
390
F
  0
LAYER
  5
60
102
{ACAD_XDICTIONARY
360
2CFA
102
}
330
2
100
AcDbSymbolTableRecord
100
AcDbLayerTableRecord
  2
_-2
 70
     0
 62
    47
  6
CONTINUOUS
370
    -3
390
F
  0
LAYER
  5
61
102
{ACAD_XDICTIONARY
360
2CFC
102
}
330
2
100
AcDbSymbolTableRecord
100
AcDbLayerTableRecord
  2
_____-1
 70
     0
 62
     7
  6
CONTINUOUS
370
    -3
390
F
  0
LAYER
  5
62
102
{ACAD_XDICTIONARY
360
2CFE
102
}
330
2
100
AcDbSymbolTableRecord
100
AcDbLayerTableRecord
  2
____-4
 70
     0
 62
     1
  6
CONTINUOUS
370
    -3
390
F
  0
LAYER
  5
63
102
{ACAD_XDICTIONARY
360
2D00
102
}
330
2
100
AcDbSymbolTableRecord
100
AcDbLayerTableRecord
  2
3-2
 70
     0
 62
     7
  6
CONTINUOUS
370
    -3
390
F
  0
LAYER
  5
64
102
{ACAD_XDICTIONARY
360
2D02
102
}
330
2
100
AcDbSymbolTableRecord
100
AcDbLayerTableRecord
  2
1_50
 70
     0
 62
     7
  6
CONTINUOUS
370
    -3
390
F
  0
LAYER
  5
65
102
{ACAD_XDICTIONARY
360
2D04
102
}
330
2
100
AcDbSymbolTableRecord
100
AcDbLayerTableRecord
  2
NONAME
 70
     0
 62
     7
  6
CONTINUOUS
370
    -3
390
F
  0
LAYER
  5
66
102
{ACAD_XDICTIONARY
360
2D06
102
}
330
2
100
AcDbSymbolTableRecord
100
AcDbLayerTableRecord
  2
___________________
 70
     0
 62
     7
  6
CONTINUOUS
370
    -3
390
F
  0
LAYER
  5
67
102
{ACAD_XDICTIONARY
360
2D08
102
}
330
2
100
AcDbSymbolTableRecord
100
AcDbLayerTableRecord
  2
____________________
 70
     0
 62
     7
  6
CONTINUOUS
370
    -3
390
F
  0
LAYER
  5
68
102
{ACAD_XDICTIONARY
360
2D0A
102
}
330
2
100
AcDbSymbolTableRecord
100
AcDbLayerTableRecord
  2
__________________
 70
     0
 62
     7
  6
CONTINUOUS
370
    -3
390
F
  0
LAYER
  5
69
102
{ACAD_XDICTIONARY
360
2D0C
102
}
330
2
100
AcDbSymbolTableRecord
100
AcDbLayerTableRecord
  2
____-5
 70
     0
 62
     7
  6
CONTINUOUS
370
    -3
390
F
  0
LAYER
  5
6A
102
{ACAD_XDICTIONARY
360
2D0E
102
}
330
2
100
AcDbSymbolTableRecord
100
AcDbLayerTableRecord
  2
SLT-02
 70
     0
 62
     6
  6
STYLE_06
370
    -3
390
F
  0
LAYER
  5
6B
102
{ACAD_XDICTIONARY
360
2D10
102
}
330
2
100
AcDbSymbolTableRecord
100
AcDbLayerTableRecord
  2
_0-4_
 70
     0
 62
     7
  6
CONTINUOUS
370
    -3
390
F
  0
LAYER
  5
6C
102
{ACAD_XDICTIONARY
360
2D12
102
}
330
2
100
AcDbSymbolTableRecord
100
AcDbLayerTableRecord
  2
_0-2_____
 70
     0
 62
     7
  6
CONTINUOUS
370
    -3
390
F
  0
LAYER
  5
6D
102
{ACAD_XDICTIONARY
360
2D14
102
}
330
2
100
AcDbSymbolTableRecord
100
AcDbLayerTableRecord
  2
_0-3___
 70
     0
 62
     7
  6
CONTINUOUS
370
    -3
390
F
  0
LAYER
  5
6E
102
{ACAD_XDICTIONARY
360
2D16
102
}
330
2
100
AcDbSymbolTableRecord
100
AcDbLayerTableRecord
  2
_0-0_0
 70
     0
 62
     7
  6
CONTINUOUS
370
    -3
390
F
  0
LAYER
  5
6F
102
{ACAD_XDICTIONARY
360
2D18
102
}
330
2
100
AcDbSymbolTableRecord
100
AcDbLayerTableRecord
  2
_0-8___
 70
     0
 62
     7
  6
CONTINUOUS
370
    -3
390
F
  0
LAYER
  5
70
102
{ACAD_XDICTIONARY
360
2D1A
102
}
330
2
100
AcDbSymbolTableRecord
100
AcDbLayerTableRecord
  2
_1-0_
 70
     0
 62
     7
  6
CONTINUOUS
370
    -3
390
F
  0
LAYER
  5
5B5
102
{ACAD_XDICTIONARY
360
2D1C
102
}
330
2
100
AcDbSymbolTableRecord
100
AcDbLayerTableRecord
  2
_0-2_用紙フォ__マット_1_1_
 70
     0
 62
     7
  6
CONTINUOUS
370
    -3
390
F
  0
ENDTAB
  0
TABLE
  2
STYLE
  5
3
330
0
100
AcDbSymbolTable
 70
     7
  0
STYLE
  5
11
330
3
100
AcDbSymbolTableRecord
100
AcDbTextStyleTableRecord
  2
STANDARD
 70
     0
 40
0.0
 41
1.0
 50
0.0
 71
     0
 42
0.0
  3

  4

1001
ACAD
1000
MS Gothic
1071
    32817
  0
STYLE
  5
26
330
3
100
AcDbSymbolTableRecord
100
AcDbTextStyleTableRecord
  2
ARIAL
 70
     0
 40
0.0
 41
1.0
 50
0.0
 71
     0
 42
0.0
  3
Arial
  4

  0
STYLE
  5
27
330
3
100
AcDbSymbolTableRecord
100
AcDbTextStyleTableRecord
  2
SYSTEM
 70
     0
 40
0.0
 41
1.0
 50
0.0
 71
     0
 42
0.0
  3
System
  4

  0
STYLE
  5
28
330
3
100
AcDbSymbolTableRecord
100
AcDbTextStyleTableRecord
  2
________
 70
     0
 40
0.0
 41
1.0
 50
0.0
 71
     0
 42
0.0
  3
ＭＳ Ｐゴシック
  4

  0
STYLE
  5
29
330
3
100
AcDbSymbolTableRecord
100
AcDbTextStyleTableRecord
  2
________-B
 70
     0
 40
0.0
 41
1.0
 50
0.0
 71
     0
 42
0.0
  3
ＭＳ Ｐゴシック
  4

  0
STYLE
  5
2A
330
3
100
AcDbSymbolTableRecord
100
AcDbTextStyleTableRecord
  2
_______
 70
     0
 40
0.0
 41
1.0
 50
0.0
 71
     0
 42
0.0
  3
ＭＳ ゴシック
  4

  0
STYLE
  5
2E21
330
3
100
AcDbSymbolTableRecord
100
AcDbTextStyleTableRecord
  2
SLDTEXTSTYLE0
 70
     0
 40
0.0
 41
0.913
 50
0.0
 71
     0
 42
0.0
  3
GOTHICB.TTF
  4

1001
ACAD
1000
Century Gothic
1071
 33554466
  0
ENDTAB
  0
TABLE
  2
VIEW
  5
6
330
0
100
AcDbSymbolTable
 70
     0
  0
ENDTAB
  0
TABLE
  2
UCS
  5
7
330
0
100
AcDbSymbolTable
 70
     0
  0
ENDTAB
  0
TABLE
  2
APPID
  5
9
330
0
100
AcDbSymbolTable
 70
    17
  0
APPID
  5
12
330
9
100
AcDbSymbolTableRecord
100
AcDbRegAppTableRecord
  2
ACAD
 70
     0
  0
APPID
  5
564
330
9
100
AcDbSymbolTableRecord
100
AcDbRegAppTableRecord
  2
ACAD_PSEXT
 70
     0
  0
APPID
  5
5C4
330
9
100
AcDbSymbolTableRecord
100
AcDbRegAppTableRecord
  2
ACAD_DSTYLE_DIMTEXT_FILL
 70
     0
  0
APPID
  5
5C5
330
9
100
AcDbSymbolTableRecord
100
AcDbRegAppTableRecord
  2
ACAD_DSTYLE_DIMEXT_LENGTH
 70
     0
  0
APPID
  5
5C6
330
9
100
AcDbSymbolTableRecord
100
AcDbRegAppTableRecord
  2
ACAD_DSTYLE_DIMEXT_ENABLED
 70
     0
  0
APPID
  5
5C7
330
9
100
AcDbSymbolTableRecord
100
AcDbRegAppTableRecord
  2
ACAD_DSTYLE_DIM_LINETYPE
 70
     0
  0
APPID
  5
5C8
330
9
100
AcDbSymbolTableRecord
100
AcDbRegAppTableRecord
  2
ACAD_DSTYLE_DIM_EXT1_LINETYPE
 70
     0
  0
APPID
  5
5C9
330
9
100
AcDbSymbolTableRecord
100
AcDbRegAppTableRecord
  2
ACAD_DSTYLE_DIM_EXT2_LINETYPE
 70
     0
  0
APPID
  5
685
330
9
100
AcDbSymbolTableRecord
100
AcDbRegAppTableRecord
  2
ACAD_DSTYLE_DIMJOGGED_JOGANGLE_SYMBOL
 70
     0
  0
APPID
  5
F8E
330
9
100
AcDbSymbolTableRecord
100
AcDbRegAppTableRecord
  2
ACAD_DSTYLE_DIMARC_LENGTH_SYMBOL
 70
     0
  0
APPID
  5
2416
330
9
100
AcDbSymbolTableRecord
100
AcDbRegAppTableRecord
  2
ACAD_EXEMPT_FROM_CAD_STANDARDS
 70
     0
  0
APPID
  5
2422
330
9
100
AcDbSymbolTableRecord
100
AcDbRegAppTableRecord
  2
DCO15
 70
     0
  0
APPID
  5
2CB5
330
9
100
AcDbSymbolTableRecord
100
AcDbRegAppTableRecord
  2
ACAD_MLEADERVER
 70
     0
  0
APPID
  5
2F13
330
9
100
AcDbSymbolTableRecord
100
AcDbRegAppTableRecord
  2
ACAUTHENVIRON
 70
     0
  0
APPID
  5
2F16
330
9
100
AcDbSymbolTableRecord
100
AcDbRegAppTableRecord
  2
AcDbDynamicBlockTrueName
 70
     0
  0
APPID
  5
2F17
330
9
100
AcDbSymbolTableRecord
100
AcDbRegAppTableRecord
  2
AcDbDynamicBlockGUID
 70
     0
  0
APPID
  5
2F19
330
9
100
AcDbSymbolTableRecord
100
AcDbRegAppTableRecord
  2
AcDbBlockRepETag
 70
     0
  0
ENDTAB
  0
TABLE
  2
DIMSTYLE
  5
A
330
0
100
AcDbSymbolTable
 70
     3
100
AcDbDimStyleTable
 71
     3
340
1C04
340
F93
340
55E
  0
DIMSTYLE
105
55E
330
A
100
AcDbSymbolTableRecord
100
AcDbDimStyleTableRecord
  2
Standard
 70
     0
340
11
  0
DIMSTYLE
105
F93
102
{ACAD_REACTORS
330
FF4
330
1C89
330
1CA1
330
2086
330
221C
330
22E1
330
22C8
330
231D
330
2362
330
2427
330
2463
330
2591
330
2646
330
265C
330
2692
102
}
330
A
100
AcDbSymbolTableRecord
100
AcDbDimStyleTableRecord
  2
10
 70
     0
 41
8.0
 73
     0
 74
     0
 77
     1
140
30.0
172
     1
174
     1
175
     1
271
     0
272
     0
289
     0
340
11
342
716
1001
ACAD_DSTYLE_DIMJOGGED_JOGANGLE_SYMBOL
1070
   384
1040
0.7853981633974483
1001
ACAD_DSTYLE_DIMEXT_LENGTH
1070
   378
1040
0.18
  0
DIMSTYLE
105
1C04
102
{ACAD_REACTORS
330
1A14
330
1CEF
330
2234
330
2185
330
20A7
330
247C
330
24B6
330
24EB
330
24EC
330
2533
330
256F
330
25AA
330
25AB
330
25FD
330
25FE
330
26A8
102
}
330
A
100
AcDbSymbolTableRecord
100
AcDbDimStyleTableRecord
  2
10.0
 70
     0
 41
8.0
 73
     0
 74
     0
 77
     1
140
30.0
172
     1
174
     1
175
     1
271
     1
272
     1
289
     0
340
11
342
716
1001
ACAD_DSTYLE_DIMJOGGED_JOGANGLE_SYMBOL
1070
   384
1040
0.7853981633974483
1001
ACAD_DSTYLE_DIMEXT_LENGTH
1070
   378
1040
0.18
  0
ENDTAB
  0
TABLE
  2
BLOCK_RECORD
  5
1
330
0
100
AcDbSymbolTable
 70
    48
  0
BLOCK_RECORD
  5
22
102
{ACAD_XDICTIONARY
360
2EB9
102
}
330
1
100
AcDbSymbolTableRecord
100
AcDbBlockTableRecord
  2
*Model_Space
340
25
  0
BLOCK_RECORD
  5
1E
330
1
100
AcDbSymbolTableRecord
100
AcDbBlockTableRecord
  2
*Paper_Space
340
21
  0
BLOCK_RECORD
  5
576
330
1
100
AcDbSymbolTableRecord
100
AcDbBlockTableRecord
  2
-000-スカイマ__ク
340
0
102
{BLKREFS
331
5B7
102
}
  0
BLOCK_RECORD
  5
5B6
330
1
100
AcDbSymbolTableRecord
100
AcDbBlockTableRecord
  2
A$C19575CB4
340
0
102
{BLKREFS
331
5BA
102
}
  0
BLOCK_RECORD
  5
716
330
1
100
AcDbSymbolTableRecord
100
AcDbBlockTableRecord
  2
_Origin
340
0
102
{BLKREFS
331
28BC
331
28BD
331
28C5
331
28C6
331
28FB
331
28FC
331
290D
331
290E
331
2916
331
2917
331
291F
331
2920
331
2928
331
2929
331
2931
331
2932
331
2AFA
331
2AFB
331
2B0A
331
2B0B
331
2B13
331
2B14
331
2B25
331
2B26
331
2B37
331
2B38
331
2B50
331
2B51
331
2B59
331
2B5A
331
2B6B
331
2B6C
331
2BB4
331
2BB5
331
2BBD
331
2BBE
331
2BCF
331
2BD0
331
2BEA
331
2BEB
331
2BF3
331
2BF4
331
2BFC
331
2BFD
331
2C17
331
2C18
331
2C20
331
2C21
331
2C29
331
2C2A
331
2C32
331
2C33
331
2C3B
331
2C3C
331
2C4B
331
2C4C
331
2C54
331
2C55
331
2DD0
331
2DD1
331
2DDC
331
2DDD
331
2DE8
331
2DE9
331
2DF4
331
2DF5
331
2E00
331
2E01
331
2DC4
331
2DC5
331
2E0C
331
2E0D
331
2E18
331
2E19
331
2E40
331
2E41
102
}
  0
BLOCK_RECORD
  5
FF5
330
1
100
AcDbSymbolTableRecord
100
AcDbBlockTableRecord
  2
*D3
340
0
  0
BLOCK_RECORD
  5
1A15
330
1
100
AcDbSymbolTableRecord
100
AcDbBlockTableRecord
  2
*D4
340
0
  0
BLOCK_RECORD
  5
1C8A
330
1
100
AcDbSymbolTableRecord
100
AcDbBlockTableRecord
  2
*D5
340
0
  0
BLOCK_RECORD
  5
1CA2
330
1
100
AcDbSymbolTableRecord
100
AcDbBlockTableRecord
  2
*D6
340
0
  0
BLOCK_RECORD
  5
1CF0
330
1
100
AcDbSymbolTableRecord
100
AcDbBlockTableRecord
  2
*D7
340
0
  0
BLOCK_RECORD
  5
2087
330
1
100
AcDbSymbolTableRecord
100
AcDbBlockTableRecord
  2
*D8
340
0
  0
BLOCK_RECORD
  5
20A8
330
1
100
AcDbSymbolTableRecord
100
AcDbBlockTableRecord
  2
*D9
340
0
  0
BLOCK_RECORD
  5
2186
330
1
100
AcDbSymbolTableRecord
100
AcDbBlockTableRecord
  2
*D10
340
0
  0
BLOCK_RECORD
  5
221D
330
1
100
AcDbSymbolTableRecord
100
AcDbBlockTableRecord
  2
*D11
340
0
  0
BLOCK_RECORD
  5
2235
330
1
100
AcDbSymbolTableRecord
100
AcDbBlockTableRecord
  2
*D12
340
0
  0
BLOCK_RECORD
  5
22C9
330
1
100
AcDbSymbolTableRecord
100
AcDbBlockTableRecord
  2
*D13
340
0
  0
BLOCK_RECORD
  5
22E2
330
1
100
AcDbSymbolTableRecord
100
AcDbBlockTableRecord
  2
*D14
340
0
  0
BLOCK_RECORD
  5
231E
330
1
100
AcDbSymbolTableRecord
100
AcDbBlockTableRecord
  2
*D15
340
0
  0
BLOCK_RECORD
  5
2363
330
1
100
AcDbSymbolTableRecord
100
AcDbBlockTableRecord
  2
*D16
340
0
  0
BLOCK_RECORD
  5
2428
330
1
100
AcDbSymbolTableRecord
100
AcDbBlockTableRecord
  2
*D17
340
0
  0
BLOCK_RECORD
  5
2464
330
1
100
AcDbSymbolTableRecord
100
AcDbBlockTableRecord
  2
*D18
340
0
  0
BLOCK_RECORD
  5
247D
330
1
100
AcDbSymbolTableRecord
100
AcDbBlockTableRecord
  2
*D19
340
0
  0
BLOCK_RECORD
  5
24B7
330
1
100
AcDbSymbolTableRecord
100
AcDbBlockTableRecord
  2
*D20
340
0
  0
BLOCK_RECORD
  5
24ED
330
1
100
AcDbSymbolTableRecord
100
AcDbBlockTableRecord
  2
*D21
340
0
  0
BLOCK_RECORD
  5
24F9
330
1
100
AcDbSymbolTableRecord
100
AcDbBlockTableRecord
  2
*D22
340
0
  0
BLOCK_RECORD
  5
2534
330
1
100
AcDbSymbolTableRecord
100
AcDbBlockTableRecord
  2
*D23
340
0
  0
BLOCK_RECORD
  5
2570
330
1
100
AcDbSymbolTableRecord
100
AcDbBlockTableRecord
  2
*D24
340
0
  0
BLOCK_RECORD
  5
2592
330
1
100
AcDbSymbolTableRecord
100
AcDbBlockTableRecord
  2
*D25
340
0
  0
BLOCK_RECORD
  5
25AC
330
1
100
AcDbSymbolTableRecord
100
AcDbBlockTableRecord
  2
*D26
340
0
  0
BLOCK_RECORD
  5
25B8
330
1
100
AcDbSymbolTableRecord
100
AcDbBlockTableRecord
  2
*D27
340
0
  0
BLOCK_RECORD
  5
25FF
330
1
100
AcDbSymbolTableRecord
100
AcDbBlockTableRecord
  2
*D28
340
0
  0
BLOCK_RECORD
  5
260B
330
1
100
AcDbSymbolTableRecord
100
AcDbBlockTableRecord
  2
*D29
340
0
  0
BLOCK_RECORD
  5
2647
330
1
100
AcDbSymbolTableRecord
100
AcDbBlockTableRecord
  2
*D30
340
0
  0
BLOCK_RECORD
  5
265D
330
1
100
AcDbSymbolTableRecord
100
AcDbBlockTableRecord
  2
*D31
340
0
  0
BLOCK_RECORD
  5
2693
330
1
100
AcDbSymbolTableRecord
100
AcDbBlockTableRecord
  2
*D32
340
0
  0
BLOCK_RECORD
  5
26A9
330
1
100
AcDbSymbolTableRecord
100
AcDbBlockTableRecord
  2
*D33
340
0
  0
BLOCK_RECORD
  5
2D84
330
1
100
AcDbSymbolTableRecord
100
AcDbBlockTableRecord
  2
NOTE70
340
0
102
{BLKREFS
331
2E24
102
}
  0
BLOCK_RECORD
  5
2D8A
102
{ACAD_XDICTIONARY
360
2F40
102
}
330
1
100
AcDbSymbolTableRecord
100
AcDbBlockTableRecord
  2
A$C26885BA0
340
0
102
{BLKREFS
331
2E26
331
2E49
102
}
1001
AcDbDynamicBlockGUID
1000
{B33CFF58-02BA-4FF6-AEC1-3C2257FA8109}
1001
AcDbBlockRepETag
1070
     1
1071
       11
  0
BLOCK_RECORD
  5
2D9A
102
{ACAD_XDICTIONARY
360
2F2D
102
}
330
1
100
AcDbSymbolTableRecord
100
AcDbBlockTableRecord
  2
A$C1F083DF6
340
0
102
{BLKREFS
331
2E27
331
2E28
331
2E4A
331
2E4B
102
}
1001
AcDbDynamicBlockGUID
1000
{A94847FA-BE45-4766-9BB4-C2DCC1A4B88C}
1001
AcDbBlockRepETag
1070
     1
1071
       16
  0
BLOCK_RECORD
  5
2DAF
102
{ACAD_XDICTIONARY
360
2F11
102
}
330
1
100
AcDbSymbolTableRecord
100
AcDbBlockTableRecord
  2
A$C4B9C6F0B
340
0
102
{BLKREFS
331
2E29
331
2E4C
102
}
1001
AcDbDynamicBlockGUID
1000
{59079A92-EEA7-452C-A9F3-679670FA95CF}
1001
AcDbBlockRepETag
1070
     1
1071
       11
  0
BLOCK_RECORD
  5
2DBF
330
1
100
AcDbSymbolTableRecord
100
AcDbBlockTableRecord
  2
*D38
340
0
  0
BLOCK_RECORD
  5
2DCB
330
1
100
AcDbSymbolTableRecord
100
AcDbBlockTableRecord
  2
*D39
340
0
  0
BLOCK_RECORD
  5
2DD7
330
1
100
AcDbSymbolTableRecord
100
AcDbBlockTableRecord
  2
*D40
340
0
  0
BLOCK_RECORD
  5
2DE3
330
1
100
AcDbSymbolTableRecord
100
AcDbBlockTableRecord
  2
*D41
340
0
  0
BLOCK_RECORD
  5
2DEF
330
1
100
AcDbSymbolTableRecord
100
AcDbBlockTableRecord
  2
*D42
340
0
  0
BLOCK_RECORD
  5
2DFB
330
1
100
AcDbSymbolTableRecord
100
AcDbBlockTableRecord
  2
*D43
340
0
  0
BLOCK_RECORD
  5
2E07
330
1
100
AcDbSymbolTableRecord
100
AcDbBlockTableRecord
  2
*D44
340
0
  0
BLOCK_RECORD
  5
2E13
330
1
100
AcDbSymbolTableRecord
100
AcDbBlockTableRecord
  2
*D45
340
0
  0
BLOCK_RECORD
  5
2E22
102
{ACAD_XDICTIONARY
360
2E36
102
}
330
1
100
AcDbSymbolTableRecord
100
AcDbBlockTableRecord
  2
A$C262938F5
340
0
  0
BLOCK_RECORD
  5
2FEA
102
{ACAD_XDICTIONARY
360
2FEF
102
}
330
1
100
AcDbSymbolTableRecord
100
AcDbBlockTableRecord
  2
A$C30C06DA2
340
0
102
{BLKREFS
331
2FF3
102
}
  0
ENDTAB
  0
ENDSEC
  0
SECTION
  2
BLOCKS
  0
BLOCK
  5
73
330
22
100
AcDbEntity
  8
0
100
AcDbBlockBegin
  2
*Model_Space
 70
     0
 10
0.0
 20
0.0
 30
0.0
  3
*Model_Space
  1

  0
ENDBLK
  5
74
330
22
100
AcDbEntity
  8
0
100
AcDbBlockEnd
  0
BLOCK
  5
71
330
1E
100
AcDbEntity
 67
     1
  8
0
100
AcDbBlockBegin
  2
*Paper_Space
 70
     0
 10
0.0
 20
0.0
 30
0.0
  3
*Paper_Space
  1

  0
ENDBLK
  5
72
330
1E
100
AcDbEntity
 67
     1
  8
0
100
AcDbBlockEnd
  0
BLOCK
  5
577
330
576
100
AcDbEntity
  8
0
100
AcDbBlockBegin
  2
-000-スカイマ__ク
 70
     0
 10
0.0
 20
0.0
 30
0.0
  3
-000-スカイマ__ク
  1

  0
ARC
  5
578
330
576
100
AcDbEntity
  8
_0-2_用紙フォ__マット_1_1_
  6
Continuous
 62
     7
100
AcDbCircle
 10
133.0680179709315
 20
-9.50051108164871
 30
0.0
 40
134.9691882094957
100
AcDbArc
 50
45.66362800001292
 51
224.512358045018
  0
LINE
  5
579
330
576
100
AcDbEntity
  8
_0-2_用紙フォ__マット_1_1_
  6
Continuous
 62
     7
100
AcDbLine
 10
-120.0898831957659
 20
249.5907783936423
 30
0.0
 11
386.2259191376289
 21
249.5907783936423
 31
0.0
  0
LINE
  5
57A
330
576
100
AcDbEntity
  8
_0-2_用紙フォ__マット_1_1_
  6
Continuous
 62
     7
100
AcDbLine
 10
-120.0898831957659
 20
-268.5918005569408
 30
0.0
 11
-120.0898831957659
 21
249.5907783936423
 31
0.0
  0
ARC
  5
57B
330
576
100
AcDbEntity
  8
_0-2_用紙フォ__マット_1_1_
  6
Continuous
 62
     7
100
AcDbCircle
 10
133.0680179709315
 20
-9.50051108164871
 30
0.0
 40
134.9691882094957
100
AcDbArc
 50
224.512358045018
 51
225.6636280000132
  0
LINE
  5
57C
330
576
100
AcDbEntity
  8
_0-2_用紙フォ__マット_1_1_
  6
Continuous
 62
     7
100
AcDbLine
 10
-120.0898831957659
 20
239.5907783936423
 30
0.0
 11
376.4549267712164
 21
239.5907783936423
 31
0.0
  0
LINE
  5
57D
330
576
100
AcDbEntity
  8
_0-2_用紙フォ__マット_1_1_
  6
Continuous
 62
     7
100
AcDbLine
 10
-120.0898831957659
 20
229.5907783936423
 30
0.0
 11
366.6839344048049
 21
229.5907783936423
 31
0.0
  0
LINE
  5
57E
330
576
100
AcDbEntity
  8
_0-2_用紙フォ__マット_1_1_
  6
Continuous
 62
     7
100
AcDbLine
 10
-120.0898831957659
 20
219.5907783936423
 30
0.0
 11
356.9129420383922
 21
219.5907783936423
 31
0.0
  0
LINE
  5
57F
330
576
100
AcDbEntity
  8
_0-2_用紙フォ__マット_1_1_
  6
Continuous
 62
     7
100
AcDbLine
 10
-120.0898831957659
 20
209.5907783936423
 30
0.0
 11
347.1419496719807
 21
209.5907783936423
 31
0.0
  0
LINE
  5
580
330
576
100
AcDbEntity
  8
_0-2_用紙フォ__マット_1_1_
  6
Continuous
 62
     7
100
AcDbLine
 10
-120.0898831957659
 20
199.5907783936423
 30
0.0
 11
337.370957305568
 21
199.5907783936423
 31
0.0
  0
LINE
  5
581
330
576
100
AcDbEntity
  8
_0-2_用紙フォ__マット_1_1_
  6
Continuous
 62
     7
100
AcDbLine
 10
-120.0898831957659
 20
189.5907783936422
 30
0.0
 11
327.5999649391554
 21
189.5907783936422
 31
0.0
  0
LINE
  5
582
330
576
100
AcDbEntity
  8
_0-2_用紙フォ__マット_1_1_
  6
Continuous
 62
     7
100
AcDbLine
 10
-120.0898831957659
 20
179.5907783936423
 30
0.0
 11
317.8289725727438
 21
179.5907783936423
 31
0.0
  0
LINE
  5
583
330
576
100
AcDbEntity
  8
_0-2_用紙フォ__マット_1_1_
  6
Continuous
 62
     7
100
AcDbLine
 10
-120.0898831957659
 20
169.5907783936422
 30
0.0
 11
308.0579802063312
 21
169.5907783936422
 31
0.0
  0
LINE
  5
584
330
576
100
AcDbEntity
  8
_0-2_用紙フォ__マット_1_1_
  6
Continuous
 62
     7
100
AcDbLine
 10
-120.0898831957659
 20
159.5907783936422
 30
0.0
 11
298.2869878399197
 21
159.5907783936422
 31
0.0
  0
LINE
  5
585
330
576
100
AcDbEntity
  8
_0-2_用紙フォ__マット_1_1_
  6
Continuous
 62
     7
100
AcDbLine
 10
-120.0898831957659
 20
149.5907783936423
 30
0.0
 11
288.5159954735071
 21
149.5907783936423
 31
0.0
  0
LINE
  5
586
330
576
100
AcDbEntity
  8
_0-2_用紙フォ__マット_1_1_
  6
Continuous
 62
     7
100
AcDbLine
 10
-120.0898831957659
 20
139.5907783936422
 30
0.0
 11
278.7450031070944
 21
139.5907783936422
 31
0.0
  0
LINE
  5
587
330
576
100
AcDbEntity
  8
_0-2_用紙フォ__マット_1_1_
  6
Continuous
 62
     7
100
AcDbLine
 10
-120.0898831957659
 20
129.5907783936423
 30
0.0
 11
268.9740107406828
 21
129.5907783936423
 31
0.0
  0
LINE
  5
588
330
576
100
AcDbEntity
  8
_0-2_用紙フォ__マット_1_1_
  6
Continuous
 62
     7
100
AcDbLine
 10
386.2259191376289
 20
249.5907783936423
 30
0.0
 11
227.3938635959212
 21
87.03609655017544
 31
0.0
  0
LINE
  5
589
330
576
100
AcDbEntity
  8
_0-2_用紙フォ__マット_1_1_
  6
Continuous
 62
     7
100
AcDbLine
 10
-120.0898831957659
 20
-110.4092216063577
 30
0.0
 11
34.47019394678705
 21
-110.4092216063577
 31
0.0
  0
LINE
  5
58A
330
576
100
AcDbEntity
  8
_0-2_用紙フォ__マット_1_1_
  6
Continuous
 62
     7
100
AcDbLine
 10
-120.0898831957659
 20
-120.4092216063577
 30
0.0
 11
24.69920158037553
 21
-120.4092216063577
 31
0.0
  0
LINE
  5
58B
330
576
100
AcDbEntity
  8
_0-2_用紙フォ__マット_1_1_
  6
Continuous
 62
     7
100
AcDbLine
 10
-120.0898831957659
 20
-130.4092216063577
 30
0.0
 11
14.92820921396287
 21
-130.4092216063577
 31
0.0
  0
LINE
  5
58C
330
576
100
AcDbEntity
  8
_0-2_用紙フォ__マット_1_1_
  6
Continuous
 62
     7
100
AcDbLine
 10
-120.0898831957659
 20
-140.4092216063577
 30
0.0
 11
5.157216847551353
 21
-140.4092216063577
 31
0.0
  0
LINE
  5
58D
330
576
100
AcDbEntity
  8
_0-2_用紙フォ__マット_1_1_
  6
Continuous
 62
     7
100
AcDbLine
 10
-120.0898831957659
 20
-150.4092216063577
 30
0.0
 11
-4.613775518861302
 21
-150.4092216063577
 31
0.0
  0
LINE
  5
58E
330
576
100
AcDbEntity
  8
_0-2_用紙フォ__マット_1_1_
  6
Continuous
 62
     7
100
AcDbLine
 10
-120.0898831957659
 20
-160.4092216063577
 30
0.0
 11
-14.38476788527282
 21
-160.4092216063577
 31
0.0
  0
LINE
  5
58F
330
576
100
AcDbEntity
  8
_0-2_用紙フォ__マット_1_1_
  6
Continuous
 62
     7
100
AcDbLine
 10
-120.0898831957659
 20
-170.4092216063577
 30
0.0
 11
-24.15576025168548
 21
-170.4092216063577
 31
0.0
  0
LINE
  5
590
330
576
100
AcDbEntity
  8
_0-2_用紙フォ__マット_1_1_
  6
Continuous
 62
     7
100
AcDbLine
 10
-120.0898831957659
 20
-180.4092216063577
 30
0.0
 11
-33.926752618097
 21
-180.4092216063577
 31
0.0
  0
LINE
  5
591
330
576
100
AcDbEntity
  8
_0-2_用紙フォ__マット_1_1_
  6
Continuous
 62
     7
100
AcDbLine
 10
-120.0898831957659
 20
-190.4092216063577
 30
0.0
 11
-43.69774498450964
 21
-190.4092216063577
 31
0.0
  0
LINE
  5
592
330
576
100
AcDbEntity
  8
_0-2_用紙フォ__マット_1_1_
  6
Continuous
 62
     7
100
AcDbLine
 10
-120.0898831957659
 20
-200.4092216063577
 30
0.0
 11
-53.46873735092231
 21
-200.4092216063577
 31
0.0
  0
LINE
  5
593
330
576
100
AcDbEntity
  8
_0-2_用紙フォ__マット_1_1_
  6
Continuous
 62
     7
100
AcDbLine
 10
-120.0898831957659
 20
-210.4092216063577
 30
0.0
 11
-63.23972971733383
 21
-210.4092216063577
 31
0.0
  0
LINE
  5
594
330
576
100
AcDbEntity
  8
_0-2_用紙フォ__マット_1_1_
  6
Continuous
 62
     7
100
AcDbLine
 10
-120.0898831957659
 20
-220.4092216063577
 30
0.0
 11
-73.01072208374648
 21
-220.4092216063577
 31
0.0
  0
LINE
  5
595
330
576
100
AcDbEntity
  8
_0-2_用紙フォ__マット_1_1_
  6
Continuous
 62
     7
100
AcDbLine
 10
-120.0898831957659
 20
-230.4092216063577
 30
0.0
 11
-82.781714450158
 21
-230.4092216063577
 31
0.0
  0
LINE
  5
596
330
576
100
AcDbEntity
  8
_0-2_用紙フォ__マット_1_1_
  6
Continuous
 62
     7
100
AcDbLine
 10
-120.0898831957659
 20
-240.4092216063578
 30
0.0
 11
-92.55270681657066
 21
-240.4092216063578
 31
0.0
  0
LINE
  5
597
330
576
100
AcDbEntity
  8
_0-2_用紙フォ__マット_1_1_
  6
Continuous
 62
     7
100
AcDbLine
 10
-120.0898831957659
 20
-250.4092216063577
 30
0.0
 11
-102.3236991829822
 21
-250.4092216063577
 31
0.0
  0
LINE
  5
598
330
576
100
AcDbEntity
  8
_0-2_用紙フォ__マット_1_1_
  6
Continuous
 62
     7
100
AcDbLine
 10
-120.0898831957659
 20
-260.4092216063577
 30
0.0
 11
-112.0946915493948
 21
-260.4092216063577
 31
0.0
  0
LINE
  5
599
330
576
100
AcDbEntity
  8
_0-2_用紙フォ__マット_1_1_
  6
Continuous
 62
     7
100
AcDbLine
 10
38.76121358372757
 20
-106.0176311966768
 30
0.0
 11
-120.0898831957659
 21
-268.5918005569408
 31
0.0
  0
LINE
  5
59A
330
576
100
AcDbEntity
  8
_0-2_用紙フォ__マット_1_1_
  6
Continuous
 62
     7
100
AcDbLine
 10
-120.0898831957659
 20
-100.4092216063577
 30
0.0
 11
33.30686262144241
 21
-100.4092216063577
 31
0.0
  0
LINE
  5
59B
330
576
100
AcDbEntity
  8
_0-2_用紙フォ__マット_1_1_
  6
Continuous
 62
     7
100
AcDbLine
 10
-120.0898831957659
 20
-90.40922160635773
 30
0.0
 11
25.03810393246227
 21
-90.40922160635773
 31
0.0
  0
LINE
  5
59C
330
576
100
AcDbEntity
  8
_0-2_用紙フォ__マット_1_1_
  6
Continuous
 62
     7
100
AcDbLine
 10
-120.0898831957659
 20
-80.40922160635773
 30
0.0
 11
18.22622881013331
 21
-80.40922160635773
 31
0.0
  0
LINE
  5
59D
330
576
100
AcDbEntity
  8
_0-2_用紙フォ__マット_1_1_
  6
Continuous
 62
     7
100
AcDbLine
 10
-120.0898831957659
 20
-70.40922160635773
 30
0.0
 11
12.62379541066252
 21
-70.40922160635773
 31
0.0
  0
LINE
  5
59E
330
576
100
AcDbEntity
  8
_0-2_用紙フォ__マット_1_1_
  6
Continuous
 62
     7
100
AcDbLine
 10
-120.0898831957659
 20
-60.40922160635773
 30
0.0
 11
8.068078136379881
 21
-60.40922160635773
 31
0.0
  0
LINE
  5
59F
330
576
100
AcDbEntity
  8
_0-2_用紙フォ__マット_1_1_
  6
Continuous
 62
     7
100
AcDbLine
 10
-120.0898831957659
 20
-50.40922160635773
 30
0.0
 11
4.447805060457312
 21
-50.40922160635773
 31
0.0
  0
LINE
  5
5A0
330
576
100
AcDbEntity
  8
_0-2_用紙フォ__マット_1_1_
  6
Continuous
 62
     7
100
AcDbLine
 10
-120.0898831957659
 20
-40.40922160635772
 30
0.0
 11
1.685624250806085
 21
-40.40922160635772
 31
0.0
  0
LINE
  5
5A1
330
576
100
AcDbEntity
  8
_0-2_用紙フォ__マット_1_1_
  6
Continuous
 62
     7
100
AcDbLine
 10
-120.0898831957659
 20
-30.40922160635773
 30
0.0
 11
-0.2718020009137944
 21
-30.40922160635773
 31
0.0
  0
LINE
  5
5A2
330
576
100
AcDbEntity
  8
_0-2_用紙フォ__マット_1_1_
  6
Continuous
 62
     7
100
AcDbLine
 10
-120.0898831957659
 20
-20.40922160635773
 30
0.0
 11
-1.459606703773488
 21
-20.40922160635773
 31
0.0
  0
LINE
  5
5A3
330
576
100
AcDbEntity
  8
_0-2_用紙フォ__マット_1_1_
  6
Continuous
 62
     7
100
AcDbLine
 10
-120.0898831957659
 20
-10.40922160635773
 30
0.0
 11
-1.898111154537218
 21
-10.40922160635773
 31
0.0
  0
LINE
  5
5A4
330
576
100
AcDbEntity
  8
_0-2_用紙フォ__マット_1_1_
  6
Continuous
 62
     7
100
AcDbLine
 10
-120.0898831957659
 20
-0.4092216063577326
 30
0.0
 11
-1.594635432329596
 21
-0.4092216063577326
 31
0.0
  0
LINE
  5
5A5
330
576
100
AcDbEntity
  8
_0-2_用紙フォ__マット_1_1_
  6
Continuous
 62
     7
100
AcDbLine
 10
-120.0898831957659
 20
9.590778393642269
 30
0.0
 11
-0.5441238130435976
 21
9.590778393642269
 31
0.0
  0
LINE
  5
5A6
330
576
100
AcDbEntity
  8
_0-2_用紙フォ__マット_1_1_
  6
Continuous
 62
     7
100
AcDbLine
 10
-120.0898831957659
 20
19.59077839364226
 30
0.0
 11
1.271285679895299
 21
19.59077839364226
 31
0.0
  0
LINE
  5
5A7
330
576
100
AcDbEntity
  8
_0-2_用紙フォ__マット_1_1_
  6
Continuous
 62
     7
100
AcDbLine
 10
-120.0898831957659
 20
29.59077839364227
 30
0.0
 11
3.883836071253199
 21
29.59077839364227
 31
0.0
  0
LINE
  5
5A8
330
576
100
AcDbEntity
  8
_0-2_用紙フォ__マット_1_1_
  6
Continuous
 62
     7
100
AcDbLine
 10
-120.0898831957659
 20
39.59077839364226
 30
0.0
 11
7.343211096617778
 21
39.59077839364226
 31
0.0
  0
LINE
  5
5A9
330
576
100
AcDbEntity
  8
_0-2_用紙フォ__マット_1_1_
  6
Continuous
 62
     7
100
AcDbLine
 10
-120.0898831957659
 20
49.59077839364225
 30
0.0
 11
11.72181376957383
 21
49.59077839364225
 31
0.0
  0
LINE
  5
5AA
330
576
100
AcDbEntity
  8
_0-2_用紙フォ__マット_1_1_
  6
Continuous
 62
     7
100
AcDbLine
 10
-120.0898831957659
 20
59.59077839364225
 30
0.0
 11
17.12374047276512
 21
59.59077839364225
 31
0.0
  0
LINE
  5
5AB
330
576
100
AcDbEntity
  8
_0-2_用紙フォ__マット_1_1_
  6
Continuous
 62
     7
100
AcDbLine
 10
-120.0898831957659
 20
69.59077839364225
 30
0.0
 11
23.70051962217189
 21
69.59077839364225
 31
0.0
  0
LINE
  5
5AC
330
576
100
AcDbEntity
  8
_0-2_用紙フォ__マット_1_1_
  6
Continuous
 62
     7
100
AcDbLine
 10
-120.0898831957659
 20
79.59077839364226
 30
0.0
 11
31.68052413880105
 21
79.59077839364226
 31
0.0
  0
LINE
  5
5AD
330
576
100
AcDbEntity
  8
_0-2_用紙フォ__マット_1_1_
  6
Continuous
 62
     7
100
AcDbLine
 10
-120.0898831957659
 20
89.59077839364226
 30
0.0
 11
41.42960835981739
 21
89.59077839364226
 31
0.0
  0
LINE
  5
5AE
330
576
100
AcDbEntity
  8
_0-2_用紙フォ__マット_1_1_
  6
Continuous
 62
     7
100
AcDbLine
 10
-120.0898831957659
 20
99.59077839364226
 30
0.0
 11
53.59618442879877
 21
99.59077839364226
 31
0.0
  0
LINE
  5
5AF
330
576
100
AcDbEntity
  8
_0-2_用紙フォ__マット_1_1_
  6
Continuous
 62
     7
100
AcDbLine
 10
-120.0898831957659
 20
109.5907783936422
 30
0.0
 11
69.55466081637155
 21
109.5907783936422
 31
0.0
  0
LINE
  5
5B0
330
576
100
AcDbEntity
  8
_0-2_用紙フォ__マット_1_1_
  6
Continuous
 62
     7
100
AcDbLine
 10
-120.0898831957659
 20
119.5907783936422
 30
0.0
 11
93.67105428669674
 21
119.5907783936422
 31
0.0
  0
LINE
  5
5B1
330
576
100
AcDbEntity
  8
_0-2_用紙フォ__マット_1_1_
  6
Continuous
 62
     7
100
AcDbLine
 10
172.4649816551664
 20
119.5907783936422
 30
0.0
 11
259.2030183742702
 21
119.5907783936422
 31
0.0
  0
LINE
  5
5B2
330
576
100
AcDbEntity
  8
_0-2_用紙フォ__マット_1_1_
  6
Continuous
 62
     7
100
AcDbLine
 10
196.5813751254916
 20
109.5907783936422
 30
0.0
 11
249.4320260078587
 21
109.5907783936422
 31
0.0
  0
LINE
  5
5B3
330
576
100
AcDbEntity
  8
_0-2_用紙フォ__マット_1_1_
  6
Continuous
 62
     7
100
AcDbLine
 10
212.5398515130656
 20
99.59077839364226
 30
0.0
 11
239.661033641446
 21
99.59077839364226
 31
0.0
  0
ENDBLK
  5
5B4
330
576
100
AcDbEntity
  8
0
100
AcDbBlockEnd
  0
BLOCK
  5
5B8
330
5B6
100
AcDbEntity
  8
0
100
AcDbBlockBegin
  2
A$C19575CB4
 70
     0
 10
0.0
 20
0.0
 30
0.0
  3
A$C19575CB4
  1

  0
INSERT
  5
5B7
330
5B6
100
AcDbEntity
  8
_0-2_用紙フォ__マット_1_1_
100
AcDbBlockReference
  2
-000-スカイマ__ク
 10
-26.61360359418632
 20
1.900102216329742
 30
0.0
 41
0.2000000000000455
 42
0.1999999999998181
  0
ENDBLK
  5
5B9
330
5B6
100
AcDbEntity
  8
0
100
AcDbBlockEnd
  0
BLOCK
  5
719
330
716
100
AcDbEntity
  8
0
100
AcDbBlockBegin
  2
_Origin
 70
     0
 10
0.0
 20
0.0
 30
0.0
  3
_Origin
  1

  0
CIRCLE
  5
717
330
716
100
AcDbEntity
  8
0
  6
ByBlock
 62
     0
370
    -2
100
AcDbCircle
 10
0.0
 20
0.0
 30
0.0
 40
0.5
  0
LINE
  5
718
330
716
100
AcDbEntity
  8
0
  6
ByBlock
 62
     0
370
    -2
100
AcDbLine
 10
0.0
 20
0.0
 30
0.0
 11
-1.0
 21
0.0
 31
0.0
  0
ENDBLK
  5
71A
330
716
100
AcDbEntity
  8
0
100
AcDbBlockEnd
  0
BLOCK
  5
FFF
330
FF5
100
AcDbEntity
  8
0
100
AcDbBlockBegin
  2
*D3
 70
     1
 10
0.0
 20
0.0
 30
0.0
  3
*D3
  1

  0
LINE
  5
28B9
330
FF5
100
AcDbEntity
  8
__
  6
Continuous
 62
     0
370
    -2
100
AcDbLine
 10
40168.9464350507
 20
-1796.750625228516
 30
0.0
 11
40168.9464350507
 21
-1854.165134339364
 31
0.0
  0
LINE
  5
28BA
330
FF5
100
AcDbEntity
  8
__
  6
Continuous
 62
     0
370
    -2
100
AcDbLine
 10
40471.98583365037
 20
-1796.750625228516
 30
0.0
 11
40471.98583365037
 21
-1854.165134339364
 31
0.0
  0
LINE
  5
28BB
330
FF5
100
AcDbEntity
  8
__
  6
Continuous
 62
     0
370
    -2
100
AcDbLine
 10
40176.9464350507
 20
-1853.985134339364
 30
0.0
 11
40463.98583365037
 21
-1853.985134339364
 31
0.0
  0
INSERT
  5
28BC
330
FF5
100
AcDbEntity
  8
__
  6
Continuous
 62
     0
370
    -2
100
AcDbBlockReference
  2
_Origin
 10
40168.9464350507
 20
-1853.985134339364
 30
0.0
 41
8.0
 42
8.0
 43
8.0
 50
180.0
  0
INSERT
  5
28BD
330
FF5
100
AcDbEntity
  8
__
  6
Continuous
 62
     0
370
    -2
100
AcDbBlockReference
  2
_Origin
 10
40471.98583365037
 20
-1853.985134339364
 30
0.0
 41
8.0
 42
8.0
 43
8.0
  0
MTEXT
  5
28BE
330
FF5
100
AcDbEntity
  8
__
  6
Continuous
 62
     0
100
AcDbMText
 10
40320.46613435054
 20
-1838.895134339364
 30
0.0
 40
30.0
 41
0.0
 71
     5
 72
     1
  1
\A1;303
 73
     1
 44
1.0
1001
ACAD
1000
MTEXTBEGIN
1070
    73
1070
     1
1070
    44
1040
1.0
1070
    74
1070
     0
1000
MTEXTEND
  0
POINT
  5
28BF
330
FF5
100
AcDbEntity
  8
DEFPOINTS
  6
Continuous
 62
     0
100
AcDbPoint
 10
40168.9464350507
 20
-1796.688125228516
 30
0.0
  0
POINT
  5
28C0
330
FF5
100
AcDbEntity
  8
DEFPOINTS
  6
Continuous
 62
     0
100
AcDbPoint
 10
40471.98583365037
 20
-1796.688125228516
 30
0.0
  0
POINT
  5
28C1
330
FF5
100
AcDbEntity
  8
DEFPOINTS
  6
Continuous
 62
     0
100
AcDbPoint
 10
40471.98583365037
 20
-1853.985134339364
 30
0.0
  0
ENDBLK
  5
1000
330
FF5
100
AcDbEntity
  8
0
100
AcDbBlockEnd
  0
BLOCK
  5
1A1F
330
1A15
100
AcDbEntity
  8
0
100
AcDbBlockBegin
  2
*D4
 70
     1
 10
0.0
 20
0.0
 30
0.0
  3
*D4
  1

  0
LINE
  5
2AF7
330
1A15
100
AcDbEntity
  8
__
  6
Continuous
 62
     0
370
    -2
100
AcDbLine
 10
40141.72585966106
 20
-1768.838853276148
 30
0.0
 11
40094.58153304096
 21
-1768.838853276148
 31
0.0
  0
LINE
  5
2AF8
330
1A15
100
AcDbEntity
  8
__
  6
Continuous
 62
     0
370
    -2
100
AcDbLine
 10
40141.72585966106
 20
-1619.210288298308
 30
0.0
 11
40094.58153304096
 21
-1619.210288298308
 31
0.0
  0
LINE
  5
2AF9
330
1A15
100
AcDbEntity
  8
__
  6
Continuous
 62
     0
370
    -2
100
AcDbLine
 10
40094.76153304095
 20
-1760.838853276148
 30
0.0
 11
40094.76153304095
 21
-1627.210288298308
 31
0.0
  0
INSERT
  5
2AFA
330
1A15
100
AcDbEntity
  8
__
  6
Continuous
 62
     0
370
    -2
100
AcDbBlockReference
  2
_Origin
 10
40094.76153304095
 20
-1768.838853276148
 30
0.0
 41
8.0
 42
8.0
 43
8.0
 50
270.0
  0
INSERT
  5
2AFB
330
1A15
100
AcDbEntity
  8
__
  6
Continuous
 62
     0
370
    -2
100
AcDbBlockReference
  2
_Origin
 10
40094.76153304095
 20
-1619.210288298308
 30
0.0
 41
8.0
 42
8.0
 43
8.0
 50
90.0
  0
MTEXT
  5
2AFC
330
1A15
100
AcDbEntity
  8
__
  6
Continuous
 62
     0
100
AcDbMText
 10
40079.67153304096
 20
-1694.024570787221
 30
0.0
 40
30.0
 41
0.0
 71
     5
 72
     1
  1
\A1;149.6
 11
0.0000000000000001
 21
1.0
 31
0.0
 73
     1
 44
1.0
1001
ACAD
1000
MTEXTBEGIN
1070
    73
1070
     1
1070
    44
1040
1.0
1070
    74
1070
     0
1000
MTEXTEND
  0
POINT
  5
2AFD
330
1A15
100
AcDbEntity
  8
DEFPOINTS
  6
Continuous
 62
     0
100
AcDbPoint
 10
40141.78835966106
 20
-1768.838853276148
 30
0.0
  0
POINT
  5
2AFE
330
1A15
100
AcDbEntity
  8
DEFPOINTS
  6
Continuous
 62
     0
100
AcDbPoint
 10
40141.78835966106
 20
-1619.210288298308
 30
0.0
  0
POINT
  5
2AFF
330
1A15
100
AcDbEntity
  8
DEFPOINTS
  6
Continuous
 62
     0
100
AcDbPoint
 10
40094.76153304095
 20
-1619.210288298308
 30
0.0
  0
ENDBLK
  5
1A20
330
1A15
100
AcDbEntity
  8
0
100
AcDbBlockEnd
  0
BLOCK
  5
1C94
330
1C8A
100
AcDbEntity
  8
0
100
AcDbBlockBegin
  2
*D5
 70
     1
 10
0.0
 20
0.0
 30
0.0
  3
*D5
  1

  0
LINE
  5
28C2
330
1C8A
100
AcDbEntity
  8
__
  6
Continuous
 62
     0
370
    -2
100
AcDbLine
 10
40948.23789630487
 20
-1728.761662212917
 30
0.0
 11
40948.23789630487
 21
-1765.039627448721
 31
0.0
  0
LINE
  5
28C3
330
1C8A
100
AcDbEntity
  8
__
  6
Continuous
 62
     0
370
    -2
100
AcDbLine
 10
41192.7916917902
 20
-1728.751876228345
 30
0.0
 11
41192.7916917902
 21
-1765.039627448721
 31
0.0
  0
LINE
  5
28C4
330
1C8A
100
AcDbEntity
  8
__
  6
Continuous
 62
     0
370
    -2
100
AcDbLine
 10
40956.23789630487
 20
-1764.859627448721
 30
0.0
 11
41184.7916917902
 21
-1764.859627448721
 31
0.0
  0
INSERT
  5
28C5
330
1C8A
100
AcDbEntity
  8
__
  6
Continuous
 62
     0
370
    -2
100
AcDbBlockReference
  2
_Origin
 10
40948.23789630487
 20
-1764.859627448721
 30
0.0
 41
8.0
 42
8.0
 43
8.0
 50
180.0
  0
INSERT
  5
28C6
330
1C8A
100
AcDbEntity
  8
__
  6
Continuous
 62
     0
370
    -2
100
AcDbBlockReference
  2
_Origin
 10
41192.7916917902
 20
-1764.859627448721
 30
0.0
 41
8.0
 42
8.0
 43
8.0
  0
MTEXT
  5
28C7
330
1C8A
100
AcDbEntity
  8
__
  6
Continuous
 62
     0
100
AcDbMText
 10
41070.51479404754
 20
-1749.769627448721
 30
0.0
 40
30.0
 41
0.0
 71
     5
 72
     1
  1
\A1;245
 73
     1
 44
1.0
1001
ACAD
1000
MTEXTBEGIN
1070
    73
1070
     1
1070
    44
1040
1.0
1070
    74
1070
     0
1000
MTEXTEND
  0
POINT
  5
28C8
330
1C8A
100
AcDbEntity
  8
DEFPOINTS
  6
Continuous
 62
     0
100
AcDbPoint
 10
40948.23789630487
 20
-1728.699162212917
 30
0.0
  0
POINT
  5
28C9
330
1C8A
100
AcDbEntity
  8
DEFPOINTS
  6
Continuous
 62
     0
100
AcDbPoint
 10
41192.7916917902
 20
-1728.689376228346
 30
0.0
  0
POINT
  5
28CA
330
1C8A
100
AcDbEntity
  8
DEFPOINTS
  6
Continuous
 62
     0
100
AcDbPoint
 10
41192.7916917902
 20
-1764.859627448721
 30
0.0
  0
ENDBLK
  5
1C95
330
1C8A
100
AcDbEntity
  8
0
100
AcDbBlockEnd
  0
BLOCK
  5
1CAC
330
1CA2
100
AcDbEntity
  8
0
100
AcDbBlockBegin
  2
*D6
 70
     1
 10
0.0
 20
0.0
 30
0.0
  3
*D6
  1

  0
LINE
  5
2BB1
330
1CA2
100
AcDbEntity
  8
__
  6
Continuous
 62
     0
370
    -2
100
AcDbLine
 10
40907.90128147456
 20
-1734.455295074706
 30
0.0
 11
40907.90128147456
 21
-1808.268787027099
 31
0.0
  0
LINE
  5
2BB2
330
1CA2
100
AcDbEntity
  8
__
  6
Continuous
 62
     0
370
    -2
100
AcDbLine
 10
41232.90128147456
 20
-1734.455295074706
 30
0.0
 11
41232.90128147456
 21
-1808.268787027099
 31
0.0
  0
LINE
  5
2BB3
330
1CA2
100
AcDbEntity
  8
__
  6
Continuous
 62
     0
370
    -2
100
AcDbLine
 10
40915.90128147456
 20
-1808.088787027099
 30
0.0
 11
41224.90128147456
 21
-1808.088787027099
 31
0.0
  0
INSERT
  5
2BB4
330
1CA2
100
AcDbEntity
  8
__
  6
Continuous
 62
     0
370
    -2
100
AcDbBlockReference
  2
_Origin
 10
40907.90128147456
 20
-1808.088787027099
 30
0.0
 41
8.0
 42
8.0
 43
8.0
 50
180.0
  0
INSERT
  5
2BB5
330
1CA2
100
AcDbEntity
  8
__
  6
Continuous
 62
     0
370
    -2
100
AcDbBlockReference
  2
_Origin
 10
41232.90128147456
 20
-1808.088787027099
 30
0.0
 41
8.0
 42
8.0
 43
8.0
  0
MTEXT
  5
2BB6
330
1CA2
100
AcDbEntity
  8
__
  6
Continuous
 62
     0
100
AcDbMText
 10
41070.40128147455
 20
-1792.998787027099
 30
0.0
 40
30.0
 41
0.0
 71
     5
 72
     1
  1
\A1;325
 73
     1
 44
1.0
1001
ACAD
1000
MTEXTBEGIN
1070
    73
1070
     1
1070
    44
1040
1.0
1070
    74
1070
     0
1000
MTEXTEND
  0
POINT
  5
2BB7
330
1CA2
100
AcDbEntity
  8
DEFPOINTS
  6
Continuous
 62
     0
100
AcDbPoint
 10
40907.90128147456
 20
-1734.392795074705
 30
0.0
  0
POINT
  5
2BB8
330
1CA2
100
AcDbEntity
  8
DEFPOINTS
  6
Continuous
 62
     0
100
AcDbPoint
 10
41232.90128147456
 20
-1734.392795074705
 30
0.0
  0
POINT
  5
2BB9
330
1CA2
100
AcDbEntity
  8
DEFPOINTS
  6
Continuous
 62
     0
100
AcDbPoint
 10
41232.90128147456
 20
-1808.088787027099
 30
0.0
  0
ENDBLK
  5
1CAD
330
1CA2
100
AcDbEntity
  8
0
100
AcDbBlockEnd
  0
BLOCK
  5
1CF8
330
1CF0
100
AcDbEntity
  8
0
100
AcDbBlockBegin
  2
*D7
 70
     1
 10
0.0
 20
0.0
 30
0.0
  3
*D7
  1

  0
LINE
  5
2B00
330
1CF0
100
AcDbEntity
  8
__
  6
Continuous
 62
     0
370
    -2
100
AcDbLine
 10
41229.49764019543
 20
-1706.285
 30
0.0
 11
41265.6668007245
 21
-1706.285
 31
0.0
  0
LINE
  5
2B01
330
1CF0
100
AcDbEntity
  8
__
  6
Continuous
 62
     0
370
    -2
100
AcDbLine
 10
41228.64578147455
 20
-1715.809999999999
 30
0.0
 11
41265.6668007245
 21
-1715.809999999999
 31
0.0
  0
LINE
  5
2B02
330
1CF0
100
AcDbEntity
  8
__
  6
Continuous
 62
     0
370
    -2
100
AcDbLine
 10
41265.4868007245
 20
-1706.285
 30
0.0
 11
41265.4868007245
 21
-1715.809999999999
 31
0.0
  0
MTEXT
  5
2B03
330
1CF0
100
AcDbEntity
  8
__
  6
Continuous
 62
     0
100
AcDbMText
 10
41250.3968007245
 20
-1711.047499999993
 30
0.0
 40
30.0
 41
0.0
 71
     5
 72
     1
  1
\A1;9.5
 11
0.0000000000000001
 21
1.0
 31
0.0
 73
     1
 44
1.0
1001
ACAD
1000
MTEXTBEGIN
1070
    73
1070
     1
1070
    44
1040
1.0
1070
    74
1070
     0
1000
MTEXTEND
  0
POINT
  5
2B04
330
1CF0
100
AcDbEntity
  8
DEFPOINTS
  6
Continuous
 62
     0
100
AcDbPoint
 10
41229.43514019543
 20
-1706.285
 30
0.0
  0
POINT
  5
2B05
330
1CF0
100
AcDbEntity
  8
DEFPOINTS
  6
Continuous
 62
     0
100
AcDbPoint
 10
41228.58328147455
 20
-1715.809999999999
 30
0.0
  0
POINT
  5
2B06
330
1CF0
100
AcDbEntity
  8
DEFPOINTS
  6
Continuous
 62
     0
100
AcDbPoint
 10
41265.4868007245
 20
-1715.809999999999
 30
0.0
  0
ENDBLK
  5
1CF9
330
1CF0
100
AcDbEntity
  8
0
100
AcDbBlockEnd
  0
BLOCK
  5
2091
330
2087
100
AcDbEntity
  8
0
100
AcDbBlockBegin
  2
*D8
 70
     1
 10
0.0
 20
0.0
 30
0.0
  3
*D8
  1

  0
LINE
  5
2BF0
330
2087
100
AcDbEntity
  8
__
  6
Continuous
 62
     0
370
    -2
100
AcDbLine
 10
40488.09714433172
 20
-2325.169914950393
 30
0.0
 11
40533.4833340043
 21
-2325.169914950393
 31
0.0
  0
LINE
  5
2BF1
330
2087
100
AcDbEntity
  8
__
  6
Continuous
 62
     0
370
    -2
100
AcDbLine
 10
40488.09714433172
 20
-2172.769914950393
 30
0.0
 11
40533.4833340043
 21
-2172.769914950393
 31
0.0
  0
LINE
  5
2BF2
330
2087
100
AcDbEntity
  8
__
  6
Continuous
 62
     0
370
    -2
100
AcDbLine
 10
40533.3033340043
 20
-2317.169914950393
 30
0.0
 11
40533.3033340043
 21
-2180.769914950393
 31
0.0
  0
INSERT
  5
2BF3
330
2087
100
AcDbEntity
  8
__
  6
Continuous
 62
     0
370
    -2
100
AcDbBlockReference
  2
_Origin
 10
40533.3033340043
 20
-2325.169914950393
 30
0.0
 41
8.0
 42
8.0
 43
8.0
 50
270.0
  0
INSERT
  5
2BF4
330
2087
100
AcDbEntity
  8
__
  6
Continuous
 62
     0
370
    -2
100
AcDbBlockReference
  2
_Origin
 10
40533.3033340043
 20
-2172.769914950393
 30
0.0
 41
8.0
 42
8.0
 43
8.0
 50
90.0
  0
MTEXT
  5
2BF5
330
2087
100
AcDbEntity
  8
__
  6
Continuous
 62
     0
100
AcDbMText
 10
40518.21333400431
 20
-2248.969914950386
 30
0.0
 40
30.0
 41
0.0
 71
     5
 72
     1
  1
\A1;152
 11
0.0000000000000001
 21
1.0
 31
0.0
 73
     1
 44
1.0
1001
ACAD
1000
MTEXTBEGIN
1070
    73
1070
     1
1070
    44
1040
1.0
1070
    74
1070
     0
1000
MTEXTEND
  0
POINT
  5
2BF6
330
2087
100
AcDbEntity
  8
DEFPOINTS
  6
Continuous
 62
     0
100
AcDbPoint
 10
40488.03464433172
 20
-2325.169914950393
 30
0.0
  0
POINT
  5
2BF7
330
2087
100
AcDbEntity
  8
DEFPOINTS
  6
Continuous
 62
     0
100
AcDbPoint
 10
40488.03464433172
 20
-2172.769914950393
 30
0.0
  0
POINT
  5
2BF8
330
2087
100
AcDbEntity
  8
DEFPOINTS
  6
Continuous
 62
     0
100
AcDbPoint
 10
40533.3033340043
 20
-2172.769914950393
 30
0.0
  0
ENDBLK
  5
2092
330
2087
100
AcDbEntity
  8
0
100
AcDbBlockEnd
  0
BLOCK
  5
20B2
330
20A8
100
AcDbEntity
  8
0
100
AcDbBlockBegin
  2
*D9
 70
     1
 10
0.0
 20
0.0
 30
0.0
  3
*D9
  1

  0
LINE
  5
2BBA
330
20A8
100
AcDbEntity
  8
__
  6
Continuous
 62
     0
370
    -2
100
AcDbLine
 10
39910.825
 20
-2354.887663154167
 30
0.0
 11
39910.825
 21
-2401.568139832677
 31
0.0
  0
LINE
  5
2BBB
330
20A8
100
AcDbEntity
  8
__
  6
Continuous
 62
     0
370
    -2
100
AcDbLine
 10
40469.2375
 20
-2354.887663154167
 30
0.0
 11
40469.2375
 21
-2401.568139832677
 31
0.0
  0
LINE
  5
2BBC
330
20A8
100
AcDbEntity
  8
__
  6
Continuous
 62
     0
370
    -2
100
AcDbLine
 10
39918.825
 20
-2401.388139832677
 30
0.0
 11
40461.2375
 21
-2401.388139832677
 31
0.0
  0
INSERT
  5
2BBD
330
20A8
100
AcDbEntity
  8
__
  6
Continuous
 62
     0
370
    -2
100
AcDbBlockReference
  2
_Origin
 10
39910.825
 20
-2401.388139832677
 30
0.0
 41
8.0
 42
8.0
 43
8.0
 50
180.0
  0
INSERT
  5
2BBE
330
20A8
100
AcDbEntity
  8
__
  6
Continuous
 62
     0
370
    -2
100
AcDbBlockReference
  2
_Origin
 10
40469.2375
 20
-2401.388139832677
 30
0.0
 41
8.0
 42
8.0
 43
8.0
  0
MTEXT
  5
2BBF
330
20A8
100
AcDbEntity
  8
__
  6
Continuous
 62
     0
100
AcDbMText
 10
40190.03125
 20
-2386.298139832677
 30
0.0
 40
30.0
 41
0.0
 71
     5
 72
     1
  1
\A1;558.4
 73
     1
 44
1.0
1001
ACAD
1000
MTEXTBEGIN
1070
    73
1070
     1
1070
    44
1040
1.0
1070
    74
1070
     0
1000
MTEXTEND
  0
POINT
  5
2BC0
330
20A8
100
AcDbEntity
  8
DEFPOINTS
  6
Continuous
 62
     0
100
AcDbPoint
 10
39910.825
 20
-2354.825163154167
 30
0.0
  0
POINT
  5
2BC1
330
20A8
100
AcDbEntity
  8
DEFPOINTS
  6
Continuous
 62
     0
100
AcDbPoint
 10
40469.2375
 20
-2354.825163154167
 30
0.0
  0
POINT
  5
2BC2
330
20A8
100
AcDbEntity
  8
DEFPOINTS
  6
Continuous
 62
     0
100
AcDbPoint
 10
40469.2375
 20
-2401.388139832677
 30
0.0
  0
ENDBLK
  5
20B3
330
20A8
100
AcDbEntity
  8
0
100
AcDbBlockEnd
  0
BLOCK
  5
2190
330
2186
100
AcDbEntity
  8
0
100
AcDbBlockBegin
  2
*D10
 70
     1
 10
0.0
 20
0.0
 30
0.0
  3
*D10
  1

  0
LINE
  5
2B10
330
2186
100
AcDbEntity
  8
__
  6
Continuous
 62
     0
370
    -2
100
AcDbLine
 10
40032.38839344529
 20
-2329.4936006513
 30
0.0
 11
40032.38839344529
 21
-2359.910376380096
 31
0.0
  0
LINE
  5
2B11
330
2186
100
AcDbEntity
  8
__
  6
Continuous
 62
     0
370
    -2
100
AcDbLine
 10
40347.6116065547
 20
-2325.685335550426
 30
0.0
 11
40347.6116065547
 21
-2359.910376380096
 31
0.0
  0
LINE
  5
2B12
330
2186
100
AcDbEntity
  8
__
  6
Continuous
 62
     0
370
    -2
100
AcDbLine
 10
40040.38839344529
 20
-2359.730376380095
 30
0.0
 11
40339.6116065547
 21
-2359.730376380095
 31
0.0
  0
INSERT
  5
2B13
330
2186
100
AcDbEntity
  8
__
  6
Continuous
 62
     0
370
    -2
100
AcDbBlockReference
  2
_Origin
 10
40032.38839344529
 20
-2359.730376380095
 30
0.0
 41
8.0
 42
8.0
 43
8.0
 50
180.0
  0
INSERT
  5
2B14
330
2186
100
AcDbEntity
  8
__
  6
Continuous
 62
     0
370
    -2
100
AcDbBlockReference
  2
_Origin
 10
40347.6116065547
 20
-2359.730376380095
 30
0.0
 41
8.0
 42
8.0
 43
8.0
  0
MTEXT
  5
2B15
330
2186
100
AcDbEntity
  8
__
  6
Continuous
 62
     0
100
AcDbMText
 10
40190.0
 20
-2344.640376380096
 30
0.0
 40
30.0
 41
0.0
 71
     5
 72
     1
  1
\A1;315.2
 73
     1
 44
1.0
1001
ACAD
1000
MTEXTBEGIN
1070
    73
1070
     1
1070
    44
1040
1.0
1070
    74
1070
     0
1000
MTEXTEND
  0
POINT
  5
2B16
330
2186
100
AcDbEntity
  8
DEFPOINTS
  6
Continuous
 62
     0
100
AcDbPoint
 10
40032.38839344529
 20
-2329.4311006513
 30
0.0
  0
POINT
  5
2B17
330
2186
100
AcDbEntity
  8
DEFPOINTS
  6
Continuous
 62
     0
100
AcDbPoint
 10
40347.6116065547
 20
-2325.622835550426
 30
0.0
  0
POINT
  5
2B18
330
2186
100
AcDbEntity
  8
DEFPOINTS
  6
Continuous
 62
     0
100
AcDbPoint
 10
40347.6116065547
 20
-2359.730376380095
 30
0.0
  0
ENDBLK
  5
2191
330
2186
100
AcDbEntity
  8
0
100
AcDbBlockEnd
  0
BLOCK
  5
2227
330
221D
100
AcDbEntity
  8
0
100
AcDbBlockBegin
  2
*D11
 70
     1
 10
0.0
 20
0.0
 30
0.0
  3
*D11
  1

  0
LINE
  5
2BCC
330
221D
100
AcDbEntity
  8
__
  6
Continuous
 62
     0
370
    -2
100
AcDbLine
 10
40750.0
 20
-2343.676300862286
 30
0.0
 11
40750.0
 21
-2386.086838839796
 31
0.0
  0
LINE
  5
2BCD
330
221D
100
AcDbEntity
  8
__
  6
Continuous
 62
     0
370
    -2
100
AcDbLine
 10
41250.0
 20
-2343.676300862286
 30
0.0
 11
41250.0
 21
-2386.086838839796
 31
0.0
  0
LINE
  5
2BCE
330
221D
100
AcDbEntity
  8
__
  6
Continuous
 62
     0
370
    -2
100
AcDbLine
 10
40758.0
 20
-2385.906838839797
 30
0.0
 11
41242.0
 21
-2385.906838839797
 31
0.0
  0
INSERT
  5
2BCF
330
221D
100
AcDbEntity
  8
__
  6
Continuous
 62
     0
370
    -2
100
AcDbBlockReference
  2
_Origin
 10
40750.0
 20
-2385.906838839797
 30
0.0
 41
8.0
 42
8.0
 43
8.0
 50
180.0
  0
INSERT
  5
2BD0
330
221D
100
AcDbEntity
  8
__
  6
Continuous
 62
     0
370
    -2
100
AcDbBlockReference
  2
_Origin
 10
41250.0
 20
-2385.906838839797
 30
0.0
 41
8.0
 42
8.0
 43
8.0
  0
MTEXT
  5
2BD1
330
221D
100
AcDbEntity
  8
__
  6
Continuous
 62
     0
100
AcDbMText
 10
41000.0
 20
-2370.816838839796
 30
0.0
 40
30.0
 41
0.0
 71
     5
 72
     1
  1
\A1;500
 73
     1
 44
1.0
1001
ACAD
1000
MTEXTBEGIN
1070
    73
1070
     1
1070
    44
1040
1.0
1070
    74
1070
     0
1000
MTEXTEND
  0
POINT
  5
2BD2
330
221D
100
AcDbEntity
  8
DEFPOINTS
  6
Continuous
 62
     0
100
AcDbPoint
 10
40750.0
 20
-2343.613800862286
 30
0.0
  0
POINT
  5
2BD3
330
221D
100
AcDbEntity
  8
DEFPOINTS
  6
Continuous
 62
     0
100
AcDbPoint
 10
41250.0
 20
-2343.613800862286
 30
0.0
  0
POINT
  5
2BD4
330
221D
100
AcDbEntity
  8
DEFPOINTS
  6
Continuous
 62
     0
100
AcDbPoint
 10
41250.0
 20
-2385.906838839797
 30
0.0
  0
ENDBLK
  5
2228
330
221D
100
AcDbEntity
  8
0
100
AcDbBlockEnd
  0
BLOCK
  5
223F
330
2235
100
AcDbEntity
  8
0
100
AcDbBlockBegin
  2
*D12
 70
     1
 10
0.0
 20
0.0
 30
0.0
  3
*D12
  1

  0
LINE
  5
2B07
330
2235
100
AcDbEntity
  8
__
  6
Continuous
 62
     0
370
    -2
100
AcDbLine
 10
40861.12410081454
 20
-2290.584143600932
 30
0.0
 11
40861.12410081454
 21
-2320.589915238198
 31
0.0
  0
LINE
  5
2B08
330
2235
100
AcDbEntity
  8
__
  6
Continuous
 62
     0
370
    -2
100
AcDbLine
 10
41138.87591119891
 20
-2290.584143600932
 30
0.0
 11
41138.87591119891
 21
-2320.589915238198
 31
0.0
  0
LINE
  5
2B09
330
2235
100
AcDbEntity
  8
__
  6
Continuous
 62
     0
370
    -2
100
AcDbLine
 10
40869.12410081455
 20
-2320.409915238198
 30
0.0
 11
41130.87591119891
 21
-2320.409915238198
 31
0.0
  0
INSERT
  5
2B0A
330
2235
100
AcDbEntity
  8
__
  6
Continuous
 62
     0
370
    -2
100
AcDbBlockReference
  2
_Origin
 10
40861.12410081454
 20
-2320.409915238198
 30
0.0
 41
8.0
 42
8.0
 43
8.0
 50
180.0
  0
INSERT
  5
2B0B
330
2235
100
AcDbEntity
  8
__
  6
Continuous
 62
     0
370
    -2
100
AcDbBlockReference
  2
_Origin
 10
41138.87591119891
 20
-2320.409915238198
 30
0.0
 41
8.0
 42
8.0
 43
8.0
  0
MTEXT
  5
2B0C
330
2235
100
AcDbEntity
  8
__
  6
Continuous
 62
     0
100
AcDbMText
 10
41000.00000600673
 20
-2305.319915238198
 30
0.0
 40
30.0
 41
0.0
 71
     5
 72
     1
  1
\A1;277.8
 73
     1
 44
1.0
1001
ACAD
1000
MTEXTBEGIN
1070
    73
1070
     1
1070
    44
1040
1.0
1070
    74
1070
     0
1000
MTEXTEND
  0
POINT
  5
2B0D
330
2235
100
AcDbEntity
  8
DEFPOINTS
  6
Continuous
 62
     0
100
AcDbPoint
 10
40861.12410081454
 20
-2290.521643600932
 30
0.0
  0
POINT
  5
2B0E
330
2235
100
AcDbEntity
  8
DEFPOINTS
  6
Continuous
 62
     0
100
AcDbPoint
 10
41138.87591119891
 20
-2290.521643600932
 30
0.0
  0
POINT
  5
2B0F
330
2235
100
AcDbEntity
  8
DEFPOINTS
  6
Continuous
 62
     0
100
AcDbPoint
 10
41138.87591119891
 20
-2320.409915238198
 30
0.0
  0
ENDBLK
  5
2240
330
2235
100
AcDbEntity
  8
0
100
AcDbBlockEnd
  0
BLOCK
  5
22D3
330
22C9
100
AcDbEntity
  8
0
100
AcDbBlockBegin
  2
*D13
 70
     1
 10
0.0
 20
0.0
 30
0.0
  3
*D13
  1

  0
LINE
  5
2BF9
330
22C9
100
AcDbEntity
  8
__
  6
Continuous
 62
     0
370
    -2
100
AcDbLine
 10
41268.92214433172
 20
-2324.458714950393
 30
0.0
 11
41315.6743848785
 21
-2324.458714950393
 31
0.0
  0
LINE
  5
2BFA
330
22C9
100
AcDbEntity
  8
__
  6
Continuous
 62
     0
370
    -2
100
AcDbLine
 10
41268.92214433172
 20
-2274.458714950393
 30
0.0
 11
41315.6743848785
 21
-2274.458714950393
 31
0.0
  0
LINE
  5
2BFB
330
22C9
100
AcDbEntity
  8
__
  6
Continuous
 62
     0
370
    -2
100
AcDbLine
 10
41315.49438487851
 20
-2316.458714950393
 30
0.0
 11
41315.49438487851
 21
-2282.458714950393
 31
0.0
  0
INSERT
  5
2BFC
330
22C9
100
AcDbEntity
  8
__
  6
Continuous
 62
     0
370
    -2
100
AcDbBlockReference
  2
_Origin
 10
41315.49438487851
 20
-2324.458714950393
 30
0.0
 41
8.0
 42
8.0
 43
8.0
 50
270.0
  0
INSERT
  5
2BFD
330
22C9
100
AcDbEntity
  8
__
  6
Continuous
 62
     0
370
    -2
100
AcDbBlockReference
  2
_Origin
 10
41315.49438487851
 20
-2274.458714950393
 30
0.0
 41
8.0
 42
8.0
 43
8.0
 50
90.0
  0
MTEXT
  5
2BFE
330
22C9
100
AcDbEntity
  8
__
  6
Continuous
 62
     0
100
AcDbMText
 10
41300.4043848785
 20
-2299.458714950386
 30
0.0
 40
30.0
 41
0.0
 71
     5
 72
     1
  1
\A1;50
 11
0.0000000000000001
 21
1.0
 31
0.0
 73
     1
 44
1.0
1001
ACAD
1000
MTEXTBEGIN
1070
    73
1070
     1
1070
    44
1040
1.0
1070
    74
1070
     0
1000
MTEXTEND
  0
POINT
  5
2BFF
330
22C9
100
AcDbEntity
  8
DEFPOINTS
  6
Continuous
 62
     0
100
AcDbPoint
 10
41268.85964433172
 20
-2324.458714950393
 30
0.0
  0
POINT
  5
2C00
330
22C9
100
AcDbEntity
  8
DEFPOINTS
  6
Continuous
 62
     0
100
AcDbPoint
 10
41268.85964433172
 20
-2274.458714950393
 30
0.0
  0
POINT
  5
2C01
330
22C9
100
AcDbEntity
  8
DEFPOINTS
  6
Continuous
 62
     0
100
AcDbPoint
 10
41315.49438487851
 20
-2274.458714950393
 30
0.0
  0
ENDBLK
  5
22D4
330
22C9
100
AcDbEntity
  8
0
100
AcDbBlockEnd
  0
BLOCK
  5
22EC
330
22E2
100
AcDbEntity
  8
0
100
AcDbBlockBegin
  2
*D14
 70
     1
 10
0.0
 20
0.0
 30
0.0
  3
*D14
  1

  0
LINE
  5
2BE7
330
22E2
100
AcDbEntity
  8
__
  6
Continuous
 62
     0
370
    -2
100
AcDbLine
 10
41268.98464433172
 20
-2274.458714950393
 30
0.0
 11
41315.6743848785
 21
-2274.458714950393
 31
0.0
  0
LINE
  5
2BE8
330
22E2
100
AcDbEntity
  8
__
  6
Continuous
 62
     0
370
    -2
100
AcDbLine
 10
41268.98464433172
 20
-2144.458714950393
 30
0.0
 11
41315.6743848785
 21
-2144.458714950393
 31
0.0
  0
LINE
  5
2BE9
330
22E2
100
AcDbEntity
  8
__
  6
Continuous
 62
     0
370
    -2
100
AcDbLine
 10
41315.49438487851
 20
-2266.458714950393
 30
0.0
 11
41315.49438487851
 21
-2152.458714950393
 31
0.0
  0
INSERT
  5
2BEA
330
22E2
100
AcDbEntity
  8
__
  6
Continuous
 62
     0
370
    -2
100
AcDbBlockReference
  2
_Origin
 10
41315.49438487851
 20
-2274.458714950393
 30
0.0
 41
8.0
 42
8.0
 43
8.0
 50
270.0
  0
INSERT
  5
2BEB
330
22E2
100
AcDbEntity
  8
__
  6
Continuous
 62
     0
370
    -2
100
AcDbBlockReference
  2
_Origin
 10
41315.49438487851
 20
-2144.458714950393
 30
0.0
 41
8.0
 42
8.0
 43
8.0
 50
90.0
  0
MTEXT
  5
2BEC
330
22E2
100
AcDbEntity
  8
__
  6
Continuous
 62
     0
100
AcDbMText
 10
41300.4043848785
 20
-2209.458714950386
 30
0.0
 40
30.0
 41
0.0
 71
     5
 72
     1
  1
\A1;130
 11
0.0000000000000001
 21
1.0
 31
0.0
 73
     1
 44
1.0
1001
ACAD
1000
MTEXTBEGIN
1070
    73
1070
     1
1070
    44
1040
1.0
1070
    74
1070
     0
1000
MTEXTEND
  0
POINT
  5
2BED
330
22E2
100
AcDbEntity
  8
DEFPOINTS
  6
Continuous
 62
     0
100
AcDbPoint
 10
41268.92214433172
 20
-2274.458714950393
 30
0.0
  0
POINT
  5
2BEE
330
22E2
100
AcDbEntity
  8
DEFPOINTS
  6
Continuous
 62
     0
100
AcDbPoint
 10
41268.92214433172
 20
-2144.458714950393
 30
0.0
  0
POINT
  5
2BEF
330
22E2
100
AcDbEntity
  8
DEFPOINTS
  6
Continuous
 62
     0
100
AcDbPoint
 10
41315.49438487851
 20
-2144.458714950393
 30
0.0
  0
ENDBLK
  5
22ED
330
22E2
100
AcDbEntity
  8
0
100
AcDbBlockEnd
  0
BLOCK
  5
2328
330
231E
100
AcDbEntity
  8
0
100
AcDbBlockBegin
  2
*D15
 70
     1
 10
0.0
 20
0.0
 30
0.0
  3
*D15
  1

  0
LINE
  5
28F8
330
231E
100
AcDbEntity
  8
__
  6
Continuous
 62
     0
370
    -2
100
AcDbLine
 10
40029.83039820239
 20
-2779.962391787647
 30
0.0
 11
40029.83039820239
 21
-2717.066447015567
 31
0.0
  0
LINE
  5
28F9
330
231E
100
AcDbEntity
  8
__
  6
Continuous
 62
     0
370
    -2
100
AcDbLine
 10
40274.83039820238
 20
-2779.962391787647
 30
0.0
 11
40274.83039820238
 21
-2717.066447015567
 31
0.0
  0
LINE
  5
28FA
330
231E
100
AcDbEntity
  8
__
  6
Continuous
 62
     0
370
    -2
100
AcDbLine
 10
40037.83039820238
 20
-2717.246447015567
 30
0.0
 11
40266.83039820238
 21
-2717.246447015567
 31
0.0
  0
INSERT
  5
28FB
330
231E
100
AcDbEntity
  8
__
  6
Continuous
 62
     0
370
    -2
100
AcDbBlockReference
  2
_Origin
 10
40029.83039820239
 20
-2717.246447015567
 30
0.0
 41
8.0
 42
8.0
 43
8.0
 50
180.0
  0
INSERT
  5
28FC
330
231E
100
AcDbEntity
  8
__
  6
Continuous
 62
     0
370
    -2
100
AcDbBlockReference
  2
_Origin
 10
40274.83039820238
 20
-2717.246447015567
 30
0.0
 41
8.0
 42
8.0
 43
8.0
  0
MTEXT
  5
28FD
330
231E
100
AcDbEntity
  8
__
  6
Continuous
 62
     0
100
AcDbMText
 10
40152.33039820238
 20
-2699.719898792216
 30
0.0
 40
30.0
 41
0.0
 71
     5
 72
     1
  1
\A1;φ245
 73
     1
 44
1.0
1001
ACAD
1000
MTEXTBEGIN
1070
    73
1070
     1
1070
    44
1040
1.0
1070
    74
1070
     0
1000
MTEXTEND
  0
POINT
  5
28FE
330
231E
100
AcDbEntity
  8
DEFPOINTS
  6
Continuous
 62
     0
100
AcDbPoint
 10
40029.83039820239
 20
-2780.024891787647
 30
0.0
  0
POINT
  5
28FF
330
231E
100
AcDbEntity
  8
DEFPOINTS
  6
Continuous
 62
     0
100
AcDbPoint
 10
40274.83039820238
 20
-2780.024891787647
 30
0.0
  0
POINT
  5
2900
330
231E
100
AcDbEntity
  8
DEFPOINTS
  6
Continuous
 62
     0
100
AcDbPoint
 10
40274.83039820238
 20
-2717.246447015567
 30
0.0
  0
ENDBLK
  5
2329
330
231E
100
AcDbEntity
  8
0
100
AcDbBlockEnd
  0
BLOCK
  5
236D
330
2363
100
AcDbEntity
  8
0
100
AcDbBlockBegin
  2
*D16
 70
     1
 10
0.0
 20
0.0
 30
0.0
  3
*D16
  1

  0
LINE
  5
2E3D
330
2363
100
AcDbEntity
  8
__
  6
Continuous
 62
     0
370
    -2
100
AcDbLine
 10
40418.05389113108
 20
-2591.962412687457
 30
0.0
 11
40418.05389113108
 21
-2544.680903150231
 31
0.0
  0
LINE
  5
2E3E
330
2363
100
AcDbEntity
  8
__
  6
Continuous
 62
     0
370
    -2
100
AcDbLine
 10
40663.05389113108
 20
-2591.962412687457
 30
0.0
 11
40663.05389113108
 21
-2544.680903150231
 31
0.0
  0
LINE
  5
2E3F
330
2363
100
AcDbEntity
  8
__
  6
Continuous
 62
     0
370
    -2
100
AcDbLine
 10
40426.05389113108
 20
-2544.860903150231
 30
0.0
 11
40655.05389113108
 21
-2544.860903150231
 31
0.0
  0
INSERT
  5
2E40
330
2363
100
AcDbEntity
  8
__
  6
Continuous
 62
     0
370
    -2
100
AcDbBlockReference
  2
_Origin
 10
40418.05389113108
 20
-2544.860903150231
 30
0.0
 41
8.0
 42
8.0
 43
8.0
 50
180.0
  0
INSERT
  5
2E41
330
2363
100
AcDbEntity
  8
__
  6
Continuous
 62
     0
370
    -2
100
AcDbBlockReference
  2
_Origin
 10
40663.05389113108
 20
-2544.860903150231
 30
0.0
 41
8.0
 42
8.0
 43
8.0
  0
MTEXT
  5
2E42
330
2363
100
AcDbEntity
  8
__
  6
Continuous
 62
     0
100
AcDbMText
 10
40540.55389113108
 20
-2527.334354926881
 30
0.0
 40
30.0
 41
0.0
 71
     5
 72
     1
  1
\A1;φ245
 73
     1
 44
1.0
1001
ACAD
1000
MTEXTBEGIN
1070
    73
1070
     1
1070
    44
1040
1.0
1070
    74
1070
     0
1000
MTEXTEND
  0
POINT
  5
2E43
330
2363
100
AcDbEntity
  8
DEFPOINTS
  6
Continuous
 62
     0
100
AcDbPoint
 10
40418.05389113108
 20
-2592.024912687457
 30
0.0
  0
POINT
  5
2E44
330
2363
100
AcDbEntity
  8
DEFPOINTS
  6
Continuous
 62
     0
100
AcDbPoint
 10
40663.05389113108
 20
-2592.024912687457
 30
0.0
  0
POINT
  5
2E45
330
2363
100
AcDbEntity
  8
DEFPOINTS
  6
Continuous
 62
     0
100
AcDbPoint
 10
40663.05389113108
 20
-2544.860903150231
 30
0.0
  0
ENDBLK
  5
236E
330
2363
100
AcDbEntity
  8
0
100
AcDbBlockEnd
  0
BLOCK
  5
2432
330
2428
100
AcDbEntity
  8
0
100
AcDbBlockBegin
  2
*D17
 70
     1
 10
0.0
 20
0.0
 30
0.0
  3
*D17
  1

  0
LINE
  5
290A
330
2428
100
AcDbEntity
  8
__
  6
Continuous
 62
     0
370
    -2
100
AcDbLine
 10
39459.51938378557
 20
-3545.0
 30
0.0
 11
39397.83504837507
 21
-3545.0
 31
0.0
  0
LINE
  5
290B
330
2428
100
AcDbEntity
  8
__
  6
Continuous
 62
     0
370
    -2
100
AcDbLine
 10
39459.51938378557
 20
-3845.0
 30
0.0
 11
39397.83504837507
 21
-3845.0
 31
0.0
  0
LINE
  5
290C
330
2428
100
AcDbEntity
  8
__
  6
Continuous
 62
     0
370
    -2
100
AcDbLine
 10
39398.01504837507
 20
-3553.0
 30
0.0
 11
39398.01504837507
 21
-3837.0
 31
0.0
  0
INSERT
  5
290D
330
2428
100
AcDbEntity
  8
__
  6
Continuous
 62
     0
370
    -2
100
AcDbBlockReference
  2
_Origin
 10
39398.01504837507
 20
-3545.0
 30
0.0
 41
8.0
 42
8.0
 43
8.0
 50
90.0
  0
INSERT
  5
290E
330
2428
100
AcDbEntity
  8
__
  6
Continuous
 62
     0
370
    -2
100
AcDbBlockReference
  2
_Origin
 10
39398.01504837507
 20
-3845.0
 30
0.0
 41
8.0
 42
8.0
 43
8.0
 50
270.0
  0
MTEXT
  5
290F
330
2428
100
AcDbEntity
  8
__
  6
Continuous
 62
     0
100
AcDbMText
 10
39382.92504837507
 20
-3694.999999999994
 30
0.0
 40
30.0
 41
0.0
 71
     5
 72
     1
  1
\A1;300
 11
0.0000000000000001
 21
1.0
 31
0.0
 73
     1
 44
1.0
1001
ACAD
1000
MTEXTBEGIN
1070
    73
1070
     1
1070
    44
1040
1.0
1070
    74
1070
     0
1000
MTEXTEND
  0
POINT
  5
2910
330
2428
100
AcDbEntity
  8
DEFPOINTS
  6
Continuous
 62
     0
100
AcDbPoint
 10
39459.58188378556
 20
-3545.0
 30
0.0
  0
POINT
  5
2911
330
2428
100
AcDbEntity
  8
DEFPOINTS
  6
Continuous
 62
     0
100
AcDbPoint
 10
39459.58188378556
 20
-3845.0
 30
0.0
  0
POINT
  5
2912
330
2428
100
AcDbEntity
  8
DEFPOINTS
  6
Continuous
 62
     0
100
AcDbPoint
 10
39398.01504837507
 20
-3845.0
 30
0.0
  0
ENDBLK
  5
2433
330
2428
100
AcDbEntity
  8
0
100
AcDbBlockEnd
  0
BLOCK
  5
246E
330
2464
100
AcDbEntity
  8
0
 62
     4
100
AcDbBlockBegin
  2
*D18
 70
     1
 10
0.0
 20
0.0
 30
0.0
  3
*D18
  1

  0
LINE
  5
2913
330
2464
100
AcDbEntity
  8
__
  6
Continuous
 62
     0
370
    -2
100
AcDbLine
 10
39489.10122368721
 20
-3526.962412687457
 30
0.0
 11
39489.10122368721
 21
-3464.066467915377
 31
0.0
  0
LINE
  5
2914
330
2464
100
AcDbEntity
  8
__
  6
Continuous
 62
     0
370
    -2
100
AcDbLine
 10
39734.10122368721
 20
-3526.962412687457
 30
0.0
 11
39734.10122368721
 21
-3464.066467915377
 31
0.0
  0
LINE
  5
2915
330
2464
100
AcDbEntity
  8
__
  6
Continuous
 62
     0
370
    -2
100
AcDbLine
 10
39497.1012236872
 20
-3464.246467915377
 30
0.0
 11
39726.1012236872
 21
-3464.246467915377
 31
0.0
  0
INSERT
  5
2916
330
2464
100
AcDbEntity
  8
__
  6
Continuous
 62
     0
370
    -2
100
AcDbBlockReference
  2
_Origin
 10
39489.10122368721
 20
-3464.246467915377
 30
0.0
 41
8.0
 42
8.0
 43
8.0
 50
180.0
  0
INSERT
  5
2917
330
2464
100
AcDbEntity
  8
__
  6
Continuous
 62
     0
370
    -2
100
AcDbBlockReference
  2
_Origin
 10
39734.10122368721
 20
-3464.246467915377
 30
0.0
 41
8.0
 42
8.0
 43
8.0
  0
MTEXT
  5
2918
330
2464
100
AcDbEntity
  8
__
  6
Continuous
 62
     0
100
AcDbMText
 10
39611.6012236872
 20
-3446.719919692026
 30
0.0
 40
30.0
 41
0.0
 71
     5
 72
     1
  1
\A1;φ245
 73
     1
 44
1.0
1001
ACAD
1000
MTEXTBEGIN
1070
    73
1070
     1
1070
    44
1040
1.0
1070
    74
1070
     0
1000
MTEXTEND
  0
POINT
  5
2919
330
2464
100
AcDbEntity
  8
DEFPOINTS
  6
Continuous
 62
     0
100
AcDbPoint
 10
39489.10122368721
 20
-3527.024912687457
 30
0.0
  0
POINT
  5
291A
330
2464
100
AcDbEntity
  8
DEFPOINTS
  6
Continuous
 62
     0
100
AcDbPoint
 10
39734.10122368721
 20
-3527.024912687457
 30
0.0
  0
POINT
  5
291B
330
2464
100
AcDbEntity
  8
DEFPOINTS
  6
Continuous
 62
     0
100
AcDbPoint
 10
39734.10122368721
 20
-3464.246467915377
 30
0.0
  0
ENDBLK
  5
246F
330
2464
100
AcDbEntity
  8
0
 62
     4
100
AcDbBlockEnd
  0
BLOCK
  5
2487
330
247D
100
AcDbEntity
  8
0
 62
     4
100
AcDbBlockBegin
  2
*D19
 70
     1
 10
0.0
 20
0.0
 30
0.0
  3
*D19
  1

  0
LINE
  5
2B22
330
247D
100
AcDbEntity
  8
__
  6
Continuous
 62
     0
370
    -2
100
AcDbLine
 10
40062.22418624948
 20
-3738.300000145467
 30
0.0
 11
40000.53985083898
 21
-3738.300000145467
 31
0.0
  0
LINE
  5
2B23
330
247D
100
AcDbEntity
  8
__
  6
Continuous
 62
     0
370
    -2
100
AcDbLine
 10
40062.22418624948
 20
-3835.000000145468
 30
0.0
 11
40000.53985083898
 21
-3835.000000145468
 31
0.0
  0
LINE
  5
2B24
330
247D
100
AcDbEntity
  8
__
  6
Continuous
 62
     0
370
    -2
100
AcDbLine
 10
40000.71985083899
 20
-3746.300000145467
 30
0.0
 11
40000.71985083899
 21
-3827.000000145467
 31
0.0
  0
INSERT
  5
2B25
330
247D
100
AcDbEntity
  8
__
  6
Continuous
 62
     0
370
    -2
100
AcDbBlockReference
  2
_Origin
 10
40000.71985083899
 20
-3738.300000145467
 30
0.0
 41
8.0
 42
8.0
 43
8.0
 50
90.0
  0
INSERT
  5
2B26
330
247D
100
AcDbEntity
  8
__
  6
Continuous
 62
     0
370
    -2
100
AcDbBlockReference
  2
_Origin
 10
40000.71985083899
 20
-3835.000000145468
 30
0.0
 41
8.0
 42
8.0
 43
8.0
 50
270.0
  0
MTEXT
  5
2B27
330
247D
100
AcDbEntity
  8
__
  6
Continuous
 62
     0
100
AcDbMText
 10
39985.62985083899
 20
-3786.65000014546
 30
0.0
 40
30.0
 41
0.0
 71
     5
 72
     1
  1
\A1;96.7
 11
0.0000000000000001
 21
1.0
 31
0.0
 73
     1
 44
1.0
1001
ACAD
1000
MTEXTBEGIN
1070
    73
1070
     1
1070
    44
1040
1.0
1070
    74
1070
     0
1000
MTEXTEND
  0
POINT
  5
2B28
330
247D
100
AcDbEntity
  8
DEFPOINTS
  6
Continuous
 62
     0
100
AcDbPoint
 10
40062.28668624947
 20
-3738.300000145467
 30
0.0
  0
POINT
  5
2B29
330
247D
100
AcDbEntity
  8
DEFPOINTS
  6
Continuous
 62
     0
100
AcDbPoint
 10
40062.28668624947
 20
-3835.000000145468
 30
0.0
  0
POINT
  5
2B2A
330
247D
100
AcDbEntity
  8
DEFPOINTS
  6
Continuous
 62
     0
100
AcDbPoint
 10
40000.71985083899
 20
-3835.000000145468
 30
0.0
  0
ENDBLK
  5
2488
330
247D
100
AcDbEntity
  8
0
 62
     4
100
AcDbBlockEnd
  0
BLOCK
  5
24C1
330
24B7
100
AcDbEntity
  8
0
 62
     4
100
AcDbBlockBegin
  2
*D20
 70
     1
 10
0.0
 20
0.0
 30
0.0
  3
*D20
  1

  0
LINE
  5
2C38
330
24B7
100
AcDbEntity
  8
__
  6
Continuous
 62
     0
370
    -2
100
AcDbLine
 10
40062.16168624948
 20
-3738.300000145467
 30
0.0
 11
40000.53985083898
 21
-3738.300000145467
 31
0.0
  0
LINE
  5
2C39
330
24B7
100
AcDbEntity
  8
__
  6
Continuous
 62
     0
370
    -2
100
AcDbLine
 10
40109.50535889304
 20
-3551.000000145467
 30
0.0
 11
40000.53985083898
 21
-3551.000000145467
 31
0.0
  0
LINE
  5
2C3A
330
24B7
100
AcDbEntity
  8
__
  6
Continuous
 62
     0
370
    -2
100
AcDbLine
 10
40000.71985083899
 20
-3730.300000145467
 30
0.0
 11
40000.71985083899
 21
-3559.000000145467
 31
0.0
  0
INSERT
  5
2C3B
330
24B7
100
AcDbEntity
  8
__
  6
Continuous
 62
     0
370
    -2
100
AcDbBlockReference
  2
_Origin
 10
40000.71985083899
 20
-3738.300000145467
 30
0.0
 41
8.0
 42
8.0
 43
8.0
 50
270.0
  0
INSERT
  5
2C3C
330
24B7
100
AcDbEntity
  8
__
  6
Continuous
 62
     0
370
    -2
100
AcDbBlockReference
  2
_Origin
 10
40000.71985083899
 20
-3551.000000145467
 30
0.0
 41
8.0
 42
8.0
 43
8.0
 50
90.0
  0
MTEXT
  5
2C3D
330
24B7
100
AcDbEntity
  8
__
  6
Continuous
 62
     0
100
AcDbMText
 10
39985.62985083899
 20
-3644.65000014546
 30
0.0
 40
30.0
 41
0.0
 71
     5
 72
     1
  1
\A1;187.3
 11
0.0000000000000001
 21
1.0
 31
0.0
 73
     1
 44
1.0
1001
ACAD
1000
MTEXTBEGIN
1070
    73
1070
     1
1070
    44
1040
1.0
1070
    74
1070
     0
1000
MTEXTEND
  0
POINT
  5
2C3E
330
24B7
100
AcDbEntity
  8
DEFPOINTS
  6
Continuous
 62
     0
100
AcDbPoint
 10
40062.22418624948
 20
-3738.300000145467
 30
0.0
  0
POINT
  5
2C3F
330
24B7
100
AcDbEntity
  8
DEFPOINTS
  6
Continuous
 62
     0
100
AcDbPoint
 10
40109.56785889304
 20
-3551.000000145467
 30
0.0
  0
POINT
  5
2C40
330
24B7
100
AcDbEntity
  8
DEFPOINTS
  6
Continuous
 62
     0
100
AcDbPoint
 10
40000.71985083899
 20
-3551.000000145467
 30
0.0
  0
ENDBLK
  5
24C2
330
24B7
100
AcDbEntity
  8
0
 62
     4
100
AcDbBlockEnd
  0
BLOCK
  5
24F7
330
24ED
100
AcDbEntity
  8
0
 62
     4
100
AcDbBlockBegin
  2
*D21
 70
     1
 10
0.0
 20
0.0
 30
0.0
  3
*D21
  1

  0
LINE
  5
2B34
330
24ED
100
AcDbEntity
  8
__
  6
Continuous
 62
     0
370
    -2
100
AcDbLine
 10
40761.17473834303
 20
-3722.200000145468
 30
0.0
 11
40699.55290293254
 21
-3722.200000145468
 31
0.0
  0
LINE
  5
2B35
330
24ED
100
AcDbEntity
  8
__
  6
Continuous
 62
     0
370
    -2
100
AcDbLine
 10
40761.23723834303
 20
-3835.000000145468
 30
0.0
 11
40699.55290293254
 21
-3835.000000145468
 31
0.0
  0
LINE
  5
2B36
330
24ED
100
AcDbEntity
  8
__
  6
Continuous
 62
     0
370
    -2
100
AcDbLine
 10
40699.73290293254
 20
-3730.200000145468
 30
0.0
 11
40699.73290293254
 21
-3827.000000145467
 31
0.0
  0
INSERT
  5
2B37
330
24ED
100
AcDbEntity
  8
__
  6
Continuous
 62
     0
370
    -2
100
AcDbBlockReference
  2
_Origin
 10
40699.73290293254
 20
-3722.200000145468
 30
0.0
 41
8.0
 42
8.0
 43
8.0
 50
90.0
  0
INSERT
  5
2B38
330
24ED
100
AcDbEntity
  8
__
  6
Continuous
 62
     0
370
    -2
100
AcDbBlockReference
  2
_Origin
 10
40699.73290293254
 20
-3835.000000145468
 30
0.0
 41
8.0
 42
8.0
 43
8.0
 50
270.0
  0
MTEXT
  5
2B39
330
24ED
100
AcDbEntity
  8
__
  6
Continuous
 62
     0
100
AcDbMText
 10
40684.64290293254
 20
-3778.60000014546
 30
0.0
 40
30.0
 41
0.0
 71
     5
 72
     1
  1
\A1;112.8
 11
0.0000000000000001
 21
1.0
 31
0.0
 73
     1
 44
1.0
1001
ACAD
1000
MTEXTBEGIN
1070
    73
1070
     1
1070
    44
1040
1.0
1070
    74
1070
     0
1000
MTEXTEND
  0
POINT
  5
2B3A
330
24ED
100
AcDbEntity
  8
DEFPOINTS
  6
Continuous
 62
     0
100
AcDbPoint
 10
40761.23723834303
 20
-3722.200000145468
 30
0.0
  0
POINT
  5
2B3B
330
24ED
100
AcDbEntity
  8
DEFPOINTS
  6
Continuous
 62
     0
100
AcDbPoint
 10
40761.29973834303
 20
-3835.000000145468
 30
0.0
  0
POINT
  5
2B3C
330
24ED
100
AcDbEntity
  8
DEFPOINTS
  6
Continuous
 62
     0
100
AcDbPoint
 10
40699.73290293254
 20
-3835.000000145468
 30
0.0
  0
ENDBLK
  5
24F8
330
24ED
100
AcDbEntity
  8
0
 62
     4
100
AcDbBlockEnd
  0
BLOCK
  5
2503
330
24F9
100
AcDbEntity
  8
0
 62
     4
100
AcDbBlockBegin
  2
*D22
 70
     1
 10
0.0
 20
0.0
 30
0.0
  3
*D22
  1

  0
LINE
  5
2C2F
330
24F9
100
AcDbEntity
  8
__
  6
Continuous
 62
     0
370
    -2
100
AcDbLine
 10
40761.17473834303
 20
-3722.200000145468
 30
0.0
 11
40699.55290293254
 21
-3722.200000145468
 31
0.0
  0
LINE
  5
2C30
330
24F9
100
AcDbEntity
  8
__
  6
Continuous
 62
     0
370
    -2
100
AcDbLine
 10
40789.33500503702
 20
-3568.700000145468
 30
0.0
 11
40699.55290293254
 21
-3568.700000145468
 31
0.0
  0
LINE
  5
2C31
330
24F9
100
AcDbEntity
  8
__
  6
Continuous
 62
     0
370
    -2
100
AcDbLine
 10
40699.73290293254
 20
-3714.200000145467
 30
0.0
 11
40699.73290293254
 21
-3576.700000145468
 31
0.0
  0
INSERT
  5
2C32
330
24F9
100
AcDbEntity
  8
__
  6
Continuous
 62
     0
370
    -2
100
AcDbBlockReference
  2
_Origin
 10
40699.73290293254
 20
-3722.200000145468
 30
0.0
 41
8.0
 42
8.0
 43
8.0
 50
270.0
  0
INSERT
  5
2C33
330
24F9
100
AcDbEntity
  8
__
  6
Continuous
 62
     0
370
    -2
100
AcDbBlockReference
  2
_Origin
 10
40699.73290293254
 20
-3568.700000145468
 30
0.0
 41
8.0
 42
8.0
 43
8.0
 50
90.0
  0
MTEXT
  5
2C34
330
24F9
100
AcDbEntity
  8
__
  6
Continuous
 62
     0
100
AcDbMText
 10
40684.64290293254
 20
-3645.450000145461
 30
0.0
 40
30.0
 41
0.0
 71
     5
 72
     1
  1
\A1;153.5
 11
0.0000000000000001
 21
1.0
 31
0.0
 73
     1
 44
1.0
1001
ACAD
1000
MTEXTBEGIN
1070
    73
1070
     1
1070
    44
1040
1.0
1070
    74
1070
     0
1000
MTEXTEND
  0
POINT
  5
2C35
330
24F9
100
AcDbEntity
  8
DEFPOINTS
  6
Continuous
 62
     0
100
AcDbPoint
 10
40761.23723834303
 20
-3722.200000145468
 30
0.0
  0
POINT
  5
2C36
330
24F9
100
AcDbEntity
  8
DEFPOINTS
  6
Continuous
 62
     0
100
AcDbPoint
 10
40789.39750503701
 20
-3568.700000145468
 30
0.0
  0
POINT
  5
2C37
330
24F9
100
AcDbEntity
  8
DEFPOINTS
  6
Continuous
 62
     0
100
AcDbPoint
 10
40699.73290293254
 20
-3568.700000145468
 30
0.0
  0
ENDBLK
  5
2504
330
24F9
100
AcDbEntity
  8
0
 62
     4
100
AcDbBlockEnd
  0
BLOCK
  5
253E
330
2534
100
AcDbEntity
  8
0
 62
     4
100
AcDbBlockBegin
  2
*D23
 70
     1
 10
0.0
 20
0.0
 30
0.0
  3
*D23
  1

  0
LINE
  5
2C14
330
2534
100
AcDbEntity
  8
__
  6
Continuous
 62
     0
370
    -2
100
AcDbLine
 10
40261.48694790644
 20
-3847.431156245022
 30
0.0
 11
40261.48694790644
 21
-3886.243142940313
 31
0.0
  0
LINE
  5
2C15
330
2534
100
AcDbEntity
  8
__
  6
Continuous
 62
     0
370
    -2
100
AcDbLine
 10
40211.28694790644
 20
-3847.431156245022
 30
0.0
 11
40211.28694790644
 21
-3886.243142940313
 31
0.0
  0
LINE
  5
2C16
330
2534
100
AcDbEntity
  8
__
  6
Continuous
 62
     0
370
    -2
100
AcDbLine
 10
40253.48694790644
 20
-3886.063142940313
 30
0.0
 11
40219.28694790644
 21
-3886.063142940313
 31
0.0
  0
INSERT
  5
2C17
330
2534
100
AcDbEntity
  8
__
  6
Continuous
 62
     0
370
    -2
100
AcDbBlockReference
  2
_Origin
 10
40261.48694790644
 20
-3886.063142940313
 30
0.0
 41
8.0
 42
8.0
 43
8.0
  0
INSERT
  5
2C18
330
2534
100
AcDbEntity
  8
__
  6
Continuous
 62
     0
370
    -2
100
AcDbBlockReference
  2
_Origin
 10
40211.28694790644
 20
-3886.063142940313
 30
0.0
 41
8.0
 42
8.0
 43
8.0
 50
180.0
  0
MTEXT
  5
2C19
330
2534
100
AcDbEntity
  8
__
  6
Continuous
 62
     0
100
AcDbMText
 10
40236.38694790644
 20
-3870.973142940313
 30
0.0
 40
30.0
 41
0.0
 71
     5
 72
     1
  1
\A1;50.2
 73
     1
 44
1.0
1001
ACAD
1000
MTEXTBEGIN
1070
    73
1070
     1
1070
    44
1040
1.0
1070
    74
1070
     0
1000
MTEXTEND
  0
POINT
  5
2C1A
330
2534
100
AcDbEntity
  8
DEFPOINTS
  6
Continuous
 62
     0
100
AcDbPoint
 10
40261.48694790644
 20
-3847.368656245022
 30
0.0
  0
POINT
  5
2C1B
330
2534
100
AcDbEntity
  8
DEFPOINTS
  6
Continuous
 62
     0
100
AcDbPoint
 10
40211.28694790644
 20
-3847.368656245022
 30
0.0
  0
POINT
  5
2C1C
330
2534
100
AcDbEntity
  8
DEFPOINTS
  6
Continuous
 62
     0
100
AcDbPoint
 10
40211.28694790644
 20
-3886.063142940313
 30
0.0
  0
ENDBLK
  5
253F
330
2534
100
AcDbEntity
  8
0
 62
     4
100
AcDbBlockEnd
  0
BLOCK
  5
257A
330
2570
100
AcDbEntity
  8
0
 62
     4
100
AcDbBlockBegin
  2
*D24
 70
     1
 10
0.0
 20
0.0
 30
0.0
  3
*D24
  1

  0
LINE
  5
2B4D
330
2570
100
AcDbEntity
  8
__
  6
Continuous
 62
     0
370
    -2
100
AcDbLine
 10
40960.49999999999
 20
-3847.431156245022
 30
0.0
 11
40960.49999999999
 21
-3881.91531169656
 31
0.0
  0
LINE
  5
2B4E
330
2570
100
AcDbEntity
  8
__
  6
Continuous
 62
     0
370
    -2
100
AcDbLine
 10
40871.8464849517
 20
-3847.431156245022
 30
0.0
 11
40871.8464849517
 21
-3881.91531169656
 31
0.0
  0
LINE
  5
2B4F
330
2570
100
AcDbEntity
  8
__
  6
Continuous
 62
     0
370
    -2
100
AcDbLine
 10
40952.5
 20
-3881.735311696561
 30
0.0
 11
40879.8464849517
 21
-3881.735311696561
 31
0.0
  0
INSERT
  5
2B50
330
2570
100
AcDbEntity
  8
__
  6
Continuous
 62
     0
370
    -2
100
AcDbBlockReference
  2
_Origin
 10
40960.49999999999
 20
-3881.735311696561
 30
0.0
 41
8.0
 42
8.0
 43
8.0
  0
INSERT
  5
2B51
330
2570
100
AcDbEntity
  8
__
  6
Continuous
 62
     0
370
    -2
100
AcDbBlockReference
  2
_Origin
 10
40871.8464849517
 20
-3881.735311696561
 30
0.0
 41
8.0
 42
8.0
 43
8.0
 50
180.0
  0
MTEXT
  5
2B52
330
2570
100
AcDbEntity
  8
__
  6
Continuous
 62
     0
100
AcDbMText
 10
40916.17324247585
 20
-3866.645311696561
 30
0.0
 40
30.0
 41
0.0
 71
     5
 72
     1
  1
\A1;88.7
 73
     1
 44
1.0
1001
ACAD
1000
MTEXTBEGIN
1070
    73
1070
     1
1070
    44
1040
1.0
1070
    74
1070
     0
1000
MTEXTEND
  0
POINT
  5
2B53
330
2570
100
AcDbEntity
  8
DEFPOINTS
  6
Continuous
 62
     0
100
AcDbPoint
 10
40960.49999999999
 20
-3847.368656245022
 30
0.0
  0
POINT
  5
2B54
330
2570
100
AcDbEntity
  8
DEFPOINTS
  6
Continuous
 62
     0
100
AcDbPoint
 10
40871.8464849517
 20
-3847.368656245022
 30
0.0
  0
POINT
  5
2B55
330
2570
100
AcDbEntity
  8
DEFPOINTS
  6
Continuous
 62
     0
100
AcDbPoint
 10
40871.8464849517
 20
-3881.735311696561
 30
0.0
  0
ENDBLK
  5
257B
330
2570
100
AcDbEntity
  8
0
 62
     4
100
AcDbBlockEnd
  0
BLOCK
  5
259C
330
2592
100
AcDbEntity
  8
0
 62
     4
100
AcDbBlockBegin
  2
*D25
 70
     1
 10
0.0
 20
0.0
 30
0.0
  3
*D25
  1

  0
LINE
  5
291C
330
2592
100
AcDbEntity
  8
__
  6
Continuous
 62
     0
370
    -2
100
AcDbLine
 10
41546.91215894517
 20
-3535.000000075085
 30
0.0
 11
41485.22782353468
 21
-3535.000000075085
 31
0.0
  0
LINE
  5
291D
330
2592
100
AcDbEntity
  8
__
  6
Continuous
 62
     0
370
    -2
100
AcDbLine
 10
41546.91215894517
 20
-3835.000000075085
 30
0.0
 11
41485.22782353468
 21
-3835.000000075085
 31
0.0
  0
LINE
  5
291E
330
2592
100
AcDbEntity
  8
__
  6
Continuous
 62
     0
370
    -2
100
AcDbLine
 10
41485.40782353467
 20
-3543.000000075084
 30
0.0
 11
41485.40782353467
 21
-3827.000000075084
 31
0.0
  0
INSERT
  5
291F
330
2592
100
AcDbEntity
  8
__
  6
Continuous
 62
     0
370
    -2
100
AcDbBlockReference
  2
_Origin
 10
41485.40782353467
 20
-3535.000000075085
 30
0.0
 41
8.0
 42
8.0
 43
8.0
 50
90.0
  0
INSERT
  5
2920
330
2592
100
AcDbEntity
  8
__
  6
Continuous
 62
     0
370
    -2
100
AcDbBlockReference
  2
_Origin
 10
41485.40782353467
 20
-3835.000000075085
 30
0.0
 41
8.0
 42
8.0
 43
8.0
 50
270.0
  0
MTEXT
  5
2921
330
2592
100
AcDbEntity
  8
__
  6
Continuous
 62
     0
100
AcDbMText
 10
41470.31782353468
 20
-3685.000000075078
 30
0.0
 40
30.0
 41
0.0
 71
     5
 72
     1
  1
\A1;300
 11
0.0000000000000001
 21
1.0
 31
0.0
 73
     1
 44
1.0
1001
ACAD
1000
MTEXTBEGIN
1070
    73
1070
     1
1070
    44
1040
1.0
1070
    74
1070
     0
1000
MTEXTEND
  0
POINT
  5
2922
330
2592
100
AcDbEntity
  8
DEFPOINTS
  6
Continuous
 62
     0
100
AcDbPoint
 10
41546.97465894517
 20
-3535.000000075085
 30
0.0
  0
POINT
  5
2923
330
2592
100
AcDbEntity
  8
DEFPOINTS
  6
Continuous
 62
     0
100
AcDbPoint
 10
41546.97465894517
 20
-3835.000000075085
 30
0.0
  0
POINT
  5
2924
330
2592
100
AcDbEntity
  8
DEFPOINTS
  6
Continuous
 62
     0
100
AcDbPoint
 10
41485.40782353467
 20
-3835.000000075085
 30
0.0
  0
ENDBLK
  5
259D
330
2592
100
AcDbEntity
  8
0
 62
     4
100
AcDbBlockEnd
  0
BLOCK
  5
25B6
330
25AC
100
AcDbEntity
  8
0
 62
     4
100
AcDbBlockBegin
  2
*D26
 70
     1
 10
0.0
 20
0.0
 30
0.0
  3
*D26
  1

  0
LINE
  5
2B56
330
25AC
100
AcDbEntity
  8
__
  6
Continuous
 62
     0
370
    -2
100
AcDbLine
 10
42208.63427943493
 20
-3641.100000080968
 30
0.0
 11
42147.01244402443
 21
-3641.100000080968
 31
0.0
  0
LINE
  5
2B57
330
25AC
100
AcDbEntity
  8
__
  6
Continuous
 62
     0
370
    -2
100
AcDbLine
 10
42208.69677943493
 20
-3835.000001495111
 30
0.0
 11
42147.01244402443
 21
-3835.000001495111
 31
0.0
  0
LINE
  5
2B58
330
25AC
100
AcDbEntity
  8
__
  6
Continuous
 62
     0
370
    -2
100
AcDbLine
 10
42147.19244402444
 20
-3649.100000080968
 30
0.0
 11
42147.19244402444
 21
-3827.000001495111
 31
0.0
  0
INSERT
  5
2B59
330
25AC
100
AcDbEntity
  8
__
  6
Continuous
 62
     0
370
    -2
100
AcDbBlockReference
  2
_Origin
 10
42147.19244402444
 20
-3641.100000080968
 30
0.0
 41
8.0
 42
8.0
 43
8.0
 50
90.0
  0
INSERT
  5
2B5A
330
25AC
100
AcDbEntity
  8
__
  6
Continuous
 62
     0
370
    -2
100
AcDbBlockReference
  2
_Origin
 10
42147.19244402444
 20
-3835.000001495111
 30
0.0
 41
8.0
 42
8.0
 43
8.0
 50
270.0
  0
MTEXT
  5
2B5B
330
25AC
100
AcDbEntity
  8
__
  6
Continuous
 62
     0
100
AcDbMText
 10
42132.10244402444
 20
-3738.050000788032
 30
0.0
 40
30.0
 41
0.0
 71
     5
 72
     1
  1
\A1;193.9
 11
0.0000000000000001
 21
1.0
 31
0.0
 73
     1
 44
1.0
1001
ACAD
1000
MTEXTBEGIN
1070
    73
1070
     1
1070
    44
1040
1.0
1070
    74
1070
     0
1000
MTEXTEND
  0
POINT
  5
2B5C
330
25AC
100
AcDbEntity
  8
DEFPOINTS
  6
Continuous
 62
     0
100
AcDbPoint
 10
42208.69677943493
 20
-3641.100000080968
 30
0.0
  0
POINT
  5
2B5D
330
25AC
100
AcDbEntity
  8
DEFPOINTS
  6
Continuous
 62
     0
100
AcDbPoint
 10
42208.75927943493
 20
-3835.000001495111
 30
0.0
  0
POINT
  5
2B5E
330
25AC
100
AcDbEntity
  8
DEFPOINTS
  6
Continuous
 62
     0
100
AcDbPoint
 10
42147.19244402444
 20
-3835.000001495111
 30
0.0
  0
ENDBLK
  5
25B7
330
25AC
100
AcDbEntity
  8
0
 62
     4
100
AcDbBlockEnd
  0
BLOCK
  5
25C2
330
25B8
100
AcDbEntity
  8
0
 62
     4
100
AcDbBlockBegin
  2
*D27
 70
     1
 10
0.0
 20
0.0
 30
0.0
  3
*D27
  1

  0
LINE
  5
2C26
330
25B8
100
AcDbEntity
  8
__
  6
Continuous
 62
     0
370
    -2
100
AcDbLine
 10
42208.63427943493
 20
-3641.100000080968
 30
0.0
 11
42147.01244402443
 21
-3641.100000080968
 31
0.0
  0
LINE
  5
2C27
330
25B8
100
AcDbEntity
  8
__
  6
Continuous
 62
     0
370
    -2
100
AcDbLine
 10
42259.8382357005
 20
-3547.700000080967
 30
0.0
 11
42147.01244402443
 21
-3547.700000080967
 31
0.0
  0
LINE
  5
2C28
330
25B8
100
AcDbEntity
  8
__
  6
Continuous
 62
     0
370
    -2
100
AcDbLine
 10
42147.19244402444
 20
-3633.100000080968
 30
0.0
 11
42147.19244402444
 21
-3555.700000080967
 31
0.0
  0
INSERT
  5
2C29
330
25B8
100
AcDbEntity
  8
__
  6
Continuous
 62
     0
370
    -2
100
AcDbBlockReference
  2
_Origin
 10
42147.19244402444
 20
-3641.100000080968
 30
0.0
 41
8.0
 42
8.0
 43
8.0
 50
270.0
  0
INSERT
  5
2C2A
330
25B8
100
AcDbEntity
  8
__
  6
Continuous
 62
     0
370
    -2
100
AcDbBlockReference
  2
_Origin
 10
42147.19244402444
 20
-3547.700000080967
 30
0.0
 41
8.0
 42
8.0
 43
8.0
 50
90.0
  0
MTEXT
  5
2C2B
330
25B8
100
AcDbEntity
  8
__
  6
Continuous
 62
     0
100
AcDbMText
 10
42132.10244402444
 20
-3594.400000080961
 30
0.0
 40
30.0
 41
0.0
 71
     5
 72
     1
  1
\A1;93.4
 11
0.0000000000000001
 21
1.0
 31
0.0
 73
     1
 44
1.0
1001
ACAD
1000
MTEXTBEGIN
1070
    73
1070
     1
1070
    44
1040
1.0
1070
    74
1070
     0
1000
MTEXTEND
  0
POINT
  5
2C2C
330
25B8
100
AcDbEntity
  8
DEFPOINTS
  6
Continuous
 62
     0
100
AcDbPoint
 10
42208.69677943493
 20
-3641.100000080968
 30
0.0
  0
POINT
  5
2C2D
330
25B8
100
AcDbEntity
  8
DEFPOINTS
  6
Continuous
 62
     0
100
AcDbPoint
 10
42259.9007357005
 20
-3547.700000080967
 30
0.0
  0
POINT
  5
2C2E
330
25B8
100
AcDbEntity
  8
DEFPOINTS
  6
Continuous
 62
     0
100
AcDbPoint
 10
42147.19244402444
 20
-3547.700000080967
 30
0.0
  0
ENDBLK
  5
25C3
330
25B8
100
AcDbEntity
  8
0
 62
     4
100
AcDbBlockEnd
  0
BLOCK
  5
2609
330
25FF
100
AcDbEntity
  8
0
 62
     4
100
AcDbBlockBegin
  2
*D28
 70
     1
 10
0.0
 20
0.0
 30
0.0
  3
*D28
  1

  0
LINE
  5
2B68
330
25FF
100
AcDbEntity
  8
__
  6
Continuous
 62
     0
370
    -2
100
AcDbLine
 10
42853.17473834303
 20
-3657.80000014547
 30
0.0
 11
42791.55290293254
 21
-3657.80000014547
 31
0.0
  0
LINE
  5
2B69
330
25FF
100
AcDbEntity
  8
__
  6
Continuous
 62
     0
370
    -2
100
AcDbLine
 10
42853.23723834304
 20
-3835.000001559613
 30
0.0
 11
42791.55290293254
 21
-3835.000001559613
 31
0.0
  0
LINE
  5
2B6A
330
25FF
100
AcDbEntity
  8
__
  6
Continuous
 62
     0
370
    -2
100
AcDbLine
 10
42791.73290293255
 20
-3665.80000014547
 30
0.0
 11
42791.73290293255
 21
-3827.000001559613
 31
0.0
  0
INSERT
  5
2B6B
330
25FF
100
AcDbEntity
  8
__
  6
Continuous
 62
     0
370
    -2
100
AcDbBlockReference
  2
_Origin
 10
42791.73290293255
 20
-3657.80000014547
 30
0.0
 41
8.0
 42
8.0
 43
8.0
 50
90.0
  0
INSERT
  5
2B6C
330
25FF
100
AcDbEntity
  8
__
  6
Continuous
 62
     0
370
    -2
100
AcDbBlockReference
  2
_Origin
 10
42791.73290293255
 20
-3835.000001559613
 30
0.0
 41
8.0
 42
8.0
 43
8.0
 50
270.0
  0
MTEXT
  5
2B6D
330
25FF
100
AcDbEntity
  8
__
  6
Continuous
 62
     0
100
AcDbMText
 10
42776.64290293255
 20
-3746.400000852535
 30
0.0
 40
30.0
 41
0.0
 71
     5
 72
     1
  1
\A1;177.2
 11
0.0000000000000001
 21
1.0
 31
0.0
 73
     1
 44
1.0
1001
ACAD
1000
MTEXTBEGIN
1070
    73
1070
     1
1070
    44
1040
1.0
1070
    74
1070
     0
1000
MTEXTEND
  0
POINT
  5
2B6E
330
25FF
100
AcDbEntity
  8
DEFPOINTS
  6
Continuous
 62
     0
100
AcDbPoint
 10
42853.23723834303
 20
-3657.80000014547
 30
0.0
  0
POINT
  5
2B6F
330
25FF
100
AcDbEntity
  8
DEFPOINTS
  6
Continuous
 62
     0
100
AcDbPoint
 10
42853.29973834304
 20
-3835.000001559613
 30
0.0
  0
POINT
  5
2B70
330
25FF
100
AcDbEntity
  8
DEFPOINTS
  6
Continuous
 62
     0
100
AcDbPoint
 10
42791.73290293255
 20
-3835.000001559613
 30
0.0
  0
ENDBLK
  5
260A
330
25FF
100
AcDbEntity
  8
0
 62
     4
100
AcDbBlockEnd
  0
BLOCK
  5
2615
330
260B
100
AcDbEntity
  8
0
 62
     4
100
AcDbBlockBegin
  2
*D29
 70
     1
 10
0.0
 20
0.0
 30
0.0
  3
*D29
  1

  0
LINE
  5
2C1D
330
260B
100
AcDbEntity
  8
__
  6
Continuous
 62
     0
370
    -2
100
AcDbLine
 10
42853.17473834303
 20
-3657.80000014547
 30
0.0
 11
42791.55290293254
 21
-3657.80000014547
 31
0.0
  0
LINE
  5
2C1E
330
260B
100
AcDbEntity
  8
__
  6
Continuous
 62
     0
370
    -2
100
AcDbLine
 10
42902.74807261734
 20
-3560.200000145471
 30
0.0
 11
42791.55290293254
 21
-3560.200000145471
 31
0.0
  0
LINE
  5
2C1F
330
260B
100
AcDbEntity
  8
__
  6
Continuous
 62
     0
370
    -2
100
AcDbLine
 10
42791.73290293255
 20
-3649.80000014547
 30
0.0
 11
42791.73290293255
 21
-3568.20000014547
 31
0.0
  0
INSERT
  5
2C20
330
260B
100
AcDbEntity
  8
__
  6
Continuous
 62
     0
370
    -2
100
AcDbBlockReference
  2
_Origin
 10
42791.73290293255
 20
-3657.80000014547
 30
0.0
 41
8.0
 42
8.0
 43
8.0
 50
270.0
  0
INSERT
  5
2C21
330
260B
100
AcDbEntity
  8
__
  6
Continuous
 62
     0
370
    -2
100
AcDbBlockReference
  2
_Origin
 10
42791.73290293255
 20
-3560.200000145471
 30
0.0
 41
8.0
 42
8.0
 43
8.0
 50
90.0
  0
MTEXT
  5
2C22
330
260B
100
AcDbEntity
  8
__
  6
Continuous
 62
     0
100
AcDbMText
 10
42776.64290293255
 20
-3609.000000145464
 30
0.0
 40
30.0
 41
0.0
 71
     5
 72
     1
  1
\A1;97.6
 11
0.0000000000000001
 21
1.0
 31
0.0
 73
     1
 44
1.0
1001
ACAD
1000
MTEXTBEGIN
1070
    73
1070
     1
1070
    44
1040
1.0
1070
    74
1070
     0
1000
MTEXTEND
  0
POINT
  5
2C23
330
260B
100
AcDbEntity
  8
DEFPOINTS
  6
Continuous
 62
     0
100
AcDbPoint
 10
42853.23723834303
 20
-3657.80000014547
 30
0.0
  0
POINT
  5
2C24
330
260B
100
AcDbEntity
  8
DEFPOINTS
  6
Continuous
 62
     0
100
AcDbPoint
 10
42902.81057261734
 20
-3560.200000145471
 30
0.0
  0
POINT
  5
2C25
330
260B
100
AcDbEntity
  8
DEFPOINTS
  6
Continuous
 62
     0
100
AcDbPoint
 10
42791.73290293255
 20
-3560.200000145471
 30
0.0
  0
ENDBLK
  5
2616
330
260B
100
AcDbEntity
  8
0
 62
     4
100
AcDbBlockEnd
  0
BLOCK
  5
2651
330
2647
100
AcDbEntity
  8
0
 62
     4
100
AcDbBlockBegin
  2
*D30
 70
     1
 10
0.0
 20
0.0
 30
0.0
  3
*D30
  1

  0
LINE
  5
2925
330
2647
100
AcDbEntity
  8
__
  6
Continuous
 62
     0
370
    -2
100
AcDbLine
 10
41612.20244737441
 20
-3516.962412762542
 30
0.0
 11
41612.20244737441
 21
-3454.066467990462
 31
0.0
  0
LINE
  5
2926
330
2647
100
AcDbEntity
  8
__
  6
Continuous
 62
     0
370
    -2
100
AcDbLine
 10
41857.2024473744
 20
-3516.962412762542
 30
0.0
 11
41857.2024473744
 21
-3454.066467990462
 31
0.0
  0
LINE
  5
2927
330
2647
100
AcDbEntity
  8
__
  6
Continuous
 62
     0
370
    -2
100
AcDbLine
 10
41620.20244737441
 20
-3454.246467990462
 30
0.0
 11
41849.2024473744
 21
-3454.246467990462
 31
0.0
  0
INSERT
  5
2928
330
2647
100
AcDbEntity
  8
__
  6
Continuous
 62
     0
370
    -2
100
AcDbBlockReference
  2
_Origin
 10
41612.20244737441
 20
-3454.246467990462
 30
0.0
 41
8.0
 42
8.0
 43
8.0
 50
180.0
  0
INSERT
  5
2929
330
2647
100
AcDbEntity
  8
__
  6
Continuous
 62
     0
370
    -2
100
AcDbBlockReference
  2
_Origin
 10
41857.2024473744
 20
-3454.246467990462
 30
0.0
 41
8.0
 42
8.0
 43
8.0
  0
MTEXT
  5
292A
330
2647
100
AcDbEntity
  8
__
  6
Continuous
 62
     0
100
AcDbMText
 10
41734.7024473744
 20
-3436.719919767111
 30
0.0
 40
30.0
 41
0.0
 71
     5
 72
     1
  1
\A1;φ245
 73
     1
 44
1.0
1001
ACAD
1000
MTEXTBEGIN
1070
    73
1070
     1
1070
    44
1040
1.0
1070
    74
1070
     0
1000
MTEXTEND
  0
POINT
  5
292B
330
2647
100
AcDbEntity
  8
DEFPOINTS
  6
Continuous
 62
     0
100
AcDbPoint
 10
41612.20244737441
 20
-3517.024912762542
 30
0.0
  0
POINT
  5
292C
330
2647
100
AcDbEntity
  8
DEFPOINTS
  6
Continuous
 62
     0
100
AcDbPoint
 10
41857.2024473744
 20
-3517.024912762542
 30
0.0
  0
POINT
  5
292D
330
2647
100
AcDbEntity
  8
DEFPOINTS
  6
Continuous
 62
     0
100
AcDbPoint
 10
41857.2024473744
 20
-3454.246467990462
 30
0.0
  0
ENDBLK
  5
2652
330
2647
100
AcDbEntity
  8
0
 62
     4
100
AcDbBlockEnd
  0
BLOCK
  5
2667
330
265D
100
AcDbEntity
  8
0
 62
     4
100
AcDbBlockBegin
  2
*D31
 70
     1
 10
0.0
 20
0.0
 30
0.0
  3
*D31
  1

  0
LINE
  5
292E
330
265D
100
AcDbEntity
  8
__
  6
Continuous
 62
     0
370
    -2
100
AcDbLine
 10
41594.7024473744
 20
-3787.843070073372
 30
0.0
 11
41594.7024473744
 21
-3724.947125301292
 31
0.0
  0
LINE
  5
292F
330
265D
100
AcDbEntity
  8
__
  6
Continuous
 62
     0
370
    -2
100
AcDbLine
 10
41874.70244737441
 20
-3787.843070073372
 30
0.0
 11
41874.70244737441
 21
-3724.947125301292
 31
0.0
  0
LINE
  5
2930
330
265D
100
AcDbEntity
  8
__
  6
Continuous
 62
     0
370
    -2
100
AcDbLine
 10
41602.70244737441
 20
-3725.127125301292
 30
0.0
 11
41866.70244737441
 21
-3725.127125301292
 31
0.0
  0
INSERT
  5
2931
330
265D
100
AcDbEntity
  8
__
  6
Continuous
 62
     0
370
    -2
100
AcDbBlockReference
  2
_Origin
 10
41594.7024473744
 20
-3725.127125301292
 30
0.0
 41
8.0
 42
8.0
 43
8.0
 50
180.0
  0
INSERT
  5
2932
330
265D
100
AcDbEntity
  8
__
  6
Continuous
 62
     0
370
    -2
100
AcDbBlockReference
  2
_Origin
 10
41874.70244737441
 20
-3725.127125301292
 30
0.0
 41
8.0
 42
8.0
 43
8.0
  0
MTEXT
  5
2933
330
265D
100
AcDbEntity
  8
__
  6
Continuous
 62
     0
100
AcDbMText
 10
41734.7024473744
 20
-3710.037125301292
 30
0.0
 40
30.0
 41
0.0
 71
     5
 72
     1
  1
\A1;280
 73
     1
 44
1.0
1001
ACAD
1000
MTEXTBEGIN
1070
    73
1070
     1
1070
    44
1040
1.0
1070
    74
1070
     0
1000
MTEXTEND
  0
POINT
  5
2934
330
265D
100
AcDbEntity
  8
DEFPOINTS
  6
Continuous
 62
     0
100
AcDbPoint
 10
41594.7024473744
 20
-3787.905570073372
 30
0.0
  0
POINT
  5
2935
330
265D
100
AcDbEntity
  8
DEFPOINTS
  6
Continuous
 62
     0
100
AcDbPoint
 10
41874.70244737441
 20
-3787.905570073372
 30
0.0
  0
POINT
  5
2936
330
265D
100
AcDbEntity
  8
DEFPOINTS
  6
Continuous
 62
     0
100
AcDbPoint
 10
41874.70244737441
 20
-3725.127125301292
 30
0.0
  0
ENDBLK
  5
2668
330
265D
100
AcDbEntity
  8
0
 62
     4
100
AcDbBlockEnd
  0
BLOCK
  5
269D
330
2693
100
AcDbEntity
  8
0
 62
     4
100
AcDbBlockBegin
  2
*D32
 70
     1
 10
0.0
 20
0.0
 30
0.0
  3
*D32
  1

  0
LINE
  5
2C48
330
2693
100
AcDbEntity
  8
__
  6
Continuous
 62
     0
370
    -2
100
AcDbLine
 10
42407.95954109189
 20
-3847.431156245022
 30
0.0
 11
42407.95954109189
 21
-3882.005311696559
 31
0.0
  0
LINE
  5
2C49
330
2693
100
AcDbEntity
  8
__
  6
Continuous
 62
     0
370
    -2
100
AcDbLine
 10
42382.95954109189
 20
-3847.431156245022
 30
0.0
 11
42382.95954109189
 21
-3882.005311696559
 31
0.0
  0
LINE
  5
2C4A
330
2693
100
AcDbEntity
  8
__
  6
Continuous
 62
     0
370
    -2
100
AcDbLine
 10
42399.95954109189
 20
-3881.825311696559
 30
0.0
 11
42390.95954109189
 21
-3881.825311696559
 31
0.0
  0
INSERT
  5
2C4B
330
2693
100
AcDbEntity
  8
__
  6
Continuous
 62
     0
370
    -2
100
AcDbBlockReference
  2
_Origin
 10
42407.95954109189
 20
-3881.825311696559
 30
0.0
 41
8.0
 42
8.0
 43
8.0
  0
INSERT
  5
2C4C
330
2693
100
AcDbEntity
  8
__
  6
Continuous
 62
     0
370
    -2
100
AcDbBlockReference
  2
_Origin
 10
42382.95954109189
 20
-3881.825311696559
 30
0.0
 41
8.0
 42
8.0
 43
8.0
 50
180.0
  0
MTEXT
  5
2C4D
330
2693
100
AcDbEntity
  8
__
  6
Continuous
 62
     0
100
AcDbMText
 10
42395.45954109189
 20
-3866.73531169656
 30
0.0
 40
30.0
 41
0.0
 71
     5
 72
     1
  1
\A1;25
 73
     1
 44
1.0
1001
ACAD
1000
MTEXTBEGIN
1070
    73
1070
     1
1070
    44
1040
1.0
1070
    74
1070
     0
1000
MTEXTEND
  0
POINT
  5
2C4E
330
2693
100
AcDbEntity
  8
DEFPOINTS
  6
Continuous
 62
     0
100
AcDbPoint
 10
42407.95954109189
 20
-3847.368656245022
 30
0.0
  0
POINT
  5
2C4F
330
2693
100
AcDbEntity
  8
DEFPOINTS
  6
Continuous
 62
     0
100
AcDbPoint
 10
42382.95954109189
 20
-3847.368656245022
 30
0.0
  0
POINT
  5
2C50
330
2693
100
AcDbEntity
  8
DEFPOINTS
  6
Continuous
 62
     0
100
AcDbPoint
 10
42382.95954109189
 20
-3881.825311696559
 30
0.0
  0
ENDBLK
  5
269E
330
2693
100
AcDbEntity
  8
0
 62
     4
100
AcDbBlockEnd
  0
BLOCK
  5
26B3
330
26A9
100
AcDbEntity
  8
0
 62
     4
100
AcDbBlockBegin
  2
*D33
 70
     1
 10
0.0
 20
0.0
 30
0.0
  3
*D33
  1

  0
LINE
  5
2C51
330
26A9
100
AcDbEntity
  8
__
  6
Continuous
 62
     0
370
    -2
100
AcDbLine
 10
43052.49999999998
 20
-3847.431156245413
 30
0.0
 11
43052.49999999998
 21
-3881.915311696951
 31
0.0
  0
LINE
  5
2C52
330
26A9
100
AcDbEntity
  8
__
  6
Continuous
 62
     0
370
    -2
100
AcDbLine
 10
42996.09999999997
 20
-3847.431156245413
 30
0.0
 11
42996.09999999997
 21
-3881.915311696951
 31
0.0
  0
LINE
  5
2C53
330
26A9
100
AcDbEntity
  8
__
  6
Continuous
 62
     0
370
    -2
100
AcDbLine
 10
43044.49999999998
 20
-3881.735311696952
 30
0.0
 11
43004.09999999997
 21
-3881.735311696952
 31
0.0
  0
INSERT
  5
2C54
330
26A9
100
AcDbEntity
  8
__
  6
Continuous
 62
     0
370
    -2
100
AcDbBlockReference
  2
_Origin
 10
43052.49999999998
 20
-3881.735311696952
 30
0.0
 41
8.0
 42
8.0
 43
8.0
  0
INSERT
  5
2C55
330
26A9
100
AcDbEntity
  8
__
  6
Continuous
 62
     0
370
    -2
100
AcDbBlockReference
  2
_Origin
 10
42996.09999999997
 20
-3881.735311696952
 30
0.0
 41
8.0
 42
8.0
 43
8.0
 50
180.0
  0
MTEXT
  5
2C56
330
26A9
100
AcDbEntity
  8
__
  6
Continuous
 62
     0
100
AcDbMText
 10
43024.29999999997
 20
-3866.645311696951
 30
0.0
 40
30.0
 41
0.0
 71
     5
 72
     1
  1
\A1;56.4
 73
     1
 44
1.0
1001
ACAD
1000
MTEXTBEGIN
1070
    73
1070
     1
1070
    44
1040
1.0
1070
    74
1070
     0
1000
MTEXTEND
  0
POINT
  5
2C57
330
26A9
100
AcDbEntity
  8
DEFPOINTS
  6
Continuous
 62
     0
100
AcDbPoint
 10
43052.49999999998
 20
-3847.368656245413
 30
0.0
  0
POINT
  5
2C58
330
26A9
100
AcDbEntity
  8
DEFPOINTS
  6
Continuous
 62
     0
100
AcDbPoint
 10
42996.09999999997
 20
-3847.368656245413
 30
0.0
  0
POINT
  5
2C59
330
26A9
100
AcDbEntity
  8
DEFPOINTS
  6
Continuous
 62
     0
100
AcDbPoint
 10
42996.09999999997
 20
-3881.735311696952
 30
0.0
  0
ENDBLK
  5
26B4
330
26A9
100
AcDbEntity
  8
0
 62
     4
100
AcDbBlockEnd
  0
BLOCK
  5
2D85
330
2D84
100
AcDbEntity
  8
0
 62
     0
100
AcDbBlockBegin
  2
NOTE70
 70
     0
 10
0.0
 20
0.0
 30
0.0
  3
NOTE70
  1

  0
MTEXT
  5
2D86
330
2D84
100
AcDbEntity
  8
0
 62
     7
100
AcDbMText
 10
0.0
 20
1.164414414414415
 30
0.0
 40
0.9166666666666664
 41
0.0
 71
     1
 72
     1
  1
{\fCentury Gothic|b1|i0;90}
  7
SLDTEXTSTYLE0
 73
     1
 44
1.0
1001
ACAD
1000
MTEXTBEGIN
1070
    73
1070
     1
1070
    44
1040
1.0
1070
    74
1070
     0
1000
MTEXTEND
  0
MTEXT
  5
2D87
330
2D84
100
AcDbEntity
  8
0
 62
     7
100
AcDbMText
 10
1.368209807656881
 20
1.164414414414415
 30
0.0
 40
0.9166666666666664
 41
0.0
 71
     1
 72
     1
  1
{\fCentury Gothic|b1|i0;%%d}
  7
SLDTEXTSTYLE0
 73
     1
 44
1.0
1001
ACAD
1000
MTEXTBEGIN
1070
    73
1070
     1
1070
    44
1040
1.0
1070
    74
1070
     0
1000
MTEXTEND
  0
MTEXT
  5
2D88
330
2D84
100
AcDbEntity
  8
0
 62
     7
100
AcDbMText
 10
1.960987533171346
 20
1.164414414414415
 30
0.0
 40
0.9166666666666664
 41
0.0
 71
     1
 72
     1
  1
{\fCentury Gothic|b1|i0; ANGLE}
  7
SLDTEXTSTYLE0
 73
     1
 44
1.0
1001
ACAD
1000
MTEXTBEGIN
1070
    73
1070
     1
1070
    44
1040
1.0
1070
    74
1070
     0
1000
MTEXTEND
  0
ENDBLK
  5
2D89
330
2D84
100
AcDbEntity
  8
0
100
AcDbBlockEnd
  0
BLOCK
  5
2D8D
330
2D8A
100
AcDbEntity
  8
0
370
     0
100
AcDbBlockBegin
  2
A$C26885BA0
 70
     0
 10
0.0
 20
0.0
 30
0.0
  3
A$C26885BA0
  1

  0
LINE
  5
2F35
330
2D8A
100
AcDbEntity
  8
0
  6
Continuous
 62
     4
370
     0
100
AcDbLine
 10
-118.4999999999991
 20
0.0
 30
0.0
 11
118.5
 21
0.0
 31
0.0
1001
AcDbBlockRepETag
1070
     1
1071
        0
1005
2F35
  0
LINE
  5
2F36
330
2D8A
100
AcDbEntity
  8
0
  6
Continuous
 62
     4
370
     0
100
AcDbLine
 10
-118.5
 20
85.96581125363149
 30
0.0
 11
-118.4999999999991
 21
0.0
 31
0.0
1001
AcDbBlockRepETag
1070
     1
1071
        1
1005
2F36
  0
LINE
  5
2F37
330
2D8A
100
AcDbEntity
  8
0
  6
Continuous
 62
     4
370
     0
100
AcDbLine
 10
118.4999999999972
 20
149.4697698598065
 30
0.0
 11
118.5
 21
0.0
 31
0.0
1001
AcDbBlockRepETag
1070
     1
1071
        2
1005
2F37
  0
LINE
  5
2F38
330
2D8A
100
AcDbEntity
  8
0
  6
Continuous
 62
     4
370
     0
100
AcDbLine
 10
-118.5000000000009
 20
94.24802069691191
 30
0.0
 11
118.4999999999972
 21
157.7519793030874
 31
0.0
1001
AcDbBlockRepETag
1070
     1
1071
        3
1005
2F38
  0
LINE
  5
2F39
330
2D8A
100
AcDbEntity
  8
0
  6
Continuous
 62
     4
370
     0
100
AcDbLine
 10
-118.5
 20
85.96581125363149
 30
0.0
 11
118.4999999999972
 21
149.4697698598065
 31
0.0
1001
AcDbBlockRepETag
1070
     1
1071
        4
1005
2F39
  0
ARC
  5
2F3A
330
2D8A
100
AcDbEntity
  8
0
 62
     4
100
AcDbCircle
 10
-119.5352761804106
 20
89.82951455878788
 30
0.0
 40
3.999999999999638
100
AcDbArc
 50
104.9999999999944
 51
284.9999999999944
1001
AcDbBlockRepETag
1070
     1
1071
        5
1005
2F3A
  0
LINE
  5
2F3B
330
2D8A
100
AcDbEntity
  8
0
  6
SLDHIDDEN0
 62
     4
100
AcDbLine
 10
-118.5000000000009
 20
94.24802069691191
 30
0.0
 11
-118.5000000000009
 21
85.96581125363195
 31
0.0
1001
AcDbBlockRepETag
1070
     1
1071
        6
1005
2F3B
  0
LINE
  5
2F3C
330
2D8A
100
AcDbEntity
  8
0
 62
     4
100
AcDbLine
 10
-118.5000000000009
 20
94.24802069691191
 30
0.0
 11
-120.5705523608212
 21
93.6932178639438
 31
0.0
1001
AcDbBlockRepETag
1070
     1
1071
        7
1005
2F3C
  0
ARC
  5
2F3D
330
2D8A
100
AcDbEntity
  8
0
 62
     4
100
AcDbCircle
 10
119.535276180407
 20
153.888275997931
 30
0.0
 40
3.99999999999986
100
AcDbArc
 50
284.9999999999944
 51
104.9999999999944
1001
AcDbBlockRepETag
1070
     1
1071
        8
1005
2F3D
  0
LINE
  5
2F3E
330
2D8A
100
AcDbEntity
  8
0
  6
SLDHIDDEN0
 62
     4
100
AcDbLine
 10
118.4999999999972
 20
157.7519793030869
 30
0.0
 11
118.4999999999972
 21
149.4697698598065
 31
0.0
1001
AcDbBlockRepETag
1070
     1
1071
        9
1005
2F3E
  0
LINE
  5
2F3F
330
2D8A
100
AcDbEntity
  8
0
  6
Continuous
 62
     4
370
     0
100
AcDbLine
 10
118.4999999999972
 20
149.4697698598065
 30
0.0
 11
120.5705523608167
 21
150.0245726927749
 31
0.0
1001
AcDbBlockRepETag
1070
     1
1071
       10
1005
2F3F
  0
ENDBLK
  5
2D99
330
2D8A
100
AcDbEntity
  8
0
370
     0
100
AcDbBlockEnd
  0
BLOCK
  5
2D9D
330
2D9A
100
AcDbEntity
  8
0
370
     0
100
AcDbBlockBegin
  2
A$C1F083DF6
 70
     0
 10
0.0
 20
0.0
 30
0.0
  3
A$C1F083DF6
  1

  0
LINE
  5
2F1D
330
2D9A
100
AcDbEntity
  8
0
 62
     4
100
AcDbLine
 10
-118.5000000000009
 20
-23.46976985980928
 30
0.0
 11
-118.5
 21
196.4697698598097
 31
0.0
1001
AcDbBlockRepETag
1070
     1
1071
        0
1005
2F1D
  0
LINE
  5
2F1E
330
2D9A
100
AcDbEntity
  8
0
 62
     4
100
AcDbLine
 10
118.5000000000009
 20
40.03418874637055
 30
0.0
 11
118.5000000000009
 21
132.9658112536308
 31
0.0
1001
AcDbBlockRepETag
1070
     1
1071
        1
1005
2F1E
  0
LINE
  5
2F1F
330
2D9A
100
AcDbEntity
  8
0
 62
     4
100
AcDbLine
 10
-118.5000000000009
 20
-31.75197930309014
 30
0.0
 11
118.5000000000009
 21
31.75197930309014
 31
0.0
1001
AcDbBlockRepETag
1070
     1
1071
        2
1005
2F1F
  0
ARC
  5
2F20
330
2D9A
100
AcDbEntity
  8
0
 62
     4
100
AcDbCircle
 10
-119.5352761804106
 20
-27.88827599793421
 30
0.0
 40
3.999999999999902
100
AcDbArc
 50
104.9999999999944
 51
284.9999999999944
1001
AcDbBlockRepETag
1070
     1
1071
        3
1005
2F20
  0
LINE
  5
2F21
330
2D9A
100
AcDbEntity
  8
0
 62
     4
100
AcDbLine
 10
-120.5705523608212
 20
-24.02457269277784
 30
0.0
 11
118.5000000000009
 21
40.03418874637008
 31
0.0
1001
AcDbBlockRepETag
1070
     1
1071
        4
1005
2F21
  0
ARC
  5
2F22
330
2D9A
100
AcDbEntity
  8
0
 62
     4
100
AcDbCircle
 10
119.5352761804097
 20
36.17048544121417
 30
0.0
 40
3.999999999999887
100
AcDbArc
 50
284.9999999999944
 51
104.9999999999944
1001
AcDbBlockRepETag
1070
     1
1071
        5
1005
2F22
  0
LINE
  5
2F23
330
2D9A
100
AcDbEntity
  8
0
  6
SLDHIDDEN0
 62
     4
100
AcDbLine
 10
-118.5000000000009
 20
-23.46976985980973
 30
0.0
 11
-118.5000000000009
 21
-31.75197930309014
 31
0.0
1001
AcDbBlockRepETag
1070
     1
1071
        6
1005
2F23
  0
LINE
  5
2F24
330
2D9A
100
AcDbEntity
  8
0
  6
SLDHIDDEN0
 62
     4
100
AcDbLine
 10
118.5
 20
40.03418874637055
 30
0.0
 11
118.5000000000009
 21
31.75197930309014
 31
0.0
1001
AcDbBlockRepETag
1070
     1
1071
        7
1005
2F24
  0
LINE
  5
2F25
330
2D9A
100
AcDbEntity
  8
0
 62
     4
100
AcDbLine
 10
118.5
 20
31.75197930309059
 30
0.0
 11
120.5705523608203
 21
32.30678213605916
 31
0.0
1001
AcDbBlockRepETag
1070
     1
1071
        8
1005
2F25
  0
LINE
  5
2F26
330
2D9A
100
AcDbEntity
  8
0
 62
     4
100
AcDbLine
 10
-118.5
 20
204.7519793030892
 30
0.0
 11
118.5
 21
141.2480206969103
 31
0.0
1001
AcDbBlockRepETag
1070
     1
1071
        9
1005
2F26
  0
ARC
  5
2F27
330
2D9A
100
AcDbEntity
  8
0
 62
     4
100
AcDbCircle
 10
-119.5352761804097
 20
200.8882759979347
 30
0.0
 40
3.999999999999902
100
AcDbArc
 50
75.00000000000555
 51
255.0000000000056
1001
AcDbBlockRepETag
1070
     1
1071
       10
1005
2F27
  0
LINE
  5
2F28
330
2D9A
100
AcDbEntity
  8
0
 62
     4
100
AcDbLine
 10
-120.5705523608203
 20
197.0245726927783
 30
0.0
 11
118.4999999999991
 21
132.9658112536308
 31
0.0
1001
AcDbBlockRepETag
1070
     1
1071
       11
1005
2F28
  0
ARC
  5
2F29
330
2D9A
100
AcDbEntity
  8
0
 62
     4
100
AcDbCircle
 10
119.5352761804097
 20
136.8295145587867
 30
0.0
 40
3.999999999999887
100
AcDbArc
 50
255.0000000000056
 51
75.00000000000555
1001
AcDbBlockRepETag
1070
     1
1071
       12
1005
2F29
  0
LINE
  5
2F2A
330
2D9A
100
AcDbEntity
  8
0
  6
SLDHIDDEN0
 62
     4
100
AcDbLine
 10
-118.5
 20
196.4697698598106
 30
0.0
 11
-118.5
 21
204.7519793030892
 31
0.0
1001
AcDbBlockRepETag
1070
     1
1071
       13
1005
2F2A
  0
LINE
  5
2F2B
330
2D9A
100
AcDbEntity
  8
0
  6
SLDHIDDEN0
 62
     4
100
AcDbLine
 10
118.5
 20
132.9658112536303
 30
0.0
 11
118.5
 21
141.2480206969103
 31
0.0
1001
AcDbBlockRepETag
1070
     1
1071
       14
1005
2F2B
  0
LINE
  5
2F2C
330
2D9A
100
AcDbEntity
  8
0
 62
     4
100
AcDbLine
 10
118.5
 20
141.2480206969098
 30
0.0
 11
120.5705523608203
 21
140.6932178639413
 31
0.0
1001
AcDbBlockRepETag
1070
     1
1071
       15
1005
2F2C
  0
ENDBLK
  5
2DAE
330
2D9A
100
AcDbEntity
  8
0
370
     0
100
AcDbBlockEnd
  0
BLOCK
  5
2DB2
330
2DAF
100
AcDbEntity
  8
0
370
     0
100
AcDbBlockBegin
  2
A$C4B9C6F0B
 70
     0
 10
0.0
 20
0.0
 30
0.0
  3
A$C4B9C6F0B
  1

  0
LINE
  5
2F06
330
2DAF
100
AcDbEntity
  8
0
  6
Continuous
 62
     4
370
     0
100
AcDbLine
 10
118.4999999999972
 20
114.0
 30
0.0
 11
-118.5000000000018
 21
114.0
 31
0.0
1001
AcDbBlockRepETag
1070
     1
1071
        0
1005
2F06
  0
LINE
  5
2F07
330
2DAF
100
AcDbEntity
  8
0
  6
Continuous
 62
     4
370
     0
100
AcDbLine
 10
118.4999999999982
 20
40.03418874636827
 30
0.0
 11
118.4999999999972
 21
114.0
 31
0.0
1001
AcDbBlockRepETag
1070
     1
1071
        1
1005
2F07
  0
LINE
  5
2F08
330
2DAF
100
AcDbEntity
  8
0
  6
Continuous
 62
     4
370
     0
100
AcDbLine
 10
-118.4999999999991
 20
-23.46976985980655
 30
0.0
 11
-118.5000000000018
 21
114.0
 31
0.0
1001
AcDbBlockRepETag
1070
     1
1071
        2
1005
2F08
  0
LINE
  5
2F09
330
2DAF
100
AcDbEntity
  8
0
  6
Continuous
 62
     4
370
     0
100
AcDbLine
 10
118.4999999999991
 20
31.75197930308787
 30
0.0
 11
-118.4999999999991
 21
-31.75197930308741
 31
0.0
1001
AcDbBlockRepETag
1070
     1
1071
        3
1005
2F09
  0
LINE
  5
2F0A
330
2DAF
100
AcDbEntity
  8
0
  6
Continuous
 62
     4
370
     0
100
AcDbLine
 10
118.4999999999982
 20
40.03418874636827
 30
0.0
 11
-118.4999999999991
 21
-23.46976985980655
 31
0.0
1001
AcDbBlockRepETag
1070
     1
1071
        4
1005
2F0A
  0
ARC
  5
2F0B
330
2DAF
100
AcDbEntity
  8
0
 62
     4
100
AcDbCircle
 10
119.5352761804088
 20
36.17048544121189
 30
0.0
 40
3.999999999999638
100
AcDbArc
 50
284.9999999999944
 51
104.9999999999944
1001
AcDbBlockRepETag
1070
     1
1071
        5
1005
2F0B
  0
LINE
  5
2F0C
330
2DAF
100
AcDbEntity
  8
0
  6
SLDHIDDEN0
 62
     4
100
AcDbLine
 10
118.4999999999991
 20
31.75197930308787
 30
0.0
 11
118.4999999999991
 21
40.03418874636781
 31
0.0
1001
AcDbBlockRepETag
1070
     1
1071
        6
1005
2F0C
  0
LINE
  5
2F0D
330
2DAF
100
AcDbEntity
  8
0
 62
     4
100
AcDbLine
 10
118.4999999999991
 20
31.75197930308787
 30
0.0
 11
120.5705523608194
 21
32.30678213605597
 31
0.0
1001
AcDbBlockRepETag
1070
     1
1071
        7
1005
2F0D
  0
ARC
  5
2F0E
330
2DAF
100
AcDbEntity
  8
0
 62
     4
100
AcDbCircle
 10
-119.5352761804088
 20
-27.88827599793104
 30
0.0
 40
3.99999999999986
100
AcDbArc
 50
104.9999999999944
 51
284.9999999999944
1001
AcDbBlockRepETag
1070
     1
1071
        8
1005
2F0E
  0
LINE
  5
2F0F
330
2DAF
100
AcDbEntity
  8
0
  6
SLDHIDDEN0
 62
     4
100
AcDbLine
 10
-118.4999999999991
 20
-31.75197930308696
 30
0.0
 11
-118.4999999999991
 21
-23.46976985980655
 31
0.0
1001
AcDbBlockRepETag
1070
     1
1071
        9
1005
2F0F
  0
LINE
  5
2F10
330
2DAF
100
AcDbEntity
  8
0
  6
Continuous
 62
     4
370
     0
100
AcDbLine
 10
-118.4999999999991
 20
-23.46976985980655
 30
0.0
 11
-120.5705523608185
 21
-24.02457269277466
 31
0.0
1001
AcDbBlockRepETag
1070
     1
1071
       10
1005
2F10
  0
ENDBLK
  5
2DBE
330
2DAF
100
AcDbEntity
  8
0
370
     0
100
AcDbBlockEnd
  0
BLOCK
  5
2DC0
330
2DBF
100
AcDbEntity
  8
0
370
     0
100
AcDbBlockBegin
  2
*D38
 70
     1
 10
0.0
 20
0.0
 30
0.0
  3
*D38
  1

  0
LINE
  5
2DC1
330
2DBF
100
AcDbEntity
  8
0
  6
Continuous
 62
     5
370
    -2
100
AcDbLine
 10
9296.042425018161
 20
2263.902488460573
 30
0.0
 11
9469.258279654487
 21
2363.908708762762
 31
0.0
  0
LINE
  5
2DC2
330
2DBF
100
AcDbEntity
  8
0
  6
Continuous
 62
     5
370
    -2
100
AcDbLine
 10
9382.542425018169
 20
2114.080093605847
 30
0.0
 11
9555.758279654492
 21
2214.086313908038
 31
0.0
  0
LINE
  5
2DC3
330
2DBF
100
AcDbEntity
  8
0
  6
Continuous
 62
     5
370
    -2
100
AcDbLine
 10
9473.102395081806
 20
2356.890505532486
 30
0.0
 11
9551.602395081811
 21
2220.924517138313
 31
0.0
  0
INSERT
  5
2DC4
330
2DBF
100
AcDbEntity
  8
0
  6
Continuous
 62
     5
370
    -2
100
AcDbBlockReference
  2
_Origin
 10
9469.102395081804
 20
2363.818708762762
 30
0.0
 41
8.0
 42
8.0
 43
8.0
 50
119.9999999999989
  0
INSERT
  5
2DC5
330
2DBF
100
AcDbEntity
  8
0
  6
Continuous
 62
     5
370
    -2
100
AcDbBlockReference
  2
_Origin
 10
9555.602395081811
 20
2213.996313908038
 30
0.0
 41
8.0
 42
8.0
 43
8.0
 50
299.9999999999989
  0
MTEXT
  5
2DC6
330
2DBF
100
AcDbEntity
  8
0
  6
Continuous
 62
     0
370
     0
100
AcDbMText
 10
9523.800232412735
 20
2295.516923300048
 30
0.0
 40
25.0
 41
0.0
 71
     5
 72
     1
  1
\A1;173
 11
0.4999999999999838
 21
-0.8660254037844479
 31
0.0
 73
     1
 44
1.0
1001
ACAD
1000
MTEXTBEGIN
1070
    73
1070
     1
1070
    44
1040
1.0
1070
    74
1070
     0
1000
MTEXTEND
  0
POINT
  5
2DC7
330
2DBF
100
AcDbEntity
  8
DEFPOINTS
  6
Continuous
 62
     0
370
     0
100
AcDbPoint
 10
9295.988298430424
 20
2263.871238460573
 30
0.0
  0
POINT
  5
2DC8
330
2DBF
100
AcDbEntity
  8
DEFPOINTS
  6
Continuous
 62
     0
370
     0
100
AcDbPoint
 10
9382.48829843043
 20
2114.048843605848
 30
0.0
  0
POINT
  5
2DC9
330
2DBF
100
AcDbEntity
  8
DEFPOINTS
  6
Continuous
 62
     0
370
     0
100
AcDbPoint
 10
9555.602395081811
 20
2213.996313908038
 30
0.0
  0
ENDBLK
  5
2DCA
330
2DBF
100
AcDbEntity
  8
0
370
     0
100
AcDbBlockEnd
  0
BLOCK
  5
2DCC
330
2DCB
100
AcDbEntity
  8
0
370
     0
100
AcDbBlockBegin
  2
*D39
 70
     1
 10
0.0
 20
0.0
 30
0.0
  3
*D39
  1

  0
LINE
  5
2DCD
330
2DCB
100
AcDbEntity
  8
__-1
  6
Continuous
 62
     5
370
    -2
100
AcDbLine
 10
9032.165903575849
 20
1980.766126025928
 30
0.0
 11
9032.165903575849
 21
1891.520164551517
 31
0.0
  0
LINE
  5
2DCE
330
2DCB
100
AcDbEntity
  8
__-1
  6
Continuous
 62
     5
370
    -2
100
AcDbLine
 10
9382.488298430436
 20
1980.703626025928
 30
0.0
 11
9382.488298430436
 21
1891.520164551517
 31
0.0
  0
LINE
  5
2DCF
330
2DCB
100
AcDbEntity
  8
__-1
  6
Continuous
 62
     5
370
    -2
100
AcDbLine
 10
9040.16590357585
 20
1891.700164551517
 30
0.0
 11
9374.488298430435
 21
1891.700164551517
 31
0.0
  0
INSERT
  5
2DD0
330
2DCB
100
AcDbEntity
  8
__-1
  6
Continuous
 62
     5
370
    -2
100
AcDbBlockReference
  2
_Origin
 10
9032.165903575849
 20
1891.700164551517
 30
0.0
 41
8.0
 42
8.0
 43
8.0
 50
180.0
  0
INSERT
  5
2DD1
330
2DCB
100
AcDbEntity
  8
__-1
  6
Continuous
 62
     5
370
    -2
100
AcDbBlockReference
  2
_Origin
 10
9382.488298430436
 20
1891.700164551517
 30
0.0
 41
8.0
 42
8.0
 43
8.0
  0
MTEXT
  5
2DD2
330
2DCB
100
AcDbEntity
  8
__-1
  6
Continuous
 62
     0
100
AcDbMText
 10
9207.327101003142
 20
1904.918988480817
 30
0.0
 40
25.0
 41
0.0
 71
     5
 72
     1
  1
\A1;350
 73
     1
 44
1.0
1001
ACAD
1000
MTEXTBEGIN
1070
    73
1070
     1
1070
    44
1040
1.0
1070
    74
1070
     0
1000
MTEXTEND
  0
POINT
  5
2DD3
330
2DCB
100
AcDbEntity
  8
DEFPOINTS
  6
Continuous
 62
     0
370
     0
100
AcDbPoint
 10
9032.165903575849
 20
1980.828626025928
 30
0.0
  0
POINT
  5
2DD4
330
2DCB
100
AcDbEntity
  8
DEFPOINTS
  6
Continuous
 62
     0
370
     0
100
AcDbPoint
 10
9382.488298430436
 20
1980.766126025928
 30
0.0
  0
POINT
  5
2DD5
330
2DCB
100
AcDbEntity
  8
DEFPOINTS
  6
Continuous
 62
     0
370
     0
100
AcDbPoint
 10
9382.488298430436
 20
1891.700164551517
 30
0.0
  0
ENDBLK
  5
2DD6
330
2DCB
100
AcDbEntity
  8
0
370
     0
100
AcDbBlockEnd
  0
BLOCK
  5
2DD8
330
2DD7
100
AcDbEntity
  8
0
370
     0
100
AcDbBlockBegin
  2
*D40
 70
     1
 10
0.0
 20
0.0
 30
0.0
  3
*D40
  1

  0
LINE
  5
2DD9
330
2DD7
100
AcDbEntity
  8
__-1
  6
Continuous
 62
     5
370
    -2
100
AcDbLine
 10
9032.165903575849
 20
1975.524991548338
 30
0.0
 11
9032.165903575849
 21
1816.759070976846
 31
0.0
  0
LINE
  5
2DDA
330
2DD7
100
AcDbEntity
  8
__-1
  6
Continuous
 62
     5
370
    -2
100
AcDbLine
 10
9500.988298430433
 20
1987.986343605849
 30
0.0
 11
9500.988298430433
 21
1816.759070976846
 31
0.0
  0
LINE
  5
2DDB
330
2DD7
100
AcDbEntity
  8
__-1
  6
Continuous
 62
     5
370
    -2
100
AcDbLine
 10
9040.16590357585
 20
1816.939070976846
 30
0.0
 11
9492.988298430432
 21
1816.939070976846
 31
0.0
  0
INSERT
  5
2DDC
330
2DD7
100
AcDbEntity
  8
__-1
  6
Continuous
 62
     5
370
    -2
100
AcDbBlockReference
  2
_Origin
 10
9032.165903575849
 20
1816.939070976846
 30
0.0
 41
8.0
 42
8.0
 43
8.0
 50
180.0
  0
INSERT
  5
2DDD
330
2DD7
100
AcDbEntity
  8
__-1
  6
Continuous
 62
     5
370
    -2
100
AcDbBlockReference
  2
_Origin
 10
9500.988298430433
 20
1816.939070976846
 30
0.0
 41
8.0
 42
8.0
 43
8.0
  0
MTEXT
  5
2DDE
330
2DD7
100
AcDbEntity
  8
__-1
  6
Continuous
 62
     0
100
AcDbMText
 10
9266.577101003141
 20
1830.157894906146
 30
0.0
 40
25.0
 41
0.0
 71
     5
 72
     1
  1
\A1;469
 73
     1
 44
1.0
1001
ACAD
1000
MTEXTBEGIN
1070
    73
1070
     1
1070
    44
1040
1.0
1070
    74
1070
     0
1000
MTEXTEND
  0
POINT
  5
2DDF
330
2DD7
100
AcDbEntity
  8
DEFPOINTS
  6
Continuous
 62
     0
370
     0
100
AcDbPoint
 10
9032.165903575849
 20
1975.587491548338
 30
0.0
  0
POINT
  5
2DE0
330
2DD7
100
AcDbEntity
  8
DEFPOINTS
  6
Continuous
 62
     0
370
     0
100
AcDbPoint
 10
9500.988298430433
 20
1988.048843605849
 30
0.0
  0
POINT
  5
2DE1
330
2DD7
100
AcDbEntity
  8
DEFPOINTS
  6
Continuous
 62
     0
370
     0
100
AcDbPoint
 10
9500.988298430433
 20
1816.939070976846
 30
0.0
  0
ENDBLK
  5
2DE2
330
2DD7
100
AcDbEntity
  8
0
370
     0
100
AcDbBlockEnd
  0
BLOCK
  5
2DE4
330
2DE3
100
AcDbEntity
  8
0
370
     0
100
AcDbBlockBegin
  2
*D41
 70
     1
 10
0.0
 20
0.0
 30
0.0
  3
*D41
  1

  0
LINE
  5
2DE5
330
2DE3
100
AcDbEntity
  8
0
 62
     5
370
    -2
100
AcDbLine
 10
9382.550798430434
 20
2114.048843605849
 30
0.0
 11
9576.962591254982
 21
2114.048843605849
 31
0.0
  0
LINE
  5
2DE6
330
2DE3
100
AcDbEntity
  8
0
 62
     5
370
    -2
100
AcDbLine
 10
9518.680616363871
 20
1988.048843605851
 30
0.0
 11
9576.962591254982
 21
1988.048843605851
 31
0.0
  0
LINE
  5
2DE7
330
2DE3
100
AcDbEntity
  8
0
 62
     5
370
    -2
100
AcDbLine
 10
9576.782591254982
 20
2106.048843605849
 30
0.0
 11
9576.782591254982
 21
1996.048843605851
 31
0.0
  0
INSERT
  5
2DE8
330
2DE3
100
AcDbEntity
  8
0
 62
     5
370
    -2
100
AcDbBlockReference
  2
_Origin
 10
9576.782591254982
 20
2114.048843605849
 30
0.0
 41
8.0
 42
8.0
 43
8.0
 50
90.0
  0
INSERT
  5
2DE9
330
2DE3
100
AcDbEntity
  8
0
 62
     5
370
    -2
100
AcDbBlockReference
  2
_Origin
 10
9576.782591254982
 20
1988.048843605851
 30
0.0
 41
8.0
 42
8.0
 43
8.0
 50
270.0
  0
MTEXT
  5
2DEA
330
2DE3
100
AcDbEntity
  8
0
 62
     0
100
AcDbMText
 10
9563.563767325682
 20
2051.048843605852
 30
0.0
 40
25.0
 41
0.0
 71
     5
 72
     1
  1
\A1;126
 11
0.0000000000000001
 21
1.0
 31
0.0
 73
     1
 44
1.0
1001
ACAD
1000
MTEXTBEGIN
1070
    73
1070
     1
1070
    44
1040
1.0
1070
    74
1070
     0
1000
MTEXTEND
  0
POINT
  5
2DEB
330
2DE3
100
AcDbEntity
  8
DEFPOINTS
 62
     0
370
     0
100
AcDbPoint
 10
9382.488298430436
 20
2114.048843605849
 30
0.0
  0
POINT
  5
2DEC
330
2DE3
100
AcDbEntity
  8
DEFPOINTS
 62
     0
370
     0
100
AcDbPoint
 10
9518.618116363873
 20
1988.048843605851
 30
0.0
  0
POINT
  5
2DED
330
2DE3
100
AcDbEntity
  8
DEFPOINTS
 62
     0
370
     0
100
AcDbPoint
 10
9576.782591254982
 20
1988.048843605851
 30
0.0
  0
ENDBLK
  5
2DEE
330
2DE3
100
AcDbEntity
  8
0
370
     0
100
AcDbBlockEnd
  0
BLOCK
  5
2DF0
330
2DEF
100
AcDbEntity
  8
0
370
     0
100
AcDbBlockBegin
  2
*D42
 70
     1
 10
0.0
 20
0.0
 30
0.0
  3
*D42
  1

  0
LINE
  5
2DF1
330
2DEF
100
AcDbEntity
  8
0
 62
     5
370
    -2
100
AcDbLine
 10
9040.460064679669
 20
1988.048843605849
 30
0.0
 11
8912.005290840346
 21
1988.048843605849
 31
0.0
  0
LINE
  5
2DF2
330
2DEF
100
AcDbEntity
  8
0
 62
     5
370
    -2
100
AcDbLine
 10
9047.37650754447
 20
2350.371238461001
 30
0.0
 11
8912.005290840346
 21
2350.371238461001
 31
0.0
  0
LINE
  5
2DF3
330
2DEF
100
AcDbEntity
  8
0
 62
     5
370
    -2
100
AcDbLine
 10
8912.185290840346
 20
1996.048843605849
 30
0.0
 11
8912.185290840346
 21
2342.371238461
 31
0.0
  0
INSERT
  5
2DF4
330
2DEF
100
AcDbEntity
  8
0
 62
     5
370
    -2
100
AcDbBlockReference
  2
_Origin
 10
8912.185290840346
 20
1988.048843605849
 30
0.0
 41
8.0
 42
8.0
 43
8.0
 50
270.0
  0
INSERT
  5
2DF5
330
2DEF
100
AcDbEntity
  8
0
 62
     5
370
    -2
100
AcDbBlockReference
  2
_Origin
 10
8912.185290840346
 20
2350.371238461001
 30
0.0
 41
8.0
 42
8.0
 43
8.0
 50
90.0
  0
MTEXT
  5
2DF6
330
2DEF
100
AcDbEntity
  8
0
 62
     0
100
AcDbMText
 10
8898.966466911048
 20
2169.210041033426
 30
0.0
 40
25.0
 41
0.0
 71
     5
 72
     1
  1
\A1;362
 11
0.0000000000000001
 21
1.0
 31
0.0
 73
     1
 44
1.0
1001
ACAD
1000
MTEXTBEGIN
1070
    73
1070
     1
1070
    44
1040
1.0
1070
    74
1070
     0
1000
MTEXTEND
  0
POINT
  5
2DF7
330
2DEF
100
AcDbEntity
  8
DEFPOINTS
 62
     0
370
     0
100
AcDbPoint
 10
9040.522564679669
 20
1988.048843605849
 30
0.0
  0
POINT
  5
2DF8
330
2DEF
100
AcDbEntity
  8
DEFPOINTS
 62
     0
370
     0
100
AcDbPoint
 10
9047.43900754447
 20
2350.371238461001
 30
0.0
  0
POINT
  5
2DF9
330
2DEF
100
AcDbEntity
  8
DEFPOINTS
 62
     0
370
     0
100
AcDbPoint
 10
8912.185290840346
 20
2350.371238461001
 30
0.0
  0
ENDBLK
  5
2DFA
330
2DEF
100
AcDbEntity
  8
0
370
     0
100
AcDbBlockEnd
  0
BLOCK
  5
2DFC
330
2DFB
100
AcDbEntity
  8
0
370
     0
100
AcDbBlockBegin
  2
*D43
 70
     1
 10
0.0
 20
0.0
 30
0.0
  3
*D43
  1

  0
LINE
  5
2DFD
330
2DFB
100
AcDbEntity
  8
0
 62
     5
370
    -2
100
AcDbLine
 10
8965.008103375508
 20
1988.048843605849
 30
0.0
 11
8836.553329536185
 21
1988.048843605849
 31
0.0
  0
LINE
  5
2DFE
330
2DFB
100
AcDbEntity
  8
0
 62
     5
370
    -2
100
AcDbLine
 10
8994.576786252693
 20
2468.871238460839
 30
0.0
 11
8836.553329536185
 21
2468.871238460839
 31
0.0
  0
LINE
  5
2DFF
330
2DFB
100
AcDbEntity
  8
0
 62
     5
370
    -2
100
AcDbLine
 10
8836.733329536185
 20
1996.048843605849
 30
0.0
 11
8836.733329536185
 21
2460.871238460839
 31
0.0
  0
INSERT
  5
2E00
330
2DFB
100
AcDbEntity
  8
0
 62
     5
370
    -2
100
AcDbBlockReference
  2
_Origin
 10
8836.733329536185
 20
1988.048843605849
 30
0.0
 41
8.0
 42
8.0
 43
8.0
 50
270.0
  0
INSERT
  5
2E01
330
2DFB
100
AcDbEntity
  8
0
 62
     5
370
    -2
100
AcDbBlockReference
  2
_Origin
 10
8836.733329536185
 20
2468.871238460839
 30
0.0
 41
8.0
 42
8.0
 43
8.0
 50
90.0
  0
MTEXT
  5
2E02
330
2DFB
100
AcDbEntity
  8
0
 62
     0
100
AcDbMText
 10
8823.514505606887
 20
2228.460041033346
 30
0.0
 40
25.0
 41
0.0
 71
     5
 72
     1
  1
\A1;481
 11
0.0000000000000001
 21
1.0
 31
0.0
 73
     1
 44
1.0
1001
ACAD
1000
MTEXTBEGIN
1070
    73
1070
     1
1070
    44
1040
1.0
1070
    74
1070
     0
1000
MTEXTEND
  0
POINT
  5
2E03
330
2DFB
100
AcDbEntity
  8
DEFPOINTS
 62
     0
370
     0
100
AcDbPoint
 10
8965.070603375508
 20
1988.048843605849
 30
0.0
  0
POINT
  5
2E04
330
2DFB
100
AcDbEntity
  8
DEFPOINTS
 62
     0
370
     0
100
AcDbPoint
 10
8994.639286252693
 20
2468.871238460839
 30
0.0
  0
POINT
  5
2E05
330
2DFB
100
AcDbEntity
  8
DEFPOINTS
 62
     0
370
     0
100
AcDbPoint
 10
8836.733329536185
 20
2468.871238460839
 30
0.0
  0
ENDBLK
  5
2E06
330
2DFB
100
AcDbEntity
  8
0
370
     0
100
AcDbBlockEnd
  0
BLOCK
  5
2E08
330
2E07
100
AcDbEntity
  8
0
370
     0
100
AcDbBlockBegin
  2
*D44
 70
     1
 10
0.0
 20
0.0
 30
0.0
  3
*D44
  1

  0
LINE
  5
2E09
330
2E07
100
AcDbEntity
  8
0
  6
Continuous
 62
     5
370
    -2
100
AcDbLine
 10
9146.197136642761
 20
2350.425374821247
 30
0.0
 11
9243.909761391606
 21
2519.790935192247
 31
0.0
  0
LINE
  5
2E0A
330
2E07
100
AcDbEntity
  8
0
  6
Continuous
 62
     5
370
    -2
100
AcDbLine
 10
9296.073658085083
 20
2263.956624821096
 30
0.0
 11
9393.786282833927
 21
2433.322185192096
 31
0.0
  0
LINE
  5
2E0B
330
2E07
100
AcDbEntity
  8
0
  6
Continuous
 62
     5
370
    -2
100
AcDbLine
 10
9250.749264305888
 20
2515.637189908107
 30
0.0
 11
9386.76687745418
 21
2437.164105039619
 31
0.0
  0
INSERT
  5
2E0C
330
2E07
100
AcDbEntity
  8
0
  6
Continuous
 62
     5
370
    -2
100
AcDbBlockReference
  2
_Origin
 10
9243.819810158875
 20
2519.635022473939
 30
0.0
 41
8.0
 42
8.0
 43
8.0
 50
150.0179229181118
  0
INSERT
  5
2E0D
330
2E07
100
AcDbEntity
  8
0
  6
Continuous
 62
     5
370
    -2
100
AcDbBlockReference
  2
_Origin
 10
9393.696331601196
 20
2433.166272473787
 30
0.0
 41
8.0
 42
8.0
 43
8.0
 50
330.0179229181118
  0
MTEXT
  5
2E0E
330
2E07
100
AcDbEntity
  8
0
  6
Continuous
 62
     0
370
     0
100
AcDbMText
 10
9325.363901478352
 20
2487.850551760807
 30
0.0
 40
25.0
 41
0.0
 71
     5
 72
     1
  1
\A1;173
 11
0.8661817683767969
 21
-0.4997290707289751
 31
0.0
 73
     1
 44
1.0
1001
ACAD
1000
MTEXTBEGIN
1070
    73
1070
     1
1070
    44
1040
1.0
1070
    74
1070
     0
1000
MTEXTEND
  0
POINT
  5
2E0F
330
2E07
100
AcDbEntity
  8
DEFPOINTS
  6
Continuous
 62
     0
370
     0
100
AcDbPoint
 10
9146.165903575841
 20
2350.371238460724
 30
0.0
  0
POINT
  5
2E10
330
2E07
100
AcDbEntity
  8
DEFPOINTS
  6
Continuous
 62
     0
370
     0
100
AcDbPoint
 10
9296.042425018162
 20
2263.902488460573
 30
0.0
  0
POINT
  5
2E11
330
2E07
100
AcDbEntity
  8
DEFPOINTS
  6
Continuous
 62
     0
370
     0
100
AcDbPoint
 10
9393.696331601196
 20
2433.166272473787
 30
0.0
  0
ENDBLK
  5
2E12
330
2E07
100
AcDbEntity
  8
0
370
     0
100
AcDbBlockEnd
  0
BLOCK
  5
2E14
330
2E13
100
AcDbEntity
  8
0
370
     0
100
AcDbBlockBegin
  2
*D45
 70
     1
 10
0.0
 20
0.0
 30
0.0
  3
*D45
  1

  0
LINE
  5
2E15
330
2E13
100
AcDbEntity
  8
0
  6
Continuous
 62
     5
370
    -2
100
AcDbLine
 10
9032.165903575849
 20
2350.433738460864
 30
0.0
 11
9032.165903575849
 21
2532.185154628495
 31
0.0
  0
LINE
  5
2E16
330
2E13
100
AcDbEntity
  8
0
  6
Continuous
 62
     5
370
    -2
100
AcDbLine
 10
9146.165903575598
 20
2350.433738460864
 30
0.0
 11
9146.165903575598
 21
2532.185154628495
 31
0.0
  0
LINE
  5
2E17
330
2E13
100
AcDbEntity
  8
0
  6
Continuous
 62
     5
370
    -2
100
AcDbLine
 10
9040.16590357585
 20
2532.005154628496
 30
0.0
 11
9138.165903575597
 21
2532.005154628496
 31
0.0
  0
INSERT
  5
2E18
330
2E13
100
AcDbEntity
  8
0
  6
Continuous
 62
     5
370
    -2
100
AcDbBlockReference
  2
_Origin
 10
9032.165903575849
 20
2532.005154628496
 30
0.0
 41
8.0
 42
8.0
 43
8.0
 50
180.0
  0
INSERT
  5
2E19
330
2E13
100
AcDbEntity
  8
0
  6
Continuous
 62
     5
370
    -2
100
AcDbBlockReference
  2
_Origin
 10
9146.165903575598
 20
2532.005154628496
 30
0.0
 41
8.0
 42
8.0
 43
8.0
  0
MTEXT
  5
2E1A
330
2E13
100
AcDbEntity
  8
0
  6
Continuous
 62
     0
370
     0
100
AcDbMText
 10
9089.165903575723
 20
2544.909566593146
 30
0.0
 40
25.0
 41
0.0
 71
     5
 72
     1
  1
\A1;114
 73
     1
 44
1.0
1001
ACAD
1000
MTEXTBEGIN
1070
    73
1070
     1
1070
    44
1040
1.0
1070
    74
1070
     0
1000
MTEXTEND
  0
POINT
  5
2E1B
330
2E13
100
AcDbEntity
  8
DEFPOINTS
  6
Continuous
 62
     0
370
     0
100
AcDbPoint
 10
9032.165903575849
 20
2350.371238460864
 30
0.0
  0
POINT
  5
2E1C
330
2E13
100
AcDbEntity
  8
DEFPOINTS
  6
Continuous
 62
     0
370
     0
100
AcDbPoint
 10
9146.165903575598
 20
2350.371238460864
 30
0.0
  0
POINT
  5
2E1D
330
2E13
100
AcDbEntity
  8
DEFPOINTS
  6
Continuous
 62
     0
370
     0
100
AcDbPoint
 10
9146.165903575598
 20
2532.005154628496
 30
0.0
  0
ENDBLK
  5
2E1E
330
2E13
100
AcDbEntity
  8
0
370
     0
100
AcDbBlockEnd
  0
BLOCK
  5
2E38
330
2E22
100
AcDbEntity
  8
0
 62
     4
100
AcDbBlockBegin
  2
A$C262938F5
 70
     0
 10
0.0
 20
0.0
 30
0.0
  3
A$C262938F5
  1

  0
MTEXT
  5
2E23
330
2E22
100
AcDbEntity
  8
0
 62
     7
370
     0
100
AcDbMText
 10
155.6755453128826
 20
-606.3170307751392
 30
0.0
 40
23.29632433333333
 41
0.0
 71
     1
 72
     1
  1
{\fCentury Gothic|b1|i0|c0|p0;SCALE 1:10}
  7
SLDTEXTSTYLE0
 73
     1
 44
1.0
1001
ACAD
1000
MTEXTBEGIN
1070
    73
1070
     1
1070
    44
1040
1.0
1070
    74
1070
     0
1000
MTEXTEND
  0
INSERT
  5
2E24
330
2E22
100
AcDbEntity
  8
0
370
     0
100
AcDbBlockReference
  2
NOTE70
 10
147.3787609739338
 20
-605.6778576934998
 30
0.0
 41
25.41417200000433
 42
25.41417200000433
 43
25.414172
  0
LINE
  5
2E25
330
2E22
100
AcDbEntity
  8
0
  6
SLD-Chain
 62
     3
100
AcDbLine
 10
398.8797670547974
 20
-117.6933130592351
 30
0.0
 11
398.8797670547974
 21
-368.4867491730606
 31
0.0
  0
INSERT
  5
2E26
330
2E22
100
AcDbEntity
  8
0
  6
Continuous
370
     0
100
AcDbBlockReference
  2
A$C26885BA0
 10
398.8797670547974
 20
-272.1380701187286
 30
0.0
  0
INSERT
  5
2E27
330
2E22
100
AcDbEntity
  8
0
  6
Continuous
370
     0
100
AcDbBlockReference
  2
A$C1F083DF6
 10
398.8797670547956
 20
-146.138070118729
 30
0.0
 41
-1.0
 50
30.00000000001037
  0
INSERT
  5
2E28
330
2E22
100
AcDbEntity
  8
0
  6
Continuous
370
     0
100
AcDbBlockReference
  2
A$C1F083DF6
 10
162.5573722002136
 20
90.18432473618259
 30
0.0
 50
239.9999999998994
  0
INSERT
  5
2E29
330
2E22
100
AcDbEntity
  8
0
  6
Continuous
370
     0
100
AcDbBlockReference
  2
A$C4B9C6F0B
 10
162.5573722002136
 20
90.18432473618076
 30
0.0
 41
-1.0
 50
89.99999999989576
  0
LINE
  5
2E2A
330
2E22
100
AcDbEntity
  8
0
  6
SLD-Chain
 62
     3
100
AcDbLine
 10
298.1417892739828
 20
28.34522564938879
 30
0.0
 11
413.102145584542
 21
-170.7719523367195
 31
0.0
  0
DIMENSION
  5
2E2B
330
2E22
100
AcDbEntity
  8
__-1
  6
Continuous
100
AcDbDimension
  2
*D39
 10
398.8797670547993
 20
-368.4867491730606
 30
0.0
 11
223.7185696275064
 21
-355.2679252437608
 31
0.0
 12
-8983.608531375635
 22
-2260.186913724578
 32
0.0
 71
     5
 42
350.3223948545856
  3
10
100
AcDbAlignedDimension
 13
48.55737220021365
 23
-279.3582876986497
 33
0.0
 14
398.8797670547993
 24
-279.4207876986497
 34
0.0
100
AcDbRotatedDimension
  0
DIMENSION
  5
2E2C
330
2E22
100
AcDbEntity
  8
__-1
  6
Continuous
100
AcDbDimension
  2
*D40
 10
517.3797670547974
 20
-443.2478427477312
 30
0.0
 11
282.9685696275064
 21
-430.0290188184314
 31
0.0
 12
-8983.608531375635
 22
-2260.186913724578
 32
0.0
 71
     5
 42
468.8223948545838
  3
10
100
AcDbAlignedDimension
 13
48.55737220021365
 23
-284.5994221762396
 33
0.0
 14
517.3797670547974
 24
-272.1380701187286
 34
0.0
100
AcDbRotatedDimension
  0
DIMENSION
  5
2E2D
330
2E22
100
AcDbEntity
  8
0
100
AcDbDimension
  2
*D41
 10
593.1740598793457
 20
-272.1380701187268
 30
0.0
 11
579.9552359500466
 21
-209.1380701187258
 31
0.0
 12
-8983.608531375635
 22
-2260.186913724578
 32
0.0
 71
     5
 42
125.9999999999988
  3
10
100
AcDbAlignedDimension
 13
398.8797670547993
 23
-146.1380701187281
 33
0.0
 14
535.0095849882364
 24
-272.1380701187268
 34
0.0
 50
90.0
100
AcDbRotatedDimension
  0
DIMENSION
  5
2E2E
330
2E22
100
AcDbEntity
  8
0
100
AcDbDimension
  2
*D42
 10
-71.42324053528864
 20
90.18432473642269
 30
0.0
 11
-84.64206446458774
 21
-90.97687269115159
 31
0.0
 12
-8983.608531375635
 22
-2260.186913724578
 32
0.0
 71
     5
 42
362.322394855151
  3
10
100
AcDbAlignedDimension
 13
56.91403330403409
 23
-272.1380701187286
 33
0.0
 14
63.83047616883414
 24
90.18432473642269
 34
0.0
 50
90.0
100
AcDbRotatedDimension
  0
DIMENSION
  5
2E2F
330
2E22
100
AcDbEntity
  8
0
100
AcDbDimension
  2
*D43
 10
-146.8752018394498
 20
208.6843247362613
 30
0.0
 11
-160.0940257687489
 21
-31.72687269123207
 31
0.0
 12
-8983.608531375635
 22
-2260.186913724578
 32
0.0
 71
     5
 42
480.8223948549896
  3
10
100
AcDbAlignedDimension
 13
-18.53792800012707
 23
-272.1380701187286
 33
0.0
 14
11.03075487705791
 24
208.6843247362613
 34
0.0
 50
90.0
100
AcDbRotatedDimension
  0
LINE
  5
2E30
330
2E22
100
AcDbEntity
  8
0
  6
SLD-Chain
 62
     3
100
AcDbLine
 10
137.849901509473
 20
104.4491895904702
 30
0.0
 11
336.9667594066304
 21
-10.51098191694018
 31
0.0
  0
LINE
  5
2E31
330
2E22
100
AcDbEntity
  8
0
  6
SLD-Chain
 62
     3
100
AcDbLine
 10
146.69293778274
 20
208.6843247362613
 30
0.0
 11
-131.2523373725962
 21
208.6843247362613
 31
0.0
  0
DIMENSION
  5
2E32
330
2E22
100
AcDbEntity
  8
0
  6
Continuous
370
     0
100
AcDbDimension
  2
*D38
 10
571.993863706175
 20
-46.19059981654027
 30
0.0
 11
540.1917010370998
 21
35.33000957547029
 31
0.0
 12
-8983.608531375635
 22
-2260.186913724578
 32
0.0
 70
     1
 71
     5
 42
173.0000000000172
  3
10
100
AcDbAlignedDimension
 13
312.3797670547901
 23
3.684324735994778
 33
0.0
 14
398.8797670547956
 24
-146.138070118729
 34
0.0
  0
LINE
  5
2E33
330
2E22
100
AcDbEntity
  8
0
  6
SLD-Chain
 62
     3
100
AcDbLine
 10
-44.91993783823637
 20
90.18432473672737
 30
0.0
 11
190.8541414470728
 21
90.18432473606663
 31
0.0
  0
DIMENSION
  5
2E34
330
2E22
100
AcDbEntity
  8
0
  6
Continuous
370
     0
100
AcDbDimension
  2
*D44
 10
410.0878002255594
 20
172.9793587492099
 30
0.0
 11
341.7553701027173
 21
227.6636380362288
 31
0.0
 12
-8983.608531375635
 22
-2260.186913724578
 32
0.0
 70
     1
 71
     5
 42
173.0312584657431
  3
10
100
AcDbAlignedDimension
 13
162.5573722002045
 23
90.18432473614575
 33
0.0
 14
312.4338936425247
 24
3.715574735994778
 34
0.0
  0
DIMENSION
  5
2E35
330
2E22
100
AcDbEntity
  8
0
  6
Continuous
370
     0
100
AcDbDimension
  2
*D45
 10
162.5573721999608
 20
271.8182409039177
 30
0.0
 11
105.5573722000863
 21
284.7226528685678
 31
0.0
 12
-8983.608531375635
 22
-2260.186913724578
 32
0.0
 70
     1
 71
     5
 42
113.9999999997471
  3
10
100
AcDbAlignedDimension
 13
48.55737220021365
 23
90.18432473628672
 33
0.0
 14
162.5573721999608
 24
90.18432473628672
 34
0.0
  0
ENDBLK
  5
2E39
330
2E22
100
AcDbEntity
  8
0
 62
     4
100
AcDbBlockEnd
  0
BLOCK
  5
2FF1
330
2FEA
100
AcDbEntity
  8
0
 62
     4
100
AcDbBlockBegin
  2
A$C30C06DA2
 70
     0
 10
0.0
 20
0.0
 30
0.0
  3
A$C30C06DA2
  1

  0
TEXT
  5
2FEB
330
2FEA
100
AcDbEntity
  8
__
 62
     4
100
AcDbText
 10
-405.4968886292514
 20
128.1450603321591
 30
0.0
 40
23.50838539523302
  1
チューブ重ね寸法
  7
_______
 72
     1
 11
-283.3010173362636
 21
128.1450603321591
 31
0.0
100
AcDbText
  0
LINE
  5
2FEC
330
2FEA
100
AcDbEntity
  8
__
  6
Continuous
 62
     4
100
AcDbLine
 10
-264.7468855104962
 20
574.1587872649179
 30
0.0
 11
-264.7468855104962
 21
159.1587872649179
 31
0.0
  0
LINE
  5
2FED
330
2FEA
100
AcDbEntity
  8
__
  6
Continuous
 62
     4
100
AcDbLine
 10
-161.3273412324124
 20
278.4979136568145
 30
0.0
 11
-264.7468855104962
 21
159.1587872649179
 31
0.0
  0
LINE
  5
2FEE
330
2FEA
100
AcDbEntity
  8
__
  6
Continuous
 62
     4
100
AcDbLine
 10
-49.74688551049621
 20
-5.841212735082081
 30
0.0
 11
-174.7468855104962
 21
84.15878726491792
 31
0.0
  0
ENDBLK
  5
2FF2
330
2FEA
100
AcDbEntity
  8
0
 62
     4
100
AcDbBlockEnd
  0
ENDSEC
  0
SECTION
  2
ENTITIES
  0
TEXT
  5
76
330
22
100
AcDbEntity
  8
__
 62
     7
100
AcDbText
 10
42934.43420958099
 20
-4141.011350718538
 30
0.0
 40
24.25347222222222
  1
1/10
  7
________
100
AcDbText
  0
LWPOLYLINE
  5
78
330
22
100
AcDbEntity
  8
__
 62
     6
100
AcDbPolyline
 90
        4
 70
     1
 43
0.0
 10
39267.64067263833
 20
-1319.470000000001
 10
43342.64067263832
 20
-1319.470000000001
 10
43342.64067263832
 20
-4149.470000000001
 10
39267.64067263833
 20
-4149.470000000001
  0
LINE
  5
7E
330
22
100
AcDbEntity
  8
__
  6
Continuous
 62
     2
100
AcDbLine
 10
39337.64067263833
 20
-4017.92316640714
 30
0.0
 11
43342.64067263832
 21
-4017.92316640714
 31
0.0
  0
LINE
  5
7F
330
22
100
AcDbEntity
  8
__
 62
     6
100
AcDbLine
 10
39267.64067263833
 20
-4017.92316640714
 30
0.0
 11
43342.64067263832
 21
-4017.92316640714
 31
0.0
  0
LINE
  5
80
330
22
100
AcDbEntity
  8
__
  6
Continuous
 62
     6
100
AcDbLine
 10
43342.64067263832
 20
-4017.92316640714
 30
0.0
 11
43342.64067263832
 21
-4147.543166407135
 31
0.0
  0
LINE
  5
81
330
22
100
AcDbEntity
  8
__
  6
Continuous
 62
     6
100
AcDbLine
 10
40273.64067263833
 20
-4017.92316640714
 30
0.0
 11
40273.64067263833
 21
-4147.543166407135
 31
0.0
  0
TEXT
  5
82
330
22
100
AcDbEntity
  8
__
 62
     7
100
AcDbText
 10
43148.14067263832
 20
-4047.764833073807
 30
0.0
 40
15.15842013888888
  1
No.
  7
ARIAL
100
AcDbText
  0
LINE
  5
84
330
22
100
AcDbEntity
  8
__
  6
Continuous
 62
     7
100
AcDbLine
 10
42892.64067263832
 20
-4017.92316640714
 30
0.0
 11
42892.64067263832
 21
-4147.543166407135
 31
0.0
  0
TEXT
  5
85
330
22
100
AcDbEntity
  8
__
 62
     7
100
AcDbText
 10
42895.82150637539
 20
-4099.593999740474
 30
0.0
 40
15.15842013888888
  1
SCALE
  7
ARIAL
100
AcDbText
  0
LINE
  5
86
330
22
100
AcDbEntity
  8
__
  6
Continuous
 62
     6
100
AcDbLine
 10
43142.64067263833
 20
-4017.92316640714
 30
0.0
 11
43142.64067263833
 21
-4147.543166407135
 31
0.0
  0
LINE
  5
87
330
22
100
AcDbEntity
  8
__
  6
Continuous
 62
     6
100
AcDbLine
 10
42392.64067263833
 20
-4017.92316640714
 30
0.0
 11
42392.64067263833
 21
-4147.543166407135
 31
0.0
  0
TEXT
  5
88
330
22
100
AcDbEntity
  8
__
 62
     7
100
AcDbText
 10
42896.11234354409
 20
-4045.241799799444
 30
0.0
 40
15.15842013888888
  1
Date
  7
ARIAL
100
AcDbText
  0
LINE
  5
89
330
22
100
AcDbEntity
  8
__
 62
     7
100
AcDbLine
 10
42892.64067263832
 20
-4072.733166407138
 30
0.0
 11
43142.64067263833
 21
-4072.733166407138
 31
0.0
  0
TEXT
  5
8A
330
22
100
AcDbEntity
  8
__
 62
     7
100
AcDbText
 10
42398.36150942012
 20
-4052.093999740475
 30
0.0
 40
15.15842013888888
  1
Drawing Title
  7
ARIAL
100
AcDbText
  0
LINE
  5
8B
330
22
100
AcDbEntity
  8
__
 62
     4
100
AcDbLine
 10
40275.02383764558
 20
-4082.733166407138
 30
0.0
 11
41682.64067263833
 21
-4082.733166407138
 31
0.0
  0
LINE
  5
8C
330
22
100
AcDbEntity
  8
__
 62
     4
100
AcDbLine
 10
40273.78025983889
 20
-4050.328166407139
 30
0.0
 11
41682.64067263833
 21
-4050.328166407139
 31
0.0
  0
LINE
  5
8D
330
22
100
AcDbEntity
  8
__
 62
     4
100
AcDbLine
 10
40273.78025983889
 20
-4115.138166407137
 30
0.0
 11
41682.64067263833
 21
-4115.138166407137
 31
0.0
  0
TEXT
  5
8E
330
22
100
AcDbEntity
  8
__
 62
     7
100
AcDbText
 10
40282.12861300274
 20
-4045.753291564877
 30
0.0
 40
14.1619613080406
  1
Memo
  7
ARIAL
100
AcDbText
  0
LINE
  5
8F
330
22
100
AcDbEntity
  8
__
  6
Continuous
 62
     6
100
AcDbLine
 10
41682.64067263833
 20
-4017.92316640714
 30
0.0
 11
41682.64067263833
 21
-4147.543166407135
 31
0.0
  0
TEXT
  5
90
330
22
100
AcDbEntity
  8
__
 62
     7
100
AcDbText
 10
41691.12861300274
 20
-4045.241799799444
 30
0.0
 40
14.46617273128829
  1
Project
  7
ARIAL
100
AcDbText
  0
TEXT
  5
91
330
22
100
AcDbEntity
  8
__
 62
     7
100
AcDbText
 10
41749.05628265745
 20
-4106.979631947857
 30
0.0
 40
27.33829922589329
  1
SLT　CAD部品図面
  7
________-B
100
AcDbText
  0
TEXT
  5
92
330
22
100
AcDbEntity
  8
__
 62
     7
100
AcDbText
 10
42947.66289351481
 20
-4069.345000000001
 30
0.0
 40
21.828125
  1
11/2/11
  7
________
100
AcDbText
  0
TEXT
  5
93
330
22
100
AcDbEntity
  8
__
 62
     7
100
AcDbText
 10
42473.01780688452
 20
-4116.800825429563
 30
0.0
 40
27.90286974456638
  1
160DS　CAD図面
  7
________-B
100
AcDbText
  0
TEXT
  5
95
330
22
100
AcDbEntity
  8
__
 62
     4
100
AcDbText
 10
39505.01566193737
 20
-4112.621178569425
 30
0.0
 40
26.67881944444444
  1
ス カ イ ラ イ ト チ ュ ー ブ
  7
________
100
AcDbText
  0
LWPOLYLINE
  5
96
330
22
100
AcDbEntity
  8
__
  6
Continuous
 62
     4
100
AcDbPolyline
 90
        4
 70
     1
 43
0.0
 10
39305.0
 20
-3330.0
 10
41170.0
 20
-3330.0
 10
41170.0
 20
-3980.0
 10
39305.0
 20
-3980.0
  0
TEXT
  5
9C
330
22
100
AcDbEntity
  8
__
 62
     4
100
AcDbText
 10
39325.0
 20
-3395.109832697529
 30
0.0
 40
33.95486111111111
  1
[3]トップアングルチューブ
  7
________
100
AcDbText
  0
LWPOLYLINE
  5
9D
330
22
100
AcDbEntity
  8
__
  6
Continuous
 62
     4
100
AcDbPolyline
 90
        4
 70
     1
 43
0.0
 10
39305.0
 20
-3330.0
 10
40148.0
 20
-3330.0
 10
40148.0
 20
-3407.0
 10
39305.0
 20
-3407.0
  0
LWPOLYLINE
  5
A3
330
22
100
AcDbEntity
  8
__
  6
Continuous
 62
     4
100
AcDbPolyline
 90
        4
 70
     1
 43
0.0
 10
41358.0
 20
-3330.0
 10
43310.0
 20
-3330.0
 10
43310.0
 20
-3980.0
 10
41358.0
 20
-3980.0
  0
TEXT
  5
A9
330
22
100
AcDbEntity
  8
__
 62
     4
100
AcDbText
 10
41379.0
 20
-3400.0
 30
0.0
 40
33.95486111111111
  1
[5]ボトムアングルチューブ
  7
________
100
AcDbText
  0
LWPOLYLINE
  5
AA
330
22
100
AcDbEntity
  8
__
  6
Continuous
 62
     4
100
AcDbPolyline
 90
        4
 70
     1
 43
0.0
 10
41358.0
 20
-3330.0
 10
42210.0
 20
-3330.0
 10
42210.0
 20
-3418.0
 10
41358.0
 20
-3418.0
  0
LINE
  5
B0
330
22
100
AcDbEntity
  8
__
  6
Continuous
 62
     4
100
AcDbLine
 10
40029.83039820239
 20
-3197.999979100189
 30
0.0
 11
40274.83039820238
 21
-3198.000005801743
 31
0.0
  0
LINE
  5
B1
330
22
100
AcDbEntity
  8
__
  6
Continuous
 62
     4
100
AcDbLine
 10
40029.83039820239
 20
-3197.999979100189
 30
0.0
 11
40029.83039820239
 21
-2797.99997910019
 31
0.0
  0
LINE
  5
B2
330
22
100
AcDbEntity
  8
__
  6
Continuous
 62
     4
100
AcDbLine
 10
40274.83039820238
 20
-3197.999979100189
 30
0.0
 11
40274.83039820238
 21
-2797.99997910019
 31
0.0
  0
LINE
  5
B3
330
22
100
AcDbEntity
  8
__
  6
STYLE_01
 62
     4
100
AcDbLine
 10
40029.83039820239
 20
-2797.99997910019
 30
0.0
 11
40274.83039820238
 21
-2797.99997910019
 31
0.0
  0
LINE
  5
B4
330
22
100
AcDbEntity
  8
__
  6
STYLE_01
 62
     4
100
AcDbLine
 10
40029.83039820239
 20
-3147.99997910019
 30
0.0
 11
40274.83039820238
 21
-3148.000005801742
 31
0.0
  0
POINT
  5
B5
330
22
100
AcDbEntity
  8
__
  6
Continuous
 62
     4
100
AcDbPoint
 10
40029.83039820239
 20
-2797.99997910019
 30
0.0
  0
POINT
  5
B6
330
22
100
AcDbEntity
  8
__
  6
Continuous
 62
     4
100
AcDbPoint
 10
40029.83039820239
 20
-3147.99997910019
 30
0.0
  0
POINT
  5
B7
330
22
100
AcDbEntity
  8
__
  6
Continuous
 62
     4
100
AcDbPoint
 10
40029.83039820239
 20
-2797.99997910019
 30
0.0
  0
LINE
  5
B8
330
22
100
AcDbEntity
  8
__
  6
Continuous
 62
     4
100
AcDbLine
 10
40418.05389113108
 20
-3210.0
 30
0.0
 11
40418.05389113108
 21
-2610.0
 31
0.0
  0
LINE
  5
B9
330
22
100
AcDbEntity
  8
__
  6
Continuous
 62
     4
100
AcDbLine
 10
40663.05389113108
 20
-3210.0
 30
0.0
 11
40663.05389113108
 21
-2610.0
 31
0.0
  0
LINE
  5
BA
330
22
100
AcDbEntity
  8
__
  6
STYLE_01
 62
     4
100
AcDbLine
 10
40418.05389113108
 20
-2610.0
 30
0.0
 11
40663.05389113108
 21
-2610.0
 31
0.0
  0
LINE
  5
BB
330
22
100
AcDbEntity
  8
__
  6
Continuous
 62
     4
100
AcDbLine
 10
40418.05389113108
 20
-3210.0
 30
0.0
 11
40663.05389113108
 21
-3210.0
 31
0.0
  0
LINE
  5
BC
330
22
100
AcDbEntity
  8
__
  6
STYLE_01
 62
     4
100
AcDbLine
 10
40418.05389113108
 20
-3160.0
 30
0.0
 11
40663.05389113108
 21
-3160.0
 31
0.0
  0
POINT
  5
BD
330
22
100
AcDbEntity
  8
__
  6
Continuous
 62
     4
100
AcDbPoint
 10
40525.0
 20
-2610.0
 30
0.0
  0
POINT
  5
BE
330
22
100
AcDbEntity
  8
__
  6
Continuous
 62
     4
100
AcDbPoint
 10
40525.0
 20
-3160.0
 30
0.0
  0
LWPOLYLINE
  5
BF
330
22
100
AcDbEntity
  8
__
  6
Continuous
 62
     4
100
AcDbPolyline
 90
        4
 70
     1
 43
0.0
 10
39305.0
 20
-2510.0
 10
40778.05389113108
 20
-2510.0
 10
40778.05389113108
 20
-3270.0
 10
39305.0
 20
-3270.0
  0
TEXT
  5
C5
330
22
100
AcDbEntity
  8
__
 62
     4
100
AcDbText
 10
39333.99999999999
 20
-2578.388888888889
 30
0.0
 40
33.95486111111111
  1
[4]延長チューブ
  7
________
100
AcDbText
  0
LWPOLYLINE
  5
C6
330
22
100
AcDbEntity
  8
__
  6
Continuous
 62
     4
100
AcDbPolyline
 90
        4
 70
     1
 43
0.0
 10
39305.0
 20
-2510.0
 10
39816.0
 20
-2510.0
 10
39816.0
 20
-2594.0
 10
39305.0
 20
-2594.0
  0
LINE
  5
CC
330
22
100
AcDbEntity
  8
0
  6
Continuous
 62
     4
100
AcDbLine
 10
40948.19660968932
 20
-1714.540000087306
 30
0.0
 11
41192.81369177753
 21
-1714.540000087306
 31
0.0
  0
LINE
  5
CD
330
22
100
AcDbEntity
  8
0
  6
Continuous
 62
     4
100
AcDbLine
 10
40947.86818815886
 20
-1712.000000013228
 30
0.0
 11
40952.18618147455
 21
-1712.0
 31
0.0
  0
LINE
  5
CE
330
22
100
AcDbEntity
  8
0
  6
Continuous
 62
     4
100
AcDbLine
 10
40952.18618147455
 20
-1712.0
 30
0.0
 11
41191.0
 21
-1712.0
 31
0.0
  0
LINE
  5
CF
330
22
100
AcDbEntity
  8
__
  6
Continuous
 62
     4
100
AcDbLine
 10
41262.16455294311
 20
-1712.000000013228
 30
0.0
 11
41262.14173926531
 21
-1712.000000013228
 31
0.0
  0
LINE
  5
D0
330
22
100
AcDbEntity
  8
0
  6
Continuous
 62
     4
100
AcDbLine
 10
40977.6376236838
 20
-1712.000000013228
 30
0.0
 11
40977.61481000602
 21
-1712.000000013228
 31
0.0
  0
ARC
  5
D1
330
22
100
AcDbEntity
  8
0
  6
Continuous
 62
     4
100
AcDbCircle
 10
40912.21928147455
 20
-1710.41050740144
 30
0.0
 40
4.318000000000348
100
AcDbArc
 50
108.2905946166206
 51
180.0
  0
ARC
  5
D2
330
22
100
AcDbEntity
  8
0
  6
Continuous
 62
     4
100
AcDbCircle
 10
40911.0235640328
 20
-1706.793
 30
0.0
 40
0.5079999999998109
100
AcDbArc
 50
90.0
 51
108.2905946164049
  0
LINE
  5
D3
330
22
100
AcDbEntity
  8
0
  6
Continuous
 62
     4
100
AcDbLine
 10
40911.0235640328
 20
-1706.285
 30
0.0
 11
40911.71128147455
 21
-1706.285
 31
0.0
  0
LINE
  5
D4
330
22
100
AcDbEntity
  8
0
  6
Continuous
 62
     4
100
AcDbLine
 10
40911.71128147455
 20
-1711.746
 30
0.0
 11
40911.71128147455
 21
-1706.285
 31
0.0
  0
ARC
  5
D5
330
22
100
AcDbEntity
  8
0
  6
Continuous
 62
     4
100
AcDbCircle
 10
40911.96528147455
 20
-1711.746
 30
0.0
 40
0.2540000000008149
100
AcDbArc
 50
180.0
 51
270.0
  0
LINE
  5
D6
330
22
100
AcDbEntity
  8
0
  6
Continuous
 62
     4
100
AcDbLine
 10
40945.86169482449
 20
-1712.000000013228
 30
0.0
 11
40911.96528147455
 21
-1712.0
 31
0.0
  0
LINE
  5
D7
330
22
100
AcDbEntity
  8
0
  6
Continuous
 62
     4
100
AcDbLine
 10
40949.83667625605
 20
-1712.000000013228
 30
0.0
 11
40945.86169482449
 21
-1712.000000013228
 31
0.0
  0
LINE
  5
D8
330
22
100
AcDbEntity
  8
0
  6
Continuous
 62
     4
100
AcDbLine
 10
40948.23789630487
 20
-1715.809999999999
 30
0.0
 11
40948.17138382667
 21
-1712.000000013228
 31
0.0
  0
LINE
  5
D9
330
22
100
AcDbEntity
  8
0
  6
Continuous
 62
     4
100
AcDbLine
 10
40954.32602359473
 20
-1714.540000087306
 30
0.0
 11
40950.13062244431
 21
-1714.54
 31
0.0
  0
LINE
  5
DA
330
22
100
AcDbEntity
  8
0
  6
Continuous
 62
     4
100
AcDbLine
 10
40912.21928147455
 20
-1715.809999999999
 30
0.0
 11
40951.99806888643
 21
-1715.809999999999
 31
0.0
  0
ARC
  5
DB
330
22
100
AcDbEntity
  8
0
  6
Continuous
 62
     4
100
AcDbCircle
 10
40912.21928147455
 20
-1711.491999999999
 30
0.0
 40
4.31800000000112
100
AcDbArc
 50
180.0
 51
270.0
  0
LINE
  5
DC
330
22
100
AcDbEntity
  8
0
  6
Continuous
 62
     4
100
AcDbLine
 10
40907.90128147456
 20
-1710.41050740144
 30
0.0
 11
40907.90128147456
 21
-1711.491999999999
 31
0.0
  0
LINE
  5
DD
330
22
100
AcDbEntity
  8
0
  6
Continuous
 62
     4
100
AcDbLine
 10
41232.90128147456
 20
-1711.491999999999
 30
0.0
 11
41232.90128147456
 21
-1710.41050740144
 31
0.0
  0
ARC
  5
DE
330
22
100
AcDbEntity
  8
0
  6
Continuous
 62
     4
100
AcDbCircle
 10
41228.58328147455
 20
-1711.491999999999
 30
0.0
 40
4.318000000000211
100
AcDbArc
 50
270.0
 51
0.0
  0
LINE
  5
DF
330
22
100
AcDbEntity
  8
0
  6
Continuous
 62
     4
100
AcDbLine
 10
41229.09128147456
 20
-1706.285
 30
0.0
 11
41229.09128147456
 21
-1711.746
 31
0.0
  0
LINE
  5
E0
330
22
100
AcDbEntity
  8
0
  6
Continuous
 62
     4
100
AcDbLine
 10
40948.94872155065
 20
-1715.809999999999
 30
0.0
 11
41193.94872155065
 21
-1715.809999999999
 31
0.0
  0
LINE
  5
E1
330
22
100
AcDbEntity
  8
0
  6
Continuous
 62
     4
100
AcDbLine
 10
41192.8582042684
 20
-1711.990214028657
 30
0.0
 11
41192.7916917902
 21
-1715.800214015428
 31
0.0
  0
ARC
  5
E2
330
22
100
AcDbEntity
  8
0
  6
Continuous
 62
     4
100
AcDbCircle
 10
41229.77899891631
 20
-1706.793
 30
0.0
 40
0.5079999999996906
100
AcDbArc
 50
71.70940538359513
 51
90.0
  0
ARC
  5
E3
330
22
100
AcDbEntity
  8
0
  6
Continuous
 62
     4
100
AcDbCircle
 10
41228.58328147455
 20
-1710.41050740144
 30
0.0
 40
4.31800000000112
100
AcDbArc
 50
0.0
 51
71.70940538337942
  0
ARC
  5
E4
330
22
100
AcDbEntity
  8
0
  6
Continuous
 62
     4
100
AcDbCircle
 10
41228.83728147455
 20
-1711.746
 30
0.0
 40
0.2539999999999054
100
AcDbArc
 50
270.0
 51
0.0
  0
LINE
  5
E5
102
{ACAD_REACTORS
330
1D02
102
}
330
22
100
AcDbEntity
  8
0
  6
Continuous
 62
     4
100
AcDbLine
 10
41229.09128147456
 20
-1706.285
 30
0.0
 11
41229.77899891631
 21
-1706.285
 31
0.0
  0
LINE
  5
E6
102
{ACAD_REACTORS
330
1D02
102
}
330
22
100
AcDbEntity
  8
0
  6
Continuous
 62
     4
100
AcDbLine
 10
41190.89937421485
 20
-1715.809999999999
 30
0.0
 11
41228.58328147455
 21
-1715.809999999999
 31
0.0
  0
LINE
  5
E7
330
22
100
AcDbEntity
  8
0
  6
Continuous
 62
     4
100
AcDbLine
 10
41228.83701852543
 20
-1712.0
 30
0.0
 11
41190.96588669304
 21
-1712.00000001478
 31
0.0
  0
POINT
  5
E8
330
22
100
AcDbEntity
  8
__
  6
Continuous
 62
     4
100
AcDbPoint
 10
40911.71128147455
 20
-1711.746
 30
0.0
  0
LWPOLYLINE
  5
E9
330
22
100
AcDbEntity
  8
__
  6
Continuous
 62
     4
100
AcDbPolyline
 90
        4
 70
     1
 43
0.0
 10
40780.0
 20
-1496.0
 10
41430.0
 20
-1496.0
 10
41430.0
 20
-1910.0
 10
40780.0
 20
-1910.0
  0
TEXT
  5
EF
330
22
100
AcDbEntity
  8
__
 62
     4
100
AcDbText
 10
40805.96055878532
 20
-1562.410151539963
 30
0.0
 40
33.75940973928035
  1
[6]散光カバー
  7
________
100
AcDbText
  0
LWPOLYLINE
  5
F0
330
22
100
AcDbEntity
  8
__
  6
Continuous
 62
     4
100
AcDbPolyline
 90
        4
 70
     1
 43
0.0
 10
40780.0
 20
-1496.0
 10
41145.0
 20
-1496.0
 10
41145.0
 20
-1578.0
 10
40780.0
 20
-1578.0
  0
LWPOLYLINE
  5
F6
330
22
100
AcDbEntity
  8
__
  6
Continuous
 62
     4
100
AcDbPolyline
 90
        4
 70
     1
 43
0.0
 10
40027.0
 20
-1500.0
 10
40638.0
 20
-1500.0
 10
40638.0
 20
-1910.0
 10
40027.0
 20
-1910.0
  0
TEXT
  5
FC
330
22
100
AcDbEntity
  8
__
 62
     4
100
AcDbText
 10
40062.0
 20
-1565.694444444444
 30
0.0
 40
33.95486111111111
  1
[1]レイベンダードーム
  7
________
100
AcDbText
  0
LWPOLYLINE
  5
FD
330
22
100
AcDbEntity
  8
__
  6
Continuous
 62
     4
100
AcDbPolyline
 90
        4
 70
     1
 43
0.0
 10
40027.0
 20
-1500.0
 10
40638.0
 20
-1500.0
 10
40638.0
 20
-1579.0
 10
40027.0
 20
-1579.0
  0
TEXT
  5
103
330
22
100
AcDbEntity
  8
__
 62
     4
100
AcDbText
 10
39500.34722222222
 20
-3935.63888888889
 30
0.0
 40
27.14735243055556
  1
角度0°の場合
  7
_______
100
AcDbText
  0
TEXT
  5
105
330
22
100
AcDbEntity
  8
__
 62
     4
100
AcDbText
 10
40126.52777777778
 20
-3945.277777777778
 30
0.0
 40
27.14735243055556
  1
角度15°の場合
  7
_______
100
AcDbText
  0
TEXT
  5
106
330
22
100
AcDbEntity
  8
__
 62
     4
100
AcDbText
 10
40851.43915423699
 20
-3945.277777777778
 30
0.0
 40
27.14735243055556
  1
角度30°の場合
  7
_______
100
AcDbText
  0
LINE
  5
107
330
22
100
AcDbEntity
  8
__
  6
STYLE_07
 62
     4
100
AcDbLine
 10
40261.48694790644
 20
-3876.200000145468
 30
0.0
 11
40261.48694790644
 21
-3738.32743112516
 31
0.0
  0
TEXT
  5
108
330
22
100
AcDbEntity
  8
__
 62
     4
100
AcDbText
 10
39460.10122368721
 20
-3734.205520556181
 30
0.0
 40
24.4326171875
  1
回転自在接続0°～ 30°
 50
15.05626171313716
  7
_______
100
AcDbText
  0
LWPOLYLINE
  5
109
330
22
100
AcDbEntity
  8
__
  6
Continuous
 62
     4
100
AcDbPolyline
 90
        4
 70
     1
 43
0.0
 10
39451.85360832131
 20
-3708.409389593978
 10
39776.92581474693
 20
-3620.964340988898
 10
39785.23837196609
 20
-3651.865819796199
 10
39460.16616554048
 20
-3739.310868401279
  0
LINE
  5
10F
330
22
100
AcDbEntity
  8
__
  6
STYLE_07
 62
     4
100
AcDbLine
 10
39611.6012236872
 20
-3887.999999924916
 30
0.0
 11
39611.6012236872
 21
-3416.999999924916
 31
0.0
  0
LINE
  5
110
330
22
100
AcDbEntity
  8
0
  6
Continuous
 62
     4
100
AcDbLine
 10
39489.10122368721
 20
-3845.0
 30
0.0
 11
39734.10122368721
 21
-3845.0
 31
0.0
  0
LINE
  5
111
330
22
100
AcDbEntity
  8
0
  6
Continuous
 62
     4
100
AcDbLine
 10
39734.10122368721
 20
-3845.0
 30
0.0
 11
39734.10122368721
 21
-3547.540025160468
 31
0.0
  0
LINE
  5
112
330
22
100
AcDbEntity
  8
0
  6
Continuous
 62
     4
100
AcDbLine
 10
39734.10122368721
 20
-3545.0
 30
0.0
 11
39734.10122368721
 21
-3544.999999924916
 31
0.0
  0
LINE
  5
113
330
22
100
AcDbEntity
  8
0
  6
Continuous
 62
     4
100
AcDbLine
 10
39489.10122368721
 20
-3845.0
 30
0.0
 11
39489.10122368721
 21
-3547.540025160468
 31
0.0
  0
LINE
  5
114
330
22
100
AcDbEntity
  8
0
  6
Continuous
 62
     4
100
AcDbLine
 10
39733.7202307978
 20
-3544.999999854533
 30
0.0
 11
39734.10122368721
 21
-3544.999999924916
 31
0.0
  0
LINE
  5
115
330
22
100
AcDbEntity
  8
0
  6
Continuous
 62
     4
100
AcDbLine
 10
39489.10122368721
 20
-3545.0
 30
0.0
 11
39734.10122368721
 21
-3545.0
 31
0.0
  0
LINE
  5
116
330
22
100
AcDbEntity
  8
0
  6
Continuous
 62
     4
100
AcDbLine
 10
39734.10122368721
 20
-3692.909985528407
 30
0.0
 11
39489.7908821956
 21
-3758.40199799875
 31
0.0
  0
LINE
  5
117
330
22
100
AcDbEntity
  8
0
  6
Continuous
 62
     4
100
AcDbLine
 10
39734.10122368721
 20
-3685.909710481151
 30
0.0
 11
39488.98747282988
 21
-3751.617092042616
 31
0.0
  0
LINE
  5
118
330
22
100
AcDbEntity
  8
0
  6
Continuous
 62
     4
100
AcDbLine
 10
39734.10122368721
 20
-3689.399999924916
 30
0.0
 11
39489.38804726578
 21
-3754.999999924916
 31
0.0
  0
LWPOLYLINE
  5
119
330
22
100
AcDbEntity
  8
__
  6
Continuous
 62
     7
100
AcDbPolyline
 90
       12
 70
     1
 43
0.0
 10
39475.68508933667
 20
-3547.540025160468
 10
39475.68508933667
 20
-3578.838853201065
 10
39460.13152438736
 20
-3578.838853201065
 10
39460.13152438736
 20
-3564.838853201064
 10
39467.64753874295
 20
-3564.838853201064
 10
39467.64753874295
 20
-3576.298827965512
 10
39473.18508933666
 20
-3576.298827965512
 10
39473.18508933666
 20
-3544.999999924916
 10
39492.35242753308
 20
-3544.999999924916
 10
39492.35242753308
 20
-3573.624120917424
 10
39489.10122368721
 20
-3573.624120917424
 10
39489.10122368721
 20
-3547.540025160468
  0
LWPOLYLINE
  5
127
330
22
100
AcDbEntity
  8
__
  6
Continuous
 62
     7
100
AcDbPolyline
 90
       12
 70
     1
 43
0.0
 10
39747.51735803774
 20
-3547.540025160468
 10
39747.51735803774
 20
-3578.838853201065
 10
39763.07092298704
 20
-3578.838853201065
 10
39763.07092298704
 20
-3564.838853201064
 10
39755.55490863144
 20
-3564.838853201064
 10
39755.55490863144
 20
-3576.298827965512
 10
39750.01735803774
 20
-3576.298827965512
 10
39750.01735803774
 20
-3544.999999924916
 10
39730.85001984133
 20
-3544.999999924916
 10
39730.85001984133
 20
-3573.624120917424
 10
39734.10122368721
 20
-3573.624120917424
 10
39734.10122368721
 20
-3547.540025160468
  0
LINE
  5
135
330
22
100
AcDbEntity
  8
0
  6
STYLE_01
 62
     4
100
AcDbLine
 10
39489.10122368721
 20
-3795.0
 30
0.0
 11
39734.10122368721
 21
-3795.0
 31
0.0
  0
POINT
  5
136
330
22
100
AcDbEntity
  8
__
  6
Continuous
 62
     4
100
AcDbPoint
 10
39473.18508933666
 20
-3544.999999924916
 30
0.0
  0
POINT
  5
137
330
22
100
AcDbEntity
  8
__
  6
Continuous
 62
     4
100
AcDbPoint
 10
39482.39315651194
 20
-3547.540025160468
 30
0.0
  0
POINT
  5
138
330
22
100
AcDbEntity
  8
__
  6
Continuous
 62
     4
100
AcDbPoint
 10
39489.10122368721
 20
-3795.0
 30
0.0
  0
LWPOLYLINE
  5
139
330
22
100
AcDbEntity
  8
__
  6
Continuous
 62
     4
100
AcDbPolyline
 90
        4
 70
     1
 43
0.0
 10
39877.0
 20
-1952.0
 10
41430.0
 20
-1952.0
 10
41430.0
 20
-2462.0
 10
39877.0
 20
-2462.0
  0
TEXT
  5
13F
330
22
100
AcDbEntity
  8
__
 62
     4
100
AcDbText
 10
39912.0
 20
-2020.888888888889
 30
0.0
 40
33.95486111111111
  1
[2]ルーフベース
  7
________
100
AcDbText
  0
LWPOLYLINE
  5
140
330
22
100
AcDbEntity
  8
__
  6
Continuous
 62
     4
100
AcDbPolyline
 90
        4
 70
     1
 43
0.0
 10
39877.0
 20
-1952.0
 10
40286.0
 20
-1952.0
 10
40286.0
 20
-2026.388888888889
 10
39877.0
 20
-2026.388888888889
  0
LINE
  5
146
330
22
100
AcDbEntity
  8
0
  6
Continuous
 62
     4
100
AcDbLine
 10
40057.69313282526
 20
-2194.105914950393
 30
0.0
 11
40057.69314390358
 21
-2177.425809311875
 31
0.0
  0
LINE
  5
147
330
22
100
AcDbEntity
  8
0
  6
Continuous
 62
     4
100
AcDbLine
 10
40056.98193861774
 20
-2185.292336869248
 30
0.0
 11
40056.98193282526
 21
-2177.425811856468
 31
0.0
  0
LINE
  5
148
330
22
100
AcDbEntity
  8
0
  6
Continuous
 62
     4
100
AcDbLine
 10
40056.98193282526
 20
-2194.105914950393
 30
0.0
 11
40056.98193625162
 21
-2185.0
 31
0.0
  0
LINE
  5
149
330
22
100
AcDbEntity
  8
0
  6
Continuous
 62
     4
100
AcDbLine
 10
39910.825
 20
-2324.458714950393
 30
0.0
 11
40021.31883368114
 21
-2324.458714950393
 31
0.0
  0
ARC
  5
14A
330
22
100
AcDbEntity
  8
0
  6
Continuous
 62
     4
100
AcDbCircle
 10
40021.31883368114
 20
-2311.758714950393
 30
0.0
 40
12.69999999999982
100
AcDbArc
 50
270.0
 51
349.0532309543791
  0
LINE
  5
14B
330
22
100
AcDbEntity
  8
0
  6
Continuous
 62
     4
100
AcDbLine
 10
40033.78774488639
 20
-2314.170405924648
 30
0.0
 11
40056.9542021699
 21
-2194.395317867304
 31
0.0
  0
ARC
  5
14C
330
22
100
AcDbEntity
  8
0
  6
Continuous
 62
     4
100
AcDbCircle
 10
40055.45793282526
 20
-2194.105914950393
 30
0.0
 40
1.524000000000908
100
AcDbArc
 50
349.0532309543916
 51
0.0
  0
ARC
  5
14D
330
22
100
AcDbEntity
  8
0
  6
Continuous
 62
     4
100
AcDbCircle
 10
40055.45793282526
 20
-2194.105914950393
 30
0.0
 40
2.235200000000963
100
AcDbArc
 50
349.0532309543913
 51
0.0
  0
LINE
  5
14E
330
22
100
AcDbEntity
  8
0
  6
Continuous
 62
     4
100
AcDbLine
 10
40034.48600391388
 20
-2314.305460619206
 30
0.0
 11
40057.65246119739
 21
-2194.530372561862
 31
0.0
  0
ARC
  5
14F
330
22
100
AcDbEntity
  8
0
  6
Continuous
 62
     4
100
AcDbCircle
 10
40021.31883368114
 20
-2311.758714950393
 30
0.0
 40
13.41120000000001
100
AcDbArc
 50
270.0
 51
349.053230954385
  0
LINE
  5
150
330
22
100
AcDbEntity
  8
0
  6
Continuous
 62
     4
100
AcDbLine
 10
39910.825
 20
-2325.169914950393
 30
0.0
 11
40021.31883368114
 21
-2325.169914950393
 31
0.0
  0
LINE
  5
151
330
22
100
AcDbEntity
  8
0
  6
Continuous
 62
     4
100
AcDbLine
 10
40060.79193282526
 20
-2172.769914950393
 30
0.0
 11
40060.79193282526
 21
-2173.498081478757
 31
0.0
  0
ARC
  5
152
330
22
100
AcDbEntity
  8
0
  6
Continuous
 62
     4
100
AcDbCircle
 10
40061.73173282527
 20
-2177.425811856468
 30
0.0
 40
4.038599999999906
100
AcDbArc
 50
103.4563436937374
 51
180.0
  0
ARC
  5
153
330
22
100
AcDbEntity
  8
0
  6
Continuous
 62
     4
100
AcDbCircle
 10
40061.73173282527
 20
-2177.425811856468
 30
0.0
 40
4.749800000000099
100
AcDbArc
 50
101.4119017438145
 51
180.0
  0
LINE
  5
155
330
22
100
AcDbEntity
  8
__
  6
Continuous
 62
     4
100
AcDbLine
 10
39910.825
 20
-2324.458714950393
 30
0.0
 11
39910.825
 21
-2325.169914950393
 31
0.0
  0
LINE
  5
156
330
22
100
AcDbEntity
  8
0
  6
Continuous
 62
     4
100
AcDbLine
 10
40322.30686717579
 20
-2194.105914950393
 30
0.0
 11
40322.30685609747
 21
-2177.425809311875
 31
0.0
  0
LINE
  5
157
330
22
100
AcDbEntity
  8
0
  6
Continuous
 62
     4
100
AcDbLine
 10
40323.01806138332
 20
-2185.292336869248
 30
0.0
 11
40323.0180671758
 21
-2177.425811856468
 31
0.0
  0
LINE
  5
158
330
22
100
AcDbEntity
  8
0
  6
Continuous
 62
     4
100
AcDbLine
 10
40323.0180671758
 20
-2194.105914950393
 30
0.0
 11
40323.01806374944
 21
-2185.0
 31
0.0
  0
LINE
  5
159
330
22
100
AcDbEntity
  8
0
  6
Continuous
 62
     4
100
AcDbLine
 10
40469.175
 20
-2324.458714950393
 30
0.0
 11
40358.68116631993
 21
-2324.458714950393
 31
0.0
  0
ARC
  5
15A
330
22
100
AcDbEntity
  8
0
  6
Continuous
 62
     4
100
AcDbCircle
 10
40358.68116631993
 20
-2311.758714950393
 30
0.0
 40
12.69999999999884
100
AcDbArc
 50
190.9467690456209
 51
270.0
  0
LINE
  5
15B
330
22
100
AcDbEntity
  8
0
  6
Continuous
 62
     4
100
AcDbLine
 10
40346.21225511467
 20
-2314.170405924648
 30
0.0
 11
40323.04579783117
 21
-2194.395317867304
 31
0.0
  0
ARC
  5
15C
330
22
100
AcDbEntity
  8
0
  6
Continuous
 62
     4
100
AcDbCircle
 10
40324.5420671758
 20
-2194.105914950393
 30
0.0
 40
1.524000000001251
100
AcDbArc
 50
180.0
 51
190.9467690456084
  0
ARC
  5
15D
330
22
100
AcDbEntity
  8
0
  6
Continuous
 62
     4
100
AcDbCircle
 10
40324.5420671758
 20
-2194.105914950393
 30
0.0
 40
2.235200000000986
100
AcDbArc
 50
180.0
 51
190.9467690456087
  0
LINE
  5
15E
330
22
100
AcDbEntity
  8
0
  6
Continuous
 62
     4
100
AcDbLine
 10
40345.51399608717
 20
-2314.305460619206
 30
0.0
 11
40322.34753880367
 21
-2194.530372561862
 31
0.0
  0
ARC
  5
15F
330
22
100
AcDbEntity
  8
0
  6
Continuous
 62
     4
100
AcDbCircle
 10
40358.68116631993
 20
-2311.758714950393
 30
0.0
 40
13.41120000000051
100
AcDbArc
 50
190.946769045615
 51
270.0
  0
LINE
  5
160
330
22
100
AcDbEntity
  8
0
  6
Continuous
 62
     4
100
AcDbLine
 10
40469.175
 20
-2325.169914950393
 30
0.0
 11
40358.68116631993
 21
-2325.169914950393
 31
0.0
  0
LINE
  5
161
330
22
100
AcDbEntity
  8
0
  6
Continuous
 62
     4
100
AcDbLine
 10
40319.2080671758
 20
-2172.769914950393
 30
0.0
 11
40319.2080671758
 21
-2173.498081478757
 31
0.0
  0
ARC
  5
162
330
22
100
AcDbEntity
  8
0
  6
Continuous
 62
     4
100
AcDbCircle
 10
40318.2682671758
 20
-2177.425811856468
 30
0.0
 40
4.03859999999986
100
AcDbArc
 50
0.0
 51
76.54365630626251
  0
ARC
  5
163
330
22
100
AcDbEntity
  8
0
  6
Continuous
 62
     4
100
AcDbCircle
 10
40318.2682671758
 20
-2177.425811856468
 30
0.0
 40
4.749799999999595
100
AcDbArc
 50
0.0
 51
78.5880982561855
  0
LINE
  5
164
330
22
100
AcDbEntity
  8
__
  6
Continuous
 62
     4
100
AcDbLine
 10
40469.175
 20
-2324.458714950393
 30
0.0
 11
40469.175
 21
-2325.169914950393
 31
0.0
  0
LINE
  5
165
330
22
100
AcDbEntity
  8
__
  6
STYLE_01
 62
     4
100
AcDbLine
 10
40060.79193282526
 20
-2172.769914950393
 30
0.0
 11
40319.20806717473
 21
-2172.769914950393
 31
0.0
  0
POINT
  5
166
330
22
100
AcDbEntity
  8
__
  6
Continuous
 62
     4
100
AcDbPoint
 10
40060.79193282526
 20
-2172.769914950393
 30
0.0
  0
LINE
  5
167
330
22
100
AcDbEntity
  8
__
  6
STYLE_07
 62
     4
100
AcDbLine
 10
40190.0
 20
-2150.0
 30
0.0
 11
40190.0
 21
-2444.0
 31
0.0
  0
LINE
  5
168
330
22
100
AcDbEntity
  8
0
  6
Continuous
 62
     4
100
AcDbLine
 10
40138.98694790644
 20
-3835.000000145468
 30
0.0
 11
40383.98694790644
 21
-3835.000000145468
 31
0.0
  0
LINE
  5
169
330
22
100
AcDbEntity
  8
0
  6
Continuous
 62
     4
100
AcDbLine
 10
40383.98694790644
 20
-3835.000000145468
 30
0.0
 11
40383.98694790644
 21
-3722.200000145468
 31
0.0
  0
LINE
  5
16A
330
22
100
AcDbEntity
  8
0
  6
Continuous
 62
     4
100
AcDbLine
 10
40138.98694790644
 20
-3754.454862104833
 30
0.0
 11
40093.62062762083
 21
-3585.145450119421
 31
0.0
  0
LINE
  5
16B
330
22
100
AcDbEntity
  8
0
  6
Continuous
 62
     4
100
AcDbLine
 10
40092.96322075155
 20
-3582.691974285987
 30
0.0
 11
40092.96322073212
 21
-3582.691974213461
 31
0.0
  0
LINE
  5
16C
330
22
100
AcDbEntity
  8
0
  6
Continuous
 62
     4
100
AcDbLine
 10
40138.98694790644
 20
-3835.000000145468
 30
0.0
 11
40138.98694790644
 21
-3754.454862104833
 31
0.0
  0
LINE
  5
16D
330
22
100
AcDbEntity
  8
0
  6
Continuous
 62
     4
100
AcDbLine
 10
40383.98694790644
 20
-3722.200000145468
 30
0.0
 11
40333.64596342516
 21
-3534.324888661357
 31
0.0
  0
LINE
  5
16E
330
22
100
AcDbEntity
  8
0
  6
Continuous
 62
     4
100
AcDbLine
 10
40329.61504816984
 20
-3519.281308151764
 30
0.0
 11
40329.61504814738
 21
-3519.281308067911
 31
0.0
  0
LINE
  5
16F
330
22
100
AcDbEntity
  8
0
  6
Continuous
 62
     4
100
AcDbLine
 10
40093.33123158538
 20
-3582.593365929501
 30
0.0
 11
40092.96322073212
 21
-3582.691974213461
 31
0.0
  0
LINE
  5
170
330
22
100
AcDbEntity
  8
0
  6
Continuous
 62
     4
100
AcDbLine
 10
40329.61504816681
 20
-3519.281308140437
 30
0.0
 11
40092.96322075155
 21
-3582.691974285987
 31
0.0
  0
LINE
  5
171
330
22
100
AcDbEntity
  8
0
  6
Continuous
 62
     4
100
AcDbLine
 10
40383.52841408835
 20
-3725.679906131896
 30
0.0
 11
40138.98694790644
 21
-3757.874400968808
 31
0.0
  0
LINE
  5
172
330
22
100
AcDbEntity
  8
0
  6
Continuous
 62
     4
100
AcDbLine
 10
40138.10687250225
 20
-3751.170375987167
 30
0.0
 11
40382.65091173039
 21
-3718.975542402291
 31
0.0
  0
LINE
  5
173
330
22
100
AcDbEntity
  8
0
  6
Continuous
 62
     4
100
AcDbLine
 10
40138.98694790644
 20
-3754.454862104854
 30
0.0
 11
40383.98694790644
 21
-3722.200000145468
 31
0.0
  0
POINT
  5
174
330
22
100
AcDbEntity
  8
__
  6
Continuous
 62
     4
100
AcDbPoint
 10
40329.61504816681
 20
-3519.281308140437
 30
0.0
  0
LINE
  5
175
330
22
100
AcDbEntity
  8
0
  6
STYLE_01
 62
     4
100
AcDbLine
 10
40138.98694790644
 20
-3785.000000145468
 30
0.0
 11
40383.98694790644
 21
-3785.000000145468
 31
0.0
  0
LWPOLYLINE
  5
176
330
22
100
AcDbEntity
  8
__
  6
Continuous
 62
     7
100
AcDbPolyline
 90
       12
 70
     1
 43
0.0
 10
40080.66163696995
 20
-3588.617801195724
 10
40088.76236974901
 20
-3618.850147534654
 10
40073.73877967265
 20
-3622.875706359177
 10
40070.11531304445
 20
-3609.352744790263
 10
40077.37522542174
 20
-3607.407457133509
 10
40080.34128514453
 20
-3618.476942727819
 10
40085.69014827771
 20
-3617.043719172229
 10
40077.58941549866
 20
-3586.811372833299
 10
40096.10364248498
 20
-3581.850500668578
 10
40103.51211014054
 20
-3609.499278391837
 10
40100.37168837907
 20
-3610.340751865909
 10
40093.62062762892
 20
-3585.145450117253
  0
LWPOLYLINE
  5
184
330
22
100
AcDbEntity
  8
__
  6
Continuous
 62
     7
100
AcDbPolyline
 90
       12
 70
     1
 43
0.0
 10
40343.23144574391
 20
-3518.262433045306
 10
40351.33217852297
 20
-3548.494779384236
 10
40366.35576859932
 20
-3544.469220559714
 10
40362.73230197112
 20
-3530.9462589908
 10
40355.47238959384
 20
-3532.891546647555
 10
40358.43844931661
 20
-3543.961032241865
 10
40353.08958618343
 20
-3545.394255797455
 10
40344.98885340437
 20
-3515.161909458524
 10
40326.47462641805
 20
-3520.122781623245
 10
40333.88309407361
 20
-3547.771559346505
 10
40337.02351583507
 20
-3546.930085872433
 10
40330.27245508493
 20
-3521.734784123777
  0
LINE
  5
192
330
22
100
AcDbEntity
  8
__
  6
STYLE_07
 62
     4
100
AcDbLine
 10
40261.48694790644
 20
-3738.32743112516
 30
0.0
 11
40202.23603125558
 21
-3517.200000145467
 31
0.0
  0
POINT
  5
193
330
22
100
AcDbEntity
  8
__
  6
Continuous
 62
     4
100
AcDbPoint
 10
40077.58941549866
 20
-3586.811372833299
 30
0.0
  0
POINT
  5
194
330
22
100
AcDbEntity
  8
__
  6
Continuous
 62
     4
100
AcDbPoint
 10
40087.14113229943
 20
-3586.881625656488
 30
0.0
  0
POINT
  5
195
330
22
100
AcDbEntity
  8
__
  6
Continuous
 62
     4
100
AcDbPoint
 10
40138.98694790644
 20
-3785.000000145468
 30
0.0
  0
LINE
  5
196
330
22
100
AcDbEntity
  8
0
  6
Continuous
 62
     4
100
AcDbLine
 10
40977.92090908866
 20
-3507.491551476281
 30
0.0
 11
40977.92090904831
 21
-3507.491551406431
 31
0.0
  0
LINE
  5
197
330
22
100
AcDbEntity
  8
0
  6
Continuous
 62
     4
100
AcDbLine
 10
40977.92090908586
 20
-3507.491551471448
 30
0.0
 11
40765.77206081755
 21
-3630.038955272701
 31
0.0
  0
POINT
  5
198
330
22
100
AcDbEntity
  8
__
  6
Continuous
 62
     4
100
AcDbPoint
 10
40977.92090908586
 20
-3507.491551471448
 30
0.0
  0
LINE
  5
199
330
22
100
AcDbEntity
  8
__
  6
STYLE_07
 62
     4
100
AcDbLine
 10
40960.49999999999
 20
-3874.200000145467
 30
0.0
 11
40960.49999999999
 21
-3722.238444390749
 31
0.0
  0
LWPOLYLINE
  5
19A
330
22
100
AcDbEntity
  8
__
  6
Continuous
 62
     7
100
AcDbPolyline
 90
       12
 70
     1
 43
0.0
 10
40990.80906079052
 20
-3502.980080610959
 10
41006.46453066091
 20
-3530.082163554013
 10
41019.93257511194
 20
-3522.302371699665
 10
41012.92986632358
 20
-3510.179580369885
 10
41006.42164677612
 20
-3513.939041782844
 10
41012.15385149021
 20
-3523.862390548123
 10
41007.35881075268
 20
-3526.632237277308
 10
40991.70334088229
 20
-3499.530154334253
 10
40975.10608078926
 20
-3509.117532022651
 10
40989.42367962022
 20
-3533.903549579116
 10
40992.23894146266
 20
-3532.277318597382
 10
40979.19184670597
 20
-3509.690743605415
  0
LINE
  5
1A8
330
22
100
AcDbEntity
  8
0
  6
Continuous
 62
     4
100
AcDbLine
 10
40838.0
 20
-3835.000000145468
 30
0.0
 11
41083.0
 21
-3835.000000145468
 31
0.0
  0
LINE
  5
1A9
330
22
100
AcDbEntity
  8
0
  6
Continuous
 62
     4
100
AcDbLine
 10
41083.0
 20
-3835.000000145468
 30
0.0
 11
41083.0
 21
-3689.400000145467
 31
0.0
  0
LINE
  5
1AA
330
22
100
AcDbEntity
  8
0
  6
Continuous
 62
     4
100
AcDbLine
 10
40838.0
 20
-3755.07688863603
 30
0.0
 11
40767.04256489184
 21
-3632.238397837139
 31
0.0
  0
LINE
  5
1AB
330
22
100
AcDbEntity
  8
0
  6
Continuous
 62
     4
100
AcDbLine
 10
40765.77206081755
 20
-3630.038955272701
 30
0.0
 11
40765.77206078
 21
-3630.038955207684
 31
0.0
  0
LINE
  5
1AC
330
22
100
AcDbEntity
  8
0
  6
Continuous
 62
     4
100
AcDbLine
 10
40838.0
 20
-3835.000000145468
 30
0.0
 11
40838.0
 21
-3755.076888636029
 31
0.0
  0
LINE
  5
1AD
330
22
100
AcDbEntity
  8
0
  6
Continuous
 62
     4
100
AcDbLine
 10
41083.0
 20
-3689.400000145467
 30
0.0
 11
40992.23850792019
 21
-3532.277569032419
 31
0.0
  0
LINE
  5
1AE
330
22
100
AcDbEntity
  8
0
  6
Continuous
 62
     4
100
AcDbLine
 10
40766.10196769452
 20
-3629.848384985664
 30
0.0
 11
40765.77206078
 21
-3630.038955207684
 31
0.0
  0
LINE
  5
1AF
330
22
100
AcDbEntity
  8
0
  6
Continuous
 62
     4
100
AcDbLine
 10
41083.0
 20
-3692.909985748958
 30
0.0
 11
40838.0
 21
-3758.586874239521
 31
0.0
  0
LINE
  5
1B0
330
22
100
AcDbEntity
  8
0
  6
Continuous
 62
     4
100
AcDbLine
 10
40836.2541799598
 20
-3752.054599306978
 30
0.0
 11
41081.2541799598
 21
-3686.377710816417
 31
0.0
  0
LINE
  5
1B1
330
22
100
AcDbEntity
  8
0
  6
Continuous
 62
     4
100
AcDbLine
 10
40838.0
 20
-3755.07688863603
 30
0.0
 11
41083.0
 21
-3689.400000145467
 31
0.0
  0
LINE
  5
1B2
330
22
100
AcDbEntity
  8
__
  6
STYLE_07
 62
     4
100
AcDbLine
 10
40960.49999999999
 20
-3722.238444390749
 30
0.0
 11
40856.50111380863
 21
-3542.200000145467
 31
0.0
  0
LINE
  5
1B3
330
22
100
AcDbEntity
  8
0
  6
STYLE_01
 62
     4
100
AcDbLine
 10
40838.0
 20
-3785.000000145468
 30
0.0
 11
41083.0
 21
-3785.000000145468
 31
0.0
  0
LWPOLYLINE
  5
1B4
330
22
100
AcDbEntity
  8
__
  6
Continuous
 62
     7
100
AcDbPolyline
 90
       12
 70
     1
 43
0.0
 10
40755.42578435028
 20
-3638.94881039626
 10
40771.08125422067
 20
-3666.050893339314
 10
40757.61320976962
 20
-3673.830685193664
 10
40750.61050098126
 20
-3661.707893863884
 10
40757.11872052872
 20
-3657.948432450928
 10
40762.85092524282
 20
-3667.871781216208
 10
40767.64596598037
 20
-3665.101934487024
 10
40751.99049610998
 20
-3637.99985154397
 10
40768.58775620301
 20
-3628.412473855571
 10
40782.90535503398
 20
-3653.198491412037
 10
40780.09009319154
 20
-3654.82472239377
 10
40767.04299843483
 20
-3632.238147401803
  0
POINT
  5
1C2
330
22
100
AcDbEntity
  8
__
  6
Continuous
 62
     4
100
AcDbPoint
 10
40751.99049610998
 20
-3637.99985154397
 30
0.0
  0
POINT
  5
1C3
330
22
100
AcDbEntity
  8
__
  6
Continuous
 62
     4
100
AcDbPoint
 10
40761.23439139255
 20
-3635.593478899031
 30
0.0
  0
POINT
  5
1C4
330
22
100
AcDbEntity
  8
__
  6
Continuous
 62
     4
100
AcDbPoint
 10
40838.0
 20
-3785.000000145468
 30
0.0
  0
LINE
  5
1C5
330
22
100
AcDbEntity
  8
0
  6
STYLE_01
 62
     4
100
AcDbLine
 10
41857.2024473744
 20
-3535.000000075085
 30
0.0
 11
41612.20244737441
 21
-3535.000000075085
 31
0.0
  0
LINE
  5
1C6
330
22
100
AcDbEntity
  8
0
  6
Continuous
 62
     4
100
AcDbLine
 10
41612.20244737441
 20
-3535.000000075085
 30
0.0
 11
41612.20244737441
 21
-3835.000000075085
 31
0.0
  0
LINE
  5
1C7
330
22
100
AcDbEntity
  8
0
  6
Continuous
 62
     4
100
AcDbLine
 10
41857.2024473744
 20
-3535.000000075085
 30
0.0
 11
41857.2024473744
 21
-3835.000000075085
 31
0.0
  0
LINE
  5
1C8
330
22
100
AcDbEntity
  8
0
  6
Continuous
 62
     4
100
AcDbLine
 10
41612.58344026381
 20
-3835.000000145468
 30
0.0
 11
41612.20244737441
 21
-3835.000000075085
 31
0.0
  0
LINE
  5
1C9
330
22
100
AcDbEntity
  8
0
  6
Continuous
 62
     4
100
AcDbLine
 10
41857.2024473744
 20
-3835.0
 30
0.0
 11
41612.20244737441
 21
-3835.0
 31
0.0
  0
LINE
  5
1CA
330
22
100
AcDbEntity
  8
0
  6
Continuous
 62
     4
100
AcDbLine
 10
41612.20244737441
 20
-3687.090014471593
 30
0.0
 11
41857.2024473744
 21
-3621.413125981031
 31
0.0
  0
LINE
  5
1CB
330
22
100
AcDbEntity
  8
0
  6
Continuous
 62
     4
100
AcDbLine
 10
41612.20244737441
 20
-3694.090289518849
 30
0.0
 11
41857.31619823172
 21
-3628.382907957384
 31
0.0
  0
LINE
  5
1CC
330
22
100
AcDbEntity
  8
0
  6
Continuous
 62
     4
100
AcDbLine
 10
41612.20244737441
 20
-3690.600000075085
 30
0.0
 11
41857.2024473744
 21
-3624.923111584523
 31
0.0
  0
LWPOLYLINE
  5
1CD
330
22
100
AcDbEntity
  8
__
  6
Continuous
 62
     4
100
AcDbPolyline
 90
        4
 70
     1
 43
0.0
 10
41857.2024473744
 20
-3800.557599483662
 10
41863.57449375095
 20
-3800.557599483662
 10
41863.57449375095
 20
-3830.674399470233
 10
41857.2024473744
 20
-3830.674399470233
  0
LINE
  5
1D3
330
22
100
AcDbEntity
  8
__
  6
Continuous
 62
     4
100
AcDbLine
 10
41576.11000845221
 20
-3837.895598295035
 30
0.0
 11
41605.83040099786
 21
-3837.895598295035
 31
0.0
  0
LINE
  5
1D4
330
22
100
AcDbEntity
  8
__
  6
Continuous
 62
     4
100
AcDbLine
 10
41576.11000845221
 20
-3832.205998296392
 30
0.0
 11
41576.11000845221
 21
-3837.895598295035
 31
0.0
  0
LINE
  5
1D5
330
22
100
AcDbEntity
  8
__
  6
Continuous
 62
     4
100
AcDbLine
 10
41594.7024473744
 20
-3832.205998296392
 30
0.0
 11
41576.11000845221
 21
-3832.205998296392
 31
0.0
  0
LINE
  5
1D6
330
22
100
AcDbEntity
  8
__
  6
Continuous
 62
     4
100
AcDbLine
 10
41594.7024473744
 20
-3798.398598304459
 30
0.0
 11
41594.7024473744
 21
-3832.205998296392
 31
0.0
  0
LINE
  5
1D7
330
22
100
AcDbEntity
  8
__
  6
Continuous
 62
     4
100
AcDbLine
 10
41605.83040099786
 20
-3837.895598295035
 30
0.0
 11
41605.83040099786
 21
-3798.398598304459
 31
0.0
  0
LWPOLYLINE
  5
1D8
330
22
100
AcDbEntity
  8
__
  6
Continuous
 62
     4
100
AcDbPolyline
 90
        4
 70
     1
 43
0.0
 10
41605.83040099786
 20
-3800.557598303943
 10
41612.20244737441
 20
-3800.557598303943
 10
41612.20244737441
 20
-3830.674398283329
 10
41605.83040099786
 20
-3830.674398283329
  0
LINE
  5
1DE
330
22
100
AcDbEntity
  8
__
  6
Continuous
 62
     4
100
AcDbLine
 10
41594.7024473744
 20
-3798.398598304459
 30
0.0
 11
41605.83040099786
 21
-3798.398598304459
 31
0.0
  0
LINE
  5
1DF
330
22
100
AcDbEntity
  8
__
  6
Continuous
 62
     4
100
AcDbLine
 10
41893.2948862966
 20
-3837.895598219951
 30
0.0
 11
41863.57449375095
 21
-3837.895598219951
 31
0.0
  0
LINE
  5
1E0
330
22
100
AcDbEntity
  8
__
  6
Continuous
 62
     4
100
AcDbLine
 10
41893.2948862966
 20
-3832.205998221308
 30
0.0
 11
41893.2948862966
 21
-3837.895598219951
 31
0.0
  0
LINE
  5
1E1
330
22
100
AcDbEntity
  8
__
  6
Continuous
 62
     4
100
AcDbLine
 10
41874.70244737441
 20
-3832.205998221308
 30
0.0
 11
41893.2948862966
 21
-3832.205998221308
 31
0.0
  0
LINE
  5
1E2
330
22
100
AcDbEntity
  8
__
  6
Continuous
 62
     4
100
AcDbLine
 10
41874.70244737441
 20
-3798.398598229375
 30
0.0
 11
41874.70244737441
 21
-3832.205998221308
 31
0.0
  0
LINE
  5
1E3
330
22
100
AcDbEntity
  8
__
  6
Continuous
 62
     4
100
AcDbLine
 10
41863.57449375095
 20
-3837.895598219951
 30
0.0
 11
41863.57449375095
 21
-3798.398598229375
 31
0.0
  0
LINE
  5
1E4
330
22
100
AcDbEntity
  8
__
  6
Continuous
 62
     4
100
AcDbLine
 10
41874.70244737441
 20
-3798.398598229375
 30
0.0
 11
41863.57449375095
 21
-3798.398598229375
 31
0.0
  0
POINT
  5
1E5
330
22
100
AcDbEntity
  8
__
  6
Continuous
 62
     4
100
AcDbPoint
 10
41576.49399884681
 20
-3837.895598295035
 30
0.0
  0
LINE
  5
1E6
330
22
100
AcDbEntity
  8
__
  6
STYLE_07
 62
     4
100
AcDbLine
 10
41734.7024473744
 20
-3865.0
 30
0.0
 11
41734.7024473744
 21
-3506.888434618247
 31
0.0
  0
POINT
  5
1E7
330
22
100
AcDbEntity
  8
__
  6
Continuous
 62
     4
100
AcDbPoint
 10
41612.20244737441
 20
-3540.000000075084
 30
0.0
  0
LINE
  5
1E8
330
22
100
AcDbEntity
  8
0
  6
STYLE_01
 62
     4
100
AcDbLine
 10
42264.61292550593
 20
-3579.377344604294
 30
0.0
 11
42501.26475296107
 21
-3515.966678607603
 31
0.0
  0
LINE
  5
1E9
330
22
100
AcDbEntity
  8
0
  6
Continuous
 62
     4
100
AcDbLine
 10
42501.26475296107
 20
-3515.966678607603
 30
0.0
 11
42530.45954122404
 21
-3624.923111819601
 31
0.0
  0
LINE
  5
1EA
330
22
100
AcDbEntity
  8
0
  6
Continuous
 62
     4
100
AcDbLine
 10
42285.4595412037
 20
-3657.177973624467
 30
0.0
 11
42285.45954109189
 21
-3835.000000156052
 31
0.0
  0
LINE
  5
1EB
330
22
100
AcDbEntity
  8
0
  6
Continuous
 62
     4
100
AcDbLine
 10
42264.61292550593
 20
-3579.377344604294
 30
0.0
 11
42285.4595412037
 21
-3657.177973624467
 31
0.0
  0
LINE
  5
1EC
330
22
100
AcDbEntity
  8
0
  6
Continuous
 62
     4
100
AcDbLine
 10
42530.45954122404
 20
-3624.923111819601
 30
0.0
 11
42530.45954109189
 21
-3835.000000310162
 31
0.0
  0
LINE
  5
1ED
330
22
100
AcDbEntity
  8
0
  6
Continuous
 62
     4
100
AcDbLine
 10
42285.8405339813
 20
-3835.000000226674
 30
0.0
 11
42285.45954109189
 21
-3835.000000156052
 31
0.0
  0
LINE
  5
1EE
330
22
100
AcDbEntity
  8
0
  6
Continuous
 62
     4
100
AcDbLine
 10
42530.45954109189
 20
-3835.000000235078
 30
0.0
 11
42285.45954109189
 21
-3835.000000080968
 31
0.0
  0
LINE
  5
1EF
330
22
100
AcDbEntity
  8
0
  6
Continuous
 62
     4
100
AcDbLine
 10
42529.11596562319
 20
-3621.680458038895
 30
0.0
 11
42284.57449942098
 21
-3653.874952721555
 31
0.0
  0
LINE
  5
1F0
330
22
100
AcDbEntity
  8
0
  6
Continuous
 62
     4
100
AcDbLine
 10
42285.45954120156
 20
-3660.578323867341
 30
0.0
 11
42530.00358045001
 21
-3628.383490436717
 31
0.0
  0
LINE
  5
1F1
330
22
100
AcDbEntity
  8
0
  6
Continuous
 62
     4
100
AcDbLine
 10
42285.45954120369
 20
-3657.177973624447
 30
0.0
 11
42530.45954122404
 21
-3624.923111819601
 31
0.0
  0
LWPOLYLINE
  5
1F2
330
22
100
AcDbEntity
  8
__
  6
Continuous
 62
     4
100
AcDbPolyline
 90
        4
 70
     1
 43
0.0
 10
42530.47252314748
 20
-3800.458991278766
 10
42536.46057912943
 20
-3800.458991278766
 10
42536.46057912943
 20
-3830.575791265337
 10
42530.47252314748
 20
-3830.575791265337
  0
LINE
  5
1F8
330
22
100
AcDbEntity
  8
__
  6
Continuous
 62
     4
100
AcDbLine
 10
42249.76407461988
 20
-3837.79699009014
 30
0.0
 11
42279.48446716553
 21
-3837.79699009014
 31
0.0
  0
LINE
  5
1F9
330
22
100
AcDbEntity
  8
__
  6
Continuous
 62
     4
100
AcDbLine
 10
42249.76407461988
 20
-3832.107390091496
 30
0.0
 11
42249.76407461988
 21
-3837.79699009014
 31
0.0
  0
LINE
  5
1FA
330
22
100
AcDbEntity
  8
__
  6
Continuous
 62
     4
100
AcDbLine
 10
42268.35651354207
 20
-3832.107390091496
 30
0.0
 11
42249.76407461988
 21
-3832.107390091496
 31
0.0
  0
LINE
  5
1FB
330
22
100
AcDbEntity
  8
__
  6
Continuous
 62
     4
100
AcDbLine
 10
42268.35651354207
 20
-3798.299990099563
 30
0.0
 11
42268.35651354207
 21
-3832.107390091496
 31
0.0
  0
LINE
  5
1FC
330
22
100
AcDbEntity
  8
__
  6
Continuous
 62
     4
100
AcDbLine
 10
42279.48446716553
 20
-3837.79699009014
 30
0.0
 11
42279.48446716553
 21
-3798.299990099563
 31
0.0
  0
LWPOLYLINE
  5
1FD
330
22
100
AcDbEntity
  8
__
  6
Continuous
 62
     4
100
AcDbPolyline
 90
        4
 70
     1
 43
0.0
 10
42279.48446716553
 20
-3800.458990099047
 10
42285.47252314748
 20
-3800.458990099047
 10
42285.47252314748
 20
-3830.575790078433
 10
42279.48446716553
 20
-3830.575790078433
  0
LINE
  5
203
330
22
100
AcDbEntity
  8
__
  6
Continuous
 62
     4
100
AcDbLine
 10
42268.35651354207
 20
-3798.299990099563
 30
0.0
 11
42279.48446716553
 21
-3798.299990099563
 31
0.0
  0
LINE
  5
204
330
22
100
AcDbEntity
  8
__
  6
Continuous
 62
     4
100
AcDbLine
 10
42566.18097167507
 20
-3837.796990015056
 30
0.0
 11
42536.46057912943
 21
-3837.796990015056
 31
0.0
  0
LINE
  5
205
330
22
100
AcDbEntity
  8
__
  6
Continuous
 62
     4
100
AcDbLine
 10
42566.18097167507
 20
-3832.107390016413
 30
0.0
 11
42566.18097167507
 21
-3837.796990015056
 31
0.0
  0
LINE
  5
206
330
22
100
AcDbEntity
  8
__
  6
Continuous
 62
     4
100
AcDbLine
 10
42547.58853275289
 20
-3832.107390016413
 30
0.0
 11
42566.18097167507
 21
-3832.107390016413
 31
0.0
  0
LINE
  5
207
330
22
100
AcDbEntity
  8
__
  6
Continuous
 62
     4
100
AcDbLine
 10
42547.58853275289
 20
-3798.299990024478
 30
0.0
 11
42547.58853275289
 21
-3832.107390016413
 31
0.0
  0
LINE
  5
208
330
22
100
AcDbEntity
  8
__
  6
Continuous
 62
     4
100
AcDbLine
 10
42536.46057912943
 20
-3837.796990015056
 30
0.0
 11
42536.46057912943
 21
-3798.299990024478
 31
0.0
  0
LINE
  5
209
330
22
100
AcDbEntity
  8
__
  6
Continuous
 62
     4
100
AcDbLine
 10
42547.58853275289
 20
-3798.299990024478
 30
0.0
 11
42536.46057912943
 21
-3798.299990024478
 31
0.0
  0
POINT
  5
20A
330
22
100
AcDbEntity
  8
__
  6
Continuous
 62
     4
100
AcDbPoint
 10
42249.76407461988
 20
-3837.79699009014
 30
0.0
  0
LINE
  5
20B
330
22
100
AcDbEntity
  8
__
  6
STYLE_07
 62
     4
100
AcDbLine
 10
42407.95954109189
 20
-3864.00000002247
 30
0.0
 11
42407.95954109189
 21
-3641.050542266816
 31
0.0
  0
LINE
  5
20C
330
22
100
AcDbEntity
  8
__
  6
STYLE_07
 62
     4
100
AcDbLine
 10
42407.95954121386
 20
-3641.050542722024
 30
0.0
 11
42374.98824769911
 21
-3518.00000002247
 31
0.0
  0
POINT
  5
20D
330
22
100
AcDbEntity
  8
__
  6
Continuous
 62
     4
100
AcDbPoint
 10
42264.61292550593
 20
-3579.377344604294
 30
0.0
  0
LINE
  5
20E
330
22
100
AcDbEntity
  8
0
  6
STYLE_01
 62
     4
100
AcDbLine
 10
42890.0229803298
 20
-3621.393485703219
 30
0.0
 11
43102.17182859811
 21
-3498.846081901963
 31
0.0
  0
LINE
  5
20F
330
22
100
AcDbEntity
  8
0
  6
Continuous
 62
     4
100
AcDbLine
 10
43102.17182859811
 20
-3498.846081901963
 30
0.0
 11
43175.0
 21
-3624.923111729991
 31
0.0
  0
LINE
  5
210
330
22
100
AcDbEntity
  8
0
  6
Continuous
 62
     4
100
AcDbLine
 10
42930.0
 20
-3690.600000220554
 30
0.0
 11
42930.0
 21
-3835.000000220554
 31
0.0
  0
LINE
  5
211
330
22
100
AcDbEntity
  8
0
  6
Continuous
 62
     4
100
AcDbLine
 10
42890.0229803298
 20
-3621.393485703219
 30
0.0
 11
42930.0
 21
-3690.600000220555
 31
0.0
  0
LINE
  5
212
330
22
100
AcDbEntity
  8
0
  6
Continuous
 62
     4
100
AcDbLine
 10
43175.0
 20
-3624.923111729991
 30
0.0
 11
43175.0
 21
-3835.000000220552
 31
0.0
  0
LINE
  5
213
330
22
100
AcDbEntity
  8
0
  6
Continuous
 62
     4
100
AcDbLine
 10
42930.3809928894
 20
-3835.000000290937
 30
0.0
 11
42930.0
 21
-3835.000000220554
 31
0.0
  0
LINE
  5
214
330
22
100
AcDbEntity
  8
0
  6
Continuous
 62
     4
100
AcDbLine
 10
43175.0
 20
-3835.000000145468
 30
0.0
 11
42930.0
 21
-3835.00000014547
 31
0.0
  0
LINE
  5
215
330
22
100
AcDbEntity
  8
0
  6
Continuous
 62
     4
100
AcDbLine
 10
43173.24432806903
 20
-3621.883767227056
 30
0.0
 11
42928.24432806902
 21
-3687.56065571762
 31
0.0
  0
LINE
  5
216
330
22
100
AcDbEntity
  8
0
  6
Continuous
 62
     4
100
AcDbLine
 10
42930.0
 20
-3694.09028966432
 30
0.0
 11
43175.0
 21
-3628.413401173753
 31
0.0
  0
LINE
  5
217
330
22
100
AcDbEntity
  8
0
  6
Continuous
 62
     4
100
AcDbLine
 10
42930.0
 20
-3690.600000220554
 30
0.0
 11
43175.0
 21
-3624.923111729991
 31
0.0
  0
LWPOLYLINE
  5
218
330
22
100
AcDbEntity
  8
__
  6
Continuous
 62
     4
100
AcDbPolyline
 90
        4
 70
     1
 43
0.0
 10
43175.0
 20
-3800.557599554047
 10
43180.98805598195
 20
-3800.557599554047
 10
43180.98805598195
 20
-3830.674399540618
 10
43175.0
 20
-3830.674399540618
  0
LINE
  5
21E
330
22
100
AcDbEntity
  8
__
  6
Continuous
 62
     4
100
AcDbLine
 10
42894.2915514724
 20
-3837.89559836542
 30
0.0
 11
42924.01194401804
 21
-3837.89559836542
 31
0.0
  0
LINE
  5
21F
330
22
100
AcDbEntity
  8
__
  6
Continuous
 62
     4
100
AcDbLine
 10
42894.2915514724
 20
-3832.205998366777
 30
0.0
 11
42894.2915514724
 21
-3837.89559836542
 31
0.0
  0
LINE
  5
220
330
22
100
AcDbEntity
  8
__
  6
Continuous
 62
     4
100
AcDbLine
 10
42912.88399039459
 20
-3832.205998366777
 30
0.0
 11
42894.2915514724
 21
-3832.205998366777
 31
0.0
  0
LINE
  5
221
330
22
100
AcDbEntity
  8
__
  6
Continuous
 62
     4
100
AcDbLine
 10
42912.88399039459
 20
-3798.398598374844
 30
0.0
 11
42912.88399039459
 21
-3832.205998366777
 31
0.0
  0
LINE
  5
222
330
22
100
AcDbEntity
  8
__
  6
Continuous
 62
     4
100
AcDbLine
 10
42924.01194401804
 20
-3837.89559836542
 30
0.0
 11
42924.01194401804
 21
-3798.398598374844
 31
0.0
  0
LWPOLYLINE
  5
223
330
22
100
AcDbEntity
  8
__
  6
Continuous
 62
     4
100
AcDbPolyline
 90
        4
 70
     1
 43
0.0
 10
42924.01194401804
 20
-3800.557598374328
 10
42930.0
 20
-3800.557598374328
 10
42930.0
 20
-3830.674398353714
 10
42924.01194401804
 20
-3830.674398353714
  0
LINE
  5
229
330
22
100
AcDbEntity
  8
__
  6
Continuous
 62
     4
100
AcDbLine
 10
42912.88399039459
 20
-3798.398598374844
 30
0.0
 11
42924.01194401804
 21
-3798.398598374844
 31
0.0
  0
LINE
  5
22A
330
22
100
AcDbEntity
  8
__
  6
Continuous
 62
     4
100
AcDbLine
 10
43210.70844852759
 20
-3837.895598290336
 30
0.0
 11
43180.98805598195
 21
-3837.895598290336
 31
0.0
  0
LINE
  5
22B
330
22
100
AcDbEntity
  8
__
  6
Continuous
 62
     4
100
AcDbLine
 10
43210.70844852759
 20
-3832.205998291693
 30
0.0
 11
43210.70844852759
 21
-3837.895598290336
 31
0.0
  0
LINE
  5
22C
330
22
100
AcDbEntity
  8
__
  6
Continuous
 62
     4
100
AcDbLine
 10
43192.11600960541
 20
-3832.205998291693
 30
0.0
 11
43210.70844852759
 21
-3832.205998291693
 31
0.0
  0
LINE
  5
22D
330
22
100
AcDbEntity
  8
__
  6
Continuous
 62
     4
100
AcDbLine
 10
43192.11600960541
 20
-3798.39859829976
 30
0.0
 11
43192.11600960541
 21
-3832.205998291693
 31
0.0
  0
LINE
  5
22E
330
22
100
AcDbEntity
  8
__
  6
Continuous
 62
     4
100
AcDbLine
 10
43180.98805598195
 20
-3837.895598290336
 30
0.0
 11
43180.98805598195
 21
-3798.39859829976
 31
0.0
  0
LINE
  5
22F
330
22
100
AcDbEntity
  8
__
  6
Continuous
 62
     4
100
AcDbLine
 10
43192.11600960541
 20
-3798.39859829976
 30
0.0
 11
43180.98805598195
 21
-3798.39859829976
 31
0.0
  0
POINT
  5
230
330
22
100
AcDbEntity
  8
__
  6
Continuous
 62
     4
100
AcDbPoint
 10
42894.2915514724
 20
-3837.89559836542
 30
0.0
  0
LINE
  5
231
330
22
100
AcDbEntity
  8
__
  6
STYLE_07
 62
     4
100
AcDbLine
 10
42976.48981985575
 20
-3526.175968079662
 30
0.0
 11
43052.5
 21
-3657.761555975272
 31
0.0
  0
LINE
  5
232
330
22
100
AcDbEntity
  8
__
  6
STYLE_07
 62
     4
100
AcDbLine
 10
43052.5
 20
-3657.761555975272
 30
0.0
 11
43052.49999999997
 21
-3865.67887063498
 31
0.0
  0
POINT
  5
233
330
22
100
AcDbEntity
  8
__
  6
Continuous
 62
     4
100
AcDbPoint
 10
42890.0229803298
 20
-3621.393485703219
 30
0.0
  0
TEXT
  5
234
330
22
100
AcDbEntity
  8
__
 62
     4
100
AcDbText
 10
41633.5
 20
-1507.388888888889
 30
0.0
 40
33.95486111111111
  1
納まり事例
  7
________
100
AcDbText
  0
LWPOLYLINE
  5
235
330
22
100
AcDbEntity
  8
__
  6
Continuous
 62
     4
100
AcDbPolyline
 90
        4
 70
     1
 43
0.0
 10
41603.5
 20
-1451.0
 10
41886.49999999999
 20
-1451.0
 10
41886.49999999999
 20
-1525.0
 10
41603.5
 20
-1525.0
  0
LWPOLYLINE
  5
23B
330
22
100
AcDbEntity
  8
__
  6
STYLE_02
 62
     6
100
AcDbPolyline
 90
        4
 70
     1
 43
0.0
 10
41559.99999999943
 20
-1410.0
 10
43310.0
 20
-1410.0
 10
43310.0
 20
-3160.0
 10
41559.99999999943
 20
-3160.0
  0
LWPOLYLINE
  5
241
330
22
100
AcDbEntity
  8
__
  6
Continuous
 62
     4
100
AcDbPolyline
 90
        4
 70
     1
 43
0.0
 10
41603.43673263269
 20
-1630.0
 10
41921.0
 20
-1630.0
 10
41921.0
 20
-1670.0
 10
41603.43673263269
 20
-1670.0
  0
TEXT
  5
247
330
22
100
AcDbEntity
  8
__
 62
     4
100
AcDbText
 10
41621.54273168281
 20
-1663.821794111658
 30
0.0
 40
24.4326171875
  1
レイベンダードーム
  7
________
100
AcDbText
  0
TEXT
  5
249
330
22
100
AcDbEntity
  8
__
 62
     4
100
AcDbText
 10
41724.75
 20
-1960.272348565287
 30
0.0
 40
24.4326171875
  1
ルーフベース
  7
_______
 72
     1
 11
41820.0
 21
-1960.272348565287
 31
0.0
100
AcDbText
  0
TEXT
  5
24A
330
22
100
AcDbEntity
  8
__
 62
     4
100
AcDbText
 10
41740.62499999999
 20
-1992.022348565287
 30
0.0
 40
24.4326171875
  1
(雨押え板)
  7
_______
 72
     1
 11
41820.0
 21
-1992.022348565287
 31
0.0
100
AcDbText
  0
LWPOLYLINE
  5
24B
330
22
100
AcDbEntity
  8
__
  6
Continuous
 62
     4
100
AcDbPolyline
 90
        4
 70
     1
 43
0.0
 10
41715.0
 20
-1930.0
 10
41925.0
 20
-1930.0
 10
41925.0
 20
-2010.0
 10
41715.0
 20
-2010.0
  0
TEXT
  5
251
330
22
100
AcDbEntity
  8
__
 62
     4
100
AcDbText
 10
41610.45687798893
 20
-2179.694706644704
 30
0.0
 40
24.4326171875
  1
トップアングルチューブ
  7
_______
 72
     1
 11
41785.08187798893
 21
-2179.694706644704
 31
0.0
100
AcDbText
  0
TEXT
  5
258
330
22
100
AcDbEntity
  8
__
 62
     4
100
AcDbText
 10
41765.99190443569
 20
-2499.431265581735
 30
0.0
 40
24.4326171875
  1
延長チューブ
  7
_______
 72
     1
 11
41861.24190443569
 21
-2499.431265581735
 31
0.0
100
AcDbText
  0
LWPOLYLINE
  5
259
330
22
100
AcDbEntity
  8
__
  6
Continuous
 62
     4
100
AcDbPolyline
 90
        4
 70
     1
 43
0.0
 10
41743.77297255324
 20
-2465.0
 10
41972.0
 20
-2465.0
 10
41972.0
 20
-2509.0
 10
41743.77297255324
 20
-2509.0
  0
TEXT
  5
25F
330
22
100
AcDbEntity
  8
__
 62
     4
100
AcDbText
 10
41613.67956944213
 20
-2810.410269904843
 30
0.0
 40
24.4326171875
  1
ボトムアングルチューブ
  7
_______
 72
     1
 11
41788.30456944213
 21
-2810.410269904843
 31
0.0
100
AcDbText
  0
TEXT
  5
266
330
22
100
AcDbEntity
  8
__
 62
     4
100
AcDbText
 10
41728.091498193
 20
-3027.94459537637
 30
0.0
 40
24.4326171875
  1
散光カバー
  7
________
100
AcDbText
  0
LWPOLYLINE
  5
267
330
22
100
AcDbEntity
  8
__
  6
Continuous
 62
     4
100
AcDbPolyline
 90
        4
 70
     1
 43
0.0
 10
41722.466498193
 20
-2994.125
 10
41905.0
 20
-2994.125
 10
41905.0
 20
-3034.125
 10
41722.466498193
 20
-3034.125
  0
LWPOLYLINE
  5
26D
330
22
100
AcDbEntity
  8
__
  6
Continuous
 62
     6
100
AcDbPolyline
 90
       10
 70
   128
 43
0.0
 10
41751.57532044951
 20
-1806.588487123628
 10
41751.57532704585
 20
-1806.588469215889
 10
41751.57533364111
 20
-1806.588451311081
 10
41751.57534023529
 20
-1806.588433409205
 10
41751.57534682839
 20
-1806.58841551026
 10
41751.57535342043
 20
-1806.588397614247
 10
41751.57536001137
 20
-1806.588379721166
 10
41751.57536660125
 20
-1806.588361831016
 10
41751.57537319004
 20
-1806.588343943797
 10
41751.57537319004
 20
-1806.588343943797
  0
LWPOLYLINE
  5
279
330
22
100
AcDbEntity
  8
__
  6
Continuous
 62
     6
100
AcDbPolyline
 90
       10
 70
   128
 43
0.0
 10
41757.8143143481
 20
-1785.7814360301
 10
41757.81432094444
 20
-1785.78141812236
 10
41757.81432753969
 20
-1785.781400217552
 10
41757.81433413388
 20
-1785.781382315676
 10
41757.81434072698
 20
-1785.781364416731
 10
41757.81434731901
 20
-1785.781346520718
 10
41757.81435390996
 20
-1785.781328627636
 10
41757.81436049983
 20
-1785.781310737486
 10
41757.81436708863
 20
-1785.781292850268
 10
41757.81436708863
 20
-1785.781292850268
  0
TEXT
  5
285
330
22
100
AcDbEntity
  8
__
 62
     4
100
AcDbText
 10
41740.62499999999
 20
-1793.241928836958
 30
0.0
 40
24.4326171875
  1
曲面反射板
  7
_______
 72
     1
 11
41820.0
 21
-1793.241928836958
 31
0.0
100
AcDbText
  0
TEXT
  5
286
330
22
100
AcDbEntity
  8
__
 62
     4
100
AcDbText
 10
41693.0
 20
-1824.991928836958
 30
0.0
 40
24.4326171875
  1
（南側に向ける）
  7
_______
 72
     1
 11
41820.0
 21
-1824.991928836958
 31
0.0
100
AcDbText
  0
LWPOLYLINE
  5
287
330
22
100
AcDbEntity
  8
__
  6
Continuous
 62
     4
100
AcDbPolyline
 90
        4
 70
     1
 43
0.0
 10
41705.0
 20
-1760.0
 10
41935.0
 20
-1760.0
 10
41935.0
 20
-1840.0
 10
41705.0
 20
-1840.0
  0
LINE
  5
28D
330
22
100
AcDbEntity
  8
__
  6
STYLE_01
 62
     4
100
AcDbLine
 10
42592.42117047511
 20
-2693.44828152316
 30
0.0
 11
42819.70787214722
 21
-2601.983778884062
 31
0.0
  0
LINE
  5
28E
330
22
100
AcDbEntity
  8
__
  6
STYLE_01
 62
     4
100
AcDbLine
 10
42269.39442353418
 20
-1780.90203240078
 30
0.0
 11
42501.14713039725
 21
-1757.997744946472
 31
0.0
  0
POINT
  5
28F
330
22
100
AcDbEntity
  8
__
  6
Continuous
 62
     4
100
AcDbPoint
 10
42269.39442353418
 20
-1780.90203240078
 30
0.0
  0
LINE
  5
290
330
22
100
AcDbEntity
  8
0
  6
Continuous
 62
     4
100
AcDbLine
 10
42277.82231578441
 20
-1804.061444282046
 30
0.0
 11
42276.18181232103
 21
-1787.462207176117
 31
0.0
  0
LINE
  5
291
330
22
100
AcDbEntity
  8
0
  6
Continuous
 62
     4
100
AcDbLine
 10
42276.24774044259
 20
-1795.360543852426
 30
0.0
 11
42275.47404963488
 21
-1787.532158430719
 31
0.0
  0
LINE
  5
292
330
22
100
AcDbEntity
  8
0
  6
Continuous
 62
     4
100
AcDbLine
 10
42277.1145638726
 20
-1804.131391914821
 30
0.0
 11
42276.21898629945
 21
-1795.069624543372
 31
0.0
  0
LINE
  5
293
330
22
100
AcDbEntity
  8
0
  6
Continuous
 62
     4
100
AcDbLine
 10
42144.97808030451
 20
-1948.178400319622
 30
0.0
 11
42254.44477082612
 21
-1937.359728208699
 31
0.0
  0
ARC
  5
294
330
22
100
AcDbEntity
  8
0
  6
Continuous
 62
     4
100
AcDbCircle
 10
42253.19570595514
 20
-1924.721301212112
 30
0.0
 40
12.70000000000027
100
AcDbArc
 50
275.6442541332015
 51
354.6974850875836
  0
LINE
  5
295
330
22
100
AcDbEntity
  8
0
  6
Continuous
 62
     4
100
AcDbLine
 10
42265.84135811815
 20
-1925.894962735773
 30
0.0
 11
42277.11543089257
 21
-1804.422119082181
 31
0.0
  0
ARC
  5
296
330
22
100
AcDbEntity
  8
0
  6
Continuous
 62
     4
100
AcDbCircle
 10
42275.59795263301
 20
-1804.281279699342
 30
0.0
 40
1.523999999999081
100
AcDbArc
 50
354.6974850875767
 51
5.644254133250569
  0
ARC
  5
297
330
22
100
AcDbEntity
  8
0
  6
Continuous
 62
     4
100
AcDbCircle
 10
42275.59795263301
 20
-1804.281279699342
 30
0.0
 40
2.235199999998687
100
AcDbArc
 50
354.6974850876006
 51
5.644254133227263
  0
LINE
  5
298
330
22
100
AcDbEntity
  8
0
  6
Continuous
 62
     4
100
AcDbLine
 10
42266.54951463928
 20
-1925.960687781097
 30
0.0
 11
42277.8235874137
 21
-1804.487844127505
 31
0.0
  0
ARC
  5
299
330
22
100
AcDbEntity
  8
0
  6
Continuous
 62
     4
100
AcDbCircle
 10
42253.19570595514
 20
-1924.721301212112
 30
0.0
 40
13.41120000000136
100
AcDbArc
 50
275.6442541332015
 51
354.6974850875906
  0
LINE
  5
29A
330
22
100
AcDbEntity
  8
0
  6
Continuous
 62
     4
100
AcDbLine
 10
42145.04802793729
 20
-1948.886152231432
 30
0.0
 11
42254.5147184589
 21
-1938.067480120509
 31
0.0
  0
LINE
  5
29B
330
22
100
AcDbEntity
  8
0
  6
Continuous
 62
     4
100
AcDbLine
 10
42278.80766298831
 20
-1782.524115099259
 30
0.0
 11
42278.8792793057
 21
-1783.248751281156
 31
0.0
  0
ARC
  5
29C
330
22
100
AcDbEntity
  8
0
  6
Continuous
 62
     4
100
AcDbCircle
 10
42280.2008213316
 20
-1787.065008168968
 30
0.0
 40
4.038599999998945
100
AcDbArc
 50
109.1005978269482
 51
185.6442541331995
  0
ARC
  5
29D
330
22
100
AcDbEntity
  8
0
  6
Continuous
 62
     4
100
AcDbCircle
 10
42280.2008213316
 20
-1787.065008168968
 30
0.0
 40
4.749799999999292
100
AcDbArc
 50
107.0561558770121
 51
185.6442541332153
  0
LINE
  5
29E
330
22
100
AcDbEntity
  8
0
  6
Continuous
 62
     4
100
AcDbLine
 10
42564.51058898657
 20
-1942.525502472764
 30
0.0
 11
42564.45799823466
 21
-1942.53070005477
 31
0.0
  0
LINE
  5
29F
330
22
100
AcDbEntity
  8
__
  6
Continuous
 62
     4
100
AcDbLine
 10
42144.97808030451
 20
-1948.178400319622
 30
0.0
 11
42145.04802793729
 21
-1948.886152231432
 31
0.0
  0
LINE
  5
2A0
330
22
100
AcDbEntity
  8
0
  6
Continuous
 62
     4
100
AcDbLine
 10
42541.02195339396
 20
-1777.737979226814
 30
0.0
 11
42539.38142788136
 21
-1761.138744300026
 31
0.0
  0
LINE
  5
2A1
330
22
100
AcDbEntity
  8
0
  6
Continuous
 62
     4
100
AcDbLine
 10
42540.86287034699
 20
-1768.897184671042
 30
0.0
 11
42540.08919106806
 21
-1761.068798109936
 31
0.0
  0
LINE
  5
2A2
330
22
100
AcDbEntity
  8
0
  6
Continuous
 62
     4
100
AcDbLine
 10
42541.72970530579
 20
-1777.66803159404
 30
0.0
 11
42540.83412091314
 21
-1768.606264896566
 31
0.0
  0
LINE
  5
2A3
330
22
100
AcDbEntity
  8
0
  6
Continuous
 62
     4
100
AcDbLine
 10
42699.52333347396
 20
-1893.229290866043
 30
0.0
 11
42590.0403020239
 21
-1903.881324686102
 31
0.0
  0
ARC
  5
2A4
330
22
100
AcDbEntity
  8
0
  6
Continuous
 62
     4
100
AcDbCircle
 10
42588.79123715291
 20
-1891.242897689517
 30
0.0
 40
12.69999999999968
100
AcDbArc
 50
196.5910231788173
 51
275.6442541332024
  0
LINE
  5
2A5
330
22
100
AcDbEntity
  8
0
  6
Continuous
 62
     4
100
AcDbLine
 10
42576.61997215142
 20
-1894.869233066085
 30
0.0
 11
42541.78576474519
 21
-1777.95330405471
 31
0.0
  0
ARC
  5
2A6
330
22
100
AcDbEntity
  8
0
  6
Continuous
 62
     4
100
AcDbCircle
 10
42543.24631654538
 20
-1777.518143809522
 30
0.0
 40
1.524000000002186
100
AcDbArc
 50
185.6442541331588
 51
196.5910231787873
  0
ARC
  5
2A7
330
22
100
AcDbEntity
  8
0
  6
Continuous
 62
     4
100
AcDbCircle
 10
42543.24631654538
 20
-1777.518143809522
 30
0.0
 40
2.235200000003433
100
AcDbArc
 50
185.6442541331543
 51
196.5910231787736
  0
LINE
  5
2A8
330
22
100
AcDbEntity
  8
0
  6
Continuous
 62
     4
100
AcDbLine
 10
42575.93838131134
 20
-1895.072307847173
 30
0.0
 11
42541.10417390511
 21
-1778.156378835797
 31
0.0
  0
ARC
  5
2A9
330
22
100
AcDbEntity
  8
0
  6
Continuous
 62
     4
100
AcDbCircle
 10
42588.79123715291
 20
-1891.242897689517
 30
0.0
 40
13.41119999999986
100
AcDbArc
 50
196.5910231788166
 51
275.6442541332024
  0
LINE
  5
2AA
330
22
100
AcDbEntity
  8
0
  6
Continuous
 62
     4
100
AcDbLine
 10
42699.59328110674
 20
-1893.937042777853
 30
0.0
 11
42590.11024965667
 21
-1904.589076597912
 31
0.0
  0
LINE
  5
2AB
330
22
100
AcDbEntity
  8
0
  6
Continuous
 62
     4
100
AcDbLine
 10
42535.83974822354
 20
-1756.81019370107
 30
0.0
 11
42535.91136454093
 21
-1757.534829882967
 31
0.0
  0
ARC
  5
2AC
330
22
100
AcDbEntity
  8
0
  6
Continuous
 62
     4
100
AcDbCircle
 10
42535.36241937133
 20
-1761.535948371686
 30
0.0
 40
4.038599999998647
100
AcDbArc
 50
5.644254133208518
 51
82.18791043947973
  0
ARC
  5
2AD
330
22
100
AcDbEntity
  8
0
  6
Continuous
 62
     4
100
AcDbCircle
 10
42535.36241937133
 20
-1761.535948371686
 30
0.0
 40
4.749799999998129
100
AcDbArc
 50
5.64425413320658
 51
84.23235238939218
  0
LINE
  5
2AE
330
22
100
AcDbEntity
  8
__
  6
STYLE_01
 62
     4
100
AcDbLine
 10
42278.80766298831
 20
-1782.524115099259
 30
0.0
 11
42525.95957664074
 21
-1758.097912912542
 31
0.0
  0
POINT
  5
2AF
330
22
100
AcDbEntity
  8
__
  6
Continuous
 62
     4
100
AcDbPoint
 10
42278.80766298831
 20
-1782.524115099259
 30
0.0
  0
LINE
  5
2B0
330
22
100
AcDbEntity
  8
__
  6
Continuous
 62
     4
100
AcDbLine
 10
42480.42380546962
 20
-2415.138049566844
 30
0.0
 11
42707.71050206632
 21
-2323.673548970261
 31
0.0
  0
LINE
  5
2B1
330
22
100
AcDbEntity
  8
__
  6
Continuous
 62
     4
100
AcDbLine
 10
42499.09003195977
 20
-2461.52309435683
 30
0.0
 11
42349.76020299859
 21
-2090.442776659401
 31
0.0
  0
LINE
  5
2B2
330
22
100
AcDbEntity
  8
__
  6
Continuous
 62
     4
100
AcDbLine
 10
42726.37672654944
 20
-2370.058574118107
 30
0.0
 11
42577.04689758827
 21
-1998.978256420678
 31
0.0
  0
LINE
  5
2B3
330
22
100
AcDbEntity
  8
__
  6
STYLE_01
 62
     4
100
AcDbLine
 10
42349.76020299859
 20
-2090.442776659401
 30
0.0
 11
42577.04689758828
 21
-1998.978256420699
 31
0.0
  0
POINT
  5
2B4
330
22
100
AcDbEntity
  8
__
  6
Continuous
 62
     4
100
AcDbPoint
 10
42349.76020299859
 20
-2090.442776659401
 30
0.0
  0
POINT
  5
2B5
330
22
100
AcDbEntity
  8
__
  6
Continuous
 62
     4
100
AcDbPoint
 10
42480.42380333962
 20
-2415.138054644652
 30
0.0
  0
LINE
  5
2B6
330
22
100
AcDbEntity
  8
0
  6
Continuous
 62
     4
100
AcDbLine
 10
42623.47583243957
 20
-2928.843204052586
 30
0.0
 11
42869.86183803853
 21
-2928.843204052586
 31
0.0
  0
LINE
  5
2B7
330
22
100
AcDbEntity
  8
0
  6
Continuous
 62
     4
100
AcDbLine
 10
42869.86183803853
 20
-2928.84320412767
 30
0.0
 11
42869.86183803853
 21
-2726.665409411577
 31
0.0
  0
LINE
  5
2B8
330
22
100
AcDbEntity
  8
0
  6
Continuous
 62
     4
100
AcDbLine
 10
42623.47583243928
 20
-2783.802324065869
 30
0.0
 11
42592.4211750605
 21
-2693.448292917724
 31
0.0
  0
LINE
  5
2B9
330
22
100
AcDbEntity
  8
0
  6
Continuous
 62
     4
100
AcDbLine
 10
42623.47583243957
 20
-2928.843204052586
 30
0.0
 11
42623.47583243957
 21
-2783.802324065725
 31
0.0
  0
LINE
  5
2BA
330
22
100
AcDbEntity
  8
0
  6
Continuous
 62
     4
100
AcDbLine
 10
42869.88040686666
 20
-2726.661103300337
 30
0.0
 11
42819.70787848329
 21
-2601.983789569122
 31
0.0
  0
LINE
  5
2BB
330
22
100
AcDbEntity
  8
0
  6
Continuous
 62
     4
100
AcDbLine
 10
42592.77462245134
 20
-2693.306058872272
 30
0.0
 11
42592.4211750605
 21
-2693.448292917724
 31
0.0
  0
LINE
  5
2BC
330
22
100
AcDbEntity
  8
0
  6
Continuous
 62
     4
100
AcDbLine
 10
42869.86183803853
 20
-2730.145660624412
 30
0.0
 11
42623.76265601814
 21
-2787.216060890649
 31
0.0
  0
LINE
  5
2BD
330
22
100
AcDbEntity
  8
0
  6
Continuous
 62
     4
100
AcDbLine
 10
42622.01697189245
 20
-2779.868709523955
 30
0.0
 11
42868.50839160685
 21
-2723.251684191954
 31
0.0
  0
LINE
  5
2BE
330
22
100
AcDbEntity
  8
0
  6
Continuous
 62
     4
100
AcDbLine
 10
42623.47583243928
 20
-2783.802324065869
 30
0.0
 11
42869.88040686662
 21
-2726.661103300346
 31
0.0
  0
LWPOLYLINE
  5
2BF
330
22
100
AcDbEntity
  8
__
  6
Continuous
 62
     4
100
AcDbPolyline
 90
        4
 70
     1
 43
0.0
 10
42869.86183803853
 20
-2894.400803536248
 10
42875.84989402049
 20
-2894.400803536248
 10
42875.84989402049
 20
-2924.517603522818
 10
42869.86183803853
 20
-2924.517603522818
  0
LINE
  5
2C5
330
22
100
AcDbEntity
  8
__
  6
Continuous
 62
     4
100
AcDbLine
 10
42587.76738391198
 20
-2931.738802272537
 30
0.0
 11
42617.48777645762
 21
-2931.738802272537
 31
0.0
  0
LINE
  5
2C6
330
22
100
AcDbEntity
  8
__
  6
Continuous
 62
     4
100
AcDbLine
 10
42587.76738391198
 20
-2926.049202273892
 30
0.0
 11
42587.76738391198
 21
-2931.738802272537
 31
0.0
  0
LINE
  5
2C7
330
22
100
AcDbEntity
  8
__
  6
Continuous
 62
     4
100
AcDbLine
 10
42606.35982283416
 20
-2926.049202273893
 30
0.0
 11
42587.76738391198
 21
-2926.049202273892
 31
0.0
  0
LINE
  5
2C8
330
22
100
AcDbEntity
  8
__
  6
Continuous
 62
     4
100
AcDbLine
 10
42606.35982283416
 20
-2892.24180228196
 30
0.0
 11
42606.35982283416
 21
-2926.049202273893
 31
0.0
  0
LINE
  5
2C9
330
22
100
AcDbEntity
  8
__
  6
Continuous
 62
     4
100
AcDbLine
 10
42617.48777645762
 20
-2931.738802272537
 30
0.0
 11
42617.48777645762
 21
-2892.24180228196
 31
0.0
  0
LWPOLYLINE
  5
2CA
330
22
100
AcDbEntity
  8
__
  6
Continuous
 62
     4
100
AcDbPolyline
 90
        4
 70
     1
 43
0.0
 10
42617.48777645762
 20
-2894.400802281444
 10
42623.47583243957
 20
-2894.400802281444
 10
42623.47583243957
 20
-2924.517602260829
 10
42617.48777645762
 20
-2924.517602260829
  0
LINE
  5
2D0
330
22
100
AcDbEntity
  8
__
  6
Continuous
 62
     4
100
AcDbLine
 10
42606.35982283416
 20
-2892.24180228196
 30
0.0
 11
42617.48777645762
 21
-2892.24180228196
 31
0.0
  0
LINE
  5
2D1
330
22
100
AcDbEntity
  8
__
  6
Continuous
 62
     4
100
AcDbLine
 10
42905.57028656612
 20
-2931.738802272537
 30
0.0
 11
42875.84989402049
 21
-2931.738802272537
 31
0.0
  0
LINE
  5
2D2
330
22
100
AcDbEntity
  8
__
  6
Continuous
 62
     4
100
AcDbLine
 10
42905.57028656612
 20
-2926.049202273892
 30
0.0
 11
42905.57028656612
 21
-2931.738802272537
 31
0.0
  0
LINE
  5
2D3
330
22
100
AcDbEntity
  8
__
  6
Continuous
 62
     4
100
AcDbLine
 10
42886.97784764394
 20
-2926.049202273891
 30
0.0
 11
42905.57028656612
 21
-2926.049202273892
 31
0.0
  0
LINE
  5
2D4
330
22
100
AcDbEntity
  8
__
  6
Continuous
 62
     4
100
AcDbLine
 10
42886.97784764393
 20
-2892.241802281959
 30
0.0
 11
42886.97784764394
 21
-2926.049202273891
 31
0.0
  0
LINE
  5
2D5
330
22
100
AcDbEntity
  8
__
  6
Continuous
 62
     4
100
AcDbLine
 10
42875.84989402049
 20
-2931.738802272537
 30
0.0
 11
42875.84989402049
 21
-2892.24180228196
 31
0.0
  0
LINE
  5
2D6
330
22
100
AcDbEntity
  8
__
  6
Continuous
 62
     4
100
AcDbLine
 10
42886.97784764393
 20
-2892.241802281959
 30
0.0
 11
42875.84989402049
 21
-2892.24180228196
 31
0.0
  0
POINT
  5
2D7
330
22
100
AcDbEntity
  8
__
  6
Continuous
 62
     4
100
AcDbPoint
 10
42587.76738391198
 20
-2931.738802272537
 30
0.0
  0
LINE
  5
2D8
330
22
100
AcDbEntity
  8
0
  6
Continuous
 62
     4
100
AcDbLine
 10
42626.52777677658
 20
-2934.532802359843
 30
0.0
 11
42867.33377137985
 21
-2934.532802359843
 31
0.0
  0
LINE
  5
2D9
330
22
100
AcDbEntity
  8
0
  6
Continuous
 62
     4
100
AcDbLine
 10
42623.92429059628
 20
-2931.992802285766
 30
0.0
 11
42628.24228391197
 21
-2931.992802272537
 31
0.0
  0
LINE
  5
2DA
330
22
100
AcDbEntity
  8
0
  6
Continuous
 62
     4
100
AcDbLine
 10
42628.24228391197
 20
-2931.992802272537
 30
0.0
 11
42867.58479472967
 21
-2931.992802272537
 31
0.0
  0
LINE
  5
2DB
330
22
100
AcDbEntity
  8
0
  6
Continuous
 62
     4
100
AcDbLine
 10
42938.22065538051
 20
-2931.992802285766
 30
0.0
 11
42938.19784170272
 21
-2931.992802285766
 31
0.0
  0
LINE
  5
2DC
330
22
100
AcDbEntity
  8
0
  6
Continuous
 62
     4
100
AcDbLine
 10
42653.69372612121
 20
-2931.992802285766
 30
0.0
 11
42653.67091244343
 21
-2931.992802285766
 31
0.0
  0
ARC
  5
2DD
330
22
100
AcDbEntity
  8
0
  6
Continuous
 62
     4
100
AcDbCircle
 10
42588.27538391197
 20
-2930.403309673978
 30
0.0
 40
4.318000000000348
100
AcDbArc
 50
108.2905946166206
 51
180.0
  0
ARC
  5
2DE
330
22
100
AcDbEntity
  8
0
  6
Continuous
 62
     4
100
AcDbCircle
 10
42587.07966647022
 20
-2926.785802272537
 30
0.0
 40
0.5079999999998109
100
AcDbArc
 50
90.0
 51
108.2905946164049
  0
LINE
  5
2DF
330
22
100
AcDbEntity
  8
0
  6
Continuous
 62
     4
100
AcDbLine
 10
42587.07966647022
 20
-2926.277802272537
 30
0.0
 11
42587.76738391198
 21
-2926.277802272537
 31
0.0
  0
LINE
  5
2E0
330
22
100
AcDbEntity
  8
0
  6
Continuous
 62
     4
100
AcDbLine
 10
42587.76738391198
 20
-2931.738802272537
 30
0.0
 11
42587.76738391198
 21
-2926.277802272537
 31
0.0
  0
ARC
  5
2E1
330
22
100
AcDbEntity
  8
0
  6
Continuous
 62
     4
100
AcDbCircle
 10
42588.02138391197
 20
-2931.738802272537
 30
0.0
 40
0.2540000000008149
100
AcDbArc
 50
180.0
 51
270.0
  0
LINE
  5
2E2
330
22
100
AcDbEntity
  8
0
  6
Continuous
 62
     4
100
AcDbLine
 10
42621.91779726189
 20
-2931.992802285766
 30
0.0
 11
42588.02138391197
 21
-2931.992802272537
 31
0.0
  0
LINE
  5
2E3
330
22
100
AcDbEntity
  8
0
  6
Continuous
 62
     4
100
AcDbLine
 10
42625.89277869346
 20
-2931.992802285766
 30
0.0
 11
42621.91779726189
 21
-2931.992802285766
 31
0.0
  0
LINE
  5
2E4
330
22
100
AcDbEntity
  8
0
  6
Continuous
 62
     4
100
AcDbLine
 10
42625.95929117167
 20
-2935.802802272537
 30
0.0
 11
42625.89277869346
 21
-2931.992802285766
 31
0.0
  0
ARC
  5
2E5
330
22
100
AcDbEntity
  8
0
  6
Continuous
 62
     4
100
AcDbCircle
 10
42626.18672488172
 20
-2934.278802272537
 30
0.0
 40
0.2539999999996294
100
AcDbArc
 50
181.0000000033135
 51
270.0
  0
LINE
  5
2E6
330
22
100
AcDbEntity
  8
0
  6
Continuous
 62
     4
100
AcDbLine
 10
42630.38212603214
 20
-2934.532802359843
 30
0.0
 11
42626.18672488172
 21
-2934.532802272537
 31
0.0
  0
LINE
  5
2E7
330
22
100
AcDbEntity
  8
0
  6
Continuous
 62
     4
100
AcDbLine
 10
42588.27538391197
 20
-2935.802802272537
 30
0.0
 11
42628.05417132385
 21
-2935.802802272537
 31
0.0
  0
ARC
  5
2E8
330
22
100
AcDbEntity
  8
0
  6
Continuous
 62
     4
100
AcDbCircle
 10
42588.27538391197
 20
-2931.484802272537
 30
0.0
 40
4.31800000000112
100
AcDbArc
 50
180.0
 51
270.0
  0
LINE
  5
2E9
330
22
100
AcDbEntity
  8
0
  6
Continuous
 62
     4
100
AcDbLine
 10
42583.95738391198
 20
-2930.403309673978
 30
0.0
 11
42583.95738391198
 21
-2931.484802272537
 31
0.0
  0
LINE
  5
2EA
330
22
100
AcDbEntity
  8
0
  6
Continuous
 62
     4
100
AcDbLine
 10
42909.52018951094
 20
-2931.484802272537
 30
0.0
 11
42909.52018951094
 21
-2930.403309673978
 31
0.0
  0
ARC
  5
2EB
330
22
100
AcDbEntity
  8
0
  6
Continuous
 62
     4
100
AcDbCircle
 10
42905.20218951093
 20
-2931.484802272537
 30
0.0
 40
4.318000000000211
100
AcDbArc
 50
270.0
 51
0.0
  0
LINE
  5
2EC
330
22
100
AcDbEntity
  8
0
  6
Continuous
 62
     4
100
AcDbLine
 10
42905.71018951093
 20
-2926.277802272537
 30
0.0
 11
42905.71018951093
 21
-2931.738802272537
 31
0.0
  0
LINE
  5
2ED
330
22
100
AcDbEntity
  8
0
  6
Continuous
 62
     4
100
AcDbLine
 10
42628.05417132385
 20
-2935.802802272537
 30
0.0
 11
42867.51828225124
 21
-2935.802802272537
 31
0.0
  0
LINE
  5
2EE
330
22
100
AcDbEntity
  8
0
  6
Continuous
 62
     4
100
AcDbLine
 10
42867.58479472944
 20
-2931.992802285766
 30
0.0
 11
42867.51828225124
 21
-2935.802802272537
 31
0.0
  0
ARC
  5
2EF
330
22
100
AcDbEntity
  8
0
  6
Continuous
 62
     4
100
AcDbCircle
 10
42906.39790695269
 20
-2926.785802272537
 30
0.0
 40
0.5079999999996906
100
AcDbArc
 50
71.70940538359513
 51
90.0
  0
ARC
  5
2F0
330
22
100
AcDbEntity
  8
0
  6
Continuous
 62
     4
100
AcDbCircle
 10
42905.20218951093
 20
-2930.403309673978
 30
0.0
 40
4.31800000000112
100
AcDbArc
 50
0.0
 51
71.70940538337942
  0
ARC
  5
2F1
330
22
100
AcDbEntity
  8
0
  6
Continuous
 62
     4
100
AcDbCircle
 10
42905.45618951093
 20
-2931.738802272537
 30
0.0
 40
0.2539999999999054
100
AcDbArc
 50
270.0
 51
0.0
  0
LINE
  5
2F2
330
22
100
AcDbEntity
  8
0
  6
Continuous
 62
     4
100
AcDbLine
 10
42905.71018951093
 20
-2926.277802272537
 30
0.0
 11
42906.39790695269
 21
-2926.277802272537
 31
0.0
  0
LINE
  5
2F3
330
22
100
AcDbEntity
  8
0
  6
Continuous
 62
     4
100
AcDbLine
 10
42867.29084854119
 20
-2934.532802272537
 30
0.0
 11
42863.09544739077
 21
-2934.532802359843
 31
0.0
  0
LINE
  5
2F4
330
22
100
AcDbEntity
  8
0
  6
Continuous
 62
     4
100
AcDbLine
 10
42865.42340209905
 20
-2935.802802272537
 30
0.0
 11
42905.20218951093
 21
-2935.802802272537
 31
0.0
  0
LINE
  5
2F5
330
22
100
AcDbEntity
  8
0
  6
Continuous
 62
     4
100
AcDbLine
 10
42905.45592656182
 20
-2931.992802272537
 30
0.0
 11
42867.58479472942
 21
-2931.992802287318
 31
0.0
  0
POINT
  5
2F6
330
22
100
AcDbEntity
  8
__
  6
Continuous
 62
     4
100
AcDbPoint
 10
42587.76738391198
 20
-2931.738802272537
 30
0.0
  0
LINE
  5
2F7
330
22
100
AcDbEntity
  8
__
  6
Continuous
 62
     4
100
AcDbLine
 10
42611.08740368064
 20
-2739.833332629903
 30
0.0
 11
42838.37410535277
 21
-2648.368829990852
 31
0.0
  0
LINE
  5
2F8
330
22
100
AcDbEntity
  8
__
  6
Continuous
 62
     4
100
AcDbLine
 10
42611.08740368078
 20
-2739.833332629848
 30
0.0
 11
42480.42380333962
 21
-2415.138054644652
 31
0.0
  0
LINE
  5
2F9
330
22
100
AcDbEntity
  8
__
  6
Continuous
 62
     4
100
AcDbLine
 10
42838.37410535289
 20
-2648.368829990805
 30
0.0
 11
42707.7104979293
 21
-2323.673534405929
 31
0.0
  0
LINE
  5
2FA
330
22
100
AcDbEntity
  8
__
  6
STYLE_01
 62
     4
100
AcDbLine
 10
42461.75757684947
 20
-2368.753009854665
 30
0.0
 11
42689.04427143916
 21
-2277.288489615963
 31
0.0
  0
POINT
  5
2FB
330
22
100
AcDbEntity
  8
__
  6
Continuous
 62
     4
100
AcDbPoint
 10
42480.42380333962
 20
-2415.138054644652
 30
0.0
  0
POINT
  5
2FC
330
22
100
AcDbEntity
  8
__
  6
Continuous
 62
     4
100
AcDbPoint
 10
42592.4211750605
 20
-2693.448292917724
 30
0.0
  0
LWPOLYLINE
  5
2FD
330
22
100
AcDbEntity
  8
__
  6
Continuous
 62
     4
100
AcDbPolyline
 90
        9
 70
     0
 43
0.0
 10
43233.44112926418
 20
-2914.049202273891
 10
42886.97784764393
 20
-2914.049202273891
 10
42886.97784764393
 20
-2926.049202273891
 10
43233.44112926418
 20
-2926.049202273891
 10
43233.44112926418
 20
-2924.049202273891
 10
43243.79750994655
 20
-2922.049202273891
 10
43228.79750994655
 20
-2918.049202273891
 10
43236.29750994655
 20
-2916.049202273891
 10
43232.19053705612
 20
-2914.049202273891
  0
LINE
  5
308
330
22
100
AcDbEntity
  8
__
  6
Continuous
 62
     4
100
AcDbLine
 10
42211.26071113414
 20
-1942.342304914246
 30
0.0
 11
42216.51693807613
 21
-1996.683116487799
 31
0.0
  0
LINE
  5
309
330
22
100
AcDbEntity
  8
__
  6
Continuous
 62
     4
100
AcDbLine
 10
42020.1572017004
 20
-2001.013872372161
 30
0.0
 11
42186.23328094844
 21
-1984.949821488764
 31
0.0
  0
LINE
  5
30A
330
22
100
AcDbEntity
  8
__
  6
Continuous
 62
     4
100
AcDbLine
 10
42204.4288799914
 20
-1997.852358807548
 30
0.0
 11
42216.51693807613
 21
-1996.683116487799
 31
0.0
  0
LWPOLYLINE
  5
30B
330
22
100
AcDbEntity
  8
__
  6
Continuous
 62
     4
100
AcDbPolyline
 90
        4
 70
     1
 43
0.0
 10
42162.8992609193
 20
-1987.206852644364
 10
42202.71344133795
 20
-1983.355744025818
 10
42206.5645499565
 20
-2023.16992444446
 10
42166.75036953785
 20
-2027.021033063006
  0
LWPOLYLINE
  5
311
330
22
100
AcDbEntity
  8
__
  6
Continuous
 62
     4
100
AcDbPolyline
 90
        6
 70
     0
 43
0.0
 10
42041.00151369593
 20
-1929.623409368652
 10
42027.59585232583
 20
-1975.536959899136
 10
42036.49436898033
 20
-1980.739497871077
 10
42015.89459796938
 20
-1979.933623007185
 10
42024.79311462388
 20
-1985.136160979126
 10
42011.38745325378
 20
-2031.04971150961
  0
LINE
  5
319
330
22
100
AcDbEntity
  8
__
  6
Continuous
 62
     4
100
AcDbLine
 10
42032.23176524931
 20
-1959.659248506081
 30
0.0
 11
42211.26071113414
 21
-1942.342304914246
 31
0.0
  0
LINE
  5
31A
330
22
100
AcDbEntity
  8
__
  6
Continuous
 62
     4
100
AcDbLine
 10
42743.28403720379
 20
-1875.436589687076
 30
0.0
 11
42874.70940352522
 21
-1862.724200392255
 31
0.0
  0
LINE
  5
31B
330
22
100
AcDbEntity
  8
__
  6
Continuous
 62
     4
100
AcDbLine
 10
42743.28403720379
 20
-1875.436589687076
 30
0.0
 11
42737.07512970488
 21
-1890.258786109502
 31
0.0
  0
LINE
  5
31C
330
22
100
AcDbEntity
  8
__
  6
Continuous
 62
     4
100
AcDbLine
 10
42699.28421652488
 20
-1840.201244474395
 30
0.0
 11
42886.57503546781
 21
-1822.085154191451
 31
0.0
  0
ARC
  5
31D
330
22
100
AcDbEntity
  8
__
  6
Continuous
 62
     4
100
AcDbCircle
 10
42701.20977083415
 20
-1860.108334683715
 30
0.0
 40
19.99999999999924
100
AcDbArc
 50
95.52486464333954
 51
163.7234551569883
  0
LINE
  5
31E
330
22
100
AcDbEntity
  8
__
  6
Continuous
 62
     4
100
AcDbLine
 10
42681.05888393732
 20
-1857.76505984478
 30
0.0
 11
42683.45085978097
 21
-1895.445704084344
 31
0.0
  0
LWPOLYLINE
  5
31F
330
22
100
AcDbEntity
  8
__
  6
Continuous
 62
     4
100
AcDbPolyline
 90
        6
 70
     0
 43
0.0
 10
42895.4492497176
 20
-1791.691526221374
 10
42882.04358834749
 20
-1837.605076751858
 10
42890.942105002
 20
-1842.807614723799
 10
42870.34233399105
 20
-1842.001739859907
 10
42879.24085064555
 20
-1847.204277831849
 10
42865.83518927545
 20
-1893.117828362332
  0
LWPOLYLINE
  5
327
330
22
100
AcDbEntity
  8
__
  6
Continuous
 62
     4
100
AcDbPolyline
 90
        4
 70
     1
 43
0.0
 10
42668.4424451559
 20
-1896.897423906418
 10
42728.16371578387
 20
-1891.120760978601
 10
42730.57065867045
 20
-1916.004623740252
 10
42670.84938804249
 20
-1921.781286668068
  0
LWPOLYLINE
  5
32D
330
22
100
AcDbEntity
  8
__
  6
Continuous
 62
     4
100
AcDbPolyline
 90
        4
 70
     1
 43
0.0
 10
42683.29131942332
 20
-1920.577815224772
 10
42718.12872728963
 20
-1917.208095183547
 10
42721.49844733085
 20
-1952.045503049859
 10
42686.66103946454
 20
-1955.415223091085
  0
LINE
  5
333
330
22
100
AcDbEntity
  8
__
  6
Continuous
 62
     4
100
AcDbLine
 10
42605.45415493258
 20
-2926.049202273891
 30
0.0
 11
42355.45415493258
 21
-2926.049202273891
 31
0.0
  0
LINE
  5
334
330
22
100
AcDbEntity
  8
__
  6
Continuous
 62
     4
100
AcDbLine
 10
42606.35982283416
 20
-2914.049202273891
 30
0.0
 11
42606.35982283416
 21
-2926.049202273891
 31
0.0
  0
LINE
  5
335
330
22
100
AcDbEntity
  8
__
  6
Continuous
 62
     4
100
AcDbLine
 10
42356.35982283415
 20
-2914.049202273891
 30
0.0
 11
42606.35982283416
 21
-2914.049202273891
 31
0.0
  0
LWPOLYLINE
  5
336
330
22
100
AcDbEntity
  8
__
  6
Continuous
 62
     4
100
AcDbPolyline
 90
        4
 70
     1
 43
0.0
 10
42558.44188538197
 20
-2874.049202273891
 10
42578.44188538197
 20
-2874.049202273891
 10
42578.44188538197
 20
-2914.049202273891
 10
42558.44188538197
 20
-2914.049202273891
  0
LINE
  5
33C
330
22
100
AcDbEntity
  8
__
  6
Continuous
 62
     4
100
AcDbLine
 10
42578.44188538197
 20
-2874.049202273891
 30
0.0
 11
42558.44188538197
 21
-2914.049202273891
 31
0.0
  0
LINE
  5
33D
330
22
100
AcDbEntity
  8
__
  6
Continuous
 62
     4
100
AcDbLine
 10
42558.44188538197
 20
-2874.049202273891
 30
0.0
 11
42578.44188538197
 21
-2914.049202273891
 31
0.0
  0
LWPOLYLINE
  5
33E
330
22
100
AcDbEntity
  8
__
  6
Continuous
 62
     4
100
AcDbPolyline
 90
        6
 70
     0
 43
0.0
 10
42355.45415493258
 20
-2879.801255545396
 10
42355.45415493258
 20
-2916.049202273891
 10
42362.95415493258
 20
-2918.049202273891
 10
42347.95415493258
 20
-2922.049202273891
 10
42355.45415493258
 20
-2924.049202273891
 10
42355.45415493258
 20
-2960.297149002385
  0
LINE
  5
346
330
22
100
AcDbEntity
  8
__
  6
Continuous
 62
     4
100
AcDbLine
 10
42583.85982283416
 20
-2926.049202273891
 30
0.0
 11
42606.35982283416
 21
-2926.049202273891
 31
0.0
  0
LWPOLYLINE
  5
347
330
22
100
AcDbEntity
  8
__
  6
Continuous
 62
     4
100
AcDbPolyline
 90
        9
 70
     0
 43
0.0
 10
42355.45415493258
 20
-2914.049202273891
 10
42606.35982283416
 20
-2914.049202273891
 10
42606.35982283416
 20
-2926.049202273891
 10
42355.45415493258
 20
-2926.049202273891
 10
42355.45415493258
 20
-2924.049202273891
 10
42347.95415493258
 20
-2922.049202273891
 10
42362.95415493258
 20
-2918.049202273891
 10
42355.45415493258
 20
-2916.049202273891
 10
42356.35982283415
 20
-2914.049202273891
  0
LWPOLYLINE
  5
352
330
22
100
AcDbEntity
  8
__
  6
Continuous
 62
     4
100
AcDbPolyline
 90
        4
 70
     1
 43
0.0
 10
43013.30977949717
 20
-2874.049202273891
 10
43033.30977949717
 20
-2874.049202273891
 10
43033.30977949717
 20
-2914.049202273891
 10
43013.30977949717
 20
-2914.049202273891
  0
LINE
  5
358
330
22
100
AcDbEntity
  8
__
  6
Continuous
 62
     4
100
AcDbLine
 10
43013.30977949717
 20
-2874.049202273891
 30
0.0
 11
43033.30977949717
 21
-2914.049202273891
 31
0.0
  0
LINE
  5
359
330
22
100
AcDbEntity
  8
__
  6
Continuous
 62
     4
100
AcDbLine
 10
43033.30977949717
 20
-2874.049202273891
 30
0.0
 11
43013.30977949717
 21
-2914.049202273891
 31
0.0
  0
LWPOLYLINE
  5
35A
330
22
100
AcDbEntity
  8
__
  6
Continuous
 62
     4
100
AcDbPolyline
 90
        6
 70
     0
 43
0.0
 10
43236.29750994655
 20
-2879.801255545396
 10
43236.29750994655
 20
-2916.049202273891
 10
43228.79750994655
 20
-2918.049202273891
 10
43243.79750994655
 20
-2922.049202273891
 10
43233.44112926418
 20
-2924.049202273891
 10
43236.29750994655
 20
-2960.297149002385
  0
LINE
  5
362
330
22
100
AcDbEntity
  8
__
  6
Continuous
 62
     4
100
AcDbLine
 10
42606.35982283416
 20
-2914.049202273891
 30
0.0
 11
42606.35982283416
 21
-2926.049202273891
 31
0.0
  0
LWPOLYLINE
  5
363
330
22
100
AcDbEntity
  8
__
  6
Continuous
 62
     4
100
AcDbPolyline
 90
        4
 70
     1
 43
0.0
 10
42558.44188538197
 20
-2874.049202273891
 10
42578.44188538197
 20
-2874.049202273891
 10
42578.44188538197
 20
-2914.049202273891
 10
42558.44188538197
 20
-2914.049202273891
  0
LINE
  5
369
330
22
100
AcDbEntity
  8
__
  6
Continuous
 62
     4
100
AcDbLine
 10
42578.44188538197
 20
-2874.049202273891
 30
0.0
 11
42558.44188538197
 21
-2914.049202273891
 31
0.0
  0
LINE
  5
36A
330
22
100
AcDbEntity
  8
__
  6
Continuous
 62
     4
100
AcDbLine
 10
42558.44188538197
 20
-2874.049202273891
 30
0.0
 11
42578.44188538197
 21
-2914.049202273891
 31
0.0
  0
LINE
  5
36B
330
22
100
AcDbEntity
  8
__
  6
Continuous
 62
     4
100
AcDbLine
 10
42583.85982283416
 20
-2926.049202273891
 30
0.0
 11
42606.35982283416
 21
-2926.049202273891
 31
0.0
  0
LWPOLYLINE
  5
36C
330
22
100
AcDbEntity
  8
__
  6
Continuous
 62
     4
100
AcDbPolyline
 90
        4
 70
     1
 43
0.0
 10
43013.30977949717
 20
-2874.049202273891
 10
43033.30977949717
 20
-2874.049202273891
 10
43033.30977949717
 20
-2914.049202273891
 10
43013.30977949717
 20
-2914.049202273891
  0
LINE
  5
372
330
22
100
AcDbEntity
  8
__
  6
Continuous
 62
     4
100
AcDbLine
 10
43013.30977949717
 20
-2874.049202273891
 30
0.0
 11
43033.30977949717
 21
-2914.049202273891
 31
0.0
  0
LINE
  5
373
330
22
100
AcDbEntity
  8
__
  6
Continuous
 62
     4
100
AcDbLine
 10
43033.30977949717
 20
-2874.049202273891
 30
0.0
 11
43013.30977949717
 21
-2914.049202273891
 31
0.0
  0
LINE
  5
374
330
22
100
AcDbEntity
  8
0
  6
Continuous
 62
     4
100
AcDbLine
 10
42528.91222995237
 20
-1754.95025175896
 30
0.0
 11
42545.50472233161
 21
-1920.875175550554
 31
0.0
  0
LINE
  5
375
330
22
100
AcDbEntity
  8
0
  6
Continuous
 62
     4
100
AcDbLine
 10
42285.48431109468
 20
-1781.84573741391
 30
0.0
 11
42305.29438929646
 21
-1979.946519430785
 31
0.0
  0
LINE
  5
376
330
22
100
AcDbEntity
  8
0
  6
Continuous
 62
     4
100
AcDbLine
 10
42545.60663607516
 20
-1920.850113423895
 30
0.0
 11
42577.04689758827
 21
-1998.97825642067
 31
0.0
  0
LINE
  5
377
330
22
100
AcDbEntity
  8
0
  6
Continuous
 62
     4
100
AcDbLine
 10
42305.2943919508
 20
-1979.946518778044
 30
0.0
 11
42349.76021296693
 21
-2090.442801430453
 31
0.0
  0
LINE
  5
378
330
22
100
AcDbEntity
  8
0
  6
Continuous
 62
     4
100
AcDbLine
 10
42577.04689758828
 20
-1998.978256420699
 30
0.0
 11
42349.76020299859
 21
-2090.442776659401
 31
0.0
  0
LINE
  5
379
330
22
100
AcDbEntity
  8
0
  6
Continuous
 62
     4
100
AcDbLine
 10
42567.80463393018
 20
-1928.66374607665
 30
0.0
 11
42567.85733669189
 21
-1928.65983207752
 31
0.0
  0
LINE
  5
37A
330
22
100
AcDbEntity
  8
0
  6
Continuous
 62
     4
100
AcDbLine
 10
42306.57270531383
 20
-1983.12309061351
 30
0.0
 11
42546.88511132084
 21
-1924.027087533093
 31
0.0
  0
LINE
  5
37B
330
22
100
AcDbEntity
  8
0
  6
Continuous
 62
     4
100
AcDbLine
 10
42545.16587656736
 20
-1917.486717908178
 30
0.0
 11
42304.95555166843
 21
-1976.558143150505
 31
0.0
  0
LINE
  5
37C
330
22
100
AcDbEntity
  8
0
  6
Continuous
 62
     4
100
AcDbLine
 10
42545.60663607516
 20
-1920.850113423894
 30
0.0
 11
42305.29438929646
 21
-1979.946519430785
 31
0.0
  0
LWPOLYLINE
  5
37D
330
22
100
AcDbEntity
  8
__
  6
Continuous
 62
     7
100
AcDbPolyline
 90
       12
 70
     1
 43
0.0
 10
42272.13475846705
 20
-1783.180692676674
 10
42275.2491082581
 20
-1814.324190587054
 10
42259.77273269319
 20
-1815.871828143545
 10
42258.37968062689
 20
-1801.941307480605
 10
42265.85839443286
 20
-1801.193436100009
 10
42266.99870454181
 20
-1812.596537189502
 10
42272.50877332522
 20
-1812.04553031116
 10
42269.39442353418
 20
-1780.90203240078
 10
42288.46663787694
 20
-1778.994810966504
 10
42291.3148443694
 20
-1807.47687589112
 10
42288.07977562981
 20
-1807.80038276508
 10
42285.48431109469
 20
-1781.845737413911
  0
LWPOLYLINE
  5
38B
330
22
100
AcDbEntity
  8
__
  6
Continuous
 62
     7
100
AcDbPolyline
 90
       12
 70
     1
 43
0.0
 10
42542.51452453736
 20
-1756.142716069688
 10
42545.6288743284
 20
-1787.286213980066
 10
42561.1052498933
 20
-1785.738576423577
 10
42559.71219782701
 20
-1771.808055760637
 10
42552.23348402104
 20
-1772.555927141234
 10
42553.37379412999
 20
-1783.959028230726
 10
42547.86372534658
 20
-1784.510035109068
 10
42544.74937555554
 20
-1753.366537198688
 10
42525.67716121278
 20
-1755.273758632964
 10
42528.52536770524
 20
-1783.75582355758
 10
42531.76043644484
 20
-1783.43231668362
 10
42529.16497190972
 20
-1757.477671332451
  0
LINE
  5
399
330
22
100
AcDbEntity
  8
__
  6
Continuous
 62
     4
100
AcDbLine
 10
42288.46663787694
 20
-1778.994810966504
 30
0.0
 11
42525.67716121277
 21
-1755.273758632907
 31
0.0
  0
POINT
  5
39A
330
22
100
AcDbEntity
  8
__
  6
Continuous
 62
     4
100
AcDbPoint
 10
42269.39442353418
 20
-1780.90203240078
 30
0.0
  0
LINE
  5
39B
330
22
100
AcDbEntity
  8
0
  6
STYLE_01
 62
     4
100
AcDbLine
 10
42558.38066896811
 20
-1952.593216708527
 30
0.0
 11
42331.09397437845
 21
-2044.057736947222
 31
0.0
  0
POINT
  5
39C
330
22
100
AcDbEntity
  8
__
  6
Continuous
 62
     4
100
AcDbPoint
 10
42278.80953478088
 20
-1782.513215045293
 30
0.0
  0
LINE
  5
39D
330
22
100
AcDbEntity
  8
__
  6
Continuous
 62
     4
100
AcDbLine
 10
42402.67903669861
 20
-2221.944552012583
 30
0.0
 11
42629.96573128829
 21
-2130.480031773881
 31
0.0
  0
SOLID
  5
39E
330
22
100
AcDbEntity
  8
__
 62
     4
100
AcDbTrace
 10
42402.67903669861
 20
-2221.944552012583
 30
0.0
 11
42419.42913476782
 21
-2209.774893417041
 31
0.0
 12
42423.2698764402
 22
-2219.780367548064
 32
0.0
 13
42423.2698764402
 23
-2219.780367548064
 33
0.0
  0
SOLID
  5
39F
330
22
100
AcDbEntity
  8
__
 62
     4
100
AcDbTrace
 10
42629.96573128829
 20
-2130.480031773881
 30
0.0
 11
42613.21563321908
 21
-2142.649690369423
 31
0.0
 12
42609.37489154671
 22
-2132.644216238399
 32
0.0
 13
42609.37489154671
 23
-2132.644216238399
 33
0.0
  0
TEXT
  5
3A0
330
22
100
AcDbEntity
  8
__
 62
     4
100
AcDbText
 10
42492.37453066478
 20
-2173.41476095886
 30
0.0
 40
24.96837459363705
  1
φ245
 50
21.92079897621065
  7
_______
100
AcDbText
  0
LINE
  5
3A1
330
22
100
AcDbEntity
  8
__
  6
Continuous
 62
     4
100
AcDbLine
 10
42331.58378068374
 20
-2097.757317220981
 30
0.0
 11
42280.56023700035
 21
-2118.290168703138
 31
0.0
  0
LINE
  5
3A2
330
22
100
AcDbEntity
  8
__
  6
Continuous
 62
     4
100
AcDbLine
 10
42312.9175520636
 20
-2051.372277508802
 30
0.0
 11
42261.8940083802
 21
-2071.905128990959
 31
0.0
  0
LINE
  5
3A3
330
22
100
AcDbEntity
  8
__
  6
Continuous
 62
     4
100
AcDbLine
 10
42270.9277782589
 20
-2068.269766923709
 30
0.0
 11
42289.59400687902
 21
-2114.654806635896
 31
0.0
  0
SOLID
  5
3A4
330
22
100
AcDbEntity
  8
__
 62
     4
100
AcDbTrace
 10
42270.9277782589
 20
-2068.269766923709
 30
0.0
 11
42280.05973912749
 21
-2080.83883276169
 31
0.0
 12
42272.55175543848
 22
-2083.720877675537
 32
0.0
 13
42272.55175543848
 23
-2083.720877675537
 33
0.0
  0
SOLID
  5
3A5
330
22
100
AcDbEntity
  8
__
 62
     4
100
AcDbTrace
 10
42289.59400687902
 20
-2114.654806635896
 30
0.0
 11
42280.46204601043
 21
-2102.085740797914
 31
0.0
 12
42287.97002969945
 22
-2099.203695884068
 32
0.0
 13
42287.97002969945
 23
-2099.203695884068
 33
0.0
  0
TEXT
  5
3A6
330
22
100
AcDbEntity
  8
__
 62
     4
100
AcDbText
 10
42232.56666714778
 20
-2117.74006455758
 30
0.0
 40
27.14735243055556
  1
50
  7
_______
100
AcDbText
  0
LINE
  5
3A7
330
22
100
AcDbEntity
  8
__
  6
Continuous
 62
     4
100
AcDbLine
 10
42625.93276356715
 20
-2934.283235183787
 30
0.0
 11
42625.93276356715
 21
-2982.529635185141
 31
0.0
  0
LINE
  5
3A8
330
22
100
AcDbEntity
  8
__
  6
Continuous
 62
     4
100
AcDbLine
 10
42867.51828225124
 20
-2933.990644257252
 30
0.0
 11
42867.51828225124
 21
-2982.237044258607
 31
0.0
  0
LINE
  5
3A9
330
22
100
AcDbEntity
  8
__
  6
Continuous
 62
     4
100
AcDbLine
 10
42583.95738391198
 20
-2927.60173574082
 30
0.0
 11
42583.95738391198
 21
-3037.919044258606
 31
0.0
  0
LINE
  5
3AA
330
22
100
AcDbEntity
  8
__
  6
Continuous
 62
     4
100
AcDbLine
 10
42909.52018951094
 20
-2930.403309673978
 30
0.0
 11
42909.52018951094
 21
-3040.633362337774
 31
0.0
  0
LINE
  5
3AB
330
22
100
AcDbEntity
  8
__
  6
Continuous
 62
     4
100
AcDbLine
 10
42625.93276356715
 20
-2982.529635185141
 30
0.0
 11
42867.51828225124
 21
-2982.529635185141
 31
0.0
  0
SOLID
  5
3AC
330
22
100
AcDbEntity
  8
__
 62
     4
100
AcDbTrace
 10
42625.93276356715
 20
-2982.529635185141
 30
0.0
 11
42645.93154286402
 21
-2977.170978422935
 31
0.0
 12
42645.93154286402
 22
-2987.888291947347
 32
0.0
 13
42645.93154286402
 23
-2987.888291947347
 33
0.0
  0
SOLID
  5
3AD
330
22
100
AcDbEntity
  8
__
 62
     4
100
AcDbTrace
 10
42867.51828225124
 20
-2982.529635185141
 30
0.0
 11
42847.51950295436
 21
-2987.888291947347
 31
0.0
 12
42847.51950295436
 22
-2977.170978422935
 32
0.0
 13
42847.51950295436
 23
-2977.170978422935
 33
0.0
  0
TEXT
  5
3AE
330
22
100
AcDbEntity
  8
__
 62
     4
100
AcDbText
 10
42722.70396031005
 20
-2982.073130874958
 30
0.0
 40
27.14735243055556
  1
245
  7
_______
100
AcDbText
  0
LINE
  5
3AF
330
22
100
AcDbEntity
  8
__
  6
Continuous
 62
     4
100
AcDbLine
 10
42583.95738391198
 20
-3037.919044258606
 30
0.0
 11
42909.52018951094
 21
-3037.919044258606
 31
0.0
  0
SOLID
  5
3B0
330
22
100
AcDbEntity
  8
__
 62
     4
100
AcDbTrace
 10
42583.95738391198
 20
-3037.919044258606
 30
0.0
 11
42603.95616320884
 21
-3032.5603874964
 31
0.0
 12
42603.95616320884
 22
-3043.277701020812
 32
0.0
 13
42603.95616320884
 23
-3043.277701020812
 33
0.0
  0
SOLID
  5
3B1
330
22
100
AcDbEntity
  8
__
 62
     4
100
AcDbTrace
 10
42909.52018951094
 20
-3037.919044258606
 30
0.0
 11
42889.52141021407
 21
-3043.277701020812
 31
0.0
 12
42889.52141021407
 22
-3032.5603874964
 32
0.0
 13
42889.52141021407
 23
-3032.5603874964
 33
0.0
  0
TEXT
  5
3B2
330
22
100
AcDbEntity
  8
__
 62
     4
100
AcDbText
 10
42720.70396031004
 20
-3038.073130874958
 30
0.0
 40
27.14735243055556
  1
325
  7
_______
100
AcDbText
  0
TEXT
  5
3B3
330
22
100
AcDbEntity
  8
__
 62
     4
100
AcDbText
 10
42589.72629304128
 20
-2848.988887418205
 30
0.0
 40
24.4326171875
  1
回転自在接続0°～ 30°
 50
12.93598484386121
  7
_______
100
AcDbText
  0
LWPOLYLINE
  5
3B4
330
22
100
AcDbEntity
  8
__
  6
Continuous
 62
     4
100
AcDbPolyline
 90
        4
 70
     1
 43
0.0
 10
42582.61866582232
 20
-2822.573606635741
 10
42910.70355234984
 20
-2747.215241816784
 10
42917.86714513745
 20
-2778.403107059104
 10
42589.78225860993
 20
-2853.761471878061
  0
TEXT
  5
3BA
330
22
100
AcDbEntity
  8
__
 62
     4
100
AcDbText
 10
42287.05101921518
 20
-2025.141398868607
 30
0.0
 40
24.4326171875
  1
回転自在接続0°～ 30°
 50
13.81565226789942
  7
_______
100
AcDbText
  0
LWPOLYLINE
  5
3BB
330
22
100
AcDbEntity
  8
__
  6
Continuous
 62
     4
100
AcDbPolyline
 90
        4
 70
     1
 43
0.0
 10
42279.46915900926
 20
-1998.556778557651
 10
42606.35844010741
 20
-1918.170375359775
 10
42614.0
 20
-1949.244585927512
 10
42287.11071890185
 20
-2029.630989125388
  0
LINE
  5
3C1
330
22
100
AcDbEntity
  8
__
  6
Continuous
 62
     4
100
AcDbLine
 10
42318.5562029083
 20
-1660.175998918071
 30
0.0
 11
41921.0
 21
-1650.0
 31
0.0
  0
SOLID
  5
3C2
330
22
100
AcDbEntity
  8
__
 62
     4
100
AcDbTrace
 10
42318.5562029083
 20
-1660.175998918071
 30
0.0
 11
42286.52864063079
 21
-1667.570144287242
 31
0.0
 12
42287.1224476701
 22
-1650.565735508292
 32
0.0
 13
42287.1224476701
 23
-1650.565735508292
 33
0.0
  0
LINE
  5
3C3
330
22
100
AcDbEntity
  8
__
  6
Continuous
 62
     4
100
AcDbLine
 10
42434.0
 20
-1716.221497578509
 30
0.0
 11
41935.0
 21
-1802.032561381854
 31
0.0
  0
SOLID
  5
3C4
330
22
100
AcDbEntity
  8
__
 62
     4
100
AcDbTrace
 10
42434.0
 20
-1716.221497578509
 30
0.0
 11
42403.97174369839
 21
-1729.590938653783
 31
0.0
 12
42401.31004667381
 22
-1712.78564503329
 32
0.0
 13
42401.31004667381
 23
-1712.78564503329
 33
0.0
  0
LINE
  5
3C5
330
22
100
AcDbEntity
  8
__
  6
Continuous
 62
     4
100
AcDbLine
 10
42270.47218278678
 20
-1876.0
 30
0.0
 11
41925.0
 21
-1974.0
 31
0.0
  0
SOLID
  5
3C6
330
22
100
AcDbEntity
  8
__
 62
     4
100
AcDbTrace
 10
42270.47218278678
 20
-1876.0
 30
0.0
 11
42242.00591154545
 21
-1892.43500936401
 31
0.0
 12
42237.60216405876
 22
-1876.0
 32
0.0
 13
42237.60216405876
 23
-1876.0
 33
0.0
  0
LINE
  5
3C7
330
22
100
AcDbEntity
  8
__
  6
Continuous
 62
     4
100
AcDbLine
 10
42353.0
 20
-1902.0
 30
0.0
 11
41972.0
 21
-2165.0
 31
0.0
  0
SOLID
  5
3C8
330
22
100
AcDbEntity
  8
__
 62
     4
100
AcDbTrace
 10
42353.0
 20
-1902.0
 30
0.0
 11
42331.4353274304
 21
-1926.807318036139
 31
0.0
 12
42321.92078671236
 22
-1912.701431334254
 32
0.0
 13
42321.92078671236
 23
-1912.701431334254
 33
0.0
  0
LINE
  5
3C9
330
22
100
AcDbEntity
  8
__
  6
Continuous
 62
     4
100
AcDbLine
 10
42417.99327803123
 20
-2260.0
 30
0.0
 11
41972.0
 21
-2486.565625
 31
0.0
  0
SOLID
  5
3CA
330
22
100
AcDbEntity
  8
__
 62
     4
100
AcDbTrace
 10
42417.99327803123
 20
-2260.0
 30
0.0
 11
42393.18595999509
 21
-2281.564672569605
 31
0.0
 12
42385.72717412737
 22
-2266.271895251501
 32
0.0
 13
42385.72717412737
 23
-2266.271895251501
 33
0.0
  0
LINE
  5
3CB
330
22
100
AcDbEntity
  8
__
  6
Continuous
 62
     4
100
AcDbLine
 10
42555.08871782021
 20
-2600.678213493367
 30
0.0
 11
41972.0
 21
-2486.565625
 31
0.0
  0
SOLID
  5
3CC
330
22
100
AcDbEntity
  8
__
 62
     4
100
AcDbTrace
 10
42555.08871782021
 20
-2600.678213493367
 30
0.0
 11
42522.26374631048
 21
-2602.398497355221
 31
0.0
 12
42525.80131668334
 22
-2585.755537264585
 32
0.0
 13
42525.80131668334
 23
-2585.755537264585
 33
0.0
  0
LINE
  5
3CD
330
22
100
AcDbEntity
  8
__
  6
Continuous
 62
     4
100
AcDbLine
 10
42640.0
 20
-2868.0
 30
0.0
 11
41974.0
 21
-2799.5
 31
0.0
  0
SOLID
  5
3CE
330
22
100
AcDbEntity
  8
__
 62
     4
100
AcDbTrace
 10
42640.0
 20
-2868.0
 30
0.0
 11
42607.53466574719
 21
-2873.14200379558
 31
0.0
 12
42609.31319389692
 22
-2856.220438786924
 32
0.0
 13
42609.31319389692
 23
-2856.220438786924
 33
0.0
  0
LINE
  5
3CF
330
22
100
AcDbEntity
  8
__
  6
Continuous
 62
     4
100
AcDbLine
 10
42606.16229364338
 20
-2948.0
 30
0.0
 11
41905.0
 21
-3014.125
 31
0.0
  0
SOLID
  5
3D0
330
22
100
AcDbEntity
  8
__
 62
     4
100
AcDbTrace
 10
42606.16229364338
 20
-2948.0
 30
0.0
 11
42575.27457959957
 21
-2959.242208516475
 31
0.0
 12
42573.79164435837
 22
-2942.292181148001
 32
0.0
 13
42573.79164435837
 23
-2942.292181148001
 33
0.0
  0
LINE
  5
3D1
330
22
100
AcDbEntity
  8
0
  6
Continuous
 62
     2
100
AcDbLine
 10
42257.89568560229
 20
-1788.32238874661
 30
0.0
 11
42258.37968062689
 21
-1801.941307480605
 31
0.0
  0
LINE
  5
3D2
330
22
100
AcDbEntity
  8
0
  6
Continuous
 62
     2
100
AcDbLine
 10
42257.67199013555
 20
-1788.344200582928
 30
0.0
 11
42257.89568560229
 21
-1788.32238874661
 31
0.0
  0
LINE
  5
3D3
330
22
100
AcDbEntity
  8
0
  6
Continuous
 62
     2
100
AcDbLine
 10
42257.59039968758
 20
-1786.041659296148
 30
0.0
 11
42257.67199013555
 21
-1788.344200582928
 31
0.0
  0
LINE
  5
3D4
330
22
100
AcDbEntity
  8
0
  6
Continuous
 62
     2
100
AcDbLine
 10
42257.81385771689
 20
-1786.019870611601
 30
0.0
 11
42257.59039968758
 21
-1786.041659296148
 31
0.0
  0
LINE
  5
3D5
330
22
100
AcDbEntity
  8
0
  6
Continuous
 62
     2
100
AcDbLine
 10
42257.44712409478
 20
-1775.700517844258
 30
0.0
 11
42257.81385771689
 21
-1786.019870611601
 31
0.0
  0
LWPOLYLINE
  5
3D6
330
22
100
AcDbEntity
  8
0
  6
Continuous
 62
     2
100
AcDbPolyline
 90
       10
 70
   128
 43
0.0
 10
42257.51061274156
 20
-1771.709200530388
 10
42257.46960948739
 20
-1772.206561587006
 10
42257.43805399702
 20
-1772.704366531514
 10
42257.41594627046
 20
-1773.202615363912
 10
42257.40328630771
 20
-1773.701308084201
 10
42257.40007410876
 20
-1774.200444692381
 10
42257.40630967363
 20
-1774.700025188451
 10
42257.4219930023
 20
-1775.200049572411
 10
42257.44712409478
 20
-1775.700517844263
 10
42257.44712409478
 20
-1775.700517844263
  0
LWPOLYLINE
  5
3E2
330
22
100
AcDbEntity
  8
0
  6
Continuous
 62
     2
100
AcDbPolyline
 90
       10
 70
   128
 43
0.0
 10
42258.8462806953
 20
-1765.564180401536
 10
42258.59732845954
 20
-1766.307588142587
 10
42258.37180300707
 20
-1767.058058676511
 10
42258.1697043379
 20
-1767.815592003308
 10
42257.99103245203
 20
-1768.580188122976
 10
42257.83578734946
 20
-1769.351847035518
 10
42257.7039690302
 20
-1770.130568740931
 10
42257.59557749423
 20
-1770.916353239218
 10
42257.51061274157
 20
-1771.709200530376
 10
42257.51061274157
 20
-1771.709200530376
  0
LINE
  5
3EE
330
22
100
AcDbEntity
  8
0
  6
Continuous
 62
     2
100
AcDbLine
 10
42279.52862963518
 20
-1710.39894723405
 30
0.0
 11
42258.8462806953
 21
-1765.564180401536
 31
0.0
  0
LWPOLYLINE
  5
3EF
330
22
100
AcDbEntity
  8
0
  6
Continuous
 62
     2
100
AcDbPolyline
 90
       10
 70
   128
 43
0.0
 10
42302.50765651056
 20
-1682.19925391599
 10
42298.65912796296
 20
-1684.708493659244
 10
42295.08949946913
 20
-1687.507939665785
 10
42291.79877102906
 20
-1690.597591935613
 10
42288.78694264276
 20
-1693.977450468727
 10
42286.05401431022
 20
-1697.647515265128
 10
42283.59998603145
 20
-1701.607786324815
 10
42281.42485780644
 20
-1705.858263647789
 10
42279.52862963519
 20
-1710.398947234049
 10
42279.52862963519
 20
-1710.398947234049
  0
LINE
  5
3FB
330
22
100
AcDbEntity
  8
0
  6
Continuous
 62
     2
100
AcDbLine
 10
42350.57523376299
 20
-1653.704035826984
 30
0.0
 11
42302.50765651056
 21
-1682.199253915989
 31
0.0
  0
LWPOLYLINE
  5
3FC
330
22
100
AcDbEntity
  8
0
  6
Continuous
 62
     2
100
AcDbPolyline
 90
       10
 70
   128
 43
0.0
 10
42394.62096257277
 20
-1638.39615973935
 10
42388.8097908375
 20
-1639.264098409327
 10
42383.08589214054
 20
-1640.430764462441
 10
42377.44926648186
 20
-1641.89615789869
 10
42371.89991386149
 20
-1643.660278718076
 10
42366.43783427942
 20
-1645.723126920599
 10
42361.06302773564
 20
-1648.084702506258
 10
42355.77549423017
 20
-1650.745005475053
 10
42350.57523376299
 20
-1653.704035826985
 10
42350.57523376299
 20
-1653.704035826985
  0
LWPOLYLINE
  5
408
330
22
100
AcDbEntity
  8
0
  6
Continuous
 62
     2
100
AcDbPolyline
 90
       10
 70
   128
 43
0.0
 10
42440.79417240485
 20
-1644.907072924194
 10
42435.12024779587
 20
-1643.008349910756
 10
42429.41840129545
 20
-1641.419586573127
 10
42423.6886329036
 20
-1640.140782911307
 10
42417.93094262031
 20
-1639.171938925297
 10
42412.14533044558
 20
-1638.513054615097
 10
42406.33179637941
 20
-1638.164129980705
 10
42400.49034042181
 20
-1638.125165022123
 10
42394.62096257277
 20
-1638.39615973935
 10
42394.62096257277
 20
-1638.39615973935
  0
LINE
  5
414
330
22
100
AcDbEntity
  8
0
  6
Continuous
 62
     2
100
AcDbLine
 10
42493.46096622514
 20
-1663.580001605869
 30
0.0
 11
42440.79417240485
 21
-1644.907072924194
 31
0.0
  0
LWPOLYLINE
  5
415
330
22
100
AcDbEntity
  8
0
  6
Continuous
 62
     2
100
AcDbPolyline
 90
       10
 70
   128
 43
0.0
 10
42521.45469099237
 20
-1686.809503387616
 10
42518.71702461081
 20
-1682.720656179505
 10
42515.76177273944
 20
-1678.970425967221
 10
42512.58893537826
 20
-1675.558812750763
 10
42509.19851252726
 20
-1672.485816530132
 10
42505.59050418645
 20
-1669.751437305327
 10
42501.76491035583
 20
-1667.355675076348
 10
42497.72173103539
 20
-1665.298529843196
 10
42493.46096622514
 20
-1663.58000160587
 10
42493.46096622514
 20
-1663.58000160587
  0
LINE
  5
421
330
22
100
AcDbEntity
  8
0
  6
Continuous
 62
     2
100
AcDbLine
 10
42552.40412080305
 20
-1736.940285373217
 30
0.0
 11
42521.45469099237
 21
-1686.809503387616
 31
0.0
  0
LWPOLYLINE
  5
422
330
22
100
AcDbEntity
  8
0
  6
Continuous
 62
     2
100
AcDbPolyline
 90
       10
 70
   128
 43
0.0
 10
42554.90170667251
 20
-1742.711537065106
 10
42554.66518244736
 20
-1741.950037145732
 10
42554.40703707691
 20
-1741.19999250004
 10
42554.12727056117
 20
-1740.46140312803
 10
42553.82588290013
 20
-1739.734269029703
 10
42553.50287409379
 20
-1739.018590205058
 10
42553.15824414218
 20
-1738.314366654095
 10
42552.79199304526
 20
-1737.621598376815
 10
42552.40412080305
 20
-1736.940285373217
 10
42552.40412080305
 20
-1736.940285373217
  0
LWPOLYLINE
  5
42E
330
22
100
AcDbEntity
  8
0
  6
Continuous
 62
     2
100
AcDbPolyline
 90
       10
 70
   128
 43
0.0
 10
42555.73503021796
 20
-1746.61540906312
 10
42555.66300897093
 20
-1746.119512901698
 10
42555.58180366786
 20
-1745.625877357895
 10
42555.49141430875
 20
-1745.134502431713
 10
42555.39184089358
 20
-1744.645388123152
 10
42555.28308342238
 20
-1744.158534432211
 10
42555.16514189515
 20
-1743.673941358891
 10
42555.03801631185
 20
-1743.191608903191
 10
42554.90170667251
 20
-1742.711537065112
 10
42554.90170667251
 20
-1742.711537065112
  0
LINE
  5
43A
330
22
100
AcDbEntity
  8
0
  6
Continuous
 62
     2
100
AcDbLine
 10
42557.3686662127
 20
-1756.811230193534
 30
0.0
 11
42555.73503021796
 21
-1746.61540906313
 31
0.0
  0
LINE
  5
43B
330
22
100
AcDbEntity
  8
0
  6
Continuous
 62
     2
100
AcDbLine
 10
42557.95686869734
 20
-1759.064373345508
 30
0.0
 11
42557.59212424202
 21
-1756.789441508987
 31
0.0
  0
LINE
  5
43C
330
22
100
AcDbEntity
  8
0
  6
Continuous
 62
     2
100
AcDbLine
 10
42557.73317323059
 20
-1759.086185181827
 30
0.0
 11
42557.95686869734
 21
-1759.064373345508
 31
0.0
  0
LINE
  5
43D
330
22
100
AcDbEntity
  8
0
  6
Continuous
 62
     2
100
AcDbLine
 10
42559.88915688139
 20
-1772.542073601572
 30
0.0
 11
42557.73317323059
 21
-1759.086185181827
 31
0.0
  0
LINE
  5
43E
330
22
100
AcDbEntity
  8
__
  6
STYLE_01
 62
     4
100
AcDbLine
 10
42269.44633771823
 20
-1780.929292869418
 30
0.0
 11
42544.97191389694
 21
-1754.063666772492
 31
0.0
  0
POINT
  5
43F
330
22
100
AcDbEntity
  8
__
  6
Continuous
 62
     4
100
AcDbPoint
 10
42269.44633771823
 20
-1780.929292869418
 30
0.0
  0
LINE
  5
440
330
22
100
AcDbEntity
  8
__
  6
Continuous
 62
     4
100
AcDbLine
 10
42429.34043501511
 20
-1756.660386619748
 30
0.0
 11
42485.45948188819
 21
-1676.376693904102
 31
0.0
  0
LINE
  5
441
330
22
100
AcDbEntity
  8
__
  6
Continuous
 62
     4
100
AcDbLine
 10
42530.50451932919
 20
-1747.94955989294
 30
0.0
 11
42429.34043501511
 21
-1756.660386619748
 31
0.0
  0
LINE
  5
442
330
22
100
AcDbEntity
  8
__
  6
Continuous
 62
     4
100
AcDbLine
 10
42529.3323969466
 20
-1740.646305162847
 30
0.0
 11
42528.36363347779
 21
-1735.810790475202
 31
0.0
  0
LINE
  5
443
330
22
100
AcDbEntity
  8
__
  6
Continuous
 62
     4
100
AcDbLine
 10
42530.50451932919
 20
-1747.94955989294
 30
0.0
 11
42530.16082247911
 21
-1745.507829212976
 31
0.0
  0
LINE
  5
444
330
22
100
AcDbEntity
  8
__
  6
Continuous
 62
     4
100
AcDbLine
 10
42518.01282963535
 20
-1710.95150976488
 30
0.0
 11
42510.5389114389
 21
-1699.718957497474
 31
0.0
  0
LINE
  5
445
330
22
100
AcDbEntity
  8
__
  6
Continuous
 62
     4
100
AcDbLine
 10
42530.16082247911
 20
-1745.507829212976
 30
0.0
 11
42529.3323969466
 21
-1740.646305162847
 31
0.0
  0
LINE
  5
446
330
22
100
AcDbEntity
  8
__
  6
Continuous
 62
     4
100
AcDbLine
 10
42491.6070424919
 20
-1680.569359484347
 30
0.0
 11
42485.45948188819
 21
-1676.376693904102
 31
0.0
  0
LINE
  5
447
330
22
100
AcDbEntity
  8
__
  6
Continuous
 62
     4
100
AcDbLine
 10
42501.68842661903
 20
-1689.535706439962
 30
0.0
 11
42491.6070424919
 21
-1680.569359484347
 31
0.0
  0
LINE
  5
448
330
22
100
AcDbEntity
  8
__
  6
Continuous
 62
     4
100
AcDbLine
 10
42510.5389114389
 20
-1699.718957497474
 30
0.0
 11
42501.68842661903
 21
-1689.535706439962
 31
0.0
  0
LINE
  5
449
330
22
100
AcDbEntity
  8
__
  6
Continuous
 62
     4
100
AcDbLine
 10
42523.98717036465
 20
-1723.048490235119
 30
0.0
 11
42518.01282963535
 21
-1710.95150976488
 31
0.0
  0
LINE
  5
44A
330
22
100
AcDbEntity
  8
__
  6
Continuous
 62
     4
100
AcDbLine
 10
42528.36360385193
 20
-1735.810798552137
 30
0.0
 11
42523.98717036465
 21
-1723.048490235119
 31
0.0
  0
LINE
  5
44B
330
22
100
AcDbEntity
  8
__
  6
Continuous
 62
     4
100
AcDbLine
 10
42737.07512970488
 20
-1890.258786109502
 30
0.0
 11
42699.52333347396
 21
-1893.229290866043
 31
0.0
  0
LINE
  5
44C
330
22
100
AcDbEntity
  8
__
  6
Continuous
 62
     4
100
AcDbLine
 10
42464.90021514671
 20
-2421.385039712179
 30
0.0
 11
42413.87667146331
 21
-2441.917891194336
 31
0.0
  0
LINE
  5
44D
330
22
100
AcDbEntity
  8
__
  6
Continuous
 62
     4
100
AcDbLine
 10
42446.23398652657
 20
-2375.0
 30
0.0
 11
42395.21044284316
 21
-2395.532851482158
 31
0.0
  0
LINE
  5
44E
330
22
100
AcDbEntity
  8
__
  6
Continuous
 62
     4
100
AcDbLine
 10
42404.24421272186
 20
-2391.897489414907
 30
0.0
 11
42422.91044134199
 21
-2438.282529127095
 31
0.0
  0
SOLID
  5
44F
330
22
100
AcDbEntity
  8
__
 62
     4
100
AcDbTrace
 10
42404.24421272186
 20
-2391.897489414907
 30
0.0
 11
42413.37617359046
 21
-2404.466555252889
 31
0.0
 12
42405.86818990144
 22
-2407.348600166735
 32
0.0
 13
42405.86818990144
 23
-2407.348600166735
 33
0.0
  0
SOLID
  5
450
330
22
100
AcDbEntity
  8
__
 62
     4
100
AcDbTrace
 10
42422.91044134199
 20
-2438.282529127095
 30
0.0
 11
42413.7784804734
 21
-2425.713463289113
 31
0.0
 12
42421.28646416242
 22
-2422.831418375267
 32
0.0
 13
42421.28646416242
 23
-2422.831418375267
 33
0.0
  0
TEXT
  5
451
330
22
100
AcDbEntity
  8
__
 62
     4
100
AcDbText
 10
42365.88310161075
 20
-2441.367787048778
 30
0.0
 40
27.14735243055556
  1
50
  7
_______
100
AcDbText
  0
LINE
  5
452
330
22
100
AcDbEntity
  8
__
  6
Continuous
 62
     4
100
AcDbLine
 10
42595.83901938729
 20
-2745.969574596577
 30
0.0
 11
42544.81547570389
 21
-2766.502426078734
 31
0.0
  0
LINE
  5
453
330
22
100
AcDbEntity
  8
__
  6
Continuous
 62
     4
100
AcDbLine
 10
42577.17279076715
 20
-2699.584534884398
 30
0.0
 11
42526.14924708374
 21
-2720.117386366556
 31
0.0
  0
LINE
  5
454
330
22
100
AcDbEntity
  8
__
  6
Continuous
 62
     4
100
AcDbLine
 10
42535.18301696244
 20
-2716.482024299305
 30
0.0
 11
42553.84924558256
 21
-2762.867064011492
 31
0.0
  0
SOLID
  5
455
330
22
100
AcDbEntity
  8
__
 62
     4
100
AcDbTrace
 10
42535.18301696244
 20
-2716.482024299305
 30
0.0
 11
42544.31497783103
 21
-2729.051090137287
 31
0.0
 12
42536.80699414202
 22
-2731.933135051132
 32
0.0
 13
42536.80699414202
 23
-2731.933135051132
 33
0.0
  0
SOLID
  5
456
330
22
100
AcDbEntity
  8
__
 62
     4
100
AcDbTrace
 10
42553.84924558256
 20
-2762.867064011492
 30
0.0
 11
42544.71728471397
 21
-2750.29799817351
 31
0.0
 12
42552.225268403
 22
-2747.415953259664
 32
0.0
 13
42552.225268403
 23
-2747.415953259664
 33
0.0
  0
TEXT
  5
457
330
22
100
AcDbEntity
  8
__
 62
     4
100
AcDbText
 10
42496.82190585133
 20
-2765.952321933176
 30
0.0
 40
27.14735243055556
  1
50
  7
_______
100
AcDbText
  0
LINE
  5
458
330
22
100
AcDbEntity
  8
__
  6
Continuous
 62
     4
100
AcDbLine
 10
42626.0
 20
-2302.658712238944
 30
0.0
 11
42775.32982896135
 21
-2673.739029936305
 31
0.0
  0
SOLID
  5
459
330
22
100
AcDbEntity
  8
__
 62
     4
100
AcDbTrace
 10
42626.0
 20
-2302.658712238944
 30
0.0
 11
42638.16965859554
 21
-2319.408810308155
 31
0.0
 12
42628.16418446452
 22
-2323.249551980532
 32
0.0
 13
42628.16418446452
 23
-2323.249551980532
 33
0.0
  0
SOLID
  5
45A
330
22
100
AcDbEntity
  8
__
 62
     4
100
AcDbTrace
 10
42775.32982896135
 20
-2673.739029936305
 30
0.0
 11
42763.16017036581
 21
-2656.988931867094
 31
0.0
 12
42773.16564449683
 22
-2653.148190194717
 32
0.0
 13
42773.16564449683
 23
-2653.148190194717
 33
0.0
  0
TEXT
  5
45B
330
22
100
AcDbEntity
  8
__
 62
     4
100
AcDbText
 10
42696.33110539395
 20
-2469.872631797768
 30
0.0
 40
27.14735243055556
  1
400
  7
_______
100
AcDbText
  0
LINE
  5
45C
330
22
100
AcDbEntity
  8
__
  6
Continuous
 62
     4
100
AcDbLine
 10
42361.05710289881
 20
-2032.0
 30
0.0
 11
42510.38693186016
 21
-2403.080317697361
 31
0.0
  0
SOLID
  5
45D
330
22
100
AcDbEntity
  8
__
 62
     4
100
AcDbTrace
 10
42361.05710289881
 20
-2032.0
 30
0.0
 11
42373.22676149435
 21
-2048.750098069211
 31
0.0
 12
42363.22128736333
 22
-2052.590839741589
 32
0.0
 13
42363.22128736333
 23
-2052.590839741589
 33
0.0
  0
SOLID
  5
45E
330
22
100
AcDbEntity
  8
__
 62
     4
100
AcDbTrace
 10
42510.38693186016
 20
-2403.080317697361
 30
0.0
 11
42498.21727326462
 21
-2386.33021962815
 31
0.0
 12
42508.22274739564
 22
-2382.489477955773
 32
0.0
 13
42508.22274739564
 23
-2382.489477955773
 33
0.0
  0
TEXT
  5
45F
330
22
100
AcDbEntity
  8
__
 62
     4
100
AcDbText
 10
42417.54166666666
 20
-2174.638888888889
 30
0.0
 40
27.14735243055556
  1
400
  7
_______
100
AcDbText
  0
LINE
  5
460
330
22
100
AcDbEntity
  8
__
  6
Continuous
 62
     4
100
AcDbLine
 10
42695.0
 20
-2652.16860455671
 30
0.0
 11
42737.34549043365
 21
-2757.395950397389
 31
0.0
  0
SOLID
  5
461
330
22
100
AcDbEntity
  8
__
 62
     4
100
AcDbTrace
 10
42695.0
 20
-2652.16860455671
 30
0.0
 11
42707.16965859554
 21
-2668.918702625921
 31
0.0
 12
42697.16418446452
 22
-2672.759444298299
 32
0.0
 13
42697.16418446452
 23
-2672.759444298299
 33
0.0
  0
LINE
  5
462
330
22
100
AcDbEntity
  8
__
  6
Continuous
 62
     4
100
AcDbLine
 10
42737.34549043365
 20
-2757.395950397389
 30
0.0
 11
42737.34549043365
 21
-2928.843204052586
 31
0.0
  0
SOLID
  5
463
330
22
100
AcDbEntity
  8
__
 62
     4
100
AcDbTrace
 10
42737.34549043365
 20
-2928.843204052586
 30
0.0
 11
42731.98683367144
 21
-2908.844424755711
 31
0.0
 12
42742.70414719587
 22
-2908.844424755711
 32
0.0
 13
42742.70414719587
 23
-2908.844424755711
 33
0.0
  0
TEXT
  5
464
330
22
100
AcDbEntity
  8
__
 62
     4
100
AcDbText
 10
42729.54166666666
 20
-2740.055617292689
 30
0.0
 40
27.14735243055556
  1
300
  7
_______
100
AcDbText
  0
TEXT
  5
465
330
22
100
AcDbEntity
  8
__
 62
     4
100
AcDbText
 10
42424.54166666666
 20
-1908.256861767084
 30
0.0
 40
27.14735243055556
  1
300
  7
_______
100
AcDbText
  0
LINE
  5
466
330
22
100
AcDbEntity
  8
__
  6
Continuous
 62
     4
100
AcDbLine
 10
42463.40355029343
 20
-2044.71051654005
 30
0.0
 11
42425.45051401306
 21
-1950.398316100949
 31
0.0
  0
SOLID
  5
467
330
22
100
AcDbEntity
  8
__
 62
     4
100
AcDbTrace
 10
42463.40355029343
 20
-2044.71051654005
 30
0.0
 11
42444.08303804252
 21
-2018.118112783659
 31
0.0
 12
42459.96769774821
 22
-2012.020563213869
 32
0.0
 13
42459.96769774821
 23
-2012.020563213869
 33
0.0
  0
LINE
  5
468
330
22
100
AcDbEntity
  8
__
  6
Continuous
 62
     4
100
AcDbLine
 10
42425.45051268581
 20
-1950.39831642734
 30
0.0
 11
42407.20912580759
 21
-1767.496479820955
 31
0.0
  0
SOLID
  5
469
330
22
100
AcDbEntity
  8
__
 62
     4
100
AcDbTrace
 10
42407.20912580759
 20
-1767.496479820955
 30
0.0
 11
42418.45133432406
 21
-1798.38419386477
 31
0.0
 12
42401.50130695559
 22
-1799.867129105965
 32
0.0
 13
42401.50130695559
 23
-1799.867129105965
 33
0.0
  0
TEXT
  5
46C
330
22
100
AcDbEntity
  8
__
 62
     4
100
AcDbText
 10
41624.64592445419
 20
-3935.63888888889
 30
0.0
 40
27.14735243055556
  1
角度0°の場合
  7
_______
100
AcDbText
  0
TEXT
  5
46D
330
22
100
AcDbEntity
  8
__
 62
     4
100
AcDbText
 10
42273.77698614049
 20
-3945.277777800248
 30
0.0
 40
27.14735243055556
  1
角度15°の場合
  7
_______
100
AcDbText
  0
TEXT
  5
46E
330
22
100
AcDbEntity
  8
__
 62
     4
100
AcDbText
 10
42945.73785646897
 20
-3945.277777777778
 30
0.0
 40
27.14735243055556
  1
角度30°の場合
  7
_______
100
AcDbText
  0
TEXT
  5
470
330
22
100
AcDbEntity
  8
__
 62
     4
100
AcDbText
 10
40747.0
 20
-2096.75
 30
0.0
 40
24.4326171875
  1
※陸屋根用
  7
_______
100
AcDbText
  0
LINE
  5
471
330
22
100
AcDbEntity
  8
__
  6
STYLE_01
 62
     6
100
AcDbLine
 10
41594.7024473744
 20
-3832.205998296392
 30
0.0
 11
41514.0
 21
-3832.205998296392
 31
0.0
  0
LINE
  5
472
330
22
100
AcDbEntity
  8
__
  6
STYLE_01
 62
     6
100
AcDbLine
 10
41955.40489474881
 20
-3832.205998296392
 30
0.0
 11
41874.70244737441
 21
-3832.205998296392
 31
0.0
  0
TEXT
  5
473
330
22
100
AcDbEntity
  8
__
 62
     4
100
AcDbText
 10
39301.0
 20
-1573.873506804074
 30
0.0
 40
21.828125
  1
右図の「納まり事例」を参考にして[1]～[6]の
  7
________
100
AcDbText
  0
TEXT
  5
474
330
22
100
AcDbEntity
  8
__
 62
     4
100
AcDbText
 10
39301.0
 20
-1619.873506804074
 30
0.0
 40
21.828125
  1
部品をつなぎ合わせてご使用ください。
  7
________
100
AcDbText
  0
TEXT
  5
475
330
22
100
AcDbEntity
  8
__
 62
     4
100
AcDbText
 10
39301.0
 20
-1699.873506804074
 30
0.0
 40
21.828125
  1
部品毎に「基点」が設定されています。
  7
________
100
AcDbText
  0
TEXT
  5
476
330
22
100
AcDbEntity
  8
__
 62
     4
100
AcDbText
 10
39301.0
 20
-1741.873506804074
 30
0.0
 40
21.828125
  1
部品を連結する際には①と①'、②と②'
  7
________
100
AcDbText
  0
TEXT
  5
477
330
22
100
AcDbEntity
  8
__
 62
     4
100
AcDbText
 10
39301.0
 20
-1787.873506804074
 30
0.0
 40
21.828125
  1
のように基点を合わせてください。
  7
________
100
AcDbText
  0
TEXT
  5
478
330
22
100
AcDbEntity
  8
__
 62
     4
100
AcDbText
 10
39301.0
 20
-1867.873506804074
 30
0.0
 40
21.828125
  1
またトップアングルチューブ、ボトムアングル
  7
________
100
AcDbText
  0
TEXT
  5
479
330
22
100
AcDbEntity
  8
__
 62
     4
100
AcDbText
 10
39301.0
 20
-1908.870192202489
 30
0.0
 40
21.828125
  1
チューブは角度を調節できるようになっており、
  7
________
100
AcDbText
  0
TEXT
  5
47A
330
22
100
AcDbEntity
  8
__
 62
     4
100
AcDbText
 10
39301.0
 20
-1950.870192202489
 30
0.0
 40
21.828125
  1
回転させることによって角度が0°から30°
  7
________
100
AcDbText
  0
TEXT
  5
47B
330
22
100
AcDbEntity
  8
__
 62
     4
100
AcDbText
 10
39301.0
 20
-2000.979363736097
 30
0.0
 40
21.828125
  1
まで曲げることができます。
  7
________
100
AcDbText
  0
TEXT
  5
47C
330
22
100
AcDbEntity
  8
__
 62
     4
100
AcDbText
 10
39301.0
 20
-2048.979363736097
 30
0.0
 40
21.828125
  1
現場に合わせて変更してください。
  7
________
100
AcDbText
  0
TEXT
  5
47D
330
22
100
AcDbEntity
  8
__
 62
     4
100
AcDbText
 10
39296.0
 20
-2139.062224146979
 30
0.0
 40
24.25347222222222
  1
※スターターキットに含まれる
  7
________
100
AcDbText
  0
TEXT
  5
47F
330
22
100
AcDbEntity
  8
__
 62
     4
100
AcDbText
 10
39309.51618531576
 20
-2187.283942742666
 30
0.0
 40
23.71840375675651
  1
　ものは[1].[3].[5]となります。
  7
________
100
AcDbText
  0
TEXT
  5
480
330
22
100
AcDbEntity
  8
__
 62
     4
100
AcDbText
 10
39332.0
 20
-2662.75
 30
0.0
 40
21.828125
  1
延長チューブは距離によって必要な
  7
________
100
AcDbText
  0
TEXT
  5
481
330
22
100
AcDbEntity
  8
__
 62
     4
100
AcDbText
 10
39332.0
 20
-2704.75
 30
0.0
 40
21.828125
  1
長さだけ本数をつないでください。
  7
________
100
AcDbText
  0
TEXT
  5
482
330
22
100
AcDbEntity
  8
__
 62
     4
100
AcDbText
 10
39332.0
 20
-2777.5125
 30
0.0
 40
21.828125
  1
延長チューブは長さが400mmと600mmが
  7
________
100
AcDbText
  0
TEXT
  5
483
330
22
100
AcDbEntity
  8
__
 62
     4
100
AcDbText
 10
39332.0
 20
-2806.75
 30
0.0
 40
21.828125
  1
あります。
  7
________
100
AcDbText
  0
LINE
  5
48A
330
22
100
AcDbEntity
  8
0
  6
Continuous
 62
     7
100
AcDbLine
 10
40169.78639410468
 20
-1755.237247949766
 30
0.0
 11
40168.9464350507
 21
-1768.838853276148
 31
0.0
  0
LINE
  5
48B
330
22
100
AcDbEntity
  8
0
  6
Continuous
 62
     7
100
AcDbLine
 10
40169.56163775206
 20
-1755.237247949766
 30
0.0
 11
40169.78639410468
 21
-1755.237247949766
 31
0.0
  0
LINE
  5
48C
330
22
100
AcDbEntity
  8
0
  6
Continuous
 62
     7
100
AcDbLine
 10
40169.70388619109
 20
-1752.937656951323
 30
0.0
 11
40169.56163775206
 21
-1755.237247949766
 31
0.0
  0
LINE
  5
48D
330
22
100
AcDbEntity
  8
0
  6
Continuous
 62
     7
100
AcDbLine
 10
40169.92840398023
 20
-1752.937656951323
 30
0.0
 11
40169.70388619109
 21
-1752.937656951323
 31
0.0
  0
LINE
  5
48E
330
22
100
AcDbEntity
  8
0
  6
Continuous
 62
     7
100
AcDbLine
 10
40170.56485933747
 20
-1742.631422931824
 30
0.0
 11
40169.92840398023
 21
-1752.937656951323
 31
0.0
  0
LWPOLYLINE
  5
48F
330
22
100
AcDbEntity
  8
0
  6
Continuous
 62
     7
100
AcDbPolyline
 90
       10
 70
   128
 43
0.0
 10
40171.01539201981
 20
-1738.665106629458
 10
40170.92631511584
 20
-1739.15614083669
 10
40170.84659830291
 20
-1739.648533709797
 10
40170.77624158105
 20
-1740.14228524878
 10
40170.71524495023
 20
-1740.637395453639
 10
40170.66360841046
 20
-1741.133864324373
 10
40170.62133196175
 20
-1741.631691860982
 10
40170.58841560408
 20
-1742.130878063468
 10
40170.56485933747
 20
-1742.631422931828
 10
40170.56485933747
 20
-1742.631422931828
  0
LWPOLYLINE
  5
49B
330
22
100
AcDbEntity
  8
0
  6
Continuous
 62
     7
100
AcDbPolyline
 90
       10
 70
   128
 43
0.0
 10
40172.94110862133
 20
-1732.678713989708
 10
40172.62118629788
 20
-1733.394452763358
 10
40172.32389475965
 20
-1734.11949448167
 10
40172.04923400663
 20
-1734.853839144645
 10
40171.79720403883
 20
-1735.597486752281
 10
40171.56780485624
 20
-1736.350437304579
 10
40171.36103645888
 20
-1737.112690801539
 10
40171.17689884673
 20
-1737.884247243162
 10
40171.01539201981
 20
-1738.665106629446
 10
40171.01539201981
 20
-1738.665106629446
  0
LINE
  5
4A7
330
22
100
AcDbEntity
  8
0
  6
Continuous
 62
     7
100
AcDbLine
 10
40198.87943102106
 20
-1679.781020853035
 30
0.0
 11
40172.94110862133
 21
-1732.678713989708
 31
0.0
  0
LWPOLYLINE
  5
4A8
330
22
100
AcDbEntity
  8
0
  6
Continuous
 62
     7
100
AcDbPolyline
 90
       10
 70
   128
 43
0.0
 10
40224.48667713386
 20
-1653.944470659749
 10
40220.41280110944
 20
-1656.068379840592
 10
40216.58834515941
 20
-1658.508191762383
 10
40213.01330928374
 20
-1661.263906425121
 10
40209.68769348246
 20
-1664.335523828808
 10
40206.61149775555
 20
-1667.723043973442
 10
40203.78472210301
 20
-1671.426466859025
 10
40201.20736652485
 20
-1675.445792485555
 10
40198.87943102106
 20
-1679.781020853034
 10
40198.87943102106
 20
-1679.781020853034
  0
LINE
  5
4B4
330
22
100
AcDbEntity
  8
0
  6
Continuous
 62
     7
100
AcDbLine
 10
40275.09273132854
 20
-1630.248548738359
 30
0.0
 11
40224.48667713386
 21
-1653.944470659749
 31
0.0
  0
LWPOLYLINE
  5
4B5
330
22
100
AcDbEntity
  8
0
  6
Continuous
 62
     7
100
AcDbPolyline
 90
       10
 70
   128
 43
0.0
 10
40320.41613435054
 20
-1619.287415804019
 10
40314.5481617907
 20
-1619.587303297259
 10
40308.73805985431
 20
-1620.192977682942
 10
40302.98582854138
 20
-1621.104438961069
 10
40297.29146785191
 20
-1622.32168713164
 10
40291.65497778588
 20
-1623.844722194654
 10
40286.07635834332
 20
-1625.673544150113
 10
40280.5556095242
 20
-1627.808152998015
 10
40275.09273132853
 20
-1630.24854873836
 10
40275.09273132853
 20
-1630.24854873836
  0
LWPOLYLINE
  5
4C1
330
22
100
AcDbEntity
  8
0
  6
Continuous
 62
     7
100
AcDbPolyline
 90
       10
 70
   128
 43
0.0
 10
40365.73953737253
 20
-1630.248548738359
 10
40360.27665917687
 20
-1627.808152998013
 10
40354.75591035774
 20
-1625.673544150112
 10
40349.17729091518
 20
-1623.844722194653
 10
40343.54080084916
 20
-1622.321687131639
 10
40337.84644015969
 20
-1621.104438961069
 10
40332.09420884675
 20
-1620.192977682942
 10
40326.28410691037
 20
-1619.587303297259
 10
40320.41613435053
 20
-1619.287415804019
 10
40320.41613435053
 20
-1619.287415804019
  0
LINE
  5
4CD
330
22
100
AcDbEntity
  8
0
  6
Continuous
 62
     7
100
AcDbLine
 10
40416.34559156721
 20
-1653.944470659749
 30
0.0
 11
40365.73953737253
 21
-1630.248548738359
 31
0.0
  0
LWPOLYLINE
  5
4CE
330
22
100
AcDbEntity
  8
0
  6
Continuous
 62
     7
100
AcDbPolyline
 90
       10
 70
   128
 43
0.0
 10
40441.95283768001
 20
-1679.781020853035
 10
40439.62490217622
 20
-1675.445792485556
 10
40437.04754659806
 20
-1671.426466859026
 10
40434.22077094552
 20
-1667.723043973444
 10
40431.14457521861
 20
-1664.335523828809
 10
40427.81895941732
 20
-1661.263906425122
 10
40424.24392354167
 20
-1658.508191762384
 10
40420.41946759162
 20
-1656.068379840593
 10
40416.34559156721
 20
-1653.944470659751
 10
40416.34559156721
 20
-1653.944470659751
  0
LINE
  5
4DA
330
22
100
AcDbEntity
  8
0
  6
Continuous
 62
     7
100
AcDbLine
 10
40467.89116007974
 20
-1732.678713989708
 30
0.0
 11
40441.95283768001
 21
-1679.781020853035
 31
0.0
  0
LWPOLYLINE
  5
4DB
330
22
100
AcDbEntity
  8
0
  6
Continuous
 62
     7
100
AcDbPolyline
 90
       10
 70
   128
 43
0.0
 10
40469.81687668126
 20
-1738.665106629446
 10
40469.65536985434
 20
-1737.884247243162
 10
40469.47123224219
 20
-1737.112690801539
 10
40469.26446384483
 20
-1736.350437304579
 10
40469.03506466223
 20
-1735.597486752281
 10
40468.78303469443
 20
-1734.853839144644
 10
40468.50837394142
 20
-1734.11949448167
 10
40468.2110824032
 20
-1733.394452763358
 10
40467.89116007974
 20
-1732.678713989708
 10
40467.89116007974
 20
-1732.678713989708
  0
LWPOLYLINE
  5
4E7
330
22
100
AcDbEntity
  8
0
  6
Continuous
 62
     7
100
AcDbPolyline
 90
       10
 70
   128
 43
0.0
 10
40470.2674093636
 20
-1742.631422931814
 10
40470.24385309698
 20
-1742.130878063454
 10
40470.21093673932
 20
-1741.63169186097
 10
40470.16866029061
 20
-1741.133864324362
 10
40470.11702375083
 20
-1740.637395453629
 10
40470.05602712001
 20
-1740.142285248771
 10
40469.98567039815
 20
-1739.64853370979
 10
40469.90595358523
 20
-1739.156140836683
 10
40469.81687668126
 20
-1738.665106629452
 10
40469.81687668126
 20
-1738.665106629452
  0
LINE
  5
4F3
330
22
100
AcDbEntity
  8
0
  6
Continuous
 62
     7
100
AcDbLine
 10
40470.90386472084
 20
-1752.937656951323
 30
0.0
 11
40470.2674093636
 21
-1742.631422931824
 31
0.0
  0
LINE
  5
4F4
330
22
100
AcDbEntity
  8
0
  6
Continuous
 62
     7
100
AcDbLine
 10
40471.27063094901
 20
-1755.237247949763
 30
0.0
 11
40471.12838250998
 21
-1752.937656951323
 31
0.0
  0
LINE
  5
4F5
330
22
100
AcDbEntity
  8
0
  6
Continuous
 62
     7
100
AcDbLine
 10
40471.04587459639
 20
-1755.237247949763
 30
0.0
 11
40471.27063094901
 21
-1755.237247949763
 31
0.0
  0
LINE
  5
4F6
330
22
100
AcDbEntity
  8
0
  6
Continuous
 62
     7
100
AcDbLine
 10
40471.88583365037
 20
-1768.838853276148
 30
0.0
 11
40471.04587459639
 21
-1755.237247949763
 31
0.0
  0
LINE
  5
4F7
330
22
100
AcDbEntity
  8
__
  6
STYLE_01
 62
     4
100
AcDbLine
 10
40191.20806717488
 20
-1749.0
 30
0.0
 11
40449.62420152634
 21
-1749.0
 31
0.0
  0
POINT
  5
4F8
330
22
100
AcDbEntity
  8
__
  6
Continuous
 62
     4
100
AcDbPoint
 10
40191.2080671758
 20
-1749.0
 30
0.0
  0
LINE
  5
4F9
330
22
100
AcDbEntity
  8
__
  6
Continuous
 62
     4
100
AcDbLine
 10
40355.34524534002
 20
-1743.494075865685
 30
0.0
 11
40418.14481826936
 21
-1668.320727011894
 31
0.0
  0
LINE
  5
4FA
330
22
100
AcDbEntity
  8
__
  6
Continuous
 62
     4
100
AcDbLine
 10
40456.8836639675
 20
-1743.494075865685
 30
0.0
 11
40355.34524534002
 21
-1743.494075865685
 31
0.0
  0
LINE
  5
4FB
330
22
100
AcDbEntity
  8
__
  6
Continuous
 62
     4
100
AcDbLine
 10
40456.34239789514
 20
-1736.117190915292
 30
0.0
 11
40455.79203735758
 21
-1731.216394221733
 31
0.0
  0
LINE
  5
4FC
330
22
100
AcDbEntity
  8
__
  6
Continuous
 62
     4
100
AcDbLine
 10
40456.8836639675
 20
-1743.494075865685
 30
0.0
 11
40456.75070656639
 21
-1741.031861706088
 31
0.0
  0
LINE
  5
4FD
330
22
100
AcDbEntity
  8
__
  6
Continuous
 62
     4
100
AcDbLine
 10
40447.61203301003
 20
-1705.560780674331
 30
0.0
 11
40441.12929196504
 21
-1693.728462550199
 31
0.0
  0
LINE
  5
4FE
330
22
100
AcDbEntity
  8
__
  6
Continuous
 62
     4
100
AcDbLine
 10
40456.75070656639
 20
-1741.031861706088
 30
0.0
 11
40456.34239789514
 21
-1736.117190915292
 31
0.0
  0
LINE
  5
4FF
330
22
100
AcDbEntity
  8
__
  6
Continuous
 62
     4
100
AcDbLine
 10
40423.91003269519
 20
-1673.025325684291
 30
0.0
 11
40418.14481826936
 21
-1668.320727011894
 31
0.0
  0
LINE
  5
500
330
22
100
AcDbEntity
  8
__
  6
Continuous
 62
     4
100
AcDbLine
 10
40433.18504122759
 20
-1682.823483693378
 30
0.0
 11
40423.91003269519
 21
-1673.025325684291
 31
0.0
  0
LINE
  5
501
330
22
100
AcDbEntity
  8
__
  6
Continuous
 62
     4
100
AcDbLine
 10
40441.12929196504
 20
-1693.728462550199
 30
0.0
 11
40433.18504122759
 21
-1682.823483693378
 31
0.0
  0
LINE
  5
502
330
22
100
AcDbEntity
  8
__
  6
Continuous
 62
     4
100
AcDbLine
 10
40452.52656698853
 20
-1718.125693703138
 30
0.0
 11
40447.61203301003
 21
-1705.560780674331
 31
0.0
  0
LINE
  5
503
330
22
100
AcDbEntity
  8
__
  6
Continuous
 62
     4
100
AcDbLine
 10
40455.79200714802
 20
-1731.216399727333
 30
0.0
 11
40452.52656698853
 21
-1718.125693703138
 31
0.0
  0
TEXT
  5
504
330
22
100
AcDbEntity
  8
__
 62
     4
100
AcDbText
 10
39324.0
 20
-1498.388888888889
 30
0.0
 40
38.00629340277779
  1
≪１６０ＤＳ 製品図面≫
  7
_______
100
AcDbText
  0
LWPOLYLINE
  5
505
330
22
100
AcDbEntity
  8
__
  6
Continuous
 62
     4
100
AcDbPolyline
 90
        3
 70
     0
 43
0.0
 10
40192.73640530884
 20
-1753.177894876881
 10
40221.50121111327
 20
-1803.0
 10
40288.48292266296
 20
-1803.0
  0
TEXT
  5
50A
330
22
100
AcDbEntity
  8
__
 62
     4
100
AcDbText
 10
40292.0
 20
-1813.774361821254
 30
0.0
 40
16.28841145833333
  1
基点①
  7
________
100
AcDbText
  0
LINE
  5
50B
330
22
100
AcDbEntity
  8
__
  6
STYLE_07
 62
     4
100
AcDbLine
 10
41000.0
 20
-2110.0
 30
0.0
 11
41000.0
 21
-2444.0
 31
0.0
  0
LINE
  5
50C
330
22
100
AcDbEntity
  8
__
  6
Continuous
 62
     4
100
AcDbLine
 10
40750.0
 20
-2324.458714950393
 30
0.0
 11
40751.2
 21
-2324.458714950393
 31
0.0
  0
LINE
  5
50D
330
22
100
AcDbEntity
  8
__
  6
Continuous
 62
     4
100
AcDbLine
 10
41248.8
 20
-2324.458714950393
 30
0.0
 11
41250.0
 21
-2324.458714950393
 31
0.0
  0
LINE
  5
50E
330
22
100
AcDbEntity
  8
__
  6
Continuous
 62
     4
100
AcDbLine
 10
40750.0
 20
-2274.458714950393
 30
0.0
 11
40860.0
 21
-2274.458714950393
 31
0.0
  0
LINE
  5
50F
330
22
100
AcDbEntity
  8
__
  6
Continuous
 62
     4
100
AcDbLine
 10
41140.0
 20
-2274.458714950393
 30
0.0
 11
41250.0
 21
-2274.458714950393
 31
0.0
  0
LINE
  5
510
330
22
100
AcDbEntity
  8
__
  6
STYLE_01
 62
     4
100
AcDbLine
 10
40870.99993139363
 20
-2144.458714950393
 30
0.0
 11
41129.0
 21
-2144.458714950393
 31
0.0
  0
LINE
  5
511
330
22
100
AcDbEntity
  8
__
  6
Continuous
 62
     4
100
AcDbLine
 10
40860.0
 20
-2274.458714950393
 30
0.0
 11
40868.33383905445
 21
-2147.0
 31
0.0
  0
LINE
  5
512
330
22
100
AcDbEntity
  8
__
  6
Continuous
 62
     4
100
AcDbLine
 10
41140.0
 20
-2274.458714950393
 30
0.0
 11
41131.66479584819
 21
-2147.0
 31
0.0
  0
LINE
  5
513
330
22
100
AcDbEntity
  8
__
  6
Continuous
 62
     4
100
AcDbLine
 10
40750.0
 20
-2274.458714950393
 30
0.0
 11
40750.0
 21
-2324.458714950393
 31
0.0
  0
LINE
  5
514
330
22
100
AcDbEntity
  8
__
  6
Continuous
 62
     4
100
AcDbLine
 10
41250.0
 20
-2274.458714950393
 30
0.0
 11
41250.0
 21
-2324.458714950393
 31
0.0
  0
ARC
  5
515
330
22
100
AcDbEntity
  8
__
  6
Continuous
 62
     4
100
AcDbCircle
 10
41129.0
 20
-2147.126512217873
 30
0.0
 40
2.667797444861978
100
AcDbArc
 50
2.718098492724428
 51
138.5628525257215
  0
ARC
  5
516
330
22
100
AcDbEntity
  8
__
  6
Continuous
 62
     4
100
AcDbCircle
 10
40871.0
 20
-2147.126512217873
 30
0.0
 40
2.66779726748063
100
AcDbArc
 50
41.43714747426812
 51
179.8200000000011
  0
LINE
  5
517
330
22
100
AcDbEntity
  8
__
  6
Continuous
 62
     4
100
AcDbLine
 10
40751.2
 20
-2275.658714950393
 30
0.0
 11
40751.2
 21
-2324.458714950393
 31
0.0
  0
LINE
  5
518
330
22
100
AcDbEntity
  8
__
  6
Continuous
 62
     4
100
AcDbLine
 10
40751.2
 20
-2275.658714950393
 30
0.0
 11
40861.12410081454
 21
-2275.658714950393
 31
0.0
  0
LINE
  5
519
330
22
100
AcDbEntity
  8
__
  6
Continuous
 62
     4
100
AcDbLine
 10
41138.87591119891
 20
-2275.658714950393
 30
0.0
 11
41248.8
 21
-2275.658714950393
 31
0.0
  0
LINE
  5
51A
330
22
100
AcDbEntity
  8
__
  6
Continuous
 62
     4
100
AcDbLine
 10
41248.8
 20
-2275.658714950393
 30
0.0
 11
41248.8
 21
-2324.458714950393
 31
0.0
  0
LINE
  5
51B
330
22
100
AcDbEntity
  8
__
  6
Continuous
 62
     4
100
AcDbLine
 10
41138.87591119891
 20
-2275.658714950393
 30
0.0
 11
41130.46735357658
 21
-2147.078307127118
 31
0.0
  0
ARC
  5
51C
330
22
100
AcDbEntity
  8
__
  6
Continuous
 62
     4
100
AcDbCircle
 10
41129.0
 20
-2147.126512217873
 30
0.0
 40
1.467797269740829
100
AcDbArc
 50
1.881588282931947
 51
128.694776402913
  0
ARC
  5
51D
330
22
100
AcDbEntity
  8
__
  6
Continuous
 62
     4
100
AcDbCircle
 10
40871.0
 20
-2147.126512217873
 30
0.0
 40
1.467797263179372
100
AcDbArc
 50
51.12522369606258
 51
178.1196605951541
  0
LINE
  5
51E
330
22
100
AcDbEntity
  8
__
  6
Continuous
 62
     4
100
AcDbLine
 10
40861.12410081454
 20
-2275.658714950393
 30
0.0
 11
40869.5312821611
 21
-2147.078294356973
 31
0.0
  0
LINE
  5
51F
330
22
100
AcDbEntity
  8
__
  6
Continuous
 62
     4
100
AcDbLine
 10
40873.0
 20
-2145.360969168151
 30
0.0
 11
40871.92121948449
 21
-2145.983803389175
 31
0.0
  0
LINE
  5
520
330
22
100
AcDbEntity
  8
__
  6
Continuous
 62
     4
100
AcDbLine
 10
41127.0
 20
-2145.360969168151
 30
0.0
 11
41128.07878050941
 21
-2145.983803385658
 31
0.0
  0
POINT
  5
521
330
22
100
AcDbEntity
  8
__
  6
Continuous
 62
     4
100
AcDbPoint
 10
40870.99993139363
 20
-2144.458714950393
 30
0.0
  0
LWPOLYLINE
  5
522
330
22
100
AcDbEntity
  8
__
  6
Continuous
 62
     4
100
AcDbPolyline
 90
        3
 70
     0
 43
0.0
 10
40065.25348264587
 20
-2168.576010397498
 10
40094.01828845031
 20
-2130.576010397498
 10
40137.0
 20
-2130.576010397498
  0
TEXT
  5
527
330
22
100
AcDbEntity
  8
__
 62
     4
100
AcDbText
 10
40146.0
 20
-2141.350372218752
 30
0.0
 40
16.28841145833333
  1
基点②
  7
_______
100
AcDbText
  0
LWPOLYLINE
  5
528
330
22
100
AcDbEntity
  8
__
  6
Continuous
 62
     4
100
AcDbPolyline
 90
        3
 70
     0
 43
0.0
 10
39477.74433842073
 20
-3541.0
 10
39506.50914422515
 20
-3503.0
 10
39549.49085577485
 20
-3503.0
  0
TEXT
  5
52D
330
22
100
AcDbEntity
  8
__
 62
     4
100
AcDbText
 10
39558.49085577485
 20
-3513.774361821254
 30
0.0
 40
16.28841145833333
  1
基点①'
  7
_______
100
AcDbText
  0
LWPOLYLINE
  5
52E
330
22
100
AcDbEntity
  8
__
  6
Continuous
 62
     4
100
AcDbPolyline
 90
        3
 70
     0
 43
0.0
 10
39482.42983118219
 20
-3552.288962257266
 10
39498.01828845031
 20
-3579.288962257266
 10
39565.0
 20
-3579.288962257266
  0
TEXT
  5
533
330
22
100
AcDbEntity
  8
__
 62
     4
100
AcDbText
 10
39568.0
 20
-3590.06332407852
 30
0.0
 40
16.28841145833333
  1
基点②'
  7
_______
100
AcDbText
  0
LWPOLYLINE
  5
534
330
22
100
AcDbEntity
  8
__
  6
Continuous
 62
     4
100
AcDbPolyline
 90
        3
 70
     0
 43
0.0
 10
39491.67983118219
 20
-3797.0
 10
39507.26828845031
 20
-3824.0
 10
39574.25
 20
-3824.0
  0
TEXT
  5
539
330
22
100
AcDbEntity
  8
__
 62
     4
100
AcDbText
 10
39576.25
 20
-3834.774361821254
 30
0.0
 40
16.28841145833333
  1
基点③
  7
_______
100
AcDbText
  0
LWPOLYLINE
  5
53A
330
22
100
AcDbEntity
  8
__
  6
Continuous
 62
     4
100
AcDbPolyline
 90
        3
 70
     0
 43
0.0
 10
40917.23519419557
 20
-1706.0
 10
40946.0
 20
-1668.0
 10
40988.98171154969
 20
-1668.0
  0
TEXT
  5
53F
330
22
100
AcDbEntity
  8
__
 62
     4
100
AcDbText
 10
40997.98171154969
 20
-1678.774361821254
 30
0.0
 40
16.28841145833333
  1
基点⑤'
  7
_______
100
AcDbText
  0
LWPOLYLINE
  5
540
330
22
100
AcDbEntity
  8
__
  6
Continuous
 62
     4
100
AcDbPolyline
 90
        3
 70
     0
 43
0.0
 10
40031.68549276146
 20
-3155.0
 10
40047.27395002958
 20
-3182.0
 10
40114.25566157927
 20
-3182.0
  0
TEXT
  5
545
330
22
100
AcDbEntity
  8
__
 62
     4
100
AcDbText
 10
40117.25566157926
 20
-3192.774361821255
 30
0.0
 40
16.28841145833333
  1
基点④
  7
_______
100
AcDbText
  0
LWPOLYLINE
  5
546
330
22
100
AcDbEntity
  8
__
  6
Continuous
 62
     4
100
AcDbPolyline
 90
        3
 70
     0
 43
0.0
 10
40032.0
 20
-2794.392304845413
 10
40060.76480580443
 20
-2756.392304845413
 10
40103.74651735411
 20
-2756.392304845413
  0
TEXT
  5
54B
330
22
100
AcDbEntity
  8
__
 62
     4
100
AcDbText
 10
40112.74651735412
 20
-2767.166666666667
 30
0.0
 40
16.28841145833333
  1
基点③'
  7
_______
100
AcDbText
  0
LWPOLYLINE
  5
54C
330
22
100
AcDbEntity
  8
__
  6
Continuous
 62
     4
100
AcDbPolyline
 90
        3
 70
     0
 43
0.0
 10
41614.76729150842
 20
-3552.0
 10
41642.48010442952
 20
-3600.0
 10
41709.46181597921
 20
-3600.0
  0
TEXT
  5
551
330
22
100
AcDbEntity
  8
__
 62
     4
100
AcDbText
 10
41712.46181597921
 20
-3610.774361821254
 30
0.0
 40
16.28841145833333
  1
基点④'
  7
_______
100
AcDbText
  0
LWPOLYLINE
  5
552
330
22
100
AcDbEntity
  8
__
  6
Continuous
 62
     4
100
AcDbPolyline
 90
        3
 70
     0
 43
0.0
 10
41860.72583962409
 20
-3843.0
 10
41875.73694662302
 20
-3869.0
 10
41942.71865817271
 20
-3869.0
  0
TEXT
  5
557
330
22
100
AcDbEntity
  8
__
 62
     4
100
AcDbText
 10
41945.71865817271
 20
-3879.774361821255
 30
0.0
 40
16.28841145833333
  1
天井材
  7
_______
100
AcDbText
  0
LWPOLYLINE
  5
558
330
22
100
AcDbEntity
  8
__
  6
Continuous
 62
     4
100
AcDbPolyline
 90
        3
 70
     0
 43
0.0
 10
41580.96344393112
 20
-3843.0
 10
41598.861302276
 20
-3874.0
 10
41653.0
 20
-3874.0
  0
TEXT
  5
55D
330
22
100
AcDbEntity
  8
__
 62
     4
100
AcDbText
 10
41657.84301382569
 20
-3884.774361821254
 30
0.0
 40
16.28841145833333
  1
基点⑤
  7
_______
100
AcDbText
  0
INSERT
  5
5BA
330
22
100
AcDbEntity
  8
__-1
  6
Continuous
100
AcDbBlockReference
  2
A$C19575CB4
 10
39454.95030763742
 20
-4087.730737896428
 30
0.0
  0
DIMENSION
  5
FF4
330
22
100
AcDbEntity
  8
__
  6
Continuous
 62
     4
100
AcDbDimension
  2
*D3
 10
40471.98583365037
 20
-1853.985134339364
 30
0.0
 11
40320.46613435054
 21
-1838.895134339364
 31
0.0
 70
    32
 71
     5
 42
303.0393985996779
  3
10
100
AcDbAlignedDimension
 13
40168.9464350507
 23
-1796.688125228516
 33
0.0
 14
40471.98583365037
 24
-1796.688125228516
 34
0.0
100
AcDbRotatedDimension
  0
DIMENSION
  5
1A14
330
22
100
AcDbEntity
  8
__
  6
Continuous
 62
     4
100
AcDbDimension
  2
*D4
 10
40094.76153304095
 20
-1619.210288298308
 30
0.0
 11
40079.67153304096
 21
-1694.024570787221
 31
0.0
 70
    32
 71
     5
 42
149.6285649778404
  3
10.0
100
AcDbAlignedDimension
 13
40141.78835966106
 23
-1768.838853276148
 33
0.0
 14
40141.78835966106
 24
-1619.210288298308
 34
0.0
 50
90.0
100
AcDbRotatedDimension
  0
DIMENSION
  5
1C89
330
22
100
AcDbEntity
  8
__
  6
Continuous
 62
     4
100
AcDbDimension
  2
*D5
 10
41192.7916917902
 20
-1764.859627448721
 30
0.0
 11
41070.51479404754
 21
-1749.769627448721
 31
0.0
 70
    32
 71
     5
 42
244.553795485328
  3
10
100
AcDbAlignedDimension
 13
40948.23789630487
 23
-1728.699162212917
 33
0.0
 14
41192.7916917902
 24
-1728.689376228346
 34
0.0
100
AcDbRotatedDimension
  0
DIMENSION
  5
1CA1
330
22
100
AcDbEntity
  8
__
  6
Continuous
 62
     4
100
AcDbDimension
  2
*D6
 10
41232.90128147456
 20
-1808.088787027099
 30
0.0
 11
41070.40128147455
 21
-1792.998787027099
 31
0.0
 70
    32
 71
     5
 42
325.0
  3
10
100
AcDbAlignedDimension
 13
40907.90128147456
 23
-1734.392795074705
 33
0.0
 14
41232.90128147456
 24
-1734.392795074705
 34
0.0
100
AcDbRotatedDimension
  0
DIMENSION
  5
1CEF
102
{ACAD_XDICTIONARY
360
1CFA
102
}
102
{ACAD_REACTORS
330
1D02
102
}
330
22
100
AcDbEntity
  8
__
  6
Continuous
 62
     4
100
AcDbDimension
  2
*D7
 10
41265.4868007245
 20
-1715.809999999999
 30
0.0
 11
41250.3968007245
 21
-1711.047499999993
 31
0.0
 70
    32
 71
     5
 42
9.524999999999636
  3
10.0
100
AcDbAlignedDimension
 13
41229.43514019543
 23
-1706.285
 33
0.0
 14
41228.58328147455
 24
-1715.809999999999
 34
0.0
 50
90.0
100
AcDbRotatedDimension
  0
DIMENSION
  5
2086
330
22
100
AcDbEntity
  8
__
  6
Continuous
 62
     4
100
AcDbDimension
  2
*D8
 10
40533.3033340043
 20
-2172.769914950393
 30
0.0
 11
40518.21333400431
 21
-2248.969914950386
 31
0.0
 70
    32
 71
     5
 42
152.4000000000001
  3
10
100
AcDbAlignedDimension
 13
40488.03464433172
 23
-2325.169914950393
 33
0.0
 14
40488.03464433172
 24
-2172.769914950393
 34
0.0
 50
90.0
100
AcDbRotatedDimension
  0
DIMENSION
  5
20A7
330
22
100
AcDbEntity
  8
__
  6
Continuous
 62
     4
100
AcDbDimension
  2
*D9
 10
40469.2375
 20
-2401.388139832677
 30
0.0
 11
40190.03125
 21
-2401.388139832677
 31
0.0
 70
   160
 71
     5
 42
558.4125000000057
  3
10.0
100
AcDbAlignedDimension
 13
39910.825
 23
-2354.825163154167
 33
0.0
 14
40469.2375
 24
-2354.825163154167
 34
0.0
100
AcDbRotatedDimension
  0
DIMENSION
  5
2185
330
22
100
AcDbEntity
  8
__
  6
Continuous
 62
     4
100
AcDbDimension
  2
*D10
 10
40347.6116065547
 20
-2359.730376380095
 30
0.0
 11
40190.0
 21
-2344.640376380096
 31
0.0
 70
    32
 71
     5
 42
315.2232131094133
  3
10.0
100
AcDbAlignedDimension
 13
40032.38839344529
 23
-2329.4311006513
 33
0.0
 14
40347.6116065547
 24
-2325.622835550426
 34
0.0
100
AcDbRotatedDimension
  0
DIMENSION
  5
221C
330
22
100
AcDbEntity
  8
__
  6
Continuous
 62
     4
100
AcDbDimension
  2
*D11
 10
41250.0
 20
-2385.906838839797
 30
0.0
 11
41000.0
 21
-2370.816838839796
 31
0.0
 70
    32
 71
     5
 42
500.0
  3
10
100
AcDbAlignedDimension
 13
40750.0
 23
-2343.613800862286
 33
0.0
 14
41250.0
 24
-2343.613800862286
 34
0.0
100
AcDbRotatedDimension
  0
DIMENSION
  5
2234
330
22
100
AcDbEntity
  8
__
  6
Continuous
 62
     4
100
AcDbDimension
  2
*D12
 10
41138.87591119891
 20
-2320.409915238198
 30
0.0
 11
41000.00000600673
 21
-2305.319915238198
 31
0.0
 70
    32
 71
     5
 42
277.7518103843613
  3
10.0
100
AcDbAlignedDimension
 13
40861.12410081454
 23
-2290.521643600932
 33
0.0
 14
41138.87591119891
 24
-2290.521643600932
 34
0.0
100
AcDbRotatedDimension
  0
DIMENSION
  5
22C8
330
22
100
AcDbEntity
  8
__
  6
Continuous
 62
     4
100
AcDbDimension
  2
*D13
 10
41315.49438487851
 20
-2274.458714950393
 30
0.0
 11
41300.4043848785
 21
-2299.458714950386
 31
0.0
 70
    32
 71
     5
 42
50.0
  3
10
100
AcDbAlignedDimension
 13
41268.85964433172
 23
-2324.458714950393
 33
0.0
 14
41268.85964433172
 24
-2274.458714950393
 34
0.0
 50
90.0
100
AcDbRotatedDimension
  0
DIMENSION
  5
22E1
330
22
100
AcDbEntity
  8
__
  6
Continuous
 62
     4
100
AcDbDimension
  2
*D14
 10
41315.49438487851
 20
-2144.458714950393
 30
0.0
 11
41300.4043848785
 21
-2209.458714950386
 31
0.0
 70
    32
 71
     5
 42
130.0
  3
10
100
AcDbAlignedDimension
 13
41268.92214433172
 23
-2274.458714950393
 33
0.0
 14
41268.92214433172
 24
-2144.458714950393
 34
0.0
 50
90.0
100
AcDbRotatedDimension
  0
DIMENSION
  5
231D
330
22
100
AcDbEntity
  8
__
  6
Continuous
 62
     4
100
AcDbDimension
  2
*D15
 10
40274.83039820238
 20
-2717.246447015567
 30
0.0
 11
40152.33039820238
 21
-2699.719898792216
 31
0.0
 70
    32
 71
     5
 42
245.0
  3
10
100
AcDbAlignedDimension
 13
40029.83039820239
 23
-2780.024891787647
 33
0.0
 14
40274.83039820238
 24
-2780.024891787647
 34
0.0
100
AcDbRotatedDimension
1001
ACAD
1000
DSTYLE
1002
{
1070
     3
1000
φ<>
1002
}
  0
DIMENSION
  5
2362
330
22
100
AcDbEntity
  8
__
  6
Continuous
 62
     4
100
AcDbDimension
  2
*D16
 10
40663.05389113108
 20
-2544.860903150231
 30
0.0
 11
40540.55389113108
 21
-2527.334354926881
 31
0.0
 70
    32
 71
     5
 42
245.0
  3
10
100
AcDbAlignedDimension
 13
40418.05389113108
 23
-2592.024912687457
 33
0.0
 14
40663.05389113108
 24
-2592.024912687457
 34
0.0
100
AcDbRotatedDimension
1001
ACAD
1000
DSTYLE
1002
{
1070
     3
1000
φ<>
1002
}
  0
LINE
  5
2411
330
22
100
AcDbEntity
  8
__
  6
Continuous
 62
     4
100
AcDbLine
 10
40205.99457489564
 20
-3197.999992450969
 30
0.0
 11
40205.99457489564
 21
-2797.99997910019
 31
0.0
  0
SOLID
  5
2412
330
22
100
AcDbEntity
  8
__
 62
     4
100
AcDbTrace
 10
40205.99457489564
 20
-3197.999992450969
 30
0.0
 11
40200.63591813343
 21
-3178.001213154094
 31
0.0
 12
40211.35323165784
 22
-3178.001213154094
 32
0.0
 13
40211.35323165784
 23
-3178.001213154094
 33
0.0
  0
SOLID
  5
2413
330
22
100
AcDbEntity
  8
__
 62
     4
100
AcDbTrace
 10
40205.99457489564
 20
-2797.99997910019
 30
0.0
 11
40211.35323165784
 21
-2817.998758397065
 31
0.0
 12
40200.63591813343
 22
-2817.998758397065
 32
0.0
 13
40200.63591813343
 23
-2817.998758397065
 33
0.0
  0
TEXT
  5
2414
330
22
100
AcDbEntity
  8
__
 62
     4
100
AcDbText
 10
40214.34552868701
 20
-3007.939062595851
 30
0.0
 40
30.0
  1
400
  7
_______
100
AcDbText
  0
LINE
  5
241C
330
22
100
AcDbEntity
  8
__
  6
Continuous
 62
     4
100
AcDbLine
 10
40594.21806782434
 20
-3209.999986649226
 30
0.0
 11
40594.21806782434
 21
-2610.0
 31
0.0
  0
SOLID
  5
241D
330
22
100
AcDbEntity
  8
__
 62
     4
100
AcDbTrace
 10
40594.21806782434
 20
-3209.999986649226
 30
0.0
 11
40588.85941106213
 21
-3190.001207352351
 31
0.0
 12
40599.57672458654
 22
-3190.001207352351
 32
0.0
 13
40599.57672458654
 23
-3190.001207352351
 33
0.0
  0
SOLID
  5
241E
330
22
100
AcDbEntity
  8
__
 62
     4
100
AcDbTrace
 10
40594.21806782434
 20
-2610.0
 30
0.0
 11
40599.57672458654
 21
-2629.998779296875
 31
0.0
 12
40588.85941106213
 22
-2629.998779296875
 32
0.0
 13
40588.85941106213
 23
-2629.998779296875
 33
0.0
  0
TEXT
  5
241F
330
22
100
AcDbEntity
  8
__
 62
     4
100
AcDbText
 10
40602.56902161571
 20
-3019.939056794108
 30
0.0
 40
30.0
  1
600
  7
_______
100
AcDbText
  0
DIMENSION
  5
2427
330
22
100
AcDbEntity
  8
__
  6
Continuous
 62
     4
100
AcDbDimension
  2
*D17
 10
39398.01504837507
 20
-3845.0
 30
0.0
 11
39382.92504837507
 21
-3694.999999999994
 31
0.0
 70
    32
 71
     5
 42
300.0
  3
10
100
AcDbAlignedDimension
 13
39459.58188378556
 23
-3545.0
 33
0.0
 14
39459.58188378556
 24
-3845.0
 34
0.0
 50
90.0
100
AcDbRotatedDimension
  0
DIMENSION
  5
2463
330
22
100
AcDbEntity
  8
__
  6
Continuous
 62
     4
100
AcDbDimension
  2
*D18
 10
39734.10122368721
 20
-3464.246467915377
 30
0.0
 11
39611.6012236872
 21
-3446.719919692026
 31
0.0
 70
    32
 71
     5
 42
245.0
  3
10
100
AcDbAlignedDimension
 13
39489.10122368721
 23
-3527.024912687457
 33
0.0
 14
39734.10122368721
 24
-3527.024912687457
 34
0.0
100
AcDbRotatedDimension
1001
ACAD
1000
DSTYLE
1002
{
1070
     3
1000
φ<>
1002
}
  0
DIMENSION
  5
247C
330
22
100
AcDbEntity
  8
__
  6
Continuous
 62
     4
100
AcDbDimension
  2
*D19
 10
40000.71985083899
 20
-3835.000000145468
 30
0.0
 11
39985.62985083899
 21
-3786.65000014546
 31
0.0
 70
    32
 71
     5
 42
96.70000000000028
  3
10.0
100
AcDbAlignedDimension
 13
40062.28668624947
 23
-3738.300000145467
 33
0.0
 14
40062.28668624947
 24
-3835.000000145468
 34
0.0
 50
90.0
100
AcDbRotatedDimension
  0
DIMENSION
  5
24B6
330
22
100
AcDbEntity
  8
__
  6
Continuous
 62
     4
100
AcDbDimension
  2
*D20
 10
40000.71985083899
 20
-3551.000000145467
 30
0.0
 11
39985.62985083899
 21
-3644.65000014546
 31
0.0
 70
    32
 71
     5
 42
187.3000000000001
  3
10.0
100
AcDbAlignedDimension
 13
40062.22418624948
 23
-3738.300000145467
 33
0.0
 14
40109.56785889304
 24
-3551.000000145467
 34
0.0
 50
90.0
100
AcDbRotatedDimension
  0
DIMENSION
  5
24EB
330
22
100
AcDbEntity
  8
__
  6
Continuous
 62
     4
100
AcDbDimension
  2
*D21
 10
40699.73290293254
 20
-3835.000000145468
 30
0.0
 11
40684.64290293254
 21
-3778.60000014546
 31
0.0
 70
    32
 71
     5
 42
112.8000000000002
  3
10.0
100
AcDbAlignedDimension
 13
40761.23723834303
 23
-3722.200000145468
 33
0.0
 14
40761.29973834303
 24
-3835.000000145468
 34
0.0
 50
90.0
100
AcDbRotatedDimension
  0
DIMENSION
  5
24EC
330
22
100
AcDbEntity
  8
__
  6
Continuous
 62
     4
100
AcDbDimension
  2
*D22
 10
40699.73290293254
 20
-3568.700000145468
 30
0.0
 11
40684.64290293254
 21
-3645.450000145461
 31
0.0
 70
    32
 71
     5
 42
153.4999999999995
  3
10.0
100
AcDbAlignedDimension
 13
40761.23723834303
 23
-3722.200000145468
 33
0.0
 14
40789.39750503701
 24
-3568.700000145468
 34
0.0
 50
90.0
100
AcDbRotatedDimension
  0
DIMENSION
  5
2533
330
22
100
AcDbEntity
  8
__
  6
Continuous
 62
     4
100
AcDbDimension
  2
*D23
 10
40211.28694790644
 20
-3886.063142940313
 30
0.0
 11
40236.38694790644
 21
-3886.063142940313
 31
0.0
 70
   160
 71
     5
 42
50.19999999999709
  3
10.0
100
AcDbAlignedDimension
 13
40261.48694790644
 23
-3847.368656245022
 33
0.0
 14
40211.28694790644
 24
-3847.368656245022
 34
0.0
100
AcDbRotatedDimension
  0
DIMENSION
  5
256F
330
22
100
AcDbEntity
  8
__
  6
Continuous
 62
     4
100
AcDbDimension
  2
*D24
 10
40871.8464849517
 20
-3881.735311696561
 30
0.0
 11
40916.17324247585
 21
-3866.645311696561
 31
0.0
 70
    32
 71
     5
 42
88.65351504829595
  3
10.0
100
AcDbAlignedDimension
 13
40960.49999999999
 23
-3847.368656245022
 33
0.0
 14
40871.8464849517
 24
-3847.368656245022
 34
0.0
100
AcDbRotatedDimension
  0
DIMENSION
  5
2591
330
22
100
AcDbEntity
  8
__
  6
Continuous
 62
     4
100
AcDbDimension
  2
*D25
 10
41485.40782353467
 20
-3835.000000075085
 30
0.0
 11
41470.31782353468
 21
-3685.000000075078
 31
0.0
 70
    32
 71
     5
 42
300.0
  3
10
100
AcDbAlignedDimension
 13
41546.97465894517
 23
-3535.000000075085
 33
0.0
 14
41546.97465894517
 24
-3835.000000075085
 34
0.0
 50
90.0
100
AcDbRotatedDimension
  0
DIMENSION
  5
25AA
330
22
100
AcDbEntity
  8
__
  6
Continuous
 62
     4
100
AcDbDimension
  2
*D26
 10
42147.19244402444
 20
-3835.000001495111
 30
0.0
 11
42132.10244402444
 21
-3738.050000788032
 31
0.0
 70
    32
 71
     5
 42
193.9000014141429
  3
10.0
100
AcDbAlignedDimension
 13
42208.69677943493
 23
-3641.100000080968
 33
0.0
 14
42208.75927943493
 24
-3835.000001495111
 34
0.0
 50
90.0
100
AcDbRotatedDimension
  0
DIMENSION
  5
25AB
330
22
100
AcDbEntity
  8
__
  6
Continuous
 62
     4
100
AcDbDimension
  2
*D27
 10
42147.19244402444
 20
-3547.700000080967
 30
0.0
 11
42132.10244402444
 21
-3594.400000080961
 31
0.0
 70
    32
 71
     5
 42
93.40000000000054
  3
10.0
100
AcDbAlignedDimension
 13
42208.69677943493
 23
-3641.100000080968
 33
0.0
 14
42259.9007357005
 24
-3547.700000080967
 34
0.0
 50
90.0
100
AcDbRotatedDimension
  0
DIMENSION
  5
25FD
330
22
100
AcDbEntity
  8
__
  6
Continuous
 62
     4
100
AcDbDimension
  2
*D28
 10
42791.73290293255
 20
-3835.000001559613
 30
0.0
 11
42776.64290293255
 21
-3746.400000852535
 31
0.0
 70
    32
 71
     5
 42
177.2000014141431
  3
10.0
100
AcDbAlignedDimension
 13
42853.23723834303
 23
-3657.80000014547
 33
0.0
 14
42853.29973834304
 24
-3835.000001559613
 34
0.0
 50
90.0
100
AcDbRotatedDimension
  0
DIMENSION
  5
25FE
330
22
100
AcDbEntity
  8
__
  6
Continuous
 62
     4
100
AcDbDimension
  2
*D29
 10
42791.73290293255
 20
-3560.200000145471
 30
0.0
 11
42776.64290293255
 21
-3609.000000145464
 31
0.0
 70
    32
 71
     5
 42
97.59999999999946
  3
10.0
100
AcDbAlignedDimension
 13
42853.23723834303
 23
-3657.80000014547
 33
0.0
 14
42902.81057261734
 24
-3560.200000145471
 34
0.0
 50
90.0
100
AcDbRotatedDimension
  0
DIMENSION
  5
2646
330
22
100
AcDbEntity
  8
__
  6
Continuous
 62
     4
100
AcDbDimension
  2
*D30
 10
41857.2024473744
 20
-3454.246467990462
 30
0.0
 11
41734.7024473744
 21
-3436.719919767111
 31
0.0
 70
    32
 71
     5
 42
245.0
  3
10
100
AcDbAlignedDimension
 13
41612.20244737441
 23
-3517.024912762542
 33
0.0
 14
41857.2024473744
 24
-3517.024912762542
 34
0.0
100
AcDbRotatedDimension
1001
ACAD
1000
DSTYLE
1002
{
1070
     3
1000
φ<>
1002
}
  0
DIMENSION
  5
265C
330
22
100
AcDbEntity
  8
__
  6
Continuous
 62
     4
100
AcDbDimension
  2
*D31
 10
41874.70244737441
 20
-3725.127125301292
 30
0.0
 11
41734.7024473744
 21
-3710.037125301292
 31
0.0
 70
    32
 71
     5
 42
280.0
  3
10
100
AcDbAlignedDimension
 13
41594.7024473744
 23
-3787.905570073372
 33
0.0
 14
41874.70244737441
 24
-3787.905570073372
 34
0.0
100
AcDbRotatedDimension
  0
DIMENSION
  5
2692
330
22
100
AcDbEntity
  8
__
  6
Continuous
 62
     4
100
AcDbDimension
  2
*D32
 10
42382.95954109189
 20
-3881.825311696559
 30
0.0
 11
42395.45954109189
 21
-3881.825311696559
 31
0.0
 70
   160
 71
     5
 42
25.0
  3
10
100
AcDbAlignedDimension
 13
42407.95954109189
 23
-3847.368656245022
 33
0.0
 14
42382.95954109189
 24
-3847.368656245022
 34
0.0
100
AcDbRotatedDimension
  0
DIMENSION
  5
26A8
330
22
100
AcDbEntity
  8
__
  6
Continuous
 62
     4
100
AcDbDimension
  2
*D33
 10
42996.09999999997
 20
-3881.735311696952
 30
0.0
 11
43024.29999999997
 21
-3881.735311696952
 31
0.0
 70
   160
 71
     5
 42
56.40000000000146
  3
10.0
100
AcDbAlignedDimension
 13
43052.49999999998
 23
-3847.368656245413
 33
0.0
 14
42996.09999999997
 24
-3847.368656245413
 34
0.0
100
AcDbRotatedDimension
  0
LWPOLYLINE
  5
2CBE
330
22
100
AcDbEntity
  8
__
  6
Continuous
 62
     4
100
AcDbPolyline
 90
        4
 70
     1
 43
0.0
 10
41601.77870613002
 20
-2778.678230709722
 10
41972.6688837681
 20
-2778.678230709722
 10
41972.6688837681
 20
-2818.678230709722
 10
41601.77870613002
 20
-2818.678230709722
  0
LWPOLYLINE
  5
2CBF
330
22
100
AcDbEntity
  8
__
  6
Continuous
 62
     4
100
AcDbPolyline
 90
        4
 70
     1
 43
0.0
 10
41596.70687974952
 20
-2147.260735920778
 10
41967.5970573876
 20
-2147.260735920778
 10
41967.5970573876
 20
-2187.260735920778
 10
41596.70687974952
 20
-2187.260735920778
  0
INSERT
  5
2E49
330
22
100
AcDbEntity
  8
0
  6
Continuous
370
     0
100
AcDbBlockReference
  2
A$C26885BA0
 10
41242.00477266364
 20
-3214.467038644829
 30
0.0
  0
INSERT
  5
2E4A
330
22
100
AcDbEntity
  8
0
  6
Continuous
370
     0
100
AcDbBlockReference
  2
A$C1F083DF6
 10
41242.00477266364
 20
-3088.467038644829
 30
0.0
 41
-1.0
 50
30.00000000005689
  0
INSERT
  5
2E4B
330
22
100
AcDbEntity
  8
0
  6
Continuous
370
     0
100
AcDbBlockReference
  2
A$C1F083DF6
 10
41005.68237780906
 20
-2852.144643789917
 30
0.0
 50
239.9999999999717
  0
INSERT
  5
2E4C
330
22
100
AcDbEntity
  8
0
  6
Continuous
370
     0
100
AcDbBlockReference
  2
A$C4B9C6F0B
 10
41005.68237780906
 20
-2852.144643789919
 30
0.0
 41
-1.0
 50
90.0
  0
TEXT
  5
2F45
330
22
100
AcDbEntity
  8
__
 62
     4
100
AcDbText
 10
39296.0
 20
-2244.795865927434
 30
0.0
 40
24.25347222222222
  1
※取付には、オプション品の[2].[6]
  7
________
100
AcDbText
  0
TEXT
  5
2F46
330
22
100
AcDbEntity
  8
__
 62
     4
100
AcDbText
 10
39296.0
 20
-2286.138739932761
 30
0.0
 40
24.25347222222222
  1
　が必要となります
  7
________
100
AcDbText
  0
TEXT
  5
2F47
330
22
100
AcDbEntity
  8
__
 62
     4
100
AcDbText
 10
39296.0
 20
-2332.496082327667
 30
0.0
 40
24.25347222222222
  1
※ﾁｭｰﾌﾞを延長したい場合は[4]の
  7
________
100
AcDbText
  0
TEXT
  5
2F48
330
22
100
AcDbEntity
  8
__
 62
     4
100
AcDbText
 10
39296.0
 20
-2373.838956332995
 30
0.0
 40
24.25347222222222
  1
　延長ﾁｭｰﾌﾞを現場に応じてお選び
  7
________
100
AcDbText
  0
TEXT
  5
2F4E
330
22
100
AcDbEntity
  8
__
 62
     4
100
AcDbText
 10
39296.0
 20
-2412.700746399005
 30
0.0
 40
24.25347222222222
  1
　ください。
  7
________
100
AcDbText
  0
LWPOLYLINE
  5
2F51
330
22
100
AcDbEntity
  8
__
  6
Continuous
 62
     4
100
AcDbPolyline
 90
        4
 70
     1
 43
0.0
 10
40833.61972105552
 20
-2510.0
 10
41432.21516634364
 20
-2510.0
 10
41432.21516634364
 20
-3270.0
 10
40833.61972105552
 20
-3270.0
  0
TEXT
  5
2F52
330
22
100
AcDbEntity
  8
__
 62
     4
100
AcDbText
 10
40862.61972105551
 20
-2578.388888888889
 30
0.0
 40
33.95486111111111
  1
アングルチューブ
  7
________
100
AcDbText
  0
TEXT
  5
2F53
330
22
100
AcDbEntity
  8
__
 62
     4
100
AcDbText
 10
40860.61991627278
 20
-2641.648678947524
 30
0.0
 40
21.828125
  1
オプション品には0°～90°に調整できる
  7
________
100
AcDbText
  0
TEXT
  5
2F54
330
22
100
AcDbEntity
  8
__
 62
     4
100
AcDbText
 10
40860.61991627278
 20
-2685.210506731244
 30
0.0
 40
21.828125
  1
アングルチューブもあります
  7
________
100
AcDbText
  0
LWPOLYLINE
  5
2F55
330
22
100
AcDbEntity
  8
__
  6
Continuous
 62
     4
100
AcDbPolyline
 90
        4
 70
     1
 43
0.0
 10
40833.61972105552
 20
-2510.0
 10
41432.21516634364
 20
-2510.0
 10
41432.21516634364
 20
-2594.0
 10
40833.61972105552
 20
-2594.0
  0
INSERT
  5
2FF3
330
22
100
AcDbEntity
  8
__
  6
Continuous
 62
     4
100
AcDbBlockReference
  2
A$C30C06DA2
 10
42526.14924708374
 20
-2720.117386366556
 30
0.0
  0
ENDSEC
  0
SECTION
  2
OBJECTS
  0
DICTIONARY
  5
C
330
0
100
AcDbDictionary
281
     1
  3
ACAD_2007HEADERVARS_RT
350
3023
  3
ACAD_COLOR
350
1B
  3
ACAD_GROUP
350
D
  3
ACAD_LAYOUT
350
19
  3
ACAD_MATERIAL
350
1A
  3
ACAD_MLEADERSTYLE
350
2CB3
  3
ACAD_MLINESTYLE
350
16
  3
ACAD_PLOTSETTINGS
350
18
  3
ACAD_PLOTSTYLENAME
350
E
  3
ACAD_SCALELIST
350
2C91
  3
ACAD_TABLESTYLE
350
1C
  3
ACAD_VISUALSTYLE
350
2C80
  3
ACDB_RECOMPOSE_DATA
350
2D5E
  3
AcDbVariableDictionary
350
562
  3
ASE_INDEX_DICTIONARY
350
301E
  3
DWGPROPS
350
3022
  0
DICTIONARY
  5
2D62
330
8
100
AcDbDictionary
280
     1
281
     1
  0
DICTIONARY
  5
2CC0
330
10
100
AcDbDictionary
280
     1
281
     1
  3
ADSK_XREC_LAYER_RECONCILED
360
2CC1
  0
DICTIONARY
  5
2CC2
330
44
100
AcDbDictionary
280
     1
281
     1
  3
ADSK_XREC_LAYER_RECONCILED
360
2CC3
  0
DICTIONARY
  5
2CC4
330
45
100
AcDbDictionary
280
     1
281
     1
  3
ADSK_XREC_LAYER_RECONCILED
360
2CC5
  0
DICTIONARY
  5
2CC6
330
46
100
AcDbDictionary
280
     1
281
     1
  3
ADSK_XREC_LAYER_RECONCILED
360
2CC7
  0
DICTIONARY
  5
2CC8
330
47
100
AcDbDictionary
280
     1
281
     1
  3
ADSK_XREC_LAYER_RECONCILED
360
2CC9
  0
DICTIONARY
  5
2CCA
330
48
100
AcDbDictionary
280
     1
281
     1
  3
ADSK_XREC_LAYER_RECONCILED
360
2CCB
  0
DICTIONARY
  5
2CCC
330
49
100
AcDbDictionary
280
     1
281
     1
  3
ADSK_XREC_LAYER_RECONCILED
360
2CCD
  0
DICTIONARY
  5
2CCE
330
4A
100
AcDbDictionary
280
     1
281
     1
  3
ADSK_XREC_LAYER_RECONCILED
360
2CCF
  0
DICTIONARY
  5
2CD0
330
4B
100
AcDbDictionary
280
     1
281
     1
  3
ADSK_XREC_LAYER_RECONCILED
360
2CD1
  0
DICTIONARY
  5
2CD2
330
4C
100
AcDbDictionary
280
     1
281
     1
  3
ADSK_XREC_LAYER_RECONCILED
360
2CD3
  0
DICTIONARY
  5
2CD4
330
4D
100
AcDbDictionary
280
     1
281
     1
  3
ADSK_XREC_LAYER_RECONCILED
360
2CD5
  0
DICTIONARY
  5
2CD6
330
4E
100
AcDbDictionary
280
     1
281
     1
  3
ADSK_XREC_LAYER_RECONCILED
360
2CD7
  0
DICTIONARY
  5
2CD8
330
4F
100
AcDbDictionary
280
     1
281
     1
  3
ADSK_XREC_LAYER_RECONCILED
360
2CD9
  0
DICTIONARY
  5
2CDA
330
50
100
AcDbDictionary
280
     1
281
     1
  3
ADSK_XREC_LAYER_RECONCILED
360
2CDB
  0
DICTIONARY
  5
2CDC
330
51
100
AcDbDictionary
280
     1
281
     1
  3
ADSK_XREC_LAYER_RECONCILED
360
2CDD
  0
DICTIONARY
  5
2CDE
330
52
100
AcDbDictionary
280
     1
281
     1
  3
ADSK_XREC_LAYER_RECONCILED
360
2CDF
  0
DICTIONARY
  5
2CE0
330
53
100
AcDbDictionary
280
     1
281
     1
  3
ADSK_XREC_LAYER_RECONCILED
360
2CE1
  0
DICTIONARY
  5
2CE2
330
54
100
AcDbDictionary
280
     1
281
     1
  3
ADSK_XREC_LAYER_RECONCILED
360
2CE3
  0
DICTIONARY
  5
2CE4
330
55
100
AcDbDictionary
280
     1
281
     1
  3
ADSK_XREC_LAYER_RECONCILED
360
2CE5
  0
DICTIONARY
  5
2CE6
330
56
100
AcDbDictionary
280
     1
281
     1
  3
ADSK_XREC_LAYER_RECONCILED
360
2CE7
  0
DICTIONARY
  5
2CE8
330
57
100
AcDbDictionary
280
     1
281
     1
  3
ADSK_XREC_LAYER_RECONCILED
360
2CE9
  0
DICTIONARY
  5
2CEA
330
58
100
AcDbDictionary
280
     1
281
     1
  3
ADSK_XREC_LAYER_RECONCILED
360
2CEB
  0
DICTIONARY
  5
2CEC
330
59
100
AcDbDictionary
280
     1
281
     1
  3
ADSK_XREC_LAYER_RECONCILED
360
2CED
  0
DICTIONARY
  5
2CEE
330
5A
100
AcDbDictionary
280
     1
281
     1
  3
ADSK_XREC_LAYER_RECONCILED
360
2CEF
  0
DICTIONARY
  5
2CF0
330
5B
100
AcDbDictionary
280
     1
281
     1
  3
ADSK_XREC_LAYER_RECONCILED
360
2CF1
  0
DICTIONARY
  5
2CF2
330
5C
100
AcDbDictionary
280
     1
281
     1
  3
ADSK_XREC_LAYER_RECONCILED
360
2CF3
  0
DICTIONARY
  5
2CF4
330
5D
100
AcDbDictionary
280
     1
281
     1
  3
ADSK_XREC_LAYER_RECONCILED
360
2CF5
  0
DICTIONARY
  5
2CF6
330
5E
100
AcDbDictionary
280
     1
281
     1
  3
ADSK_XREC_LAYER_RECONCILED
360
2CF7
  0
DICTIONARY
  5
2CF8
330
5F
100
AcDbDictionary
280
     1
281
     1
  3
ADSK_XREC_LAYER_RECONCILED
360
2CF9
  0
DICTIONARY
  5
2CFA
330
60
100
AcDbDictionary
280
     1
281
     1
  3
ADSK_XREC_LAYER_RECONCILED
360
2CFB
  0
DICTIONARY
  5
2CFC
330
61
100
AcDbDictionary
280
     1
281
     1
  3
ADSK_XREC_LAYER_RECONCILED
360
2CFD
  0
DICTIONARY
  5
2CFE
330
62
100
AcDbDictionary
280
     1
281
     1
  3
ADSK_XREC_LAYER_RECONCILED
360
2CFF
  0
DICTIONARY
  5
2D00
330
63
100
AcDbDictionary
280
     1
281
     1
  3
ADSK_XREC_LAYER_RECONCILED
360
2D01
  0
DICTIONARY
  5
2D02
330
64
100
AcDbDictionary
280
     1
281
     1
  3
ADSK_XREC_LAYER_RECONCILED
360
2D03
  0
DICTIONARY
  5
2D04
330
65
100
AcDbDictionary
280
     1
281
     1
  3
ADSK_XREC_LAYER_RECONCILED
360
2D05
  0
DICTIONARY
  5
2D06
330
66
100
AcDbDictionary
280
     1
281
     1
  3
ADSK_XREC_LAYER_RECONCILED
360
2D07
  0
DICTIONARY
  5
2D08
330
67
100
AcDbDictionary
280
     1
281
     1
  3
ADSK_XREC_LAYER_RECONCILED
360
2D09
  0
DICTIONARY
  5
2D0A
330
68
100
AcDbDictionary
280
     1
281
     1
  3
ADSK_XREC_LAYER_RECONCILED
360
2D0B
  0
DICTIONARY
  5
2D0C
330
69
100
AcDbDictionary
280
     1
281
     1
  3
ADSK_XREC_LAYER_RECONCILED
360
2D0D
  0
DICTIONARY
  5
2D0E
330
6A
100
AcDbDictionary
280
     1
281
     1
  3
ADSK_XREC_LAYER_RECONCILED
360
2D0F
  0
DICTIONARY
  5
2D10
330
6B
100
AcDbDictionary
280
     1
281
     1
  3
ADSK_XREC_LAYER_RECONCILED
360
2D11
  0
DICTIONARY
  5
2D12
330
6C
100
AcDbDictionary
280
     1
281
     1
  3
ADSK_XREC_LAYER_RECONCILED
360
2D13
  0
DICTIONARY
  5
2D14
330
6D
100
AcDbDictionary
280
     1
281
     1
  3
ADSK_XREC_LAYER_RECONCILED
360
2D15
  0
DICTIONARY
  5
2D16
330
6E
100
AcDbDictionary
280
     1
281
     1
  3
ADSK_XREC_LAYER_RECONCILED
360
2D17
  0
DICTIONARY
  5
2D18
330
6F
100
AcDbDictionary
280
     1
281
     1
  3
ADSK_XREC_LAYER_RECONCILED
360
2D19
  0
DICTIONARY
  5
2D1A
330
70
100
AcDbDictionary
280
     1
281
     1
  3
ADSK_XREC_LAYER_RECONCILED
360
2D1B
  0
DICTIONARY
  5
2D1C
330
5B5
100
AcDbDictionary
280
     1
281
     1
  3
ADSK_XREC_LAYER_RECONCILED
360
2D1D
  0
DICTIONARY
  5
2EB9
330
22
100
AcDbDictionary
280
     1
281
     1
  3
ACAD_SORTENTS
360
2EBA
  0
DICTIONARY
  5
2F40
330
2D8A
100
AcDbDictionary
280
     1
281
     1
  3
ACAD_SORTENTS
360
2F41
  0
DICTIONARY
  5
2F2D
330
2D9A
100
AcDbDictionary
280
     1
281
     1
  3
ACAD_SORTENTS
360
2F2E
  0
DICTIONARY
  5
2F11
330
2DAF
100
AcDbDictionary
280
     1
281
     1
  3
ACAD_SORTENTS
360
2F12
  0
DICTIONARY
  5
2E36
330
2E22
100
AcDbDictionary
280
     1
281
     1
  3
ACAD_SORTENTS
360
2E37
  0
DICTIONARY
  5
2FEF
330
2FEA
100
AcDbDictionary
280
     1
281
     1
  3
ACAD_SORTENTS
360
2FF0
  0
DICTIONARY
  5
1CFA
330
1CEF
100
AcDbDictionary
280
     1
281
     1
  3
ACAD_DIMASSOC
360
1D02
  0
DICTIONARY
  5
3023
102
{ACAD_REACTORS
330
C
102
}
330
C
100
AcDbDictionary
281
     1
  3
DIMFXL
350
3024
  0
DICTIONARY
  5
1B
102
{ACAD_REACTORS
330
C
102
}
330
C
100
AcDbDictionary
281
     1
  0
DICTIONARY
  5
D
102
{ACAD_REACTORS
330
C
102
}
330
C
100
AcDbDictionary
281
     1
  0
DICTIONARY
  5
19
102
{ACAD_REACTORS
330
C
102
}
330
C
100
AcDbDictionary
281
     1
  3
Model
350
25
  3
レイアウト1
350
21
  0
DICTIONARY
  5
1A
102
{ACAD_REACTORS
330
C
102
}
330
C
100
AcDbDictionary
281
     1
  3
ByBlock
350
2C70
  3
ByLayer
350
2C68
  3
Global
350
2C78
  0
DICTIONARY
  5
2CB3
102
{ACAD_REACTORS
330
C
102
}
330
C
100
AcDbDictionary
281
     1
  3
Standard
350
2CB4
  0
DICTIONARY
  5
16
102
{ACAD_REACTORS
330
C
102
}
330
C
100
AcDbDictionary
281
     1
  3
Standard
350
17
  0
DICTIONARY
  5
18
102
{ACAD_REACTORS
330
C
102
}
330
C
100
AcDbDictionary
281
     1
  0
ACDBDICTIONARYWDFLT
  5
E
102
{ACAD_REACTORS
330
C
102
}
330
C
100
AcDbDictionary
281
     1
  3
Normal
350
F
100
AcDbDictionaryWithDefault
340
F
  0
DICTIONARY
  5
2C91
102
{ACAD_REACTORS
330
C
102
}
330
C
100
AcDbDictionary
281
     1
  3
A0
350
2C92
  3
A1
350
2C93
  3
A2
350
2C94
  3
A3
350
2C95
  3
A4
350
2C96
  3
A5
350
2C97
  3
A6
350
2C98
  3
A7
350
2C99
  3
A8
350
2C9A
  3
A9
350
2C9B
  3
B0
350
2C9C
  3
B1
350
2C9D
  3
B2
350
2C9E
  3
B3
350
2C9F
  3
B4
350
2CA0
  3
B5
350
2CA1
  3
B6
350
2CA2
  3
B7
350
2CA3
  3
B8
350
2CA4
  3
B9
350
2CA5
  3
C0
350
2CA6
  3
C1
350
2CA7
  3
C2
350
2CA8
  3
C3
350
2CA9
  3
C4
350
2CAA
  3
C5
350
2CAB
  3
C6
350
2CAC
  3
C7
350
2CAD
  3
C8
350
2CAE
  3
C9
350
2CAF
  3
D0
350
2CB0
  3
D1
350
2CB1
  3
D2
350
2CB2
  0
DICTIONARY
  5
1C
102
{ACAD_REACTORS
330
C
102
}
330
C
100
AcDbDictionary
281
     1
  3
Standard
350
1D
  0
DICTIONARY
  5
2C80
102
{ACAD_REACTORS
330
C
102
}
330
C
100
AcDbDictionary
281
     1
  3
2dWireframe
350
2C86
  3
3D Hidden
350
2C88
  3
3dWireframe
350
2C87
  3
Basic
350
2C85
  3
Brighten
350
2C8C
  3
ColorChange
350
2C90
  3
Conceptual
350
2C89
  3
Dim
350
2C8B
  3
Facepattern
350
2C8F
  3
Flat
350
2C81
  3
FlatWithEdges
350
2C82
  3
Gouraud
350
2C83
  3
GouraudWithEdges
350
2C84
  3
Linepattern
350
2C8E
  3
Realistic
350
2C8A
  3
Thicken
350
2C8D
  0
XRECORD
  5
2D5E
102
{ACAD_REACTORS
330
C
102
}
330
C
100
AcDbXrecord
280
     1
 90
        1
330
1D
  0
DICTIONARY
  5
562
102
{ACAD_REACTORS
330
C
102
}
330
C
100
AcDbDictionary
281
     1
  3
CANNOSCALE
350
2D6D
  3
CMLEADERSTYLE
350
2D6C
  3
CTABLESTYLE
350
563
  3
DIMASSOC
350
2D71
  3
HIDETEXT
350
2D70
  3
INDEXCTL
350
2D6F
  3
SORTENTS
350
2D6E
  0
DICTIONARY
  5
301E
102
{ACAD_REACTORS
330
C
102
}
330
C
100
AcDbDictionary
281
     1
  3
ASEBlockHierarchyIndexRecord
350
301F
1001
DCO15
1040
1716642044.381
  0
XRECORD
  5
3022
102
{ACAD_REACTORS
330
C
102
}
330
C
100
AcDbXrecord
280
     1
  1
DWGPROPS COOKIE
  2

  3

  4

  6

  7

  8
toshi
  9

300
=
301
=
302
=
303
=
304
=
305
=
306
=
307
=
308
=
309
=
 40
0.4474671296296297
 41
2455027.645046296
 42
2455671.754032188
  1

 90
        0
  0
XRECORD
  5
2CC1
102
{ACAD_REACTORS
330
2CC0
102
}
330
2CC0
100
AcDbXrecord
280
     1
290
     1
  0
XRECORD
  5
2CC3
102
{ACAD_REACTORS
330
2CC2
102
}
330
2CC2
100
AcDbXrecord
280
     1
290
     1
  0
XRECORD
  5
2CC5
102
{ACAD_REACTORS
330
2CC4
102
}
330
2CC4
100
AcDbXrecord
280
     1
290
     1
  0
XRECORD
  5
2CC7
102
{ACAD_REACTORS
330
2CC6
102
}
330
2CC6
100
AcDbXrecord
280
     1
290
     1
  0
XRECORD
  5
2CC9
102
{ACAD_REACTORS
330
2CC8
102
}
330
2CC8
100
AcDbXrecord
280
     1
290
     1
  0
XRECORD
  5
2CCB
102
{ACAD_REACTORS
330
2CCA
102
}
330
2CCA
100
AcDbXrecord
280
     1
290
     1
  0
XRECORD
  5
2CCD
102
{ACAD_REACTORS
330
2CCC
102
}
330
2CCC
100
AcDbXrecord
280
     1
290
     1
  0
XRECORD
  5
2CCF
102
{ACAD_REACTORS
330
2CCE
102
}
330
2CCE
100
AcDbXrecord
280
     1
290
     1
  0
XRECORD
  5
2CD1
102
{ACAD_REACTORS
330
2CD0
102
}
330
2CD0
100
AcDbXrecord
280
     1
290
     1
  0
XRECORD
  5
2CD3
102
{ACAD_REACTORS
330
2CD2
102
}
330
2CD2
100
AcDbXrecord
280
     1
290
     1
  0
XRECORD
  5
2CD5
102
{ACAD_REACTORS
330
2CD4
102
}
330
2CD4
100
AcDbXrecord
280
     1
290
     1
  0
XRECORD
  5
2CD7
102
{ACAD_REACTORS
330
2CD6
102
}
330
2CD6
100
AcDbXrecord
280
     1
290
     1
  0
XRECORD
  5
2CD9
102
{ACAD_REACTORS
330
2CD8
102
}
330
2CD8
100
AcDbXrecord
280
     1
290
     1
  0
XRECORD
  5
2CDB
102
{ACAD_REACTORS
330
2CDA
102
}
330
2CDA
100
AcDbXrecord
280
     1
290
     1
  0
XRECORD
  5
2CDD
102
{ACAD_REACTORS
330
2CDC
102
}
330
2CDC
100
AcDbXrecord
280
     1
290
     1
  0
XRECORD
  5
2CDF
102
{ACAD_REACTORS
330
2CDE
102
}
330
2CDE
100
AcDbXrecord
280
     1
290
     1
  0
XRECORD
  5
2CE1
102
{ACAD_REACTORS
330
2CE0
102
}
330
2CE0
100
AcDbXrecord
280
     1
290
     1
  0
XRECORD
  5
2CE3
102
{ACAD_REACTORS
330
2CE2
102
}
330
2CE2
100
AcDbXrecord
280
     1
290
     1
  0
XRECORD
  5
2CE5
102
{ACAD_REACTORS
330
2CE4
102
}
330
2CE4
100
AcDbXrecord
280
     1
290
     1
  0
XRECORD
  5
2CE7
102
{ACAD_REACTORS
330
2CE6
102
}
330
2CE6
100
AcDbXrecord
280
     1
290
     1
  0
XRECORD
  5
2CE9
102
{ACAD_REACTORS
330
2CE8
102
}
330
2CE8
100
AcDbXrecord
280
     1
290
     1
  0
XRECORD
  5
2CEB
102
{ACAD_REACTORS
330
2CEA
102
}
330
2CEA
100
AcDbXrecord
280
     1
290
     1
  0
XRECORD
  5
2CED
102
{ACAD_REACTORS
330
2CEC
102
}
330
2CEC
100
AcDbXrecord
280
     1
290
     1
  0
XRECORD
  5
2CEF
102
{ACAD_REACTORS
330
2CEE
102
}
330
2CEE
100
AcDbXrecord
280
     1
290
     1
  0
XRECORD
  5
2CF1
102
{ACAD_REACTORS
330
2CF0
102
}
330
2CF0
100
AcDbXrecord
280
     1
290
     1
  0
XRECORD
  5
2CF3
102
{ACAD_REACTORS
330
2CF2
102
}
330
2CF2
100
AcDbXrecord
280
     1
290
     1
  0
XRECORD
  5
2CF5
102
{ACAD_REACTORS
330
2CF4
102
}
330
2CF4
100
AcDbXrecord
280
     1
290
     1
  0
XRECORD
  5
2CF7
102
{ACAD_REACTORS
330
2CF6
102
}
330
2CF6
100
AcDbXrecord
280
     1
290
     1
  0
XRECORD
  5
2CF9
102
{ACAD_REACTORS
330
2CF8
102
}
330
2CF8
100
AcDbXrecord
280
     1
290
     1
  0
XRECORD
  5
2CFB
102
{ACAD_REACTORS
330
2CFA
102
}
330
2CFA
100
AcDbXrecord
280
     1
290
     1
  0
XRECORD
  5
2CFD
102
{ACAD_REACTORS
330
2CFC
102
}
330
2CFC
100
AcDbXrecord
280
     1
290
     1
  0
XRECORD
  5
2CFF
102
{ACAD_REACTORS
330
2CFE
102
}
330
2CFE
100
AcDbXrecord
280
     1
290
     1
  0
XRECORD
  5
2D01
102
{ACAD_REACTORS
330
2D00
102
}
330
2D00
100
AcDbXrecord
280
     1
290
     1
  0
XRECORD
  5
2D03
102
{ACAD_REACTORS
330
2D02
102
}
330
2D02
100
AcDbXrecord
280
     1
290
     1
  0
XRECORD
  5
2D05
102
{ACAD_REACTORS
330
2D04
102
}
330
2D04
100
AcDbXrecord
280
     1
290
     1
  0
XRECORD
  5
2D07
102
{ACAD_REACTORS
330
2D06
102
}
330
2D06
100
AcDbXrecord
280
     1
290
     1
  0
XRECORD
  5
2D09
102
{ACAD_REACTORS
330
2D08
102
}
330
2D08
100
AcDbXrecord
280
     1
290
     1
  0
XRECORD
  5
2D0B
102
{ACAD_REACTORS
330
2D0A
102
}
330
2D0A
100
AcDbXrecord
280
     1
290
     1
  0
XRECORD
  5
2D0D
102
{ACAD_REACTORS
330
2D0C
102
}
330
2D0C
100
AcDbXrecord
280
     1
290
     1
  0
XRECORD
  5
2D0F
102
{ACAD_REACTORS
330
2D0E
102
}
330
2D0E
100
AcDbXrecord
280
     1
290
     1
  0
XRECORD
  5
2D11
102
{ACAD_REACTORS
330
2D10
102
}
330
2D10
100
AcDbXrecord
280
     1
290
     1
  0
XRECORD
  5
2D13
102
{ACAD_REACTORS
330
2D12
102
}
330
2D12
100
AcDbXrecord
280
     1
290
     1
  0
XRECORD
  5
2D15
102
{ACAD_REACTORS
330
2D14
102
}
330
2D14
100
AcDbXrecord
280
     1
290
     1
  0
XRECORD
  5
2D17
102
{ACAD_REACTORS
330
2D16
102
}
330
2D16
100
AcDbXrecord
280
     1
290
     1
  0
XRECORD
  5
2D19
102
{ACAD_REACTORS
330
2D18
102
}
330
2D18
100
AcDbXrecord
280
     1
290
     1
  0
XRECORD
  5
2D1B
102
{ACAD_REACTORS
330
2D1A
102
}
330
2D1A
100
AcDbXrecord
280
     1
290
     1
  0
XRECORD
  5
2D1D
102
{ACAD_REACTORS
330
2D1C
102
}
330
2D1C
100
AcDbXrecord
280
     1
290
     1
  0
SORTENTSTABLE
  5
2EBA
102
{ACAD_REACTORS
330
2EB9
102
}
330
2EB9
100
AcDbSortentsTable
330
22
331
1CC
  5
1CC
331
136
  5
136
331
4F8
  5
4F8
331
53F
  5
53F
331
500
  5
500
331
FF4
  5
FF4
331
2C8
  5
2C8
331
43B
  5
43B
331
291
  5
291
331
2D0
  5
2D0
331
39D
  5
39D
331
47A
  5
47A
331
443
  5
443
331
299
  5
299
331
2D8
  5
2D8
331
3A5
  5
3A5
331
482
  5
482
331
48A
  5
48A
331
3FC
  5
3FC
331
31F
  5
31F
331
2A1
  5
2A1
331
2E0
  5
2E0
331
3AD
  5
3AD
331
44B
  5
44B
331
327
  5
327
331
453
  5
453
331
B8
  5
B8
331
20B
  5
20B
331
81
  5
81
331
175
  5
175
331
1D4
  5
1D4
331
24A
  5
24A
331
2CBF
  5
2CBF
331
89
  5
89
331
146
  5
146
331
213
  5
213
331
510
  5
510
331
1E4
  5
1E4
331
107
  5
107
331
91
  5
91
331
D0
  5
D0
331
14E
  5
14E
331
195
  5
195
331
4C1
  5
4C1
331
1EC
  5
1EC
331
10F
  5
10F
331
156
  5
156
331
223
  5
223
331
518
  5
518
331
557
  5
557
331
520
  5
520
331
1A14
  5
1A14
331
528
  5
528
331
2E8
  5
2E8
331
2A9
  5
2A9
331
45B
  5
45B
331
376
  5
376
331
2B1
  5
2B1
331
2F0
  5
2F0
331
414
  5
414
331
463
  5
463
331
2B9
  5
2B9
331
2F8
  5
2F8
331
3C5
  5
3C5
331
22E1
  5
22E1
331
3CD
  5
3CD
331
D8
  5
D8
331
265C
  5
265C
331
3D5
  5
3D5
331
347
  5
347
331
473
  5
473
331
2E4A
  5
2E4A
331
22B
  5
22B
331
15E
  5
15E
331
E0
  5
E0
331
117
  5
117
331
1AD
  5
1AD
331
233
  5
233
331
166
  5
166
331
A9
  5
A9
331
E8
  5
E8
331
1FC
  5
1FC
331
204
  5
204
331
127
  5
127
331
B1
  5
B1
331
16E
  5
16E
331
1C5
  5
1C5
331
23B
  5
23B
331
1CD
  5
1CD
331
137
  5
137
331
4F9
  5
4F9
331
501
  5
501
331
540
  5
540
331
308
  5
308
331
2C9
  5
2C9
331
47B
  5
47B
331
39E
  5
39E
331
292
  5
292
331
2D1
  5
2D1
331
43C
  5
43C
331
483
  5
483
331
2D9
  5
2D9
331
29A
  5
29A
331
3A6
  5
3A6
331
444
  5
444
331
25FD
  5
25FD
331
44C
  5
44C
331
2A2
  5
2A2
331
2E1
  5
2E1
331
3AE
  5
3AE
331
48B
  5
48B
331
F0
  5
F0
331
454
  5
454
331
49B
  5
49B
331
B9
  5
B9
331
24B
  5
24B
331
1D5
  5
1D5
331
82
  5
82
331
13F
  5
13F
331
176
  5
176
331
20C
  5
20C
331
8A
  5
8A
331
147
  5
147
331
214
  5
214
331
14F
  5
14F
331
92
  5
92
331
D1
  5
D1
331
108
  5
108
331
196
  5
196
331
1E5
  5
1E5
331
511
  5
511
331
1ED
  5
1ED
331
157
  5
157
331
519
  5
519
331
4DA
  5
4DA
331
521
  5
521
331
558
  5
558
331
2AA
  5
2AA
331
2E9
  5
2E9
331
2411
  5
2411
331
415
  5
415
331
377
  5
377
331
2B2
  5
2B2
331
2F1
  5
2F1
331
45C
  5
45C
331
2F9
  5
2F9
331
2BA
  5
2BA
331
3C6
  5
3C6
331
464
  5
464
331
46C
  5
46C
331
3CE
  5
3CE
331
D9
  5
D9
331
110
  5
110
331
474
  5
474
331
3D6
  5
3D6
331
2E4B
  5
2E4B
331
22C
  5
22C
331
118
  5
118
331
E1
  5
E1
331
15F
  5
15F
331
1AE
  5
1AE
331
1FD
  5
1FD
331
E9
  5
E9
331
AA
  5
AA
331
167
  5
167
331
234
  5
234
331
16F
  5
16F
331
B2
  5
B2
331
1C6
  5
1C6
331
205
  5
205
331
4FA
  5
4FA
331
539
  5
539
331
502
  5
502
331
50A
  5
50A
331
2CA
  5
2CA
331
309
  5
309
331
43D
  5
43D
331
358
  5
358
331
293
  5
293
331
2D2
  5
2D2
331
311
  5
311
331
39F
  5
39F
331
47C
  5
47C
331
256F
  5
256F
331
3EE
  5
3EE
331
319
  5
319
331
29B
  5
29B
331
2DA
  5
2DA
331
3A7
  5
3A7
331
445
  5
445
331
25FE
  5
25FE
331
2362
  5
2362
331
48C
  5
48C
331
3AF
  5
3AF
331
2A3
  5
2A3
331
2E2
  5
2E2
331
44D
  5
44D
331
455
  5
455
331
BA
  5
BA
331
138
  5
138
331
20D
  5
20D
331
140
  5
140
331
1D6
  5
1D6
331
1DE
  5
1DE
331
8B
  5
8B
331
148
  5
148
331
215
  5
215
331
1E6
  5
1E6
331
109
  5
109
331
93
  5
93
331
D2
  5
D2
331
150
  5
150
331
197
  5
197
331
512
  5
512
331
1EE
  5
1EE
331
51A
  5
51A
331
551
  5
551
331
4DB
  5
4DB
331
522
  5
522
331
2EA
  5
2EA
331
2AB
  5
2AB
331
2412
  5
2412
331
378
  5
378
331
2B3
  5
2B3
331
2F2
  5
2F2
331
45D
  5
45D
331
2646
  5
2646
331
465
  5
465
331
2BB
  5
2BB
331
2FA
  5
2FA
331
3C7
  5
3C7
331
4B4
  5
4B4
331
42E
  5
42E
331
3CF
  5
3CF
331
46D
  5
46D
331
DA
  5
DA
331
111
  5
111
331
158
  5
158
331
475
  5
475
331
2E4C
  5
2E4C
331
22D
  5
22D
331
160
  5
160
331
A3
  5
A3
331
E2
  5
E2
331
119
  5
119
331
1AF
  5
1AF
331
168
  5
168
331
235
  5
235
331
206
  5
206
331
B3
  5
B3
331
1C7
  5
1C7
331
4F3
  5
4F3
331
4FB
  5
4FB
331
53A
  5
53A
331
503
  5
503
331
221C
  5
221C
331
50B
  5
50B
331
30A
  5
30A
331
47D
  5
47D
331
3A0
  5
3A0
331
2D3
  5
2D3
331
294
  5
294
331
359
  5
359
331
43E
  5
43E
331
2234
  5
2234
331
446
  5
446
331
3A8
  5
3A8
331
2DB
  5
2DB
331
29C
  5
29C
331
31A
  5
31A
331
3EF
  5
3EF
331
44E
  5
44E
331
369
  5
369
331
2A4
  5
2A4
331
2E3
  5
2E3
331
3B0
  5
3B0
331
48D
  5
48D
331
139
  5
139
331
456
  5
456
331
BB
  5
BB
331
170
  5
170
331
1D7
  5
1D7
331
84
  5
84
331
20E
  5
20E
331
1DF
  5
1DF
331
8C
  5
8C
331
149
  5
149
331
216
  5
216
331
21E
  5
21E
331
151
  5
151
331
D3
  5
D3
331
198
  5
198
331
1E7
  5
1E7
331
513
  5
513
331
1EF
  5
1EF
331
51B
  5
51B
331
552
  5
552
331
2185
  5
2185
331
2AC
  5
2AC
331
2EB
  5
2EB
331
2413
  5
2413
331
2B4
  5
2B4
331
2F3
  5
2F3
331
379
  5
379
331
45E
  5
45E
331
2FB
  5
2FB
331
2BC
  5
2BC
331
3C8
  5
3C8
331
466
  5
466
331
46E
  5
46E
331
3D0
  5
3D0
331
4B5
  5
4B5
331
112
  5
112
331
476
  5
476
331
9C
  5
9C
331
DB
  5
DB
331
159
  5
159
331
1A8
  5
1A8
331
26D
  5
26D
331
22E
  5
22E
331
161
  5
161
331
E3
  5
E3
331
1B0
  5
1B0
331
169
  5
169
331
285
  5
285
331
B4
  5
B4
331
1C8
  5
1C8
331
207
  5
207
331
4F4
  5
4F4
331
533
  5
533
331
4FC
  5
4FC
331
504
  5
504
331
50C
  5
50C
331
2086
  5
2086
331
352
  5
352
331
30B
  5
30B
331
28D
  5
28D
331
399
  5
399
331
43F
  5
43F
331
35A
  5
35A
331
295
  5
295
331
2D4
  5
2D4
331
3A1
  5
3A1
331
447
  5
447
331
31B
  5
31B
331
29D
  5
29D
331
2DC
  5
2DC
331
362
  5
362
331
3A9
  5
3A9
331
2463
  5
2463
331
48E
  5
48E
331
3B1
  5
3B1
331
2E4
  5
2E4
331
2A5
  5
2A5
331
36A
  5
36A
331
408
  5
408
331
44F
  5
44F
331
2591
  5
2591
331
457
  5
457
331
BC
  5
BC
331
171
  5
171
331
20F
  5
20F
331
85
  5
85
331
1D8
  5
1D8
331
1E0
  5
1E0
331
103
  5
103
331
8D
  5
8D
331
CC
  5
CC
331
14A
  5
14A
331
217
  5
217
331
199
  5
199
331
152
  5
152
331
95
  5
95
331
D4
  5
D4
331
1E8
  5
1E8
331
21F
  5
21F
331
514
  5
514
331
54B
  5
54B
331
266
  5
266
331
4CD
  5
4CD
331
51C
  5
51C
331
1CEF
  5
1CEF
331
2EC
  5
2EC
331
76
  5
76
331
2AD
  5
2AD
331
372
  5
372
331
2414
  5
2414
331
45F
  5
45F
331
37A
  5
37A
331
2B5
  5
2B5
331
2F4
  5
2F4
331
333
  5
333
331
3C1
  5
3C1
331
241C
  5
241C
331
467
  5
467
331
2BD
  5
2BD
331
2FC
  5
2FC
331
3C9
  5
3C9
331
3D1
  5
3D1
331
2C5
  5
2C5
331
1A9
  5
1A9
331
DC
  5
DC
331
477
  5
477
331
9D
  5
9D
331
113
  5
113
331
15A
  5
15A
331
1F0
  5
1F0
331
22F
  5
22F
331
162
  5
162
331
E4
  5
E4
331
1B1
  5
1B1
331
1F8
  5
1F8
331
16A
  5
16A
331
534
  5
534
331
286
  5
286
331
B5
  5
B5
331
1C9
  5
1C9
331
4F5
  5
4F5
331
247
  5
247
331
4FD
  5
4FD
331
5BA
  5
5BA
331
505
  5
505
331
50D
  5
50D
331
28E
  5
28E
331
39A
  5
39A
331
231D
  5
231D
331
47F
  5
47F
331
2D5
  5
2D5
331
296
  5
296
331
3A2
  5
3A2
331
440
  5
440
331
24EB
  5
24EB
331
448
  5
448
331
363
  5
363
331
2DD
  5
2DD
331
29E
  5
29E
331
31C
  5
31C
331
3AA
  5
3AA
331
450
  5
450
331
36B
  5
36B
331
2A6
  5
2A6
331
2E5
  5
2E5
331
3B2
  5
3B2
331
48F
  5
48F
331
208
  5
208
331
7E
  5
7E
331
BD
  5
BD
331
172
  5
172
331
C5
  5
C5
331
86
  5
86
331
FC
  5
FC
331
210
  5
210
331
218
  5
218
331
192
  5
192
331
CD
  5
CD
331
8E
  5
8E
331
14B
  5
14B
331
1E1
  5
1E1
331
54C
  5
54C
331
220
  5
220
331
153
  5
153
331
96
  5
96
331
D5
  5
D5
331
19A
  5
19A
331
1E9
  5
1E9
331
25F
  5
25F
331
515
  5
515
331
51D
  5
51D
331
267
  5
267
331
4CE
  5
4CE
331
20A7
  5
20A7
331
52D
  5
52D
331
458
  5
458
331
373
  5
373
331
2AE
  5
2AE
331
2ED
  5
2ED
331
3BA
  5
3BA
331
247C
  5
247C
331
26A8
  5
26A8
331
4A7
  5
4A7
331
3C2
  5
3C2
331
2F5
  5
2F5
331
2B6
  5
2B6
331
334
  5
334
331
37B
  5
37B
331
421
  5
421
331
460
  5
460
331
25AA
  5
25AA
331
241D
  5
241D
331
2533
  5
2533
331
468
  5
468
331
3CA
  5
3CA
331
2FD
  5
2FD
331
2BE
  5
2BE
331
33C
  5
33C
331
38B
  5
38B
331
470
  5
470
331
2C6
  5
2C6
331
3D2
  5
3D2
331
1F1
  5
1F1
331
114
  5
114
331
DD
  5
DD
331
15B
  5
15B
331
1AA
  5
1AA
331
1B2
  5
1B2
331
163
  5
163
331
E5
  5
E5
331
1F9
  5
1F9
331
230
  5
230
331
1C2
  5
1C2
331
16B
  5
16B
331
B6
  5
B6
331
1CA
  5
1CA
331
287
  5
287
331
4F6
  5
4F6
331
1C89
  5
1C89
331
4FE
  5
4FE
331
545
  5
545
331
50E
  5
50E
331
478
  5
478
331
28F
  5
28F
331
39B
  5
39B
331
3E2
  5
3E2
331
441
  5
441
331
297
  5
297
331
2D6
  5
2D6
331
3A3
  5
3A3
331
480
  5
480
331
24EC
  5
24EC
331
449
  5
449
331
31D
  5
31D
331
29F
  5
29F
331
2DE
  5
2DE
331
3AB
  5
3AB
331
3B3
  5
3B3
331
2E6
  5
2E6
331
2A7
  5
2A7
331
36C
  5
36C
331
451
  5
451
331
209
  5
209
331
BE
  5
BE
331
7F
  5
7F
331
173
  5
173
331
211
  5
211
331
87
  5
87
331
C6
  5
C6
331
FD
  5
FD
331
1E2
  5
1E2
331
105
  5
105
331
8F
  5
8F
331
CE
  5
CE
331
14C
  5
14C
331
193
  5
193
331
258
  5
258
331
1CA1
  5
1CA1
331
D6
  5
D6
331
1EA
  5
1EA
331
221
  5
221
331
516
  5
516
331
51E
  5
51E
331
55D
  5
55D
331
52E
  5
52E
331
4E7
  5
4E7
331
459
  5
459
331
374
  5
374
331
2EE
  5
2EE
331
2AF
  5
2AF
331
32D
  5
32D
331
3BB
  5
3BB
331
461
  5
461
331
37C
  5
37C
331
2B7
  5
2B7
331
2F6
  5
2F6
331
335
  5
335
331
3C3
  5
3C3
331
422
  5
422
331
4A8
  5
4A8
331
241E
  5
241E
331
25AB
  5
25AB
331
469
  5
469
331
33D
  5
33D
331
2BF
  5
2BF
331
3CB
  5
3CB
331
3D3
  5
3D3
331
2C7
  5
2C7
331
471
  5
471
331
229
  5
229
331
1AB
  5
1AB
331
DE
  5
DE
331
115
  5
115
331
15C
  5
15C
331
1F2
  5
1F2
331
231
  5
231
331
164
  5
164
331
E6
  5
E6
331
1B3
  5
1B3
331
1FA
  5
1FA
331
16C
  5
16C
331
1C3
  5
1C3
331
1CB
  5
1CB
331
135
  5
135
331
B7
  5
B7
331
241
  5
241
331
4F7
  5
4F7
331
4FF
  5
4FF
331
546
  5
546
331
50F
  5
50F
331
479
  5
479
331
43A
  5
43A
331
290
  5
290
331
39C
  5
39C
331
481
  5
481
331
2D7
  5
2D7
331
298
  5
298
331
3A4
  5
3A4
331
442
  5
442
331
44A
  5
44A
331
3AC
  5
3AC
331
2A0
  5
2A0
331
2DF
  5
2DF
331
31E
  5
31E
331
3FB
  5
3FB
331
2692
  5
2692
331
452
  5
452
331
2E7
  5
2E7
331
3B4
  5
3B4
331
78
  5
78
331
1D3
  5
1D3
331
F6
  5
F6
331
2CBE
  5
2CBE
331
80
  5
80
331
BF
  5
BF
331
174
  5
174
331
20A
  5
20A
331
249
  5
249
331
251
  5
251
331
184
  5
184
331
88
  5
88
331
212
  5
212
331
259
  5
259
331
14D
  5
14D
331
CF
  5
CF
331
90
  5
90
331
106
  5
106
331
194
  5
194
331
1E3
  5
1E3
331
222
  5
222
331
155
  5
155
331
D7
  5
D7
331
1EB
  5
1EB
331
517
  5
517
331
51F
  5
51F
331
527
  5
527
331
2A8
  5
2A8
331
22C8
  5
22C8
331
375
  5
375
331
2B0
  5
2B0
331
2EF
  5
2EF
331
45A
  5
45A
331
3C4
  5
3C4
331
2F7
  5
2F7
331
2B8
  5
2B8
331
336
  5
336
331
37D
  5
37D
331
462
  5
462
331
241F
  5
241F
331
3CC
  5
3CC
331
33E
  5
33E
331
2E49
  5
2E49
331
2427
  5
2427
331
472
  5
472
331
3D4
  5
3D4
331
346
  5
346
331
22A
  5
22A
331
116
  5
116
331
24B6
  5
24B6
331
DF
  5
DF
331
15D
  5
15D
331
1AC
  5
1AC
331
279
  5
279
331
1B4
  5
1B4
331
E7
  5
E7
331
165
  5
165
331
1FB
  5
1FB
331
232
  5
232
331
1C4
  5
1C4
331
EF
  5
EF
331
B0
  5
B0
331
16D
  5
16D
331
203
  5
203
  0
SORTENTSTABLE
  5
2F41
102
{ACAD_REACTORS
330
2F40
102
}
330
2F40
100
AcDbSortentsTable
330
2D8A
  0
SORTENTSTABLE
  5
2F2E
102
{ACAD_REACTORS
330
2F2D
102
}
330
2F2D
100
AcDbSortentsTable
330
2D9A
  0
SORTENTSTABLE
  5
2F12
102
{ACAD_REACTORS
330
2F11
102
}
330
2F11
100
AcDbSortentsTable
330
2DAF
  0
SORTENTSTABLE
  5
2E37
102
{ACAD_REACTORS
330
2E36
102
}
330
2E36
100
AcDbSortentsTable
330
2E22
  0
SORTENTSTABLE
  5
2FF0
102
{ACAD_REACTORS
330
2FEF
102
}
330
2FEF
100
AcDbSortentsTable
330
2FEA
  0
DIMASSOC
  5
1D02
102
{ACAD_REACTORS
330
1CFA
102
}
330
1CFA
100
AcDbDimAssoc
330
1CEF
 90
        3
 70
     0
 71
     0
  1
AcDbOsnapPointRef
 72
     2
331
E5
 73
     2
 91
        0
 40
0.4999999999947102
 10
0.0
 20
0.0
 30
0.0
 75
     0
  1
AcDbOsnapPointRef
 72
     1
331
E6
 73
     2
 91
        0
 40
1.0
 10
0.0
 20
0.0
 30
2.000000000000000E+50
 75
     0
  0
XRECORD
  5
3024
102
{ACAD_REACTORS
330
3023
102
}
330
3023
100
AcDbXrecord
280
     1
 40
0.18
  0
LAYOUT
  5
25
102
{ACAD_XDICTIONARY
360
3028
102
}
102
{ACAD_REACTORS
330
19
102
}
330
19
100
AcDbPlotSettings
  1

  2
Adobe PDF
  4
A4
  6

 40
3.174999952316284
 41
3.174999952316284
 42
3.175003051757812
 43
3.17498779296875
 44
209.9098358154297
 45
297.0318298339844
 46
0.0
 47
0.0
 48
0.0
 49
0.0
140
0.0
141
0.0
142
1.0
143
497.270370310351
 70
 11952
 72
     0
 73
     1
 74
     0
  7
Adobe PDF
 75
     0
147
0.002010978452981
148
-978873.8611916146
149
111698.2313758976
100
AcDbLayout
  1
Model
 70
     1
 71
     0
 10
0.0
 20
0.0
 11
12.0
 21
9.0
 12
0.0
 22
0.0
 32
0.0
 14
0.0
 24
0.0
 34
0.0
 15
0.0
 25
0.0
 35
0.0
146
0.0
 13
0.0
 23
0.0
 33
0.0
 16
1.0
 26
0.0
 36
0.0
 17
0.0
 27
1.0
 37
0.0
 76
     0
330
22
331
2C66
1001
ACAD_PSEXT
1000
Adobe PDF
1000
Adobe PDF Converter
1000
My Documents
1000
Creates Adobe PDF
1070
     0
  0
LAYOUT
  5
21
102
{ACAD_XDICTIONARY
360
3026
102
}
102
{ACAD_REACTORS
330
19
102
}
330
19
100
AcDbPlotSettings
  1

  2
Adobe PDF
  4

  6

 40
0.0
 41
0.0
 42
0.0
 43
0.0
 44
0.0
 45
0.0
 46
0.0
 47
0.0
 48
0.0
 49
0.0
140
0.0
141
0.0
142
1.0
143
1.0
 70
   688
 72
     0
 73
     0
 74
     5
  7
Adobe PDF
 75
    16
147
1.0
148
0.0
149
0.0
100
AcDbLayout
  1
レイアウト1
 70
     0
 71
     1
 10
0.0
 20
0.0
 11
12.0
 21
9.0
 12
0.0
 22
0.0
 32
0.0
 14
1.000000000000000E+20
 24
1.000000000000000E+20
 34
1.000000000000000E+20
 15
-1.000000000000000E+20
 25
-1.000000000000000E+20
 35
-1.000000000000000E+20
146
0.0
 13
0.0
 23
0.0
 33
0.0
 16
1.0
 26
0.0
 36
0.0
 17
0.0
 27
1.0
 37
0.0
 76
     0
330
1E
  0
MATERIAL
  5
2C70
102
{ACAD_XDICTIONARY
360
2C71
102
}
102
{ACAD_REACTORS
330
1A
102
}
330
1A
100
AcDbMaterial
  1
ByBlock
 72
     0
 43
0.0208333333333333
 43
0.0
 43
0.0
 43
0.0
 43
0.0
 43
0.0208333333333333
 43
0.0
 43
0.0
 43
0.0
 43
0.0
 43
1.0
 43
0.0
 43
0.0
 43
0.0
 43
0.0
 43
1.0
 77
     0
 47
0.0208333333333333
 47
0.0
 47
0.0
 47
0.0
 47
0.0
 47
0.0208333333333333
 47
0.0
 47
0.0
 47
0.0
 47
0.0
 47
1.0
 47
0.0
 47
0.0
 47
0.0
 47
0.0
 47
1.0
171
     0
 49
0.0208333333333333
 49
0.0
 49
0.0
 49
0.0
 49
0.0
 49
0.0208333333333333
 49
0.0
 49
0.0
 49
0.0
 49
0.0
 49
1.0
 49
0.0
 49
0.0
 49
0.0
 49
0.0
 49
1.0
175
     0
142
0.0208333333333333
142
0.0
142
0.0
142
0.0
142
0.0
142
0.0208333333333333
142
0.0
142
0.0
142
0.0
142
0.0
142
1.0
142
0.0
142
0.0
142
0.0
142
0.0
142
1.0
179
     0
144
0.0208333333333333
144
0.0
144
0.0
144
0.0
144
0.0
144
0.0208333333333333
144
0.0
144
0.0
144
0.0
144
0.0
144
1.0
144
0.0
144
0.0
144
0.0
144
0.0
144
1.0
147
0.0208333333333333
147
0.0
147
0.0
147
0.0
147
0.0
147
0.0208333333333333
147
0.0
147
0.0
147
0.0
147
0.0
147
1.0
147
0.0
147
0.0
147
0.0
147
0.0
147
1.0
  0
MATERIAL
  5
2C68
102
{ACAD_XDICTIONARY
360
2C69
102
}
102
{ACAD_REACTORS
330
1A
102
}
330
1A
100
AcDbMaterial
  1
ByLayer
 72
     0
 43
0.0208333333333333
 43
0.0
 43
0.0
 43
0.0
 43
0.0
 43
0.0208333333333333
 43
0.0
 43
0.0
 43
0.0
 43
0.0
 43
1.0
 43
0.0
 43
0.0
 43
0.0
 43
0.0
 43
1.0
 77
     0
 47
0.0208333333333333
 47
0.0
 47
0.0
 47
0.0
 47
0.0
 47
0.0208333333333333
 47
0.0
 47
0.0
 47
0.0
 47
0.0
 47
1.0
 47
0.0
 47
0.0
 47
0.0
 47
0.0
 47
1.0
171
     0
 49
0.0208333333333333
 49
0.0
 49
0.0
 49
0.0
 49
0.0
 49
0.0208333333333333
 49
0.0
 49
0.0
 49
0.0
 49
0.0
 49
1.0
 49
0.0
 49
0.0
 49
0.0
 49
0.0
 49
1.0
175
     0
142
0.0208333333333333
142
0.0
142
0.0
142
0.0
142
0.0
142
0.0208333333333333
142
0.0
142
0.0
142
0.0
142
0.0
142
1.0
142
0.0
142
0.0
142
0.0
142
0.0
142
1.0
179
     0
144
0.0208333333333333
144
0.0
144
0.0
144
0.0
144
0.0
144
0.0208333333333333
144
0.0
144
0.0
144
0.0
144
0.0
144
1.0
144
0.0
144
0.0
144
0.0
144
0.0
144
1.0
147
0.0208333333333333
147
0.0
147
0.0
147
0.0
147
0.0
147
0.0208333333333333
147
0.0
147
0.0
147
0.0
147
0.0
147
1.0
147
0.0
147
0.0
147
0.0
147
0.0
147
1.0
  0
MATERIAL
  5
2C78
102
{ACAD_XDICTIONARY
360
2C79
102
}
102
{ACAD_REACTORS
330
1A
102
}
330
1A
100
AcDbMaterial
  1
Global
 72
     0
 43
0.0208333333333333
 43
0.0
 43
0.0
 43
0.0
 43
0.0
 43
0.0208333333333333
 43
0.0
 43
0.0
 43
0.0
 43
0.0
 43
1.0
 43
0.0
 43
0.0
 43
0.0
 43
0.0
 43
1.0
 77
     0
 47
0.0208333333333333
 47
0.0
 47
0.0
 47
0.0
 47
0.0
 47
0.0208333333333333
 47
0.0
 47
0.0
 47
0.0
 47
0.0
 47
1.0
 47
0.0
 47
0.0
 47
0.0
 47
0.0
 47
1.0
171
     0
 49
0.0208333333333333
 49
0.0
 49
0.0
 49
0.0
 49
0.0
 49
0.0208333333333333
 49
0.0
 49
0.0
 49
0.0
 49
0.0
 49
1.0
 49
0.0
 49
0.0
 49
0.0
 49
0.0
 49
1.0
175
     0
142
0.0208333333333333
142
0.0
142
0.0
142
0.0
142
0.0
142
0.0208333333333333
142
0.0
142
0.0
142
0.0
142
0.0
142
1.0
142
0.0
142
0.0
142
0.0
142
0.0
142
1.0
179
     0
144
0.0208333333333333
144
0.0
144
0.0
144
0.0
144
0.0
144
0.0208333333333333
144
0.0
144
0.0
144
0.0
144
0.0
144
1.0
144
0.0
144
0.0
144
0.0
144
0.0
144
1.0
147
0.0208333333333333
147
0.0
147
0.0
147
0.0
147
0.0
147
0.0208333333333333
147
0.0
147
0.0
147
0.0
147
0.0
147
1.0
147
0.0
147
0.0
147
0.0
147
0.0
147
1.0
  0
MLEADERSTYLE
  5
2CB4
102
{ACAD_REACTORS
330
2CB3
102
}
330
2CB3
100
AcDbMLeaderStyle
170
     2
171
     1
172
     0
 90
        2
 40
0.0
 41
0.0
173
     1
 91
-1056964608
340
13
 92
       -2
290
     1
 42
0.09
291
     1
 43
0.36
  3
Standard
 44
0.18
300

342
11
174
     1
178
     6
175
     1
176
     0
 93
-1056964608
 45
0.18
292
     0
297
     0
 46
0.18
 94
-1056964608
 47
1.0
 49
1.0
140
1.0
293
     1
141
0.0
294
     1
177
     0
142
1.0
295
     0
296
     0
143
0.125
1001
ACAD_MLEADERVER
1070
     2
  0
MLINESTYLE
  5
17
102
{ACAD_REACTORS
330
16
102
}
330
16
100
AcDbMlineStyle
  2
STANDARD
 70
     0
  3

 62
   256
 51
90.0
 52
90.0
 71
     2
 49
0.5
 62
   256
  6
BYLAYER
 49
-0.5
 62
   256
  6
BYLAYER
  0
ACDBPLACEHOLDER
  5
F
102
{ACAD_REACTORS
330
E
102
}
330
E
  0
SCALE
  5
2C92
102
{ACAD_REACTORS
330
2C91
102
}
330
2C91
100
AcDbScale
 70
     0
300
1:1
140
1.0
141
1.0
290
     1
  0
SCALE
  5
2C93
102
{ACAD_REACTORS
330
2C91
102
}
330
2C91
100
AcDbScale
 70
     0
300
1:2
140
1.0
141
2.0
290
     0
  0
SCALE
  5
2C94
102
{ACAD_REACTORS
330
2C91
102
}
330
2C91
100
AcDbScale
 70
     0
300
1:4
140
1.0
141
4.0
290
     0
  0
SCALE
  5
2C95
102
{ACAD_REACTORS
330
2C91
102
}
330
2C91
100
AcDbScale
 70
     0
300
1:5
140
1.0
141
5.0
290
     0
  0
SCALE
  5
2C96
102
{ACAD_REACTORS
330
2C91
102
}
330
2C91
100
AcDbScale
 70
     0
300
1:8
140
1.0
141
8.0
290
     0
  0
SCALE
  5
2C97
102
{ACAD_REACTORS
330
2C91
102
}
330
2C91
100
AcDbScale
 70
     0
300
1:10
140
1.0
141
10.0
290
     0
  0
SCALE
  5
2C98
102
{ACAD_REACTORS
330
2C91
102
}
330
2C91
100
AcDbScale
 70
     0
300
1:16
140
1.0
141
16.0
290
     0
  0
SCALE
  5
2C99
102
{ACAD_REACTORS
330
2C91
102
}
330
2C91
100
AcDbScale
 70
     0
300
1:20
140
1.0
141
20.0
290
     0
  0
SCALE
  5
2C9A
102
{ACAD_REACTORS
330
2C91
102
}
330
2C91
100
AcDbScale
 70
     0
300
1:30
140
1.0
141
30.0
290
     0
  0
SCALE
  5
2C9B
102
{ACAD_REACTORS
330
2C91
102
}
330
2C91
100
AcDbScale
 70
     0
300
1:40
140
1.0
141
40.0
290
     0
  0
SCALE
  5
2C9C
102
{ACAD_REACTORS
330
2C91
102
}
330
2C91
100
AcDbScale
 70
     0
300
1:50
140
1.0
141
50.0
290
     0
  0
SCALE
  5
2C9D
102
{ACAD_REACTORS
330
2C91
102
}
330
2C91
100
AcDbScale
 70
     0
300
1:100
140
1.0
141
100.0
290
     0
  0
SCALE
  5
2C9E
102
{ACAD_REACTORS
330
2C91
102
}
330
2C91
100
AcDbScale
 70
     0
300
2:1
140
2.0
141
1.0
290
     0
  0
SCALE
  5
2C9F
102
{ACAD_REACTORS
330
2C91
102
}
330
2C91
100
AcDbScale
 70
     0
300
4:1
140
4.0
141
1.0
290
     0
  0
SCALE
  5
2CA0
102
{ACAD_REACTORS
330
2C91
102
}
330
2C91
100
AcDbScale
 70
     0
300
8:1
140
8.0
141
1.0
290
     0
  0
SCALE
  5
2CA1
102
{ACAD_REACTORS
330
2C91
102
}
330
2C91
100
AcDbScale
 70
     0
300
10:1
140
10.0
141
1.0
290
     0
  0
SCALE
  5
2CA2
102
{ACAD_REACTORS
330
2C91
102
}
330
2C91
100
AcDbScale
 70
     0
300
100:1
140
100.0
141
1.0
290
     0
  0
SCALE
  5
2CA3
102
{ACAD_REACTORS
330
2C91
102
}
330
2C91
100
AcDbScale
 70
     0
300
1/128" = 1'-0"
140
0.0078125
141
12.0
290
     0
  0
SCALE
  5
2CA4
102
{ACAD_REACTORS
330
2C91
102
}
330
2C91
100
AcDbScale
 70
     0
300
1/64" = 1'-0"
140
0.015625
141
12.0
290
     0
  0
SCALE
  5
2CA5
102
{ACAD_REACTORS
330
2C91
102
}
330
2C91
100
AcDbScale
 70
     0
300
1/32" = 1'-0"
140
0.03125
141
12.0
290
     0
  0
SCALE
  5
2CA6
102
{ACAD_REACTORS
330
2C91
102
}
330
2C91
100
AcDbScale
 70
     0
300
1/16" = 1'-0"
140
0.0625
141
12.0
290
     0
  0
SCALE
  5
2CA7
102
{ACAD_REACTORS
330
2C91
102
}
330
2C91
100
AcDbScale
 70
     0
300
3/32" = 1'-0"
140
0.09375
141
12.0
290
     0
  0
SCALE
  5
2CA8
102
{ACAD_REACTORS
330
2C91
102
}
330
2C91
100
AcDbScale
 70
     0
300
1/8" = 1'-0"
140
0.125
141
12.0
290
     0
  0
SCALE
  5
2CA9
102
{ACAD_REACTORS
330
2C91
102
}
330
2C91
100
AcDbScale
 70
     0
300
3/16" = 1'-0"
140
0.1875
141
12.0
290
     0
  0
SCALE
  5
2CAA
102
{ACAD_REACTORS
330
2C91
102
}
330
2C91
100
AcDbScale
 70
     0
300
1/4" = 1'-0"
140
0.25
141
12.0
290
     0
  0
SCALE
  5
2CAB
102
{ACAD_REACTORS
330
2C91
102
}
330
2C91
100
AcDbScale
 70
     0
300
3/8" = 1'-0"
140
0.375
141
12.0
290
     0
  0
SCALE
  5
2CAC
102
{ACAD_REACTORS
330
2C91
102
}
330
2C91
100
AcDbScale
 70
     0
300
1/2" = 1'-0"
140
0.5
141
12.0
290
     0
  0
SCALE
  5
2CAD
102
{ACAD_REACTORS
330
2C91
102
}
330
2C91
100
AcDbScale
 70
     0
300
3/4" = 1'-0"
140
0.75
141
12.0
290
     0
  0
SCALE
  5
2CAE
102
{ACAD_REACTORS
330
2C91
102
}
330
2C91
100
AcDbScale
 70
     0
300
1" = 1'-0"
140
1.0
141
12.0
290
     0
  0
SCALE
  5
2CAF
102
{ACAD_REACTORS
330
2C91
102
}
330
2C91
100
AcDbScale
 70
     0
300
1-1/2" = 1'-0"
140
1.5
141
12.0
290
     0
  0
SCALE
  5
2CB0
102
{ACAD_REACTORS
330
2C91
102
}
330
2C91
100
AcDbScale
 70
     0
300
3" = 1'-0"
140
3.0
141
12.0
290
     0
  0
SCALE
  5
2CB1
102
{ACAD_REACTORS
330
2C91
102
}
330
2C91
100
AcDbScale
 70
     0
300
6" = 1'-0"
140
6.0
141
12.0
290
     0
  0
SCALE
  5
2CB2
102
{ACAD_REACTORS
330
2C91
102
}
330
2C91
100
AcDbScale
 70
     0
300
1'-0" = 1'-0"
140
12.0
141
12.0
290
     0
  0
TABLESTYLE
  5
1D
102
{ACAD_XDICTIONARY
360
2D5C
102
}
102
{ACAD_REACTORS
330
1C
102
}
330
1C
100
AcDbTableStyle
  3
Standard
 70
     0
 71
     0
 40
0.06
 41
0.06
280
     0
281
     0
  7
STANDARD
140
0.18
170
     2
 62
     0
 63
     7
283
     0
274
    -2
284
     1
 64
     0
275
    -2
285
     1
 65
     0
276
    -2
286
     1
 66
     0
277
    -2
287
     1
 67
     0
278
    -2
288
     1
 68
     0
279
    -2
289
     1
 69
     0
  7
STANDARD
140
0.25
170
     5
 62
     0
 63
     7
283
     0
274
    -2
284
     1
 64
     0
275
    -2
285
     1
 65
     0
276
    -2
286
     1
 66
     0
277
    -2
287
     1
 67
     0
278
    -2
288
     1
 68
     0
279
    -2
289
     1
 69
     0
  7
STANDARD
140
0.18
170
     5
 62
     0
 63
     7
283
     0
274
    -2
284
     1
 64
     0
275
    -2
285
     1
 65
     0
276
    -2
286
     1
 66
     0
277
    -2
287
     1
 67
     0
278
    -2
288
     1
 68
     0
279
    -2
289
     1
 69
     0
  0
VISUALSTYLE
  5
2C86
102
{ACAD_REACTORS
330
2C80
102
}
330
2C80
100
AcDbVisualStyle
  2
2dWireframe
 70
     4
 71
     0
 72
     2
 73
     0
 90
        0
 40
-0.6
 41
-30.0
 62
     5
 63
     7
 74
     1
 91
        4
 64
     7
 65
   257
 75
     1
175
     1
 42
1.0
 92
        0
 66
   257
 43
1.0
 76
     1
 77
     6
 78
     2
 67
     7
 79
     5
170
     0
171
     0
290
     0
174
     0
 93
        1
 44
0.0
173
     0
291
     0
 45
0.0
1001
ACAD
1000
AcDbSavedByObjectVersion
1070
     0
  0
VISUALSTYLE
  5
2C88
102
{ACAD_REACTORS
330
2C80
102
}
330
2C80
100
AcDbVisualStyle
  2
3D Hidden
 70
     6
 71
     1
 72
     2
 73
     2
 90
        0
 40
-0.6
 41
-30.0
 62
     5
 63
     7
 74
     2
 91
        2
 64
     7
 65
   257
 75
     2
175
     1
 42
40.0
 92
        0
 66
   257
 43
1.0
 76
     1
 77
     6
 78
     2
 67
     7
 79
     3
170
     0
171
     0
290
     0
174
     0
 93
        1
 44
0.0
173
     0
291
     0
 45
0.0
1001
ACAD
1000
AcDbSavedByObjectVersion
1070
     0
  0
VISUALSTYLE
  5
2C87
102
{ACAD_REACTORS
330
2C80
102
}
330
2C80
100
AcDbVisualStyle
  2
3dWireframe
 70
     5
 71
     0
 72
     2
 73
     0
 90
        0
 40
-0.6
 41
-30.0
 62
     5
 63
     7
 74
     1
 91
        4
 64
     7
 65
   257
 75
     1
175
     1
 42
1.0
 92
        0
 66
   257
 43
1.0
 76
     1
 77
     6
 78
     2
 67
     7
 79
     5
170
     0
171
     0
290
     0
174
     0
 93
        1
 44
0.0
173
     0
291
     0
 45
0.0
1001
ACAD
1000
AcDbSavedByObjectVersion
1070
     0
  0
VISUALSTYLE
  5
2C85
102
{ACAD_REACTORS
330
2C80
102
}
330
2C80
100
AcDbVisualStyle
  2
Basic
 70
     7
 71
     1
 72
     0
 73
     1
 90
        0
 40
-0.6
 41
-30.0
 62
     5
 63
     7
 74
     0
 91
        4
 64
     7
 65
   257
 75
     1
175
     1
 42
1.0
 92
        8
 66
     7
 43
1.0
 76
     1
 77
     6
 78
     2
 67
     7
 79
     5
170
     0
171
     0
290
     0
174
     0
 93
        1
 44
0.0
173
     0
291
     1
 45
0.0
1001
ACAD
1000
AcDbSavedByObjectVersion
1070
     0
  0
VISUALSTYLE
  5
2C8C
102
{ACAD_REACTORS
330
2C80
102
}
330
2C80
100
AcDbVisualStyle
  2
Brighten
 70
    12
 71
     2
 72
     2
 73
     0
 90
        0
 40
-0.6
 41
-30.0
 62
     5
 63
     7
 74
     1
 91
        4
 64
     7
 65
   257
 75
     1
175
     1
 42
1.0
 92
        8
 66
     7
 43
1.0
 76
     1
 77
     6
 78
     2
 67
     7
 79
     5
170
     0
171
     0
290
     0
174
     0
 93
        1
 44
50.0
173
     0
291
     1
 45
0.0
1001
ACAD
1000
AcDbSavedByObjectVersion
1070
     0
  0
VISUALSTYLE
  5
2C90
102
{ACAD_REACTORS
330
2C80
102
}
330
2C80
100
AcDbVisualStyle
  2
ColorChange
 70
    16
 71
     2
 72
     2
 73
     3
 90
        0
 40
-0.6
 41
-30.0
 62
     5
 63
     8
 74
     1
 91
        4
 64
     7
 65
   257
 75
     1
175
     1
 42
1.0
 92
        8
 66
     8
 43
1.0
 76
     1
 77
     6
 78
     2
 67
     7
 79
     5
170
     0
171
     0
290
     0
174
     0
 93
        1
 44
0.0
173
     0
291
     1
 45
0.0
1001
ACAD
1000
AcDbSavedByObjectVersion
1070
     0
  0
VISUALSTYLE
  5
2C89
102
{ACAD_REACTORS
330
2C80
102
}
330
2C80
100
AcDbVisualStyle
  2
Conceptual
 70
     9
 71
     3
 72
     2
 73
     0
 90
        0
 40
-0.6
 41
-30.0
 62
     5
 63
     7
 74
     2
 91
        2
 64
     7
 65
   257
 75
     1
175
     1
 42
40.0
 92
        8
 66
     7
 43
1.0
 76
     1
 77
     6
 78
     2
 67
     7
 79
     3
170
     0
171
     0
290
     0
174
     0
 93
        1
 44
0.0
173
     0
291
     0
 45
0.0
1001
ACAD
1000
AcDbSavedByObjectVersion
1070
     0
  0
VISUALSTYLE
  5
2C8B
102
{ACAD_REACTORS
330
2C80
102
}
330
2C80
100
AcDbVisualStyle
  2
Dim
 70
    11
 71
     2
 72
     2
 73
     0
 90
        0
 40
-0.6
 41
-30.0
 62
     5
 63
     7
 74
     1
 91
        4
 64
     7
 65
   257
 75
     1
175
     1
 42
1.0
 92
        8
 66
     7
 43
1.0
 76
     1
 77
     6
 78
     2
 67
     7
 79
     5
170
     0
171
     0
290
     0
174
     0
 93
        1
 44
-50.0
173
     0
291
     1
 45
0.0
1001
ACAD
1000
AcDbSavedByObjectVersion
1070
     0
  0
VISUALSTYLE
  5
2C8F
102
{ACAD_REACTORS
330
2C80
102
}
330
2C80
100
AcDbVisualStyle
  2
Facepattern
 70
    15
 71
     2
 72
     2
 73
     0
 90
        0
 40
-0.6
 41
-30.0
 62
     5
 63
     7
 74
     1
 91
        4
 64
     7
 65
   257
 75
     1
175
     1
 42
1.0
 92
        8
 66
     7
 43
1.0
 76
     1
 77
     6
 78
     2
 67
     7
 79
     5
170
     0
171
     0
290
     0
174
     0
 93
        1
 44
0.0
173
     0
291
     1
 45
0.0
1001
ACAD
1000
AcDbSavedByObjectVersion
1070
     0
  0
VISUALSTYLE
  5
2C81
102
{ACAD_REACTORS
330
2C80
102
}
330
2C80
100
AcDbVisualStyle
  2
Flat
 70
     0
 71
     2
 72
     1
 73
     1
 90
        2
 40
-0.6
 41
30.0
 62
     5
 63
     7
 74
     0
 91
        4
 64
     7
 65
   257
 75
     1
175
     1
 42
1.0
 92
        8
 66
     7
 43
1.0
 76
     1
 77
     6
 78
     2
 67
     7
 79
     5
170
     0
171
     0
290
     0
174
     0
 93
       13
 44
0.0
173
     0
291
     1
 45
0.0
1001
ACAD
1000
AcDbSavedByObjectVersion
1070
     0
  0
VISUALSTYLE
  5
2C82
102
{ACAD_REACTORS
330
2C80
102
}
330
2C80
100
AcDbVisualStyle
  2
FlatWithEdges
 70
     1
 71
     2
 72
     1
 73
     1
 90
        2
 40
-0.6
 41
30.0
 62
     5
 63
     7
 74
     1
 91
        4
 64
     7
 65
   257
 75
     1
175
     1
 42
1.0
 92
        0
 66
   257
 43
1.0
 76
     1
 77
     6
 78
     2
 67
     7
 79
     5
170
     0
171
     0
290
     0
174
     0
 93
       13
 44
0.0
173
     0
291
     1
 45
0.0
1001
ACAD
1000
AcDbSavedByObjectVersion
1070
     0
  0
VISUALSTYLE
  5
2C83
102
{ACAD_REACTORS
330
2C80
102
}
330
2C80
100
AcDbVisualStyle
  2
Gouraud
 70
     2
 71
     2
 72
     2
 73
     1
 90
        2
 40
-0.6
 41
30.0
 62
     5
 63
     7
 74
     0
 91
        4
 64
     7
 65
   257
 75
     1
175
     1
 42
1.0
 92
        0
 66
     7
 43
1.0
 76
     1
 77
     6
 78
     2
 67
     7
 79
     5
170
     0
171
     0
290
     0
174
     0
 93
       13
 44
0.0
173
     0
291
     1
 45
0.0
1001
ACAD
1000
AcDbSavedByObjectVersion
1070
     0
  0
VISUALSTYLE
  5
2C84
102
{ACAD_REACTORS
330
2C80
102
}
330
2C80
100
AcDbVisualStyle
  2
GouraudWithEdges
 70
     3
 71
     2
 72
     2
 73
     1
 90
        2
 40
-0.6
 41
30.0
 62
     5
 63
     7
 74
     1
 91
        4
 64
     7
 65
   257
 75
     1
175
     1
 42
1.0
 92
        0
 66
   257
 43
1.0
 76
     1
 77
     6
 78
     2
 67
     7
 79
     5
170
     0
171
     0
290
     0
174
     0
 93
       13
 44
0.0
173
     0
291
     1
 45
0.0
1001
ACAD
1000
AcDbSavedByObjectVersion
1070
     0
  0
VISUALSTYLE
  5
2C8E
102
{ACAD_REACTORS
330
2C80
102
}
330
2C80
100
AcDbVisualStyle
  2
Linepattern
 70
    14
 71
     2
 72
     2
 73
     0
 90
        0
 40
-0.6
 41
-30.0
 62
     5
 63
     7
 74
     1
 91
        4
 64
     7
 65
   257
 75
     7
175
     7
 42
1.0
 92
        8
 66
     7
 43
1.0
 76
     1
 77
     6
 78
     2
 67
     7
 79
     5
170
     0
171
     0
290
     0
174
     0
 93
        1
 44
0.0
173
     0
291
     1
 45
0.0
1001
ACAD
1000
AcDbSavedByObjectVersion
1070
     0
  0
VISUALSTYLE
  5
2C8A
102
{ACAD_REACTORS
330
2C80
102
}
330
2C80
100
AcDbVisualStyle
  2
Realistic
 70
     8
 71
     2
 72
     2
 73
     0
 90
        0
 40
-0.6
 41
-30.0
 62
     5
 63
     7
 74
     1
 91
        0
 64
     7
 65
   257
 75
     1
175
     1
 42
1.0
 92
        8
 66
     8
 43
1.0
 76
     1
 77
     6
 78
     2
 67
     7
 79
     5
170
     0
171
     0
290
     0
174
     0
 93
       13
 44
0.0
173
     0
291
     0
 45
0.0
1001
ACAD
1000
AcDbSavedByObjectVersion
1070
     0
  0
VISUALSTYLE
  5
2C8D
102
{ACAD_REACTORS
330
2C80
102
}
330
2C80
100
AcDbVisualStyle
  2
Thicken
 70
    13
 71
     2
 72
     2
 73
     0
 90
        0
 40
-0.6
 41
-30.0
 62
     5
 63
     7
 74
     1
 91
        4
 64
     7
 65
   257
 75
     1
175
     1
 42
1.0
 92
       12
 66
     7
 43
1.0
 76
     1
 77
     6
 78
     2
 67
     7
 79
     5
170
     0
171
     0
290
     0
174
     0
 93
        1
 44
0.0
173
     0
291
     1
 45
0.0
1001
ACAD
1000
AcDbSavedByObjectVersion
1070
     0
  0
DICTIONARYVAR
  5
2D6D
102
{ACAD_REACTORS
330
562
102
}
330
562
100
DictionaryVariables
280
     0
  1
1:1
  0
DICTIONARYVAR
  5
2D6C
102
{ACAD_REACTORS
330
562
102
}
330
562
100
DictionaryVariables
280
     0
  1
STANDARD
  0
DICTIONARYVAR
  5
563
102
{ACAD_REACTORS
330
562
102
}
330
562
100
DictionaryVariables
280
     0
  1
STANDARD
  0
DICTIONARYVAR
  5
2D71
102
{ACAD_REACTORS
330
562
102
}
330
562
100
DictionaryVariables
280
     0
  1
2
  0
DICTIONARYVAR
  5
2D70
102
{ACAD_REACTORS
330
562
102
}
330
562
100
DictionaryVariables
280
     0
  1
1
  0
DICTIONARYVAR
  5
2D6F
102
{ACAD_REACTORS
330
562
102
}
330
562
100
DictionaryVariables
280
     0
  1
0
  0
DICTIONARYVAR
  5
2D6E
102
{ACAD_REACTORS
330
562
102
}
330
562
100
DictionaryVariables
280
     0
  1
127
  0
XRECORD
  5
301F
102
{ACAD_REACTORS
330
301E
102
}
330
301E
100
AcDbXrecord
280
     1
330
2E49
330
2E4A
330
2E4B
330
2E4C
330
2FF3
330
5BA
330
5B7
330
28BC
330
28BD
330
2AFA
330
2AFB
330
28C5
330
28C6
330
2BB4
330
2BB5
330
2BF3
330
2BF4
330
2BBD
330
2BBE
330
2B13
330
2B14
330
2BCF
330
2BD0
330
2B0A
330
2B0B
330
2BFC
330
2BFD
330
2BEA
330
2BEB
330
28FB
330
28FC
330
2E40
330
2E41
330
290D
330
290E
330
2916
330
2917
330
2B25
330
2B26
330
2C3B
330
2C3C
330
2B37
330
2B38
330
2C32
330
2C33
330
2C17
330
2C18
330
2B50
330
2B51
330
291F
330
2920
330
2B59
330
2B5A
330
2C29
330
2C2A
330
2B6B
330
2B6C
330
2C20
330
2C21
330
2928
330
2929
330
2931
330
2932
330
2C4B
330
2C4C
330
2C54
330
2C55
330
2DC4
330
2DC5
330
2DD0
330
2DD1
330
2DDC
330
2DDD
330
2DE8
330
2DE9
330
2DF4
330
2DF5
330
2E00
330
2E01
330
2E0C
330
2E0D
330
2E18
330
2E19
330
2E24
330
2E26
330
2E27
330
2E28
330
2E29
  0
DICTIONARY
  5
3028
330
25
100
AcDbDictionary
280
     1
281
     1
  3
ACAD_XREC_ROUNDTRIP
360
3029
  0
DICTIONARY
  5
3026
330
21
100
AcDbDictionary
280
     1
281
     1
  3
ACAD_XREC_ROUNDTRIP
360
3027
  0
DICTIONARY
  5
2C71
330
2C70
100
AcDbDictionary
280
     1
281
     1
  3
ACAD_XREC_ROUNDTRIP
360
302B
  3
BUMPTILE
360
2C73
  3
DIFFUSETILE
360
2C72
  3
OPACITYTILE
360
2C76
  3
REFLECTIONTILE
360
2C75
  3
REFRACTIONTILE
360
2C77
  3
SPECULARTILE
360
2C74
  0
DICTIONARY
  5
2C69
330
2C68
100
AcDbDictionary
280
     1
281
     1
  3
ACAD_XREC_ROUNDTRIP
360
302A
  3
BUMPTILE
360
2C6B
  3
DIFFUSETILE
360
2C6A
  3
OPACITYTILE
360
2C6E
  3
REFLECTIONTILE
360
2C6D
  3
REFRACTIONTILE
360
2C6F
  3
SPECULARTILE
360
2C6C
  0
DICTIONARY
  5
2C79
330
2C78
100
AcDbDictionary
280
     1
281
     1
  3
ACAD_XREC_ROUNDTRIP
360
302C
  3
BUMPTILE
360
2C7B
  3
DIFFUSETILE
360
2C7A
  3
OPACITYTILE
360
2C7E
  3
REFLECTIONTILE
360
2C7D
  3
REFRACTIONTILE
360
2C7F
  3
SPECULARTILE
360
2C7C
  0
DICTIONARY
  5
2D5C
330
1D
100
AcDbDictionary
280
     1
281
     1
  3
ACAD_ROUNDTRIP_2008_TABLESTYLE_CELLSTYLEMAP
360
3020
  3
ACAD_XREC_ROUNDTRIP
360
3025
  0
XRECORD
  5
3029
102
{ACAD_REACTORS
330
3028
102
}
330
3028
100
AcDbXrecord
280
     1
102
SHADEPLOT
 70
     0
102
SHADEPLOTRESLEVEL
 70
     2
102
SHADEPLOTCUSTOMDPI
 70
   300
  0
XRECORD
  5
3027
102
{ACAD_REACTORS
330
3026
102
}
330
3026
100
AcDbXrecord
280
     1
102
SHADEPLOT
 70
     0
102
SHADEPLOTRESLEVEL
 70
     2
102
SHADEPLOTCUSTOMDPI
 70
   300
  0
XRECORD
  5
302B
102
{ACAD_REACTORS
330
2C71
102
}
330
2C71
100
AcDbXrecord
280
     1
102
MATERIAL
148
0.0
149
0.0
149
0.0
 93
        0
 94
      127
282
     0
 72
     0
 77
     0
171
     0
175
     0
179
     0
273
     0
  0
XRECORD
  5
2C73
102
{ACAD_REACTORS
330
2C71
102
}
330
2C71
100
AcDbXrecord
280
     1
270
     1
271
     1
  0
XRECORD
  5
2C72
102
{ACAD_REACTORS
330
2C71
102
}
330
2C71
100
AcDbXrecord
280
     1
270
     1
271
     1
  0
XRECORD
  5
2C76
102
{ACAD_REACTORS
330
2C71
102
}
330
2C71
100
AcDbXrecord
280
     1
270
     1
271
     1
  0
XRECORD
  5
2C75
102
{ACAD_REACTORS
330
2C71
102
}
330
2C71
100
AcDbXrecord
280
     1
270
     1
271
     1
  0
XRECORD
  5
2C77
102
{ACAD_REACTORS
330
2C71
102
}
330
2C71
100
AcDbXrecord
280
     1
270
     1
271
     1
  0
XRECORD
  5
2C74
102
{ACAD_REACTORS
330
2C71
102
}
330
2C71
100
AcDbXrecord
280
     1
270
     1
271
     1
  0
XRECORD
  5
302A
102
{ACAD_REACTORS
330
2C69
102
}
330
2C69
100
AcDbXrecord
280
     1
102
MATERIAL
148
0.0
149
0.0
149
0.0
 93
        0
 94
      127
282
     0
 72
     0
 77
     0
171
     0
175
     0
179
     0
273
     0
  0
XRECORD
  5
2C6B
102
{ACAD_REACTORS
330
2C69
102
}
330
2C69
100
AcDbXrecord
280
     1
270
     1
271
     1
  0
XRECORD
  5
2C6A
102
{ACAD_REACTORS
330
2C69
102
}
330
2C69
100
AcDbXrecord
280
     1
270
     1
271
     1
  0
XRECORD
  5
2C6E
102
{ACAD_REACTORS
330
2C69
102
}
330
2C69
100
AcDbXrecord
280
     1
270
     1
271
     1
  0
XRECORD
  5
2C6D
102
{ACAD_REACTORS
330
2C69
102
}
330
2C69
100
AcDbXrecord
280
     1
270
     1
271
     1
  0
XRECORD
  5
2C6F
102
{ACAD_REACTORS
330
2C69
102
}
330
2C69
100
AcDbXrecord
280
     1
270
     1
271
     1
  0
XRECORD
  5
2C6C
102
{ACAD_REACTORS
330
2C69
102
}
330
2C69
100
AcDbXrecord
280
     1
270
     1
271
     1
  0
XRECORD
  5
302C
102
{ACAD_REACTORS
330
2C79
102
}
330
2C79
100
AcDbXrecord
280
     1
102
MATERIAL
148
0.0
149
0.0
149
0.0
 93
        0
 94
      127
282
     0
 72
     0
 77
     0
171
     0
175
     0
179
     0
273
     0
  0
XRECORD
  5
2C7B
102
{ACAD_REACTORS
330
2C79
102
}
330
2C79
100
AcDbXrecord
280
     1
270
     1
271
     1
  0
XRECORD
  5
2C7A
102
{ACAD_REACTORS
330
2C79
102
}
330
2C79
100
AcDbXrecord
280
     1
270
     1
271
     1
  0
XRECORD
  5
2C7E
102
{ACAD_REACTORS
330
2C79
102
}
330
2C79
100
AcDbXrecord
280
     1
270
     1
271
     1
  0
XRECORD
  5
2C7D
102
{ACAD_REACTORS
330
2C79
102
}
330
2C79
100
AcDbXrecord
280
     1
270
     1
271
     1
  0
XRECORD
  5
2C7F
102
{ACAD_REACTORS
330
2C79
102
}
330
2C79
100
AcDbXrecord
280
     1
270
     1
271
     1
  0
XRECORD
  5
2C7C
102
{ACAD_REACTORS
330
2C79
102
}
330
2C79
100
AcDbXrecord
280
     1
270
     1
271
     1
  0
CELLSTYLEMAP
  5
3020
102
{ACAD_REACTORS
330
2D5C
102
}
330
2D5C
100
AcDbCellStyleMap
 90
        3
300
CELLSTYLE
  1
TABLEFORMAT_BEGIN
 90
        5
170
     1
 91
        0
 92
    32768
 62
   257
 93
        1
300
CONTENTFORMAT
  1
CONTENTFORMAT_BEGIN
 90
        0
 91
        0
 92
        4
 93
        0
300

 40
0.0
140
1.0
 94
        5
 62
     0
340
11
144
0.25
309
CONTENTFORMAT_END
171
     0
 94
        6
 95
        1
302
GRIDFORMAT
  1
GRIDFORMAT_BEGIN
 90
        0
 91
        1
 62
     0
 92
       -2
340
0
 93
        0
 40
0.045
309
GRIDFORMAT_END
 95
        2
302
GRIDFORMAT
  1
GRIDFORMAT_BEGIN
 90
        0
 91
        1
 62
     0
 92
       -2
340
0
 93
        0
 40
0.045
309
GRIDFORMAT_END
 95
        4
302
GRIDFORMAT
  1
GRIDFORMAT_BEGIN
 90
        0
 91
        1
 62
     0
 92
       -2
340
0
 93
        0
 40
0.045
309
GRIDFORMAT_END
 95
        8
302
GRIDFORMAT
  1
GRIDFORMAT_BEGIN
 90
        0
 91
        1
 62
     0
 92
       -2
340
0
 93
        0
 40
0.045
309
GRIDFORMAT_END
 95
       16
302
GRIDFORMAT
  1
GRIDFORMAT_BEGIN
 90
        0
 91
        1
 62
     0
 92
       -2
340
0
 93
        0
 40
0.045
309
GRIDFORMAT_END
 95
       32
302
GRIDFORMAT
  1
GRIDFORMAT_BEGIN
 90
        0
 91
        1
 62
     0
 92
       -2
340
0
 93
        0
 40
0.045
309
GRIDFORMAT_END
309
TABLEFORMAT_END
  1
CELLSTYLE_BEGIN
 90
        1
 91
        1
300
_TITLE
309
CELLSTYLE_END
300
CELLSTYLE
  1
TABLEFORMAT_BEGIN
 90
        5
170
     1
 91
        0
 92
        0
 62
   257
 93
        1
300
CONTENTFORMAT
  1
CONTENTFORMAT_BEGIN
 90
        0
 91
        0
 92
        4
 93
        0
300

 40
0.0
140
1.0
 94
        5
 62
     0
340
11
144
0.18
309
CONTENTFORMAT_END
171
     0
 94
        6
 95
        1
302
GRIDFORMAT
  1
GRIDFORMAT_BEGIN
 90
        0
 91
        1
 62
     0
 92
       -2
340
0
 93
        0
 40
0.045
309
GRIDFORMAT_END
 95
        2
302
GRIDFORMAT
  1
GRIDFORMAT_BEGIN
 90
        0
 91
        1
 62
     0
 92
       -2
340
0
 93
        0
 40
0.045
309
GRIDFORMAT_END
 95
        4
302
GRIDFORMAT
  1
GRIDFORMAT_BEGIN
 90
        0
 91
        1
 62
     0
 92
       -2
340
0
 93
        0
 40
0.045
309
GRIDFORMAT_END
 95
        8
302
GRIDFORMAT
  1
GRIDFORMAT_BEGIN
 90
        0
 91
        1
 62
     0
 92
       -2
340
0
 93
        0
 40
0.045
309
GRIDFORMAT_END
 95
       16
302
GRIDFORMAT
  1
GRIDFORMAT_BEGIN
 90
        0
 91
        1
 62
     0
 92
       -2
340
0
 93
        0
 40
0.045
309
GRIDFORMAT_END
 95
       32
302
GRIDFORMAT
  1
GRIDFORMAT_BEGIN
 90
        0
 91
        1
 62
     0
 92
       -2
340
0
 93
        0
 40
0.045
309
GRIDFORMAT_END
309
TABLEFORMAT_END
  1
CELLSTYLE_BEGIN
 90
        2
 91
        1
300
_HEADER
309
CELLSTYLE_END
300
CELLSTYLE
  1
TABLEFORMAT_BEGIN
 90
        5
170
     1
 91
        0
 92
        0
 62
   257
 93
        1
300
CONTENTFORMAT
  1
CONTENTFORMAT_BEGIN
 90
        0
 91
        0
 92
        4
 93
        0
300

 40
0.0
140
1.0
 94
        2
 62
     0
340
11
144
0.18
309
CONTENTFORMAT_END
171
     0
 94
        6
 95
        1
302
GRIDFORMAT
  1
GRIDFORMAT_BEGIN
 90
        0
 91
        1
 62
     0
 92
       -2
340
0
 93
        0
 40
0.045
309
GRIDFORMAT_END
 95
        2
302
GRIDFORMAT
  1
GRIDFORMAT_BEGIN
 90
        0
 91
        1
 62
     0
 92
       -2
340
0
 93
        0
 40
0.045
309
GRIDFORMAT_END
 95
        4
302
GRIDFORMAT
  1
GRIDFORMAT_BEGIN
 90
        0
 91
        1
 62
     0
 92
       -2
340
0
 93
        0
 40
0.045
309
GRIDFORMAT_END
 95
        8
302
GRIDFORMAT
  1
GRIDFORMAT_BEGIN
 90
        0
 91
        1
 62
     0
 92
       -2
340
0
 93
        0
 40
0.045
309
GRIDFORMAT_END
 95
       16
302
GRIDFORMAT
  1
GRIDFORMAT_BEGIN
 90
        0
 91
        1
 62
     0
 92
       -2
340
0
 93
        0
 40
0.045
309
GRIDFORMAT_END
 95
       32
302
GRIDFORMAT
  1
GRIDFORMAT_BEGIN
 90
        0
 91
        1
 62
     0
 92
       -2
340
0
 93
        0
 40
0.045
309
GRIDFORMAT_END
309
TABLEFORMAT_END
  1
CELLSTYLE_BEGIN
 90
        3
 91
        2
300
_DATA
309
CELLSTYLE_END
  0
XRECORD
  5
3025
102
{ACAD_REACTORS
330
2D5C
102
}
330
2D5C
100
AcDbXrecord
280
     1
102
ACAD_ROUNDTRIP_PRE2007_TABLESTYLE
 90
        4
 91
        0
  1

 92
        4
 93
        0
  2

 94
        4
 95
        0
  3

  0
ENDSEC
  0
EOF
