  0
SECTION
  2
HEADER
  9
$ACADVER
  1
AC1014
  9
$ACADMAINTVER
 70
     0
  9
$DWGCODEPAGE
  3
ANSI_932
  9
$INSBASE
 10
0.0
 20
0.0
 30
0.0
  9
$EXTMIN
 10
-1997.797216
 20
-20877.910282
 30
0.0
  9
$EXTMAX
 10
895.452784
 20
-18868.610282
 30
0.0
  9
$LIMMIN
 10
-30251.172216
 20
-40873.260282
  9
$LIMMAX
 10
29148.827784
 20
1126.739718
  9
$ORTHOMODE
 70
     0
  9
$REGENMODE
 70
     1
  9
$FILLMODE
 70
     1
  9
$QTEXTMODE
 70
     0
  9
$MIRRTEXT
 70
     1
  9
$DRAGMODE
 70
     2
  9
$LTSCALE
 40
100.0
  9
$OSMODE
 70
     0
  9
$ATTMODE
 70
     1
  9
$TEXTSIZE
 40
0.2
  9
$TRACEWID
 40
0.05
  9
$TEXTSTYLE
  7
STANDARD
  9
$CLAYER
  8
0
  9
$CELTYPE
  6
CONTINUOUS
  9
$CECOLOR
 62
   256
  9
$CELTSCALE
 40
1.0
  9
$DELOBJ
 70
     1
  9
$DISPSILH
 70
     0
  9
$DIMSCALE
 40
1.0
  9
$DIMASZ
 40
0.18
  9
$DIMEXO
 40
0.0625
  9
$DIMDLI
 40
0.38
  9
$DIMRND
 40
0.0
  9
$DIMDLE
 40
0.0
  9
$DIMEXE
 40
0.18
  9
$DIMTP
 40
0.0
  9
$DIMTM
 40
0.0
  9
$DIMTXT
 40
0.18
  9
$DIMCEN
 40
0.09
  9
$DIMTSZ
 40
0.0
  9
$DIMTOL
 70
     0
  9
$DIMLIM
 70
     0
  9
$DIMTIH
 70
     1
  9
$DIMTOH
 70
     1
  9
$DIMSE1
 70
     0
  9
$DIMSE2
 70
     0
  9
$DIMTAD
 70
     0
  9
$DIMZIN
 70
     0
  9
$DIMBLK
  1

  9
$DIMASO
 70
     1
  9
$DIMSHO
 70
     1
  9
$DIMPOST
  1

  9
$DIMAPOST
  1

  9
$DIMALT
 70
     0
  9
$DIMALTD
 70
     2
  9
$DIMALTF
 40
25.4
  9
$DIMLFAC
 40
1.0
  9
$DIMTOFL
 70
     0
  9
$DIMTVP
 40
0.0
  9
$DIMTIX
 70
     0
  9
$DIMSOXD
 70
     0
  9
$DIMSAH
 70
     0
  9
$DIMBLK1
  1

  9
$DIMBLK2
  1

  9
$DIMSTYLE
  2
STANDARD
  9
$DIMCLRD
 70
     0
  9
$DIMCLRE
 70
     0
  9
$DIMCLRT
 70
     0
  9
$DIMTFAC
 40
1.0
  9
$DIMGAP
 40
0.09
  9
$DIMJUST
 70
     0
  9
$DIMSD1
 70
     0
  9
$DIMSD2
 70
     0
  9
$DIMTOLJ
 70
     1
  9
$DIMTZIN
 70
     0
  9
$DIMALTZ
 70
     0
  9
$DIMALTTZ
 70
     0
  9
$DIMFIT
 70
     3
  9
$DIMUPT
 70
     0
  9
$DIMUNIT
 70
     2
  9
$DIMDEC
 70
     4
  9
$DIMTDEC
 70
     4
  9
$DIMALTU
 70
     2
  9
$DIMALTTD
 70
     2
  9
$DIMTXSTY
  7
STANDARD
  9
$DIMAUNIT
 70
     0
  9
$LUNITS
 70
     2
  9
$LUPREC
 70
     4
  9
$SKETCHINC
 40
0.1
  9
$FILLETRAD
 40
0.0
  9
$AUNITS
 70
     0
  9
$AUPREC
 70
     0
  9
$MENU
  1
acad
  9
$ELEVATION
 40
0.0
  9
$PELEVATION
 40
0.0
  9
$THICKNESS
 40
0.0
  9
$LIMCHECK
 70
     0
  9
$BLIPMODE
 70
     1
  9
$CHAMFERA
 40
0.0
  9
$CHAMFERB
 40
0.0
  9
$CHAMFERC
 40
0.0
  9
$CHAMFERD
 40
0.0
  9
$SKPOLY
 70
     0
  9
$TDCREATE
 40
0.000000000
  9
$TDUPDATE
 40
0.000000000
  9
$TDINDWG
 40
0.0000000000
  9
$TDUSRTIMER
 40
0.0000000000
  9
$USRTIMER
 70
     1
  9
$ANGBASE
 50
0.0
  9
$ANGDIR
 70
     0
  9
$PDMODE
 70
     0
  9
$PDSIZE
 40
0.0
  9
$PLINEWID
 40
0.0
  9
$COORDS
 70
     0
  9
$SPLFRAME
 70
     0
  9
$SPLINETYPE
 70
     6
  9
$SPLINESEGS
 70
     8
  9
$ATTDIA
 70
     0
  9
$ATTREQ
 70
     1
  9
$HANDLING
 70
     1
  9
$HANDSEED
  5
300
  9
$SURFTAB1
 70
     6
  9
$SURFTAB2
 70
     6
  9
$SURFTYPE
 70
     6
  9
$SURFU
 70
     6
  9
$SURFV
 70
     6
  9
$UCSNAME
  2

  9
$UCSORG
 10
0.0
 20
0.0
 30
0.0
  9
$UCSXDIR
 10
1.0
 20
0.0
 30
0.0
  9
$UCSYDIR
 10
0.0
 20
1.0
 30
0.0
  9
$PUCSNAME
  2

  9
$PUCSORG
 10
0.0
 20
0.0
 30
0.0
  9
$PUCSXDIR
 10
1.0
 20
0.0
 30
0.0
  9
$PUCSYDIR
 10
0.0
 20
1.0
 30
0.0
  9
$USERI1
 70
     0
  9
$USERI2
 70
     0
  9
$USERI3
 70
     0
  9
$USERI4
 70
     0
  9
$USERI5
 70
     0
  9
$USERR1
 40
0.0
  9
$USERR2
 40
0.0
  9
$USERR3
 40
0.0
  9
$USERR4
 40
0.0
  9
$USERR5
 40
0.0
  9
$WORLDVIEW
 70
     1
  9
$SHADEDGE
 70
     3
  9
$SHADEDIF
 70
    70
  9
$TILEMODE
 70
     1
  9
$MAXACTVP
 70
    16
  9
$PINSBASE
 10
0.0
 20
0.0
 30
0.0
  9
$PLIMCHECK
 70
     0
  9
$PEXTMIN
 10
1.000000E+20
 20
1.000000E+20
 30
1.000000E+20
  9
$PEXTMAX
 10
-1.000000E+20
 20
-1.000000E+20
 30
-1.000000E+20
  9
$PLIMMIN
 10
0.0
 20
0.0
  9
$PLIMMAX
 10
12.0
 20
9.0
  9
$UNITMODE
 70
     0
  9
$VISRETAIN
 70
     0
  9
$PLINEGEN
 70
     1
  9
$PSLTSCALE
 70
     0
  9
$TREEDEPTH
 70
  3020
  9
$PICKSTYLE
 70
     1
  9
$CMLSTYLE
  2
STANDARD
  9
$CMLJUST
 70
     0
  9
$CMLSCALE
 40
1.0
  9
$PROXYGRAPHICS
 70
     0
  9
$MEASUREMENT
 70
     0
  0
ENDSEC
  0
SECTION
  2
CLASSES
  0
CLASS
  1
LWPOLYLINE
  2
AcDbPolyline
  3
"AutoCAD"
 90
        0
280
     0
281
     1
  0
CLASS
  1
IMAGE
  2
AcDbRasterImage
  3
ISM
 90
      127
280
     0
281
     1
  0
CLASS
  1
OLE2FRAME
  2
AcDbOle2Frame
  3
""
 90
        0
280
     0
281
     1
  0
CLASS
  1
HATCH
  2
AcDbHatch
  3
"ACAD_SEDONA"
 90
        0
280
     0
281
     1
  0
CLASS
  1
DICTIONARYVAR
  2
AcDbDictionaryVar
  3
"AutoCAD"
 90
        0
280
     0
281
     0
  0
CLASS
  1
RASTERVARIABLES
  2
AcDbRasterVariables
  3
ISM
 90
        0
280
     0
281
     0
  0
CLASS
  1
IMAGEDEF
  2
AcDbRasterImageDef
  3
ISM
 90
        0
280
     0
281
     0
  0
CLASS
  1
IMAGEDEF_REACTOR
  2
AcDbRasterImageDefReactor
  3
ISM
 90
        1
280
     0
281
     0
  0
CLASS
  1
IDBUFFER
  2
AcDbIdBuffer
  3
"Acad"
 90
        0
280
     0
281
     0
  0
CLASS
  1
SPATIAL_FILTER
  2
AcDbSpatialFilter
  3
"Acad"
 90
        0
280
     0
281
     0
  0
CLASS
  1
XRECORD
  2
AcDbXrecord
  3
"<Built In>"
 90
        0
280
     0
281
     0
  0
CLASS
  1
SORTENTSTABLE
  2
AcDbSortentsTable
  3
"AutoCAD"
 90
        0
280
     0
281
     0
  0
CLASS
  1
LAYER_INDEX
  2
AcDbLayerIndex
  3
"Acad"
 90
        0
280
     0
281
     0
  0
CLASS
  1
SPATIAL_INDEX
  2
AcDbSpatialIndex
  3
"Acad"
 90
        0
280
     0
281
     0
  0
CLASS
  1
OBJECT_PTR
  2
CAseDLPNTableRecord
  3
"ASE-LPNTableRecord"
 90
        1
280
     0
281
     0
  0
CLASS
  1
LAYOUT
  2
AcDbLayout
  3
"AutoCAD 2000"
 90
        0
280
     0
281
     0
  0
CLASS
  1
PLOTSETTINGS
  2
AcDbPlotSettings
  3
"AutoCAD 2000"
 90
        0
280
     0
281
     0
  0
CLASS
  1
ACDBDICTIONARYWDFLT
  2
AcDbDictionaryWithDefault
  3
"AutoCAD 2000"
 90
        0
280
     0
281
     0
  0
CLASS
  1
ACDBPLACEHOLDER
  2
AcDbPlaceHolder
  3
"AutoCAD 2000"
 90
        0
280
     0
281
     0
  0
CLASS
  1
VBA_PROJECT
  2
AcDbVbaProject
  3
"acadvba"
 90
        0
280
     0
281
     0
  0
CLASS
  1
WIPEOUT
  2
AcDbWipeout
  3
WipeOut|AutoCAD Express Tool|expresstools@autodesk.com
 90
      127
280
     0
281
     1
  0
CLASS
  1
WIPEOUTVARIABLES
  2
AcDbWipeoutVariables
  3
WipeOut|AutoCAD Express Tool|expresstools@autodesk.com
 90
        0
280
     0
281
     0
  0
CLASS
  1
RTEXT
  2
RText
  3
RText|AutoCAD Express Tool|expresstools@autodesk.com
 90
        0
280
     0
281
     1
  0
CLASS
  1
ARCALIGNEDTEXT
  2
AcDbArcAlignedText
  3
ATEXT|AutoCAD Express Tool|expresstools@autodesk.com
 90
        0
280
     0
281
     1
  0
ENDSEC
  0
SECTION
  2
TABLES
  0
TABLE
  2
VPORT
  5
7
100
AcDbSymbolTable
 70
     1
  0
VPORT
  5
15
100
AcDbSymbolTableRecord
100
AcDbViewportTableRecord
  2
*ACTIVE
 70
     0
 10
0.0
 20
0.0
 11
1.0
 21
1.0
 12
-551.172216
 22
-19873.260282
 13
0.0
 23
0.0
 14
1000.0
 24
1000.0
 15
1000.0
 25
1000.0
 16
0.0
 26
0.0
 36
1.0
 17
0.0
 27
0.0
 37
0.0
 40
42000.0
 41
1.414286
 42
50.0
 43
0.0
 44
0.0
 50
0.0
 51
0.0
 71
     0
 72
   100
 73
     1
 74
     1
 75
     0
 76
     0
 77
     0
 78
     0
  0
ENDTAB
  0
TABLE
  2
LTYPE
  5
4
100
AcDbSymbolTable
 70
     8
  0
LTYPE
  5
11
100
AcDbSymbolTableRecord
100
AcDbLinetypeTableRecord
  2
BYBLOCK
 70
    64
  3

 72
    65
 73
     0
 40
0.0
  0
LTYPE
  5
12
100
AcDbSymbolTableRecord
100
AcDbLinetypeTableRecord
  2
BYLAYER
 70
    64
  3

 72
    65
 73
     0
 40
0.0
  0
LTYPE
  5
13
100
AcDbSymbolTableRecord
100
AcDbLinetypeTableRecord
  2
CONTINUOUS
 70
    64
  3
Solid line
 72
    65
 73
     0
 40
0.0
  0
LTYPE
  5
12B
100
AcDbSymbolTableRecord
100
AcDbLinetypeTableRecord
  2
HIDDEN
 70
    64
  3
__ __ __ __ __ __ __ __ __ __ __ __ __ __ __ __
 72
    65
 73
     5
 40
8.0
 49
1.0
 74
     0
 49
-2.0
 74
     0
 49
2.0
 74
     0
 49
-2.0
 74
     0
 49
1.0
 74
     0
  0
LTYPE
  5
12C
100
AcDbSymbolTableRecord
100
AcDbLinetypeTableRecord
  2
DOT
 70
    64
  3
. . . . . . . . . . . . . . . . . . . . . . . .
 72
    65
 73
     3
 40
1.6
 49
0.4
 74
     0
 49
-0.8
 74
     0
 49
0.4
 74
     0
  0
LTYPE
  5
12D
100
AcDbSymbolTableRecord
100
AcDbLinetypeTableRecord
  2
CENTER
 70
    64
  3
____ _ ____ _ ____ _ ____ _ ____ _ ____ _ ____ 
 72
    65
 73
     5
 40
12.0
 49
5.0
 74
     0
 49
-0.8
 74
     0
 49
0.4
 74
     0
 49
-0.8
 74
     0
 49
5.0
 74
     0
  0
LTYPE
  5
12E
100
AcDbSymbolTableRecord
100
AcDbLinetypeTableRecord
  2
DIVIDE
 70
    64
  3
____ . . ____ . . ____ . . ____ . . ____ . . __
 72
    65
 73
     7
 40
13.2
 49
5.0
 74
     0
 49
-0.8
 74
     0
 49
0.4
 74
     0
 49
-0.8
 74
     0
 49
0.4
 74
     0
 49
-0.8
 74
     0
 49
5.0
 74
     0
  0
LTYPE
  5
12F
100
AcDbSymbolTableRecord
100
AcDbLinetypeTableRecord
  2
STYLE_07
 70
     0
  3
Solid Line
 72
    65
 73
     6
 40
7.48
 49
2.5
 74
     0
 49
-0.83
 74
     0
 49
2.5
 74
     0
 49
-0.83
 74
     0
 49
0.27
 74
     0
 49
-0.55
 74
     0
  0
ENDTAB
  0
TABLE
  2
LAYER
  5
2
100
AcDbSymbolTable
 70
     5
  0
LAYER
  5
14
100
AcDbSymbolTableRecord
100
AcDbLayerTableRecord
  2
0
 70
     0
 62
     7
  6
CONTINUOUS
  0
LAYER
  5
27
100
AcDbSymbolTableRecord
100
AcDbLayerTableRecord
  2
001
 70
     0
 62
     7
  6
CONTINUOUS
  0
LAYER
  5
28
100
AcDbSymbolTableRecord
100
AcDbLayerTableRecord
  2
002
 70
     0
 62
     7
  6
CONTINUOUS
  0
LAYER
  5
29
100
AcDbSymbolTableRecord
100
AcDbLayerTableRecord
  2
003
 70
     0
 62
     7
  6
CONTINUOUS
  0
LAYER
  5
2A
100
AcDbSymbolTableRecord
100
AcDbLayerTableRecord
  2
004
 70
     0
 62
     7
  6
CONTINUOUS
  0
ENDTAB
  0
TABLE
  2
STYLE
  5
3
100
AcDbSymbolTable
 70
     3
  0
STYLE
  5
17
100
AcDbSymbolTableRecord
100
AcDbTextStyleTableRecord
  2
STANDARD
 70
     0
 40
0.0
 41
1.0
 50
0.0
 71
     0
 42
0.0
  3
txt
  4

  0
STYLE
  5
127
100
AcDbSymbolTableRecord
100
AcDbTextStyleTableRecord
  2
DRACAD
 70
     0
 40
0.0
 41
1.0
 50
0.0
 71
     0
 42
0.0
  3
txt
  4
extfont
  0
STYLE
  5
128
100
AcDbSymbolTableRecord
100
AcDbTextStyleTableRecord
  2
TATEDRACAD
 70
     4
 40
0.0
 41
1.0
 50
0.0
 71
     0
 42
0.0
  3
txt
  4
extfont
  0
ENDTAB
  0
TABLE
  2
VIEW
  5
5
100
AcDbSymbolTable
 70
     0
  0
ENDTAB
  0
TABLE
  2
UCS
  5
6
100
AcDbSymbolTable
 70
     0
  0
ENDTAB
  0
TABLE
  2
APPID
  5
8
100
AcDbSymbolTable
 70
     1
  0
APPID
  5
16
100
AcDbSymbolTableRecord
100
AcDbRegAppTableRecord
  2
ACAD
 70
     0
  0
ENDTAB
  0
TABLE
  2
DIMSTYLE
  5
9
100
AcDbSymbolTable
 70
     2
  0
DIMSTYLE
105
18
100
AcDbSymbolTableRecord
100
AcDbDimStyleTableRecord
  2
STANDARD
 70
     0
  3

  4

  5

  6

  7

 40
1.0
 41
0.18
 42
0.0625
 43
0.38
 44
0.18
 45
0.0
 46
0.0
 47
0.0
 48
0.0
 71
     0
 72
     0
 73
     1
 74
     1
 75
     0
 76
     0
 77
     0
 78
     0
140
0.18
141
0.09
142
0.0
143
25.4
144
1.0
145
0.0
146
1.0
147
0.09
170
     0
171
     2
172
     0
173
     0
174
     0
175
     0
176
     0
177
     0
178
     0
270
     2
271
     4
272
     4
273
     2
274
     2
275
     0
280
     0
281
     0
282
     0
283
     1
284
     0
285
     0
286
     0
287
     0
288
     0
340
17
  0
DIMSTYLE
105
14F
100
AcDbSymbolTableRecord
100
AcDbDimStyleTableRecord
  2
DIMSTYLE001
 70
     0
  3

  4

  5
_ORIGIN
  6

  7

 40
1.0
 41
10.0
 42
0.0
 43
1000.0
 44
0.0
 45
0.0
 46
0.0
 47
0.0
 48
0.0
 71
     0
 72
     0
 73
     0
 74
     0
 75
     0
 76
     0
 77
     1
 78
     0
140
25.0
141
0.09
142
0.0
143
25.4
144
1.0
145
0.0
146
1.0
147
0.0
170
     0
171
     2
172
     1
173
     0
174
     1
175
     0
176
     0
177
     0
178
     0
270
     2
271
     0
272
     4
273
     2
274
     2
275
     0
280
     0
281
     0
282
     0
283
     1
284
     0
285
     0
286
     0
287
     3
288
     0
340
127
  0
ENDTAB
  0
TABLE
  2
BLOCK_RECORD
  5
1
100
AcDbSymbolTable
 70
    10
  0
BLOCK_RECORD
  5
A
100
AcDbSymbolTableRecord
100
AcDbBlockTableRecord
  2
*MODEL_SPACE
  0
BLOCK_RECORD
  5
B
100
AcDbSymbolTableRecord
100
AcDbBlockTableRecord
  2
*PAPER_SPACE
  0
BLOCK_RECORD
  5
14A
100
AcDbSymbolTableRecord
100
AcDbBlockTableRecord
  2
_ORIGIN
  0
BLOCK_RECORD
  5
150
100
AcDbSymbolTableRecord
100
AcDbBlockTableRecord
  2
1
  0
BLOCK_RECORD
  5
151
100
AcDbSymbolTableRecord
100
AcDbBlockTableRecord
  2
2
  0
BLOCK_RECORD
  5
152
100
AcDbSymbolTableRecord
100
AcDbBlockTableRecord
  2
3
  0
BLOCK_RECORD
  5
1E8
100
AcDbSymbolTableRecord
100
AcDbBlockTableRecord
  2
*D4
  0
BLOCK_RECORD
  5
1F2
100
AcDbSymbolTableRecord
100
AcDbBlockTableRecord
  2
*D5
  0
BLOCK_RECORD
  5
1FC
100
AcDbSymbolTableRecord
100
AcDbBlockTableRecord
  2
*D6
  0
BLOCK_RECORD
  5
206
100
AcDbSymbolTableRecord
100
AcDbBlockTableRecord
  2
*D7
  0
BLOCK_RECORD
  5
296
100
AcDbSymbolTableRecord
100
AcDbBlockTableRecord
  2
*D8
  0
BLOCK_RECORD
  5
2A0
100
AcDbSymbolTableRecord
100
AcDbBlockTableRecord
  2
*D9
  0
ENDTAB
  0
ENDSEC
  0
SECTION
  2
BLOCKS
  0
BLOCK
  5
D
100
AcDbEntity
  8
0
100
AcDbBlockBegin
  2
*MODEL_SPACE
 70
     0
 10
0.0
 20
0.0
 30
0.0
  3
*MODEL_SPACE
  1

  0
ENDBLK
  5
E
100
AcDbEntity
  8
0
100
AcDbBlockEnd
  0
BLOCK
  5
F
100
AcDbEntity
 67
     1
  8
0
100
AcDbBlockBegin
  2
*PAPER_SPACE
 70
     0
 10
0.0
 20
0.0
 30
0.0
  3
*PAPER_SPACE
  1

  0
ENDBLK
  5
10
100
AcDbEntity
 67
     1
  8
0
100
AcDbBlockEnd
  0
BLOCK
  5
14B
100
AcDbEntity
  8
0
100
AcDbBlockBegin
  2
_ORIGIN
 70
     0
 10
0.0
 20
0.0
 30
0.0
  3
_ORIGIN
  1

  0
CIRCLE
  5
14C
100
AcDbEntity
  8
0
  6
ByBlock
 62
     0
100
AcDbCircle
 10
0.0
 20
0.0
 30
0.0
 40
0.5
  0
LINE
  5
14D
100
AcDbEntity
  8
0
  6
ByBlock
 62
     0
100
AcDbLine
 10
0.0
 20
0.0
 30
0.0
 11
-1.0
 21
0.0
 31
0.0
  0
ENDBLK
  5
14E
100
AcDbEntity
  8
0
100
AcDbBlockEnd
  0
BLOCK
  5
153
100
AcDbEntity
  8
0
100
AcDbBlockBegin
  2
1
 70
     0
 10
0.0
 20
0.0
 30
0.0
  3
1
  1

  0
ARC
  5
154
100
AcDbEntity
  8
004
  6
CONTINUOUS
 62
     7
100
AcDbCircle
 10
133.068018
 20
-9.500511
 30
0.0
 40
134.969188
100
AcDbArc
 50
45.663628
 51
224.512358
  0
LINE
  5
155
100
AcDbEntity
  8
004
  6
CONTINUOUS
 62
     7
100
AcDbLine
 10
-120.089883
 20
249.590778
 30
0.0
 11
386.225919
 21
249.590778
 31
0.0
  0
LINE
  5
156
100
AcDbEntity
  8
004
  6
CONTINUOUS
 62
     7
100
AcDbLine
 10
-120.089883
 20
-268.591801
 30
0.0
 11
-120.089883
 21
249.590778
 31
0.0
  0
ARC
  5
157
100
AcDbEntity
  8
004
  6
CONTINUOUS
 62
     7
100
AcDbCircle
 10
133.068018
 20
-9.500511
 30
0.0
 40
134.969188
100
AcDbArc
 50
224.512358
 51
225.663628
  0
LINE
  5
158
100
AcDbEntity
  8
004
  6
CONTINUOUS
 62
     7
100
AcDbLine
 10
-120.089883
 20
239.590778
 30
0.0
 11
376.454927
 21
239.590778
 31
0.0
  0
LINE
  5
159
100
AcDbEntity
  8
004
  6
CONTINUOUS
 62
     7
100
AcDbLine
 10
-120.089883
 20
229.590778
 30
0.0
 11
366.683934
 21
229.590778
 31
0.0
  0
LINE
  5
15A
100
AcDbEntity
  8
004
  6
CONTINUOUS
 62
     7
100
AcDbLine
 10
-120.089883
 20
219.590778
 30
0.0
 11
356.912942
 21
219.590778
 31
0.0
  0
LINE
  5
15B
100
AcDbEntity
  8
004
  6
CONTINUOUS
 62
     7
100
AcDbLine
 10
-120.089883
 20
209.590778
 30
0.0
 11
347.14195
 21
209.590778
 31
0.0
  0
LINE
  5
15C
100
AcDbEntity
  8
004
  6
CONTINUOUS
 62
     7
100
AcDbLine
 10
-120.089883
 20
199.590778
 30
0.0
 11
337.370957
 21
199.590778
 31
0.0
  0
LINE
  5
15D
100
AcDbEntity
  8
004
  6
CONTINUOUS
 62
     7
100
AcDbLine
 10
-120.089883
 20
189.590778
 30
0.0
 11
327.599965
 21
189.590778
 31
0.0
  0
LINE
  5
15E
100
AcDbEntity
  8
004
  6
CONTINUOUS
 62
     7
100
AcDbLine
 10
-120.089883
 20
179.590778
 30
0.0
 11
317.828973
 21
179.590778
 31
0.0
  0
LINE
  5
15F
100
AcDbEntity
  8
004
  6
CONTINUOUS
 62
     7
100
AcDbLine
 10
-120.089883
 20
169.590778
 30
0.0
 11
308.05798
 21
169.590778
 31
0.0
  0
LINE
  5
160
100
AcDbEntity
  8
004
  6
CONTINUOUS
 62
     7
100
AcDbLine
 10
-120.089883
 20
159.590778
 30
0.0
 11
298.286988
 21
159.590778
 31
0.0
  0
LINE
  5
161
100
AcDbEntity
  8
004
  6
CONTINUOUS
 62
     7
100
AcDbLine
 10
-120.089883
 20
149.590778
 30
0.0
 11
288.515995
 21
149.590778
 31
0.0
  0
LINE
  5
162
100
AcDbEntity
  8
004
  6
CONTINUOUS
 62
     7
100
AcDbLine
 10
-120.089883
 20
139.590778
 30
0.0
 11
278.745003
 21
139.590778
 31
0.0
  0
LINE
  5
163
100
AcDbEntity
  8
004
  6
CONTINUOUS
 62
     7
100
AcDbLine
 10
-120.089883
 20
129.590778
 30
0.0
 11
268.974011
 21
129.590778
 31
0.0
  0
LINE
  5
164
100
AcDbEntity
  8
004
  6
CONTINUOUS
 62
     7
100
AcDbLine
 10
386.225919
 20
249.590778
 30
0.0
 11
227.393864
 21
87.036097
 31
0.0
  0
LINE
  5
165
100
AcDbEntity
  8
004
  6
CONTINUOUS
 62
     7
100
AcDbLine
 10
-120.089883
 20
-110.409222
 30
0.0
 11
34.470194
 21
-110.409222
 31
0.0
  0
LINE
  5
166
100
AcDbEntity
  8
004
  6
CONTINUOUS
 62
     7
100
AcDbLine
 10
-120.089883
 20
-120.409222
 30
0.0
 11
24.699202
 21
-120.409222
 31
0.0
  0
LINE
  5
167
100
AcDbEntity
  8
004
  6
CONTINUOUS
 62
     7
100
AcDbLine
 10
-120.089883
 20
-130.409222
 30
0.0
 11
14.928209
 21
-130.409222
 31
0.0
  0
LINE
  5
168
100
AcDbEntity
  8
004
  6
CONTINUOUS
 62
     7
100
AcDbLine
 10
-120.089883
 20
-140.409222
 30
0.0
 11
5.157217
 21
-140.409222
 31
0.0
  0
LINE
  5
169
100
AcDbEntity
  8
004
  6
CONTINUOUS
 62
     7
100
AcDbLine
 10
-120.089883
 20
-150.409222
 30
0.0
 11
-4.613776
 21
-150.409222
 31
0.0
  0
LINE
  5
16A
100
AcDbEntity
  8
004
  6
CONTINUOUS
 62
     7
100
AcDbLine
 10
-120.089883
 20
-160.409222
 30
0.0
 11
-14.384768
 21
-160.409222
 31
0.0
  0
LINE
  5
16B
100
AcDbEntity
  8
004
  6
CONTINUOUS
 62
     7
100
AcDbLine
 10
-120.089883
 20
-170.409222
 30
0.0
 11
-24.15576
 21
-170.409222
 31
0.0
  0
LINE
  5
16C
100
AcDbEntity
  8
004
  6
CONTINUOUS
 62
     7
100
AcDbLine
 10
-120.089883
 20
-180.409222
 30
0.0
 11
-33.926753
 21
-180.409222
 31
0.0
  0
LINE
  5
16D
100
AcDbEntity
  8
004
  6
CONTINUOUS
 62
     7
100
AcDbLine
 10
-120.089883
 20
-190.409222
 30
0.0
 11
-43.697745
 21
-190.409222
 31
0.0
  0
LINE
  5
16E
100
AcDbEntity
  8
004
  6
CONTINUOUS
 62
     7
100
AcDbLine
 10
-120.089883
 20
-200.409222
 30
0.0
 11
-53.468737
 21
-200.409222
 31
0.0
  0
LINE
  5
16F
100
AcDbEntity
  8
004
  6
CONTINUOUS
 62
     7
100
AcDbLine
 10
-120.089883
 20
-210.409222
 30
0.0
 11
-63.23973
 21
-210.409222
 31
0.0
  0
LINE
  5
170
100
AcDbEntity
  8
004
  6
CONTINUOUS
 62
     7
100
AcDbLine
 10
-120.089883
 20
-220.409222
 30
0.0
 11
-73.010722
 21
-220.409222
 31
0.0
  0
LINE
  5
171
100
AcDbEntity
  8
004
  6
CONTINUOUS
 62
     7
100
AcDbLine
 10
-120.089883
 20
-230.409222
 30
0.0
 11
-82.781714
 21
-230.409222
 31
0.0
  0
LINE
  5
172
100
AcDbEntity
  8
004
  6
CONTINUOUS
 62
     7
100
AcDbLine
 10
-120.089883
 20
-240.409222
 30
0.0
 11
-92.552707
 21
-240.409222
 31
0.0
  0
LINE
  5
173
100
AcDbEntity
  8
004
  6
CONTINUOUS
 62
     7
100
AcDbLine
 10
-120.089883
 20
-250.409222
 30
0.0
 11
-102.323699
 21
-250.409222
 31
0.0
  0
LINE
  5
174
100
AcDbEntity
  8
004
  6
CONTINUOUS
 62
     7
100
AcDbLine
 10
-120.089883
 20
-260.409222
 30
0.0
 11
-112.094692
 21
-260.409222
 31
0.0
  0
LINE
  5
175
100
AcDbEntity
  8
004
  6
CONTINUOUS
 62
     7
100
AcDbLine
 10
38.761214
 20
-106.017631
 30
0.0
 11
-120.089883
 21
-268.591801
 31
0.0
  0
LINE
  5
176
100
AcDbEntity
  8
004
  6
CONTINUOUS
 62
     7
100
AcDbLine
 10
-120.089883
 20
-100.409222
 30
0.0
 11
33.306863
 21
-100.409222
 31
0.0
  0
LINE
  5
177
100
AcDbEntity
  8
004
  6
CONTINUOUS
 62
     7
100
AcDbLine
 10
-120.089883
 20
-90.409222
 30
0.0
 11
25.038104
 21
-90.409222
 31
0.0
  0
LINE
  5
178
100
AcDbEntity
  8
004
  6
CONTINUOUS
 62
     7
100
AcDbLine
 10
-120.089883
 20
-80.409222
 30
0.0
 11
18.226229
 21
-80.409222
 31
0.0
  0
LINE
  5
179
100
AcDbEntity
  8
004
  6
CONTINUOUS
 62
     7
100
AcDbLine
 10
-120.089883
 20
-70.409222
 30
0.0
 11
12.623795
 21
-70.409222
 31
0.0
  0
LINE
  5
17A
100
AcDbEntity
  8
004
  6
CONTINUOUS
 62
     7
100
AcDbLine
 10
-120.089883
 20
-60.409222
 30
0.0
 11
8.068078
 21
-60.409222
 31
0.0
  0
LINE
  5
17B
100
AcDbEntity
  8
004
  6
CONTINUOUS
 62
     7
100
AcDbLine
 10
-120.089883
 20
-50.409222
 30
0.0
 11
4.447805
 21
-50.409222
 31
0.0
  0
LINE
  5
17C
100
AcDbEntity
  8
004
  6
CONTINUOUS
 62
     7
100
AcDbLine
 10
-120.089883
 20
-40.409222
 30
0.0
 11
1.685624
 21
-40.409222
 31
0.0
  0
LINE
  5
17D
100
AcDbEntity
  8
004
  6
CONTINUOUS
 62
     7
100
AcDbLine
 10
-120.089883
 20
-30.409222
 30
0.0
 11
-0.271802
 21
-30.409222
 31
0.0
  0
LINE
  5
17E
100
AcDbEntity
  8
004
  6
CONTINUOUS
 62
     7
100
AcDbLine
 10
-120.089883
 20
-20.409222
 30
0.0
 11
-1.459607
 21
-20.409222
 31
0.0
  0
LINE
  5
17F
100
AcDbEntity
  8
004
  6
CONTINUOUS
 62
     7
100
AcDbLine
 10
-120.089883
 20
-10.409222
 30
0.0
 11
-1.898111
 21
-10.409222
 31
0.0
  0
LINE
  5
180
100
AcDbEntity
  8
004
  6
CONTINUOUS
 62
     7
100
AcDbLine
 10
-120.089883
 20
-0.409222
 30
0.0
 11
-1.594635
 21
-0.409222
 31
0.0
  0
LINE
  5
181
100
AcDbEntity
  8
004
  6
CONTINUOUS
 62
     7
100
AcDbLine
 10
-120.089883
 20
9.590778
 30
0.0
 11
-0.544124
 21
9.590778
 31
0.0
  0
LINE
  5
182
100
AcDbEntity
  8
004
  6
CONTINUOUS
 62
     7
100
AcDbLine
 10
-120.089883
 20
19.590778
 30
0.0
 11
1.271286
 21
19.590778
 31
0.0
  0
LINE
  5
183
100
AcDbEntity
  8
004
  6
CONTINUOUS
 62
     7
100
AcDbLine
 10
-120.089883
 20
29.590778
 30
0.0
 11
3.883836
 21
29.590778
 31
0.0
  0
LINE
  5
184
100
AcDbEntity
  8
004
  6
CONTINUOUS
 62
     7
100
AcDbLine
 10
-120.089883
 20
39.590778
 30
0.0
 11
7.343211
 21
39.590778
 31
0.0
  0
LINE
  5
185
100
AcDbEntity
  8
004
  6
CONTINUOUS
 62
     7
100
AcDbLine
 10
-120.089883
 20
49.590778
 30
0.0
 11
11.721814
 21
49.590778
 31
0.0
  0
LINE
  5
186
100
AcDbEntity
  8
004
  6
CONTINUOUS
 62
     7
100
AcDbLine
 10
-120.089883
 20
59.590778
 30
0.0
 11
17.12374
 21
59.590778
 31
0.0
  0
LINE
  5
187
100
AcDbEntity
  8
004
  6
CONTINUOUS
 62
     7
100
AcDbLine
 10
-120.089883
 20
69.590778
 30
0.0
 11
23.70052
 21
69.590778
 31
0.0
  0
LINE
  5
188
100
AcDbEntity
  8
004
  6
CONTINUOUS
 62
     7
100
AcDbLine
 10
-120.089883
 20
79.590778
 30
0.0
 11
31.680524
 21
79.590778
 31
0.0
  0
LINE
  5
189
100
AcDbEntity
  8
004
  6
CONTINUOUS
 62
     7
100
AcDbLine
 10
-120.089883
 20
89.590778
 30
0.0
 11
41.429608
 21
89.590778
 31
0.0
  0
LINE
  5
18A
100
AcDbEntity
  8
004
  6
CONTINUOUS
 62
     7
100
AcDbLine
 10
-120.089883
 20
99.590778
 30
0.0
 11
53.596184
 21
99.590778
 31
0.0
  0
LINE
  5
18B
100
AcDbEntity
  8
004
  6
CONTINUOUS
 62
     7
100
AcDbLine
 10
-120.089883
 20
109.590778
 30
0.0
 11
69.554661
 21
109.590778
 31
0.0
  0
LINE
  5
18C
100
AcDbEntity
  8
004
  6
CONTINUOUS
 62
     7
100
AcDbLine
 10
-120.089883
 20
119.590778
 30
0.0
 11
93.671054
 21
119.590778
 31
0.0
  0
LINE
  5
18D
100
AcDbEntity
  8
004
  6
CONTINUOUS
 62
     7
100
AcDbLine
 10
172.464982
 20
119.590778
 30
0.0
 11
259.203018
 21
119.590778
 31
0.0
  0
LINE
  5
18E
100
AcDbEntity
  8
004
  6
CONTINUOUS
 62
     7
100
AcDbLine
 10
196.581375
 20
109.590778
 30
0.0
 11
249.432026
 21
109.590778
 31
0.0
  0
LINE
  5
18F
100
AcDbEntity
  8
004
  6
CONTINUOUS
 62
     7
100
AcDbLine
 10
212.539852
 20
99.590778
 30
0.0
 11
239.661034
 21
99.590778
 31
0.0
  0
ENDBLK
  5
190
100
AcDbEntity
  8
0
100
AcDbBlockEnd
  0
BLOCK
  5
191
100
AcDbEntity
  8
0
100
AcDbBlockBegin
  2
2
 70
     0
 10
0.0
 20
0.0
 30
0.0
  3
2
  1

  0
INSERT
  5
192
100
AcDbEntity
  8
004
  6
CONTINUOUS
 62
     7
100
AcDbBlockReference
  2
1
 10
-26.613604
 20
1.900102
 30
0.0
 41
0.2
 42
0.2
  0
ENDBLK
  5
193
100
AcDbEntity
  8
0
100
AcDbBlockEnd
  0
BLOCK
  5
194
100
AcDbEntity
  8
0
100
AcDbBlockBegin
  2
3
 70
     0
 10
0.0
 20
0.0
 30
0.0
  3
3
  1

  0
INSERT
  5
195
100
AcDbEntity
  8
003
  6
CONTINUOUS
 62
     7
100
AcDbBlockReference
  2
2
 10
187.309635
 20
61.739262
 30
0.0
  0
ENDBLK
  5
196
100
AcDbEntity
  8
0
100
AcDbBlockEnd
  0
BLOCK
  5
1E9
100
AcDbEntity
  8
0
100
AcDbBlockBegin
  2
*D4
 70
     1
 10
0.0
 20
0.0
 30
0.0
  3
*D4
  1

  0
LINE
  5
1EA
100
AcDbEntity
  8
0
  6
ByBlock
 62
     0
100
AcDbLine
 10
-780.570776
 20
-20378.40858
 30
0.0
 11
-800.649418
 21
-20329.527399
 31
0.0
  0
LINE
  5
1EB
100
AcDbEntity
  8
0
  6
ByBlock
 62
     0
100
AcDbLine
 10
-540.398392
 20
-20279.75435
 30
0.0
 11
-560.477033
 21
-20230.87317
 31
0.0
  0
LINE
  5
1EC
100
AcDbEntity
  8
0
  6
ByBlock
 62
     0
100
AcDbLine
 10
-800.649418
 20
-20329.527399
 30
0.0
 11
-560.477033
 21
-20230.87317
 31
0.0
  0
INSERT
  5
1ED
100
AcDbEntity
  8
0
  6
ByBlock
 62
     0
100
AcDbBlockReference
  2
_ORIGIN
 10
-800.649418
 20
-20329.527399
 30
0.0
 41
10.0
 42
10.0
 43
10.0
 50
202.331106
  0
INSERT
  5
1EE
100
AcDbEntity
  8
0
  6
ByBlock
 62
     0
100
AcDbBlockReference
  2
_ORIGIN
 10
-560.477033
 20
-20230.87317
 30
0.0
 41
10.0
 42
10.0
 43
10.0
 50
22.331106
  0
MTEXT
  5
1EF
100
AcDbEntity
  8
0
  6
ByBlock
 62
     0
100
AcDbMText
 10
-685.312706
 20
-20268.637739
 30
0.0
 40
25.0
 41
0.0
 71
     5
 72
     1
  1
{\A1;260}
  7
DRACAD
 11
0.925004
 21
0.379958
 31
0.0
  0
ENDBLK
  5
1F0
100
AcDbEntity
  8
0
100
AcDbBlockEnd
  0
BLOCK
  5
1F3
100
AcDbEntity
  8
0
100
AcDbBlockBegin
  2
*D5
 70
     1
 10
0.0
 20
0.0
 30
0.0
  3
*D5
  1

  0
LINE
  5
1F4
100
AcDbEntity
  8
0
  6
ByBlock
 62
     0
100
AcDbLine
 10
-880.800331
 20
-20526.553234
 30
0.0
 11
-880.800331
 21
-20646.00789
 31
0.0
  0
LINE
  5
1F5
100
AcDbEntity
  8
0
  6
ByBlock
 62
     0
100
AcDbLine
 10
-310.800311
 20
-20526.553234
 30
0.0
 11
-310.800311
 21
-20646.00789
 31
0.0
  0
LINE
  5
1F6
100
AcDbEntity
  8
0
  6
ByBlock
 62
     0
100
AcDbLine
 10
-880.800331
 20
-20646.00789
 30
0.0
 11
-310.800311
 21
-20646.00789
 31
0.0
  0
INSERT
  5
1F7
100
AcDbEntity
  8
0
  6
ByBlock
 62
     0
100
AcDbBlockReference
  2
_ORIGIN
 10
-880.800331
 20
-20646.00789
 30
0.0
 41
10.0
 42
10.0
 43
10.0
 50
180.0
  0
INSERT
  5
1F8
100
AcDbEntity
  8
0
  6
ByBlock
 62
     0
100
AcDbBlockReference
  2
_ORIGIN
 10
-310.800311
 20
-20646.00789
 30
0.0
 41
10.0
 42
10.0
 43
10.0
  0
MTEXT
  5
1F9
100
AcDbEntity
  8
0
  6
ByBlock
 62
     0
100
AcDbMText
 10
-589.300311
 20
-20633.50789
 30
0.0
 40
25.0
 41
0.0
 71
     5
 72
     1
  1
{\A1;570}
  7
DRACAD
  0
ENDBLK
  5
1FA
100
AcDbEntity
  8
0
100
AcDbBlockEnd
  0
BLOCK
  5
1FD
100
AcDbEntity
  8
0
100
AcDbBlockBegin
  2
*D6
 70
     1
 10
0.0
 20
0.0
 30
0.0
  3
*D6
  1

  0
LINE
  5
1FE
100
AcDbEntity
  8
0
  6
ByBlock
 62
     0
100
AcDbLine
 10
-876.194267
 20
-20412.752808
 30
0.0
 11
-922.023659
 21
-20412.752808
 31
0.0
  0
LINE
  5
1FF
100
AcDbEntity
  8
0
  6
ByBlock
 62
     0
100
AcDbLine
 10
-876.194267
 20
-20477.865973
 30
0.0
 11
-922.023659
 21
-20477.865973
 31
0.0
  0
LINE
  5
200
100
AcDbEntity
  8
0
  6
ByBlock
 62
     0
100
AcDbLine
 10
-922.023659
 20
-20412.752808
 30
0.0
 11
-922.023659
 21
-20477.865973
 31
0.0
  0
INSERT
  5
201
100
AcDbEntity
  8
0
  6
ByBlock
 62
     0
100
AcDbBlockReference
  2
_ORIGIN
 10
-922.023659
 20
-20412.752808
 30
0.0
 41
10.0
 42
10.0
 43
10.0
 50
90.0
  0
INSERT
  5
202
100
AcDbEntity
  8
0
  6
ByBlock
 62
     0
100
AcDbBlockReference
  2
_ORIGIN
 10
-922.023659
 20
-20477.865973
 30
0.0
 41
10.0
 42
10.0
 43
10.0
 50
270.0
  0
MTEXT
  5
203
100
AcDbEntity
  8
0
  6
ByBlock
 62
     0
100
AcDbMText
 10
-934.523659
 20
-20445.30939
 30
0.0
 40
25.0
 41
0.0
 71
     5
 72
     1
  1
{\A1;65}
  7
DRACAD
 11
0.0
 21
1.0
 31
0.0
  0
ENDBLK
  5
204
100
AcDbEntity
  8
0
100
AcDbBlockEnd
  0
BLOCK
  5
207
100
AcDbEntity
  8
0
100
AcDbBlockBegin
  2
*D7
 70
     1
 10
0.0
 20
0.0
 30
0.0
  3
*D7
  1

  0
LINE
  5
208
100
AcDbEntity
  8
0
  6
ByBlock
 62
     0
100
AcDbLine
 10
-290.620965
 20
-20313.098578
 30
0.0
 11
-204.623177
 21
-20313.098578
 31
0.0
  0
LINE
  5
209
100
AcDbEntity
  8
0
  6
ByBlock
 62
     0
100
AcDbLine
 10
-290.620911
 20
-20477.865972
 30
0.0
 11
-204.623177
 21
-20477.865972
 31
0.0
  0
LINE
  5
20A
100
AcDbEntity
  8
0
  6
ByBlock
 62
     0
100
AcDbLine
 10
-204.623177
 20
-20313.098578
 30
0.0
 11
-204.623177
 21
-20477.865972
 31
0.0
  0
INSERT
  5
20B
100
AcDbEntity
  8
0
  6
ByBlock
 62
     0
100
AcDbBlockReference
  2
_ORIGIN
 10
-204.623177
 20
-20313.098578
 30
0.0
 41
10.0
 42
10.0
 43
10.0
 50
90.0
  0
INSERT
  5
20C
100
AcDbEntity
  8
0
  6
ByBlock
 62
     0
100
AcDbBlockReference
  2
_ORIGIN
 10
-204.623177
 20
-20477.865972
 30
0.0
 41
10.0
 42
10.0
 43
10.0
 50
270.0
  0
MTEXT
  5
20D
100
AcDbEntity
  8
0
  6
ByBlock
 62
     0
100
AcDbMText
 10
-217.123177
 20
-20395.482275
 30
0.0
 40
25.0
 41
0.0
 71
     5
 72
     1
  1
{\A1;165}
  7
DRACAD
 11
0.0
 21
1.0
 31
0.0
  0
ENDBLK
  5
20E
100
AcDbEntity
  8
0
100
AcDbBlockEnd
  0
BLOCK
  5
297
100
AcDbEntity
  8
0
100
AcDbBlockBegin
  2
*D8
 70
     1
 10
0.0
 20
0.0
 30
0.0
  3
*D8
  1

  0
LINE
  5
298
100
AcDbEntity
  8
0
  6
ByBlock
 62
     0
100
AcDbLine
 10
-957.172008
 20
-19257.932398
 30
0.0
 11
-1102.911786
 21
-19257.932398
 31
0.0
  0
LINE
  5
299
100
AcDbEntity
  8
0
  6
ByBlock
 62
     0
100
AcDbLine
 10
-957.172008
 20
-19837.932398
 30
0.0
 11
-1102.911786
 21
-19837.932398
 31
0.0
  0
LINE
  5
29A
100
AcDbEntity
  8
0
  6
ByBlock
 62
     0
100
AcDbLine
 10
-1102.911786
 20
-19257.932398
 30
0.0
 11
-1102.911786
 21
-19837.932398
 31
0.0
  0
INSERT
  5
29B
100
AcDbEntity
  8
0
  6
ByBlock
 62
     0
100
AcDbBlockReference
  2
_ORIGIN
 10
-1102.911786
 20
-19257.932398
 30
0.0
 41
10.0
 42
10.0
 43
10.0
 50
90.0
  0
INSERT
  5
29C
100
AcDbEntity
  8
0
  6
ByBlock
 62
     0
100
AcDbBlockReference
  2
_ORIGIN
 10
-1102.911786
 20
-19837.932398
 30
0.0
 41
10.0
 42
10.0
 43
10.0
 50
270.0
  0
MTEXT
  5
29D
100
AcDbEntity
  8
0
  6
ByBlock
 62
     0
100
AcDbMText
 10
-1115.411786
 20
-19547.932398
 30
0.0
 40
25.0
 41
0.0
 71
     5
 72
     1
  1
{\A1;580}
  7
DRACAD
 11
0.0
 21
1.0
 31
0.0
  0
ENDBLK
  5
29E
100
AcDbEntity
  8
0
100
AcDbBlockEnd
  0
BLOCK
  5
2A1
100
AcDbEntity
  8
0
100
AcDbBlockBegin
  2
*D9
 70
     1
 10
0.0
 20
0.0
 30
0.0
  3
*D9
  1

  0
LINE
  5
2A2
100
AcDbEntity
  8
0
  6
ByBlock
 62
     0
100
AcDbLine
 10
-880.300315
 20
-19219.592964
 30
0.0
 11
-880.300315
 21
-19124.862065
 31
0.0
  0
LINE
  5
2A3
100
AcDbEntity
  8
0
  6
ByBlock
 62
     0
100
AcDbLine
 10
-310.300315
 20
-19232.990423
 30
0.0
 11
-310.300315
 21
-19124.862065
 31
0.0
  0
LINE
  5
2A4
100
AcDbEntity
  8
0
  6
ByBlock
 62
     0
100
AcDbLine
 10
-880.300315
 20
-19124.862065
 30
0.0
 11
-310.300315
 21
-19124.862065
 31
0.0
  0
INSERT
  5
2A5
100
AcDbEntity
  8
0
  6
ByBlock
 62
     0
100
AcDbBlockReference
  2
_ORIGIN
 10
-880.300315
 20
-19124.862065
 30
0.0
 41
10.0
 42
10.0
 43
10.0
 50
180.0
  0
INSERT
  5
2A6
100
AcDbEntity
  8
0
  6
ByBlock
 62
     0
100
AcDbBlockReference
  2
_ORIGIN
 10
-310.300315
 20
-19124.862065
 30
0.0
 41
10.0
 42
10.0
 43
10.0
  0
MTEXT
  5
2A7
100
AcDbEntity
  8
0
  6
ByBlock
 62
     0
100
AcDbMText
 10
-595.300315
 20
-19112.362065
 30
0.0
 40
25.0
 41
0.0
 71
     5
 72
     1
  1
{\A1;570}
  7
DRACAD
  0
ENDBLK
  5
2A8
100
AcDbEntity
  8
0
100
AcDbBlockEnd
  0
ENDSEC
  0
SECTION
  2
ENTITIES
  0
TEXT
  5
197
100
AcDbEntity
  8
002
  6
CONTINUOUS
 62
     7
100
AcDbText
 10
605.626196
 20
-20871.904641
 30
0.0
 40
17.219965
  1
1/10
 41
1.176471
  7
DRACAD
 72
     5
 11
686.661326
 21
-20871.904641
 31
0.0
100
AcDbText
  0
POLYLINE
  5
198
100
AcDbEntity
  8
002
  6
CONTINUOUS
 62
     6
100
AcDb2dPolyline
 66
     1
 10
0.0
 20
0.0
 30
0.0
 70
   129
  0
VERTEX
  5
199
100
AcDbEntity
  8
002
  6
CONTINUOUS
 62
     6
100
AcDbVertex
100
AcDb2dVertex
 10
-1997.797216
 20
-18868.610282
 30
0.0
  0
VERTEX
  5
19A
100
AcDbEntity
  8
002
  6
CONTINUOUS
 62
     6
100
AcDbVertex
100
AcDb2dVertex
 10
895.452784
 20
-18868.610282
 30
0.0
  0
VERTEX
  5
19B
100
AcDbEntity
  8
002
  6
CONTINUOUS
 62
     6
100
AcDbVertex
100
AcDb2dVertex
 10
895.452784
 20
-20877.910282
 30
0.0
  0
VERTEX
  5
19C
100
AcDbEntity
  8
002
  6
CONTINUOUS
 62
     6
100
AcDbVertex
100
AcDb2dVertex
 10
-1997.797216
 20
-20877.910282
 30
0.0
  0
SEQEND
  5
19D
100
AcDbEntity
  8
002
  6
CONTINUOUS
 62
     6
  0
LINE
  5
19E
100
AcDbEntity
  8
002
  6
CONTINUOUS
 62
     6
100
AcDbLine
 10
-1948.097216
 20
-20784.51203
 30
0.0
 11
895.452784
 21
-20784.51203
 31
0.0
  0
LINE
  5
19F
100
AcDbEntity
  8
002
  6
CONTINUOUS
 62
     6
100
AcDbLine
 10
-1997.797216
 20
-20784.51203
 30
0.0
 11
895.452784
 21
-20784.51203
 31
0.0
  0
LINE
  5
1A0
100
AcDbEntity
  8
002
  6
CONTINUOUS
 62
     6
100
AcDbLine
 10
895.452784
 20
-20784.51203
 30
0.0
 11
895.452784
 21
-20876.54223
 31
0.0
  0
LINE
  5
1A1
100
AcDbEntity
  8
002
  6
CONTINUOUS
 62
     6
100
AcDbLine
 10
-1283.537216
 20
-20784.51203
 30
0.0
 11
-1283.537216
 21
-20876.54223
 31
0.0
  0
TEXT
  5
1A2
100
AcDbEntity
  8
002
  6
CONTINUOUS
 62
     7
100
AcDbText
 10
757.357784
 20
-20805.699614
 30
0.0
 40
10.762478
  1
No.
 41
1.176471
  7
DRACAD
 72
     5
 11
795.343002
 21
-20805.699614
 31
0.0
100
AcDbText
  0
LINE
  5
1A3
100
AcDbEntity
  8
002
  6
CONTINUOUS
 62
     7
100
AcDbLine
 10
575.952784
 20
-20784.51203
 30
0.0
 11
575.952784
 21
-20876.54223
 31
0.0
  0
TEXT
  5
1A4
100
AcDbEntity
  8
002
  6
CONTINUOUS
 62
     7
100
AcDbText
 10
578.211176
 20
-20842.498322
 30
0.0
 40
10.762478
  1
SCALE
 41
1.176471
  7
DRACAD
 72
     5
 11
641.519872
 21
-20842.498322
 31
0.0
100
AcDbText
  0
LINE
  5
1A5
100
AcDbEntity
  8
002
  6
CONTINUOUS
 62
     6
100
AcDbLine
 10
753.452784
 20
-20784.51203
 30
0.0
 11
753.452784
 21
-20876.54223
 31
0.0
  0
LINE
  5
1A6
100
AcDbEntity
  8
002
  6
CONTINUOUS
 62
     6
100
AcDbLine
 10
220.952784
 20
-20784.51203
 30
0.0
 11
220.952784
 21
-20876.54223
 31
0.0
  0
TEXT
  5
1A7
100
AcDbEntity
  8
002
  6
CONTINUOUS
 62
     7
100
AcDbText
 10
578.417671
 20
-20803.90826
 30
0.0
 40
10.762478
  1
Date
 41
1.176471
  7
DRACAD
 72
     5
 11
629.064627
 21
-20803.90826
 31
0.0
100
AcDbText
  0
LINE
  5
1A8
100
AcDbEntity
  8
002
  6
CONTINUOUS
 62
     7
100
AcDbLine
 10
575.952784
 20
-20823.42713
 30
0.0
 11
753.452784
 21
-20823.42713
 31
0.0
  0
TEXT
  5
1A9
100
AcDbEntity
  8
002
  6
CONTINUOUS
 62
     7
100
AcDbText
 10
225.014578
 20
-20808.773322
 30
0.0
 40
10.762478
  1
Drawing Title
 41
1.176471
  7
DRACAD
 72
     5
 11
389.617188
 21
-20808.773322
 31
0.0
100
AcDbText
  0
LINE
  5
1AA
100
AcDbEntity
  8
002
  6
CONTINUOUS
 62
     4
100
AcDbLine
 10
-1282.555169
 20
-20830.52713
 30
0.0
 11
-283.147216
 21
-20830.52713
 31
0.0
  0
LINE
  5
1AB
100
AcDbEntity
  8
002
  6
CONTINUOUS
 62
     4
100
AcDbLine
 10
-1283.438109
 20
-20807.51958
 30
0.0
 11
-283.147216
 21
-20807.51958
 31
0.0
  0
LINE
  5
1AC
100
AcDbEntity
  8
002
  6
CONTINUOUS
 62
     4
100
AcDbLine
 10
-1283.438109
 20
-20853.53468
 30
0.0
 11
-283.147216
 21
-20853.53468
 31
0.0
  0
TEXT
  5
1AD
100
AcDbEntity
  8
002
  6
CONTINUOUS
 62
     7
100
AcDbText
 10
-1277.510778
 20
-20804.271419
 30
0.0
 40
10.054993
  1
Memo
 41
1.176471
  7
DRACAD
 72
     5
 11
-1230.193166
 21
-20804.271419
 31
0.0
100
AcDbText
  0
LINE
  5
1AE
100
AcDbEntity
  8
002
  6
CONTINUOUS
 62
     6
100
AcDbLine
 10
-283.147216
 20
-20784.51203
 30
0.0
 11
-283.147216
 21
-20876.54223
 31
0.0
  0
TEXT
  5
1AF
100
AcDbEntity
  8
002
  6
CONTINUOUS
 62
     7
100
AcDbText
 10
-277.120778
 20
-20803.90826
 30
0.0
 40
10.270983
  1
Project
 41
1.176471
  7
DRACAD
 72
     5
 11
-192.536215
 21
-20803.90826
 31
0.0
100
AcDbText
  0
TEXT
  5
1B0
100
AcDbEntity
  8
002
  6
CONTINUOUS
 62
     7
100
AcDbText
 10
-235.992133
 20
-20847.742121
 30
0.0
 40
19.410192
  1
SLT　CAD部品図面
 41
0.984706
  7
DRACAD
 72
     5
 11
15.198593
 21
-20847.742121
 31
0.0
100
AcDbText
  0
TEXT
  5
1B1
100
AcDbEntity
  8
002
  6
CONTINUOUS
 62
     7
100
AcDbText
 10
615.018561
 20
-20821.021532
 30
0.0
 40
15.497969
  1
11/2/10
 41
1.176471
  7
DRACAD
 72
     5
 11
742.648892
 21
-20821.021532
 31
0.0
100
AcDbText
  0
TEXT
  5
1B2
100
AcDbEntity
  8
002
  6
CONTINUOUS
 62
     7
100
AcDbText
 10
278.02055
 20
-20854.715168
 30
0.0
 40
19.811038
  1
ＲＢ-1
 41
0.984706
  7
DRACAD
 72
     5
 11
371.248961
 21
-20854.715168
 31
0.0
100
AcDbText
  0
TEXT
  5
1B3
100
AcDbEntity
  8
002
  6
CONTINUOUS
 62
     4
100
AcDbText
 10
-1829.260973
 20
-20851.747619
 30
0.0
 40
18.941962
  1
ス カ イ ラ イ ト チ ュ ー ブ
 41
0.984706
  7
DRACAD
 72
     5
 11
-1405.852415
 21
-20851.747619
 31
0.0
100
AcDbText
  0
INSERT
  5
1B4
100
AcDbEntity
  8
003
  6
CONTINUOUS
 62
     4
100
AcDbBlockReference
  2
3
 10
-1997.797216
 20
-20877.910282
 30
0.0
 41
0.71
 42
0.71
  0
ARC
  5
1B5
100
AcDbEntity
  8
0
  6
CONTINUOUS
 62
     7
100
AcDbCircle
 10
-778.640218
 20
-20464.373689
 30
0.0
 40
13.49229
100
AcDbArc
 50
269.990344
 51
350.106662
  0
LINE
  5
1B6
100
AcDbEntity
  8
0
  6
CONTINUOUS
 62
     7
100
AcDbLine
 10
-778.642498
 20
-20477.078291
 30
0.0
 11
-778.640143
 21
-20477.078292
 31
0.0
  0
ARC
  5
1B7
100
AcDbEntity
  8
0
  6
CONTINUOUS
 62
     7
100
AcDbCircle
 10
-778.640164
 20
-20464.373682
 30
0.0
 40
13.492285
100
AcDbArc
 50
270.000169
 51
350.117511
  0
POLYLINE
  5
1B8
100
AcDbEntity
  8
0
  6
CONTINUOUS
 62
     7
100
AcDb2dPolyline
 66
     1
 10
0.0
 20
0.0
 30
0.0
 70
   128
  0
VERTEX
  5
1B9
100
AcDbEntity
  8
0
  6
CONTINUOUS
 62
     7
100
AcDbVertex
100
AcDb2dVertex
 10
-765.102647
 20
-20466.681449
 30
0.0
  0
VERTEX
  5
1BA
100
AcDbEntity
  8
0
  6
CONTINUOUS
 62
     7
100
AcDbVertex
100
AcDb2dVertex
 10
-765.345877
 20
-20466.688617
 30
0.0
  0
VERTEX
  5
1BB
100
AcDbEntity
  8
0
  6
CONTINUOUS
 62
     7
100
AcDbVertex
100
AcDb2dVertex
 10
-765.34808
 20
-20466.689336
 30
0.0
  0
SEQEND
  5
1BC
100
AcDbEntity
  8
0
  6
CONTINUOUS
 62
     7
  0
ARC
  5
1BD
100
AcDbEntity
  8
0
  6
CONTINUOUS
 62
     7
100
AcDbCircle
 10
-428.163694
 20
-20464.373816
 30
0.0
 40
13.492169
100
AcDbArc
 50
209.039013
 51
270.00014
  0
ARC
  5
1BE
100
AcDbEntity
  8
0
  6
CONTINUOUS
 62
     7
100
AcDbCircle
 10
-778.640072
 20
-20464.373792
 30
0.0
 40
12.704485
100
AcDbArc
 50
269.999706
 51
350.117884
  0
ARC
  5
1BF
100
AcDbEntity
  8
0
  6
CONTINUOUS
 62
     7
100
AcDbCircle
 10
-428.163677
 20
-20464.373768
 30
0.0
 40
12.704524
100
AcDbArc
 50
209.039272
 51
270.000046
  0
POLYLINE
  5
1C0
100
AcDbEntity
  8
0
  6
CONTINUOUS
 62
     7
100
AcDb2dPolyline
 66
     1
 10
0.0
 20
0.0
 30
0.0
 70
   128
  0
VERTEX
  5
1C1
100
AcDbEntity
  8
0
  6
CONTINUOUS
 62
     7
100
AcDbVertex
100
AcDb2dVertex
 10
-766.124084
 20
-20466.554156
 30
0.0
  0
VERTEX
  5
1C2
100
AcDbEntity
  8
0
  6
CONTINUOUS
 62
     7
100
AcDbVertex
100
AcDb2dVertex
 10
-764.078859
 20
-20454.796859
 30
0.0
  0
VERTEX
  5
1C3
100
AcDbEntity
  8
0
  6
CONTINUOUS
 62
     7
100
AcDbVertex
100
AcDb2dVertex
 10
-760.518365
 20
-20434.21731
 30
0.0
  0
SEQEND
  5
1C4
100
AcDbEntity
  8
0
  6
CONTINUOUS
 62
     7
  0
POLYLINE
  5
1C5
100
AcDbEntity
  8
0
  6
CONTINUOUS
 62
     7
100
AcDb2dPolyline
 66
     1
 10
0.0
 20
0.0
 30
0.0
 70
   128
  0
VERTEX
  5
1C6
100
AcDbEntity
  8
0
  6
CONTINUOUS
 62
     7
100
AcDbVertex
100
AcDb2dVertex
 10
-515.317994
 20
-20333.480421
 30
0.0
  0
VERTEX
  5
1C7
100
AcDbEntity
  8
0
  6
CONTINUOUS
 62
     7
100
AcDbVertex
100
AcDb2dVertex
 10
-483.421707
 20
-20390.990563
 30
0.0
  0
VERTEX
  5
1C8
100
AcDbEntity
  8
0
  6
CONTINUOUS
 62
     7
100
AcDbVertex
100
AcDb2dVertex
 10
-461.120391
 20
-20431.180272
 30
0.0
  0
VERTEX
  5
1C9
100
AcDbEntity
  8
0
  6
CONTINUOUS
 62
     7
100
AcDbVertex
100
AcDb2dVertex
 10
-439.27108
 20
-20470.540659
 30
0.0
  0
SEQEND
  5
1CA
100
AcDbEntity
  8
0
  6
CONTINUOUS
 62
     7
  0
POLYLINE
  5
1CB
100
AcDbEntity
  8
0
  6
CONTINUOUS
 62
     7
100
AcDb2dPolyline
 66
     1
 10
0.0
 20
0.0
 30
0.0
 70
   128
  0
VERTEX
  5
1CC
100
AcDbEntity
  8
0
  6
CONTINUOUS
 62
     7
100
AcDbVertex
100
AcDb2dVertex
 10
-765.34808
 20
-20466.689336
 30
0.0
  0
VERTEX
  5
1CD
100
AcDbEntity
  8
0
  6
CONTINUOUS
 62
     7
100
AcDbVertex
100
AcDb2dVertex
 10
-763.262781
 20
-20454.701236
 30
0.0
  0
VERTEX
  5
1CE
100
AcDbEntity
  8
0
  6
CONTINUOUS
 62
     7
100
AcDbVertex
100
AcDb2dVertex
 10
-759.704684
 20
-20434.13378
 30
0.0
  0
SEQEND
  5
1CF
100
AcDbEntity
  8
0
  6
CONTINUOUS
 62
     7
  0
POLYLINE
  5
1D0
100
AcDbEntity
  8
0
  6
CONTINUOUS
 62
     7
100
AcDb2dPolyline
 66
     1
 10
0.0
 20
0.0
 30
0.0
 70
   128
  0
VERTEX
  5
1D1
100
AcDbEntity
  8
0
  6
CONTINUOUS
 62
     7
100
AcDbVertex
100
AcDb2dVertex
 10
-516.025241
 20
-20333.829263
 30
0.0
  0
VERTEX
  5
1D2
100
AcDbEntity
  8
0
  6
CONTINUOUS
 62
     7
100
AcDbVertex
100
AcDb2dVertex
 10
-485.274352
 20
-20389.274827
 30
0.0
  0
VERTEX
  5
1D3
100
AcDbEntity
  8
0
  6
CONTINUOUS
 62
     7
100
AcDbVertex
100
AcDb2dVertex
 10
-462.384873
 20
-20430.525109
 30
0.0
  0
VERTEX
  5
1D4
100
AcDbEntity
  8
0
  6
CONTINUOUS
 62
     7
100
AcDbVertex
100
AcDb2dVertex
 10
-439.959754
 20
-20470.922983
 30
0.0
  0
SEQEND
  5
1D5
100
AcDbEntity
  8
0
  6
CONTINUOUS
 62
     7
  0
LINE
  5
1D6
100
AcDbEntity
  8
0
  6
CONTINUOUS
 62
     7
100
AcDbLine
 10
-516.025241
 20
-20333.829263
 30
0.0
 11
-522.125857
 21
-20319.798797
 31
0.0
  0
LINE
  5
1D7
100
AcDbEntity
  8
0
  6
CONTINUOUS
 62
     7
100
AcDbLine
 10
-765.37885
 20
-20419.729056
 30
0.0
 11
-759.704684
 21
-20434.13378
 31
0.0
  0
ARC
  5
1D8
100
AcDbEntity
  8
0
  6
CONTINUOUS
 62
     7
100
AcDbCircle
 10
-532.14474
 20
-20324.155131
 30
0.0
 40
10.925002
100
AcDbArc
 50
23.499999
 51
59.942399
  0
LINE
  5
1D9
100
AcDbEntity
  8
0
  6
CONTINUOUS
 62
     7
100
AcDbLine
 10
-526.291544
 20
-20314.098578
 30
0.0
 11
-526.67273
 21
-20314.699298
 31
0.0
  0
ARC
  5
1DA
100
AcDbEntity
  8
0
  6
CONTINUOUS
 62
     7
100
AcDbCircle
 10
-531.824423
 20
-20324.030846
 30
0.0
 40
11.369375
100
AcDbArc
 50
23.499999
 51
60.879523
  0
LINE
  5
1DB
100
AcDbEntity
  8
0
  6
CONTINUOUS
 62
     7
100
AcDbLine
 10
-515.317994
 20
-20333.480421
 30
0.0
 11
-521.398023
 21
-20319.497318
 31
0.0
  0
LINE
  5
1DC
100
AcDbEntity
  8
0
  6
CONTINUOUS
 62
     7
100
AcDbLine
 10
-310.300315
 20
-20477.86595
 30
0.0
 11
-310.300314
 21
-20477.078306
 31
0.0
  0
LINE
  5
1DD
100
AcDbEntity
  8
0
  6
CONTINUOUS
 62
     7
100
AcDbLine
 10
-428.163667
 20
-20477.078292
 30
0.0
 11
-310.300314
 21
-20477.078306
 31
0.0
  0
LINE
  5
1DE
100
AcDbEntity
  8
0
  6
CONTINUOUS
 62
     7
100
AcDbLine
 10
-428.163661
 20
-20477.865985
 30
0.0
 11
-310.300315
 21
-20477.86595
 31
0.0
  0
LINE
  5
1DF
100
AcDbEntity
  8
0
  6
CONTINUOUS
 62
     7
100
AcDbLine
 10
-766.106684
 20
-20420.030535
 30
0.0
 11
-760.518365
 21
-20434.21731
 31
0.0
  0
ARC
  5
1E0
100
AcDbEntity
  8
0
  6
CONTINUOUS
 62
     7
100
AcDbCircle
 10
-755.528418
 20
-20415.863645
 30
0.0
 40
11.369375
100
AcDbArc
 50
164.120476
 51
201.499999
  0
LINE
  5
1E1
100
AcDbEntity
  8
0
  6
CONTINUOUS
 62
     7
100
AcDbLine
 10
-765.769615
 20
-20412.908041
 30
0.0
 11
-766.463928
 21
-20412.752808
 31
0.0
  0
ARC
  5
1E2
100
AcDbEntity
  8
0
  6
CONTINUOUS
 62
     7
100
AcDbCircle
 10
-755.214036
 20
-20415.72503
 30
0.0
 40
10.925002
100
AcDbArc
 50
165.0576
 51
201.499999
  0
LINE
  5
1E3
100
AcDbEntity
  8
0
  6
CONTINUOUS
 62
     7
100
AcDbLine
 10
-880.300315
 20
-20477.078291
 30
0.0
 11
-880.300317
 21
-20477.865973
 31
0.0
  0
LINE
  5
1E4
100
AcDbEntity
  8
0
  6
CONTINUOUS
 62
     7
100
AcDbLine
 10
-880.300315
 20
-20477.078291
 30
0.0
 11
-778.640143
 21
-20477.078292
 31
0.0
  0
LINE
  5
1E5
100
AcDbEntity
  8
0
  6
CONTINUOUS
 62
     7
100
AcDbLine
 10
-880.300317
 20
-20477.865973
 30
0.0
 11
-778.642498
 21
-20477.865973
 31
0.0
  0
LINE
  5
1E6
100
AcDbEntity
  8
0
  6
CONTINUOUS
 62
     5
100
AcDbLine
 10
-765.769615
 20
-20412.908041
 30
0.0
 11
-526.67273
 21
-20314.699298
 31
0.0
  0
LINE
  5
1E7
100
AcDbEntity
  8
0
  6
CONTINUOUS
 62
     5
100
AcDbLine
 10
-526.291544
 20
-20314.098578
 30
0.0
 11
-766.463928
 21
-20412.752808
 31
0.0
  0
DIMENSION
  5
1F1
100
AcDbEntity
  8
0
  6
CONTINUOUS
 62
     5
100
AcDbDimension
  2
*D4
 10
-560.477033
 20
-20230.87317
 30
0.0
 11
-685.312706
 21
-20268.637739
 31
0.0
 70
    33
  3
DIMSTYLE001
100
AcDbAlignedDimension
 13
-780.570776
 23
-20378.40858
 33
0.0
 14
-540.398392
 24
-20279.75435
 34
0.0
 50
22.331106
1001
ACAD
1000
DSTYLE
1002
{
1070
    43
1040
1000.0
1070
    73
1070
     0
1070
    74
1070
     0
1070
    77
1070
     1
1070
   277
1070
     2
1070
   172
1070
     1
1070
   174
1070
     1
1070
   179
1070
     0
1070
   287
1070
     3
1070
   289
1070
     3
1070
     5
1000
_ORIGIN
1002
}
  0
DIMENSION
  5
1FB
100
AcDbEntity
  8
0
  6
CONTINUOUS
 62
     5
100
AcDbDimension
  2
*D5
 10
-310.800311
 20
-20646.00789
 30
0.0
 11
-589.300311
 21
-20633.50789
 31
0.0
 70
   160
  3
DIMSTYLE001
100
AcDbAlignedDimension
 13
-880.800331
 23
-20526.553234
 33
0.0
 14
-310.800311
 24
-20526.553234
 34
0.0
100
AcDbRotatedDimension
1001
ACAD
1000
DSTYLE
1002
{
1070
    43
1040
1000.0
1070
    73
1070
     0
1070
    74
1070
     0
1070
    77
1070
     1
1070
   277
1070
     2
1070
   172
1070
     1
1070
   174
1070
     1
1070
   179
1070
     0
1070
   279
1070
     2
1070
   287
1070
     5
1070
   289
1070
     3
1070
     5
1000
_ORIGIN
1002
}
  0
DIMENSION
  5
205
100
AcDbEntity
  8
0
  6
CONTINUOUS
 62
     5
100
AcDbDimension
  2
*D6
 10
-922.023659
 20
-20477.865973
 30
0.0
 11
-934.523659
 21
-20445.30939
 31
0.0
 70
    32
  3
DIMSTYLE001
100
AcDbAlignedDimension
 13
-876.194267
 23
-20412.752808
 33
0.0
 14
-876.194267
 24
-20477.865973
 34
0.0
 50
270.0
100
AcDbRotatedDimension
1001
ACAD
1000
DSTYLE
1002
{
1070
    43
1040
1000.0
1070
    73
1070
     0
1070
    74
1070
     0
1070
    77
1070
     1
1070
   277
1070
     2
1070
   172
1070
     1
1070
   174
1070
     1
1070
   179
1070
     0
1070
   287
1070
     3
1070
   289
1070
     3
1070
     5
1000
_ORIGIN
1002
}
  0
DIMENSION
  5
20F
100
AcDbEntity
  8
0
  6
CONTINUOUS
 62
     5
100
AcDbDimension
  2
*D7
 10
-204.623177
 20
-20477.865972
 30
0.0
 11
-217.123177
 21
-20395.482275
 31
0.0
 70
    32
  3
DIMSTYLE001
100
AcDbAlignedDimension
 13
-290.620965
 23
-20313.098578
 33
0.0
 14
-290.620911
 24
-20477.865972
 34
0.0
 50
270.0
100
AcDbRotatedDimension
1001
ACAD
1000
DSTYLE
1002
{
1070
    43
1040
1000.0
1070
    73
1070
     0
1070
    74
1070
     0
1070
    77
1070
     1
1070
   277
1070
     2
1070
   172
1070
     1
1070
   174
1070
     1
1070
   179
1070
     0
1070
   287
1070
     3
1070
   289
1070
     3
1070
     5
1000
_ORIGIN
1002
}
  0
LINE
  5
210
100
AcDbEntity
  8
0
  6
STYLE_07
 62
     1
100
AcDbLine
 10
-664.129842
 20
-20320.2068
 30
0.0
 11
-579.045619
 21
-20527.351013
 31
0.0
  0
LINE
  5
211
100
AcDbEntity
  8
0
  6
CONTINUOUS
 62
     5
100
AcDbLine
 10
-778.640125
 20
-20477.865967
 30
0.0
 11
-428.185877
 21
-20477.865967
 31
0.0
  0
POLYLINE
  5
212
100
AcDbEntity
  8
0
  6
CONTINUOUS
 62
     7
100
AcDb2dPolyline
 66
     1
 10
0.0
 20
0.0
 30
0.0
 70
   132
 75
     6
  0
VERTEX
  5
213
100
AcDbEntity
  8
0
  6
CONTINUOUS
 62
     7
100
AcDbVertex
100
AcDb2dVertex
 10
-360.300315
 20
-19257.932398
 30
0.0
 70
    16
  0
VERTEX
  5
214
100
AcDbEntity
  8
0
  6
CONTINUOUS
 62
     7
100
AcDbVertex
100
AcDb2dVertex
 10
-360.300315
 20
-19257.932398
 30
0.0
 70
     8
  0
VERTEX
  5
215
100
AcDbEntity
  8
0
  6
CONTINUOUS
 62
     7
100
AcDbVertex
100
AcDb2dVertex
 10
-357.410892
 20
-19263.927114
 30
0.0
 70
     8
  0
VERTEX
  5
216
100
AcDbEntity
  8
0
  6
CONTINUOUS
 62
     7
100
AcDbVertex
100
AcDb2dVertex
 10
-354.492623
 20
-19269.955271
 30
0.0
 70
     8
  0
VERTEX
  5
217
100
AcDbEntity
  8
0
  6
CONTINUOUS
 62
     7
100
AcDbVertex
100
AcDb2dVertex
 10
-351.516661
 20
-19276.050312
 30
0.0
 70
     8
  0
VERTEX
  5
218
100
AcDbEntity
  8
0
  6
CONTINUOUS
 62
     7
100
AcDbVertex
100
AcDb2dVertex
 10
-348.454161
 20
-19282.245679
 30
0.0
 70
     8
  0
VERTEX
  5
219
100
AcDbEntity
  8
0
  6
CONTINUOUS
 62
     7
100
AcDbVertex
100
AcDb2dVertex
 10
-345.276277
 20
-19288.574814
 30
0.0
 70
     8
  0
VERTEX
  5
21A
100
AcDbEntity
  8
0
  6
CONTINUOUS
 62
     7
100
AcDbVertex
100
AcDb2dVertex
 10
-341.954161
 20
-19295.071158
 30
0.0
 70
     8
  0
VERTEX
  5
21B
100
AcDbEntity
  8
0
  6
CONTINUOUS
 62
     7
100
AcDbVertex
100
AcDb2dVertex
 10
-338.458969
 20
-19301.768154
 30
0.0
 70
     8
  0
VERTEX
  5
21C
100
AcDbEntity
  8
0
  6
CONTINUOUS
 62
     7
100
AcDbVertex
100
AcDb2dVertex
 10
-334.761854
 20
-19308.699243
 30
0.0
 70
     8
  0
VERTEX
  5
21D
100
AcDbEntity
  8
0
  6
CONTINUOUS
 62
     7
100
AcDbVertex
100
AcDb2dVertex
 10
-330.833969
 20
-19315.897867
 30
0.0
 70
     8
  0
VERTEX
  5
21E
100
AcDbEntity
  8
0
  6
CONTINUOUS
 62
     7
100
AcDbVertex
100
AcDb2dVertex
 10
-326.646469
 20
-19323.397469
 30
0.0
 70
     8
  0
VERTEX
  5
21F
100
AcDbEntity
  8
0
  6
CONTINUOUS
 62
     7
100
AcDbVertex
100
AcDb2dVertex
 10
-322.211854
 20
-19331.22812
 30
0.0
 70
     8
  0
VERTEX
  5
220
100
AcDbEntity
  8
0
  6
CONTINUOUS
 62
     7
100
AcDbVertex
100
AcDb2dVertex
 10
-317.708008
 20
-19339.406416
 30
0.0
 70
     8
  0
VERTEX
  5
221
100
AcDbEntity
  8
0
  6
CONTINUOUS
 62
     7
100
AcDbVertex
100
AcDb2dVertex
 10
-313.354161
 20
-19347.945579
 30
0.0
 70
     8
  0
VERTEX
  5
222
100
AcDbEntity
  8
0
  6
CONTINUOUS
 62
     7
100
AcDbVertex
100
AcDb2dVertex
 10
-309.369546
 20
-19356.858837
 30
0.0
 70
     8
  0
VERTEX
  5
223
100
AcDbEntity
  8
0
  6
CONTINUOUS
 62
     7
100
AcDbVertex
100
AcDb2dVertex
 10
-305.973392
 20
-19366.159412
 30
0.0
 70
     8
  0
VERTEX
  5
224
100
AcDbEntity
  8
0
  6
CONTINUOUS
 62
     7
100
AcDbVertex
100
AcDb2dVertex
 10
-303.384931
 20
-19375.86053
 30
0.0
 70
     8
  0
VERTEX
  5
225
100
AcDbEntity
  8
0
  6
CONTINUOUS
 62
     7
100
AcDbVertex
100
AcDb2dVertex
 10
-301.823392
 20
-19385.975416
 30
0.0
 70
     8
  0
VERTEX
  5
226
100
AcDbEntity
  8
0
  6
CONTINUOUS
 62
     7
100
AcDbVertex
100
AcDb2dVertex
 10
-301.508008
 20
-19396.517295
 30
0.0
 70
     8
  0
VERTEX
  5
227
100
AcDbEntity
  8
0
  6
CONTINUOUS
 62
     7
100
AcDbVertex
100
AcDb2dVertex
 10
-302.658008
 20
-19407.49939
 30
0.0
 70
     8
  0
VERTEX
  5
228
100
AcDbEntity
  8
0
  6
CONTINUOUS
 62
     7
100
AcDbVertex
100
AcDb2dVertex
 10
-305.492623
 20
-19418.934928
 30
0.0
 70
     8
  0
VERTEX
  5
229
100
AcDbEntity
  8
0
  6
CONTINUOUS
 62
     7
100
AcDbVertex
100
AcDb2dVertex
 10
-310.116661
 20
-19430.82715
 30
0.0
 70
     8
  0
VERTEX
  5
22A
100
AcDbEntity
  8
0
  6
CONTINUOUS
 62
     7
100
AcDbVertex
100
AcDb2dVertex
 10
-316.177238
 20
-19443.139372
 30
0.0
 70
     8
  0
VERTEX
  5
22B
100
AcDbEntity
  8
0
  6
CONTINUOUS
 62
     7
100
AcDbVertex
100
AcDb2dVertex
 10
-323.207046
 20
-19455.824928
 30
0.0
 70
     8
  0
VERTEX
  5
22C
100
AcDbEntity
  8
0
  6
CONTINUOUS
 62
     7
100
AcDbVertex
100
AcDb2dVertex
 10
-330.738777
 20
-19468.83715
 30
0.0
 70
     8
  0
VERTEX
  5
22D
100
AcDbEntity
  8
0
  6
CONTINUOUS
 62
     7
100
AcDbVertex
100
AcDb2dVertex
 10
-338.305123
 20
-19482.129372
 30
0.0
 70
     8
  0
VERTEX
  5
22E
100
AcDbEntity
  8
0
  6
CONTINUOUS
 62
     7
100
AcDbVertex
100
AcDb2dVertex
 10
-345.438777
 20
-19495.654928
 30
0.0
 70
     8
  0
VERTEX
  5
22F
100
AcDbEntity
  8
0
  6
CONTINUOUS
 62
     7
100
AcDbVertex
100
AcDb2dVertex
 10
-351.672431
 20
-19509.36715
 30
0.0
 70
     8
  0
VERTEX
  5
230
100
AcDbEntity
  8
0
  6
CONTINUOUS
 62
     7
100
AcDbVertex
100
AcDb2dVertex
 10
-356.538777
 20
-19523.219372
 30
0.0
 70
     8
  0
VERTEX
  5
231
100
AcDbEntity
  8
0
  6
CONTINUOUS
 62
     7
100
AcDbVertex
100
AcDb2dVertex
 10
-359.570508
 20
-19537.164928
 30
0.0
 70
     8
  0
VERTEX
  5
232
100
AcDbEntity
  8
0
  6
CONTINUOUS
 62
     7
100
AcDbVertex
100
AcDb2dVertex
 10
-360.300315
 20
-19551.15715
 30
0.0
 70
     8
  0
VERTEX
  5
233
100
AcDbEntity
  8
0
  6
CONTINUOUS
 62
     7
100
AcDbVertex
100
AcDb2dVertex
 10
-358.425382
 20
-19565.149748
 30
0.0
 70
     8
  0
VERTEX
  5
234
100
AcDbEntity
  8
0
  6
CONTINUOUS
 62
     7
100
AcDbVertex
100
AcDb2dVertex
 10
-354.300853
 20
-19579.097939
 30
0.0
 70
     8
  0
VERTEX
  5
235
100
AcDbEntity
  8
0
  6
CONTINUOUS
 62
     7
100
AcDbVertex
100
AcDb2dVertex
 10
-348.446362
 20
-19592.957313
 30
0.0
 70
     8
  0
VERTEX
  5
236
100
AcDbEntity
  8
0
  6
CONTINUOUS
 62
     7
100
AcDbVertex
100
AcDb2dVertex
 10
-341.381543
 20
-19606.683462
 30
0.0
 70
     8
  0
VERTEX
  5
237
100
AcDbEntity
  8
0
  6
CONTINUOUS
 62
     7
100
AcDbVertex
100
AcDb2dVertex
 10
-333.626031
 20
-19620.231978
 30
0.0
 70
     8
  0
VERTEX
  5
238
100
AcDbEntity
  8
0
  6
CONTINUOUS
 62
     7
100
AcDbVertex
100
AcDb2dVertex
 10
-325.69946
 20
-19633.558453
 30
0.0
 70
     8
  0
VERTEX
  5
239
100
AcDbEntity
  8
0
  6
CONTINUOUS
 62
     7
100
AcDbVertex
100
AcDb2dVertex
 10
-318.121464
 20
-19646.618478
 30
0.0
 70
     8
  0
VERTEX
  5
23A
100
AcDbEntity
  8
0
  6
CONTINUOUS
 62
     7
100
AcDbVertex
100
AcDb2dVertex
 10
-311.411678
 20
-19659.367646
 30
0.0
 70
     8
  0
VERTEX
  5
23B
100
AcDbEntity
  8
0
  6
CONTINUOUS
 62
     7
100
AcDbVertex
100
AcDb2dVertex
 10
-306.089736
 20
-19671.761547
 30
0.0
 70
     8
  0
VERTEX
  5
23C
100
AcDbEntity
  8
0
  6
CONTINUOUS
 62
     7
100
AcDbVertex
100
AcDb2dVertex
 10
-302.675272
 20
-19683.755775
 30
0.0
 70
     8
  0
VERTEX
  5
23D
100
AcDbEntity
  8
0
  6
CONTINUOUS
 62
     7
100
AcDbVertex
100
AcDb2dVertex
 10
-301.544396
 20
-19695.312945
 30
0.0
 70
     8
  0
VERTEX
  5
23E
100
AcDbEntity
  8
0
  6
CONTINUOUS
 62
     7
100
AcDbVertex
100
AcDb2dVertex
 10
-302.499116
 20
-19706.423773
 30
0.0
 70
     8
  0
VERTEX
  5
23F
100
AcDbEntity
  8
0
  6
CONTINUOUS
 62
     7
100
AcDbVertex
100
AcDb2dVertex
 10
-305.197913
 20
-19717.086003
 30
0.0
 70
     8
  0
VERTEX
  5
240
100
AcDbEntity
  8
0
  6
CONTINUOUS
 62
     7
100
AcDbVertex
100
AcDb2dVertex
 10
-309.299271
 20
-19727.297375
 30
0.0
 70
     8
  0
VERTEX
  5
241
100
AcDbEntity
  8
0
  6
CONTINUOUS
 62
     7
100
AcDbVertex
100
AcDb2dVertex
 10
-314.461673
 20
-19737.05563
 30
0.0
 70
     8
  0
VERTEX
  5
242
100
AcDbEntity
  8
0
  6
CONTINUOUS
 62
     7
100
AcDbVertex
100
AcDb2dVertex
 10
-320.343601
 20
-19746.358512
 30
0.0
 70
     8
  0
VERTEX
  5
243
100
AcDbEntity
  8
0
  6
CONTINUOUS
 62
     7
100
AcDbVertex
100
AcDb2dVertex
 10
-326.603538
 20
-19755.20376
 30
0.0
 70
     8
  0
VERTEX
  5
244
100
AcDbEntity
  8
0
  6
CONTINUOUS
 62
     7
100
AcDbVertex
100
AcDb2dVertex
 10
-332.899966
 20
-19763.589116
 30
0.0
 70
     8
  0
VERTEX
  5
245
100
AcDbEntity
  8
0
  6
CONTINUOUS
 62
     7
100
AcDbVertex
100
AcDb2dVertex
 10
-338.891368
 20
-19771.512323
 30
0.0
 70
     8
  0
VERTEX
  5
246
100
AcDbEntity
  8
0
  6
CONTINUOUS
 62
     7
100
AcDbVertex
100
AcDb2dVertex
 10
-344.236227
 20
-19778.971122
 30
0.0
 70
     8
  0
VERTEX
  5
247
100
AcDbEntity
  8
0
  6
CONTINUOUS
 62
     7
100
AcDbVertex
100
AcDb2dVertex
 10
-348.666447
 20
-19785.96363
 30
0.0
 70
     8
  0
VERTEX
  5
248
100
AcDbEntity
  8
0
  6
CONTINUOUS
 62
     7
100
AcDbVertex
100
AcDb2dVertex
 10
-352.207625
 20
-19792.489471
 30
0.0
 70
     8
  0
VERTEX
  5
249
100
AcDbEntity
  8
0
  6
CONTINUOUS
 62
     7
100
AcDbVertex
100
AcDb2dVertex
 10
-354.958779
 20
-19798.548646
 30
0.0
 70
     8
  0
VERTEX
  5
24A
100
AcDbEntity
  8
0
  6
CONTINUOUS
 62
     7
100
AcDbVertex
100
AcDb2dVertex
 10
-357.018925
 20
-19804.141155
 30
0.0
 70
     8
  0
VERTEX
  5
24B
100
AcDbEntity
  8
0
  6
CONTINUOUS
 62
     7
100
AcDbVertex
100
AcDb2dVertex
 10
-358.487082
 20
-19809.266996
 30
0.0
 70
     8
  0
VERTEX
  5
24C
100
AcDbEntity
  8
0
  6
CONTINUOUS
 62
     7
100
AcDbVertex
100
AcDb2dVertex
 10
-359.462267
 20
-19813.926171
 30
0.0
 70
     8
  0
VERTEX
  5
24D
100
AcDbEntity
  8
0
  6
CONTINUOUS
 62
     7
100
AcDbVertex
100
AcDb2dVertex
 10
-360.0435
 20
-19818.11868
 30
0.0
 70
     8
  0
VERTEX
  5
24E
100
AcDbEntity
  8
0
  6
CONTINUOUS
 62
     7
100
AcDbVertex
100
AcDb2dVertex
 10
-360.329796
 20
-19821.844521
 30
0.0
 70
     8
  0
VERTEX
  5
24F
100
AcDbEntity
  8
0
  6
CONTINUOUS
 62
     7
100
AcDbVertex
100
AcDb2dVertex
 10
-360.420175
 20
-19825.103696
 30
0.0
 70
     8
  0
VERTEX
  5
250
100
AcDbEntity
  8
0
  6
CONTINUOUS
 62
     7
100
AcDbVertex
100
AcDb2dVertex
 10
-360.413654
 20
-19827.896204
 30
0.0
 70
     8
  0
VERTEX
  5
251
100
AcDbEntity
  8
0
  6
CONTINUOUS
 62
     7
100
AcDbVertex
100
AcDb2dVertex
 10
-360.392713
 20
-19830.229824
 30
0.0
 70
     8
  0
VERTEX
  5
252
100
AcDbEntity
  8
0
  6
CONTINUOUS
 62
     7
100
AcDbVertex
100
AcDb2dVertex
 10
-360.373678
 20
-19832.143443
 30
0.0
 70
     8
  0
VERTEX
  5
253
100
AcDbEntity
  8
0
  6
CONTINUOUS
 62
     7
100
AcDbVertex
100
AcDb2dVertex
 10
-360.356337
 20
-19833.683729
 30
0.0
 70
     8
  0
VERTEX
  5
254
100
AcDbEntity
  8
0
  6
CONTINUOUS
 62
     7
100
AcDbVertex
100
AcDb2dVertex
 10
-360.340479
 20
-19834.897349
 30
0.0
 70
     8
  0
VERTEX
  5
255
100
AcDbEntity
  8
0
  6
CONTINUOUS
 62
     7
100
AcDbVertex
100
AcDb2dVertex
 10
-360.325892
 20
-19835.830968
 30
0.0
 70
     8
  0
VERTEX
  5
256
100
AcDbEntity
  8
0
  6
CONTINUOUS
 62
     7
100
AcDbVertex
100
AcDb2dVertex
 10
-360.312364
 20
-19836.531254
 30
0.0
 70
     8
  0
VERTEX
  5
257
100
AcDbEntity
  8
0
  6
CONTINUOUS
 62
     7
100
AcDbVertex
100
AcDb2dVertex
 10
-360.299683
 20
-19837.044873
 30
0.0
 70
     8
  0
VERTEX
  5
258
100
AcDbEntity
  8
0
  6
CONTINUOUS
 62
     7
100
AcDbVertex
100
AcDb2dVertex
 10
-360.287637
 20
-19837.418493
 30
0.0
 70
     8
  0
VERTEX
  5
259
100
AcDbEntity
  8
0
  6
CONTINUOUS
 62
     7
100
AcDbVertex
100
AcDb2dVertex
 10
-360.276015
 20
-19837.698779
 30
0.0
 70
     8
  0
VERTEX
  5
25A
100
AcDbEntity
  8
0
  6
CONTINUOUS
 62
     7
100
AcDbVertex
100
AcDb2dVertex
 10
-360.264605
 20
-19837.932398
 30
0.0
 70
     8
  0
VERTEX
  5
25B
100
AcDbEntity
  8
0
  6
CONTINUOUS
 62
     7
100
AcDbVertex
100
AcDb2dVertex
 10
-331.454161
 20
-19317.823817
 30
0.0
 70
    16
  0
VERTEX
  5
25C
100
AcDbEntity
  8
0
  6
CONTINUOUS
 62
     7
100
AcDbVertex
100
AcDb2dVertex
 10
-273.761854
 20
-19411.15715
 30
0.0
 70
    16
  0
VERTEX
  5
25D
100
AcDbEntity
  8
0
  6
CONTINUOUS
 62
     7
100
AcDbVertex
100
AcDb2dVertex
 10
-406.454161
 20
-19551.15715
 30
0.0
 70
    16
  0
VERTEX
  5
25E
100
AcDbEntity
  8
0
  6
CONTINUOUS
 62
     7
100
AcDbVertex
100
AcDb2dVertex
 10
-262.223392
 20
-19691.15715
 30
0.0
 70
    16
  0
VERTEX
  5
25F
100
AcDbEntity
  8
0
  6
CONTINUOUS
 62
     7
100
AcDbVertex
100
AcDb2dVertex
 10
-360.703903
 20
-19786.748899
 30
0.0
 70
    16
  0
VERTEX
  5
260
100
AcDbEntity
  8
0
  6
CONTINUOUS
 62
     7
100
AcDbVertex
100
AcDb2dVertex
 10
-360.378354
 20
-19835.673982
 30
0.0
 70
    16
  0
VERTEX
  5
261
100
AcDbEntity
  8
0
  6
CONTINUOUS
 62
     7
100
AcDbVertex
100
AcDb2dVertex
 10
-360.264605
 20
-19837.932398
 30
0.0
 70
    16
  0
SEQEND
  5
262
100
AcDbEntity
  8
0
  6
CONTINUOUS
 62
     7
  0
POLYLINE
  5
263
100
AcDbEntity
  8
0
  6
CONTINUOUS
 62
     7
100
AcDb2dPolyline
 66
     1
 10
0.0
 20
0.0
 30
0.0
 70
   128
  0
VERTEX
  5
264
100
AcDbEntity
  8
0
  6
CONTINUOUS
 62
     7
100
AcDbVertex
100
AcDb2dVertex
 10
-439.131516
 20
-19554.545027
 30
0.0
  0
VERTEX
  5
265
100
AcDbEntity
  8
0
  6
CONTINUOUS
 62
     7
100
AcDbVertex
100
AcDb2dVertex
 10
-439.598857
 20
-19541.791164
 30
0.0
  0
VERTEX
  5
266
100
AcDbEntity
  8
0
  6
CONTINUOUS
 62
     7
100
AcDbVertex
100
AcDb2dVertex
 10
-441.148335
 20
-19529.123125
 30
0.0
  0
VERTEX
  5
267
100
AcDbEntity
  8
0
  6
CONTINUOUS
 62
     7
100
AcDbVertex
100
AcDb2dVertex
 10
-443.759349
 20
-19516.707345
 30
0.0
  0
VERTEX
  5
268
100
AcDbEntity
  8
0
  6
CONTINUOUS
 62
     7
100
AcDbVertex
100
AcDb2dVertex
 10
-447.417865
 20
-19504.512067
 30
0.0
  0
VERTEX
  5
269
100
AcDbEntity
  8
0
  6
CONTINUOUS
 62
     7
100
AcDbVertex
100
AcDb2dVertex
 10
-452.074117
 20
-19492.660774
 30
0.0
  0
VERTEX
  5
26A
100
AcDbEntity
  8
0
  6
CONTINUOUS
 62
     7
100
AcDbVertex
100
AcDb2dVertex
 10
-457.678322
 20
-19481.276967
 30
0.0
  0
VERTEX
  5
26B
100
AcDbEntity
  8
0
  6
CONTINUOUS
 62
     7
100
AcDbVertex
100
AcDb2dVertex
 10
-464.251874
 20
-19470.345871
 30
0.0
  0
VERTEX
  5
26C
100
AcDbEntity
  8
0
  6
CONTINUOUS
 62
     7
100
AcDbVertex
100
AcDb2dVertex
 10
-471.724686
 20
-19459.956111
 30
0.0
  0
VERTEX
  5
26D
100
AcDbEntity
  8
0
  6
CONTINUOUS
 62
     7
100
AcDbVertex
100
AcDb2dVertex
 10
-480.010923
 20
-19450.200906
 30
0.0
  0
VERTEX
  5
26E
100
AcDbEntity
  8
0
  6
CONTINUOUS
 62
     7
100
AcDbVertex
100
AcDb2dVertex
 10
-489.024744
 20
-19441.173466
 30
0.0
  0
VERTEX
  5
26F
100
AcDbEntity
  8
0
  6
CONTINUOUS
 62
     7
100
AcDbVertex
100
AcDb2dVertex
 10
-499.079632
 20
-19432.636032
 30
0.0
  0
VERTEX
  5
270
100
AcDbEntity
  8
0
  6
CONTINUOUS
 62
     7
100
AcDbVertex
100
AcDb2dVertex
 10
-509.831797
 20
-19424.920535
 30
0.0
  0
VERTEX
  5
271
100
AcDbEntity
  8
0
  6
CONTINUOUS
 62
     7
100
AcDbVertex
100
AcDb2dVertex
 10
-521.168116
 20
-19418.089604
 30
0.0
  0
VERTEX
  5
272
100
AcDbEntity
  8
0
  6
CONTINUOUS
 62
     7
100
AcDbVertex
100
AcDb2dVertex
 10
-532.975466
 20
-19412.205817
 30
0.0
  0
VERTEX
  5
273
100
AcDbEntity
  8
0
  6
CONTINUOUS
 62
     7
100
AcDbVertex
100
AcDb2dVertex
 10
-545.729107
 20
-19407.109063
 30
0.0
  0
VERTEX
  5
274
100
AcDbEntity
  8
0
  6
CONTINUOUS
 62
     7
100
AcDbVertex
100
AcDb2dVertex
 10
-558.901752
 20
-19403.061145
 30
0.0
  0
VERTEX
  5
275
100
AcDbEntity
  8
0
  6
CONTINUOUS
 62
     7
100
AcDbVertex
100
AcDb2dVertex
 10
-572.359421
 20
-19400.09195
 30
0.0
  0
VERTEX
  5
276
100
AcDbEntity
  8
0
  6
CONTINUOUS
 62
     7
100
AcDbVertex
100
AcDb2dVertex
 10
-585.968149
 20
-19398.231351
 30
0.0
  0
VERTEX
  5
277
100
AcDbEntity
  8
0
  6
CONTINUOUS
 62
     7
100
AcDbVertex
100
AcDb2dVertex
 10
-600.106504
 20
-19397.490051
 30
0.0
  0
VERTEX
  5
278
100
AcDbEntity
  8
0
  6
CONTINUOUS
 62
     7
100
AcDbVertex
100
AcDb2dVertex
 10
-614.307459
 20
-19397.933191
 30
0.0
  0
VERTEX
  5
279
100
AcDbEntity
  8
0
  6
CONTINUOUS
 62
     7
100
AcDbVertex
100
AcDb2dVertex
 10
-627.943108
 20
-19399.498075
 30
0.0
  0
SEQEND
  5
27A
100
AcDbEntity
  8
0
  6
CONTINUOUS
 62
     7
  0
ELLIPSE
  5
27B
100
AcDbEntity
  8
0
  6
CONTINUOUS
 62
     7
100
AcDbEllipse
 10
-621.449952
 20
-19549.741741
 30
0.0
 11
-0.0000000000000277
 21
-151.02610781714861
 31
0.0
210
0.0
220
0.0
230
1.0
 40
0.784953
 41
0.0
 42
6.2831853071795862
  0
POLYLINE
  5
27C
100
AcDbEntity
  8
0
  6
CONTINUOUS
 62
     7
100
AcDb2dPolyline
 66
     1
 10
0.0
 20
0.0
 30
0.0
 70
   128
  0
VERTEX
  5
27D
100
AcDbEntity
  8
0
  6
CONTINUOUS
 62
     7
100
AcDbVertex
100
AcDb2dVertex
 10
-439.131516
 20
-19544.938428
 30
0.0
  0
VERTEX
  5
27E
100
AcDbEntity
  8
0
  6
CONTINUOUS
 62
     7
100
AcDbVertex
100
AcDb2dVertex
 10
-439.598857
 20
-19557.69229
 30
0.0
  0
VERTEX
  5
27F
100
AcDbEntity
  8
0
  6
CONTINUOUS
 62
     7
100
AcDbVertex
100
AcDb2dVertex
 10
-441.148335
 20
-19570.36033
 30
0.0
  0
VERTEX
  5
280
100
AcDbEntity
  8
0
  6
CONTINUOUS
 62
     7
100
AcDbVertex
100
AcDb2dVertex
 10
-443.759349
 20
-19582.776109
 30
0.0
  0
VERTEX
  5
281
100
AcDbEntity
  8
0
  6
CONTINUOUS
 62
     7
100
AcDbVertex
100
AcDb2dVertex
 10
-447.417865
 20
-19594.971388
 30
0.0
  0
VERTEX
  5
282
100
AcDbEntity
  8
0
  6
CONTINUOUS
 62
     7
100
AcDbVertex
100
AcDb2dVertex
 10
-452.074117
 20
-19606.822681
 30
0.0
  0
VERTEX
  5
283
100
AcDbEntity
  8
0
  6
CONTINUOUS
 62
     7
100
AcDbVertex
100
AcDb2dVertex
 10
-457.678322
 20
-19618.206488
 30
0.0
  0
VERTEX
  5
284
100
AcDbEntity
  8
0
  6
CONTINUOUS
 62
     7
100
AcDbVertex
100
AcDb2dVertex
 10
-464.251874
 20
-19629.137584
 30
0.0
  0
VERTEX
  5
285
100
AcDbEntity
  8
0
  6
CONTINUOUS
 62
     7
100
AcDbVertex
100
AcDb2dVertex
 10
-471.724686
 20
-19639.527344
 30
0.0
  0
VERTEX
  5
286
100
AcDbEntity
  8
0
  6
CONTINUOUS
 62
     7
100
AcDbVertex
100
AcDb2dVertex
 10
-480.010923
 20
-19649.282549
 30
0.0
  0
VERTEX
  5
287
100
AcDbEntity
  8
0
  6
CONTINUOUS
 62
     7
100
AcDbVertex
100
AcDb2dVertex
 10
-489.024744
 20
-19658.309989
 30
0.0
  0
VERTEX
  5
288
100
AcDbEntity
  8
0
  6
CONTINUOUS
 62
     7
100
AcDbVertex
100
AcDb2dVertex
 10
-499.079632
 20
-19666.847423
 30
0.0
  0
VERTEX
  5
289
100
AcDbEntity
  8
0
  6
CONTINUOUS
 62
     7
100
AcDbVertex
100
AcDb2dVertex
 10
-509.831797
 20
-19674.56292
 30
0.0
  0
VERTEX
  5
28A
100
AcDbEntity
  8
0
  6
CONTINUOUS
 62
     7
100
AcDbVertex
100
AcDb2dVertex
 10
-521.168116
 20
-19681.393851
 30
0.0
  0
VERTEX
  5
28B
100
AcDbEntity
  8
0
  6
CONTINUOUS
 62
     7
100
AcDbVertex
100
AcDb2dVertex
 10
-532.975466
 20
-19687.277638
 30
0.0
  0
VERTEX
  5
28C
100
AcDbEntity
  8
0
  6
CONTINUOUS
 62
     7
100
AcDbVertex
100
AcDb2dVertex
 10
-545.729107
 20
-19692.374392
 30
0.0
  0
VERTEX
  5
28D
100
AcDbEntity
  8
0
  6
CONTINUOUS
 62
     7
100
AcDbVertex
100
AcDb2dVertex
 10
-558.901752
 20
-19696.42231
 30
0.0
  0
VERTEX
  5
28E
100
AcDbEntity
  8
0
  6
CONTINUOUS
 62
     7
100
AcDbVertex
100
AcDb2dVertex
 10
-572.359421
 20
-19699.391505
 30
0.0
  0
VERTEX
  5
28F
100
AcDbEntity
  8
0
  6
CONTINUOUS
 62
     7
100
AcDbVertex
100
AcDb2dVertex
 10
-585.968149
 20
-19701.252104
 30
0.0
  0
VERTEX
  5
290
100
AcDbEntity
  8
0
  6
CONTINUOUS
 62
     7
100
AcDbVertex
100
AcDb2dVertex
 10
-600.106504
 20
-19701.993404
 30
0.0
  0
VERTEX
  5
291
100
AcDbEntity
  8
0
  6
CONTINUOUS
 62
     7
100
AcDbVertex
100
AcDb2dVertex
 10
-614.307459
 20
-19701.550263
 30
0.0
  0
VERTEX
  5
292
100
AcDbEntity
  8
0
  6
CONTINUOUS
 62
     7
100
AcDbVertex
100
AcDb2dVertex
 10
-627.943108
 20
-19699.98538
 30
0.0
  0
SEQEND
  5
293
100
AcDbEntity
  8
0
  6
CONTINUOUS
 62
     7
  0
LINE
  5
294
100
AcDbEntity
  8
0
  6
STYLE_07
 62
     1
100
AcDbLine
 10
-646.377736
 20
-20363.425693
 30
0.0
 11
-646.377736
 21
-18868.610282
 31
0.0
  0
LINE
  5
295
100
AcDbEntity
  8
0
  6
STYLE_07
 62
     1
100
AcDbLine
 10
-122.481984
 20
-19549.741741
 30
0.0
 11
-1170.273461
 21
-19549.741741
 31
0.0
  0
DIMENSION
  5
29F
100
AcDbEntity
  8
0
  6
CONTINUOUS
 62
     5
100
AcDbDimension
  2
*D8
 10
-1102.911786
 20
-19837.932398
 30
0.0
 11
-1115.411786
 21
-19547.932398
 31
0.0
 70
    32
  3
DIMSTYLE001
100
AcDbAlignedDimension
 13
-957.172008
 23
-19257.932398
 33
0.0
 14
-957.172008
 24
-19837.932398
 34
0.0
 50
270.0
100
AcDbRotatedDimension
1001
ACAD
1000
DSTYLE
1002
{
1070
    43
1040
1000.0
1070
    73
1070
     0
1070
    74
1070
     0
1070
    77
1070
     1
1070
   277
1070
     2
1070
   172
1070
     1
1070
   174
1070
     1
1070
   179
1070
     0
1070
   287
1070
     3
1070
   289
1070
     3
1070
     5
1000
_ORIGIN
1002
}
  0
DIMENSION
  5
2A9
100
AcDbEntity
  8
0
  6
CONTINUOUS
 62
     5
100
AcDbDimension
  2
*D9
 10
-310.300315
 20
-19124.862065
 30
0.0
 11
-595.300315
 21
-19112.362065
 31
0.0
 70
    32
  3
DIMSTYLE001
100
AcDbAlignedDimension
 13
-880.300315
 23
-19219.592964
 33
0.0
 14
-310.300315
 24
-19232.990423
 34
0.0
100
AcDbRotatedDimension
1001
ACAD
1000
DSTYLE
1002
{
1070
    43
1040
1000.0
1070
    73
1070
     0
1070
    74
1070
     0
1070
    77
1070
     1
1070
   277
1070
     2
1070
   172
1070
     1
1070
   174
1070
     1
1070
   179
1070
     0
1070
   287
1070
     3
1070
   289
1070
     3
1070
     5
1000
_ORIGIN
1002
}
  0
ELLIPSE
  5
2AA
100
AcDbEntity
  8
0
  6
CONTINUOUS
 62
     7
100
AcDbEllipse
 10
-597.313798
 20
-19549.741741
 30
0.0
 11
-178.21937138681392
 21
0.0000000000000218
 31
0.0
210
0.0
220
0.0
230
1.0
 40
0.924402
 41
0.0
 42
6.2831853071795862
  0
LINE
  5
2AB
100
AcDbEntity
  8
0
  6
CONTINUOUS
 62
     7
100
AcDbLine
 10
-310.300315
 20
-19257.932398
 30
0.0
 11
-930.300315
 21
-19257.932398
 31
0.0
  0
LINE
  5
2AC
100
AcDbEntity
  8
0
  6
CONTINUOUS
 62
     7
100
AcDbLine
 10
-880.300315
 20
-19257.932398
 30
0.0
 11
-880.300315
 21
-19837.932398
 31
0.0
  0
LINE
  5
2AD
100
AcDbEntity
  8
0
  6
CONTINUOUS
 62
     7
100
AcDbLine
 10
-930.264605
 20
-19837.932398
 30
0.0
 11
-310.300315
 21
-19837.932398
 31
0.0
  0
LINE
  5
2AE
100
AcDbEntity
  8
0
  6
CONTINUOUS
 62
     7
100
AcDbLine
 10
-310.300315
 20
-19837.932398
 30
0.0
 11
-310.300315
 21
-19257.932398
 31
0.0
  0
POLYLINE
  5
2AF
100
AcDbEntity
  8
0
  6
CONTINUOUS
 62
     7
100
AcDb2dPolyline
 66
     1
 10
0.0
 20
0.0
 30
0.0
 70
   132
 75
     6
  0
VERTEX
  5
2B0
100
AcDbEntity
  8
0
  6
CONTINUOUS
 62
     7
100
AcDbVertex
100
AcDb2dVertex
 10
-930.300315
 20
-19257.932398
 30
0.0
 70
    16
  0
VERTEX
  5
2B1
100
AcDbEntity
  8
0
  6
CONTINUOUS
 62
     7
100
AcDbVertex
100
AcDb2dVertex
 10
-930.300315
 20
-19257.932398
 30
0.0
 70
     8
  0
VERTEX
  5
2B2
100
AcDbEntity
  8
0
  6
CONTINUOUS
 62
     7
100
AcDbVertex
100
AcDb2dVertex
 10
-927.410892
 20
-19263.927114
 30
0.0
 70
     8
  0
VERTEX
  5
2B3
100
AcDbEntity
  8
0
  6
CONTINUOUS
 62
     7
100
AcDbVertex
100
AcDb2dVertex
 10
-924.492623
 20
-19269.955271
 30
0.0
 70
     8
  0
VERTEX
  5
2B4
100
AcDbEntity
  8
0
  6
CONTINUOUS
 62
     7
100
AcDbVertex
100
AcDb2dVertex
 10
-921.516661
 20
-19276.050312
 30
0.0
 70
     8
  0
VERTEX
  5
2B5
100
AcDbEntity
  8
0
  6
CONTINUOUS
 62
     7
100
AcDbVertex
100
AcDb2dVertex
 10
-918.454161
 20
-19282.245679
 30
0.0
 70
     8
  0
VERTEX
  5
2B6
100
AcDbEntity
  8
0
  6
CONTINUOUS
 62
     7
100
AcDbVertex
100
AcDb2dVertex
 10
-915.276277
 20
-19288.574814
 30
0.0
 70
     8
  0
VERTEX
  5
2B7
100
AcDbEntity
  8
0
  6
CONTINUOUS
 62
     7
100
AcDbVertex
100
AcDb2dVertex
 10
-911.954161
 20
-19295.071158
 30
0.0
 70
     8
  0
VERTEX
  5
2B8
100
AcDbEntity
  8
0
  6
CONTINUOUS
 62
     7
100
AcDbVertex
100
AcDb2dVertex
 10
-908.458969
 20
-19301.768154
 30
0.0
 70
     8
  0
VERTEX
  5
2B9
100
AcDbEntity
  8
0
  6
CONTINUOUS
 62
     7
100
AcDbVertex
100
AcDb2dVertex
 10
-904.761854
 20
-19308.699243
 30
0.0
 70
     8
  0
VERTEX
  5
2BA
100
AcDbEntity
  8
0
  6
CONTINUOUS
 62
     7
100
AcDbVertex
100
AcDb2dVertex
 10
-900.833969
 20
-19315.897867
 30
0.0
 70
     8
  0
VERTEX
  5
2BB
100
AcDbEntity
  8
0
  6
CONTINUOUS
 62
     7
100
AcDbVertex
100
AcDb2dVertex
 10
-896.646469
 20
-19323.397469
 30
0.0
 70
     8
  0
VERTEX
  5
2BC
100
AcDbEntity
  8
0
  6
CONTINUOUS
 62
     7
100
AcDbVertex
100
AcDb2dVertex
 10
-892.211854
 20
-19331.22812
 30
0.0
 70
     8
  0
VERTEX
  5
2BD
100
AcDbEntity
  8
0
  6
CONTINUOUS
 62
     7
100
AcDbVertex
100
AcDb2dVertex
 10
-887.708008
 20
-19339.406416
 30
0.0
 70
     8
  0
VERTEX
  5
2BE
100
AcDbEntity
  8
0
  6
CONTINUOUS
 62
     7
100
AcDbVertex
100
AcDb2dVertex
 10
-883.354161
 20
-19347.945579
 30
0.0
 70
     8
  0
VERTEX
  5
2BF
100
AcDbEntity
  8
0
  6
CONTINUOUS
 62
     7
100
AcDbVertex
100
AcDb2dVertex
 10
-879.369546
 20
-19356.858837
 30
0.0
 70
     8
  0
VERTEX
  5
2C0
100
AcDbEntity
  8
0
  6
CONTINUOUS
 62
     7
100
AcDbVertex
100
AcDb2dVertex
 10
-875.973392
 20
-19366.159412
 30
0.0
 70
     8
  0
VERTEX
  5
2C1
100
AcDbEntity
  8
0
  6
CONTINUOUS
 62
     7
100
AcDbVertex
100
AcDb2dVertex
 10
-873.384931
 20
-19375.86053
 30
0.0
 70
     8
  0
VERTEX
  5
2C2
100
AcDbEntity
  8
0
  6
CONTINUOUS
 62
     7
100
AcDbVertex
100
AcDb2dVertex
 10
-871.823392
 20
-19385.975416
 30
0.0
 70
     8
  0
VERTEX
  5
2C3
100
AcDbEntity
  8
0
  6
CONTINUOUS
 62
     7
100
AcDbVertex
100
AcDb2dVertex
 10
-871.508008
 20
-19396.517295
 30
0.0
 70
     8
  0
VERTEX
  5
2C4
100
AcDbEntity
  8
0
  6
CONTINUOUS
 62
     7
100
AcDbVertex
100
AcDb2dVertex
 10
-872.658008
 20
-19407.49939
 30
0.0
 70
     8
  0
VERTEX
  5
2C5
100
AcDbEntity
  8
0
  6
CONTINUOUS
 62
     7
100
AcDbVertex
100
AcDb2dVertex
 10
-875.492623
 20
-19418.934928
 30
0.0
 70
     8
  0
VERTEX
  5
2C6
100
AcDbEntity
  8
0
  6
CONTINUOUS
 62
     7
100
AcDbVertex
100
AcDb2dVertex
 10
-880.116661
 20
-19430.82715
 30
0.0
 70
     8
  0
VERTEX
  5
2C7
100
AcDbEntity
  8
0
  6
CONTINUOUS
 62
     7
100
AcDbVertex
100
AcDb2dVertex
 10
-886.177238
 20
-19443.139372
 30
0.0
 70
     8
  0
VERTEX
  5
2C8
100
AcDbEntity
  8
0
  6
CONTINUOUS
 62
     7
100
AcDbVertex
100
AcDb2dVertex
 10
-893.207046
 20
-19455.824928
 30
0.0
 70
     8
  0
VERTEX
  5
2C9
100
AcDbEntity
  8
0
  6
CONTINUOUS
 62
     7
100
AcDbVertex
100
AcDb2dVertex
 10
-900.738777
 20
-19468.83715
 30
0.0
 70
     8
  0
VERTEX
  5
2CA
100
AcDbEntity
  8
0
  6
CONTINUOUS
 62
     7
100
AcDbVertex
100
AcDb2dVertex
 10
-908.305123
 20
-19482.129372
 30
0.0
 70
     8
  0
VERTEX
  5
2CB
100
AcDbEntity
  8
0
  6
CONTINUOUS
 62
     7
100
AcDbVertex
100
AcDb2dVertex
 10
-915.438777
 20
-19495.654928
 30
0.0
 70
     8
  0
VERTEX
  5
2CC
100
AcDbEntity
  8
0
  6
CONTINUOUS
 62
     7
100
AcDbVertex
100
AcDb2dVertex
 10
-921.672431
 20
-19509.36715
 30
0.0
 70
     8
  0
VERTEX
  5
2CD
100
AcDbEntity
  8
0
  6
CONTINUOUS
 62
     7
100
AcDbVertex
100
AcDb2dVertex
 10
-926.538777
 20
-19523.219372
 30
0.0
 70
     8
  0
VERTEX
  5
2CE
100
AcDbEntity
  8
0
  6
CONTINUOUS
 62
     7
100
AcDbVertex
100
AcDb2dVertex
 10
-929.570508
 20
-19537.164928
 30
0.0
 70
     8
  0
VERTEX
  5
2CF
100
AcDbEntity
  8
0
  6
CONTINUOUS
 62
     7
100
AcDbVertex
100
AcDb2dVertex
 10
-930.300315
 20
-19551.15715
 30
0.0
 70
     8
  0
VERTEX
  5
2D0
100
AcDbEntity
  8
0
  6
CONTINUOUS
 62
     7
100
AcDbVertex
100
AcDb2dVertex
 10
-928.425382
 20
-19565.149748
 30
0.0
 70
     8
  0
VERTEX
  5
2D1
100
AcDbEntity
  8
0
  6
CONTINUOUS
 62
     7
100
AcDbVertex
100
AcDb2dVertex
 10
-924.300853
 20
-19579.097939
 30
0.0
 70
     8
  0
VERTEX
  5
2D2
100
AcDbEntity
  8
0
  6
CONTINUOUS
 62
     7
100
AcDbVertex
100
AcDb2dVertex
 10
-918.446362
 20
-19592.957313
 30
0.0
 70
     8
  0
VERTEX
  5
2D3
100
AcDbEntity
  8
0
  6
CONTINUOUS
 62
     7
100
AcDbVertex
100
AcDb2dVertex
 10
-911.381543
 20
-19606.683462
 30
0.0
 70
     8
  0
VERTEX
  5
2D4
100
AcDbEntity
  8
0
  6
CONTINUOUS
 62
     7
100
AcDbVertex
100
AcDb2dVertex
 10
-903.626031
 20
-19620.231978
 30
0.0
 70
     8
  0
VERTEX
  5
2D5
100
AcDbEntity
  8
0
  6
CONTINUOUS
 62
     7
100
AcDbVertex
100
AcDb2dVertex
 10
-895.69946
 20
-19633.558453
 30
0.0
 70
     8
  0
VERTEX
  5
2D6
100
AcDbEntity
  8
0
  6
CONTINUOUS
 62
     7
100
AcDbVertex
100
AcDb2dVertex
 10
-888.121464
 20
-19646.618478
 30
0.0
 70
     8
  0
VERTEX
  5
2D7
100
AcDbEntity
  8
0
  6
CONTINUOUS
 62
     7
100
AcDbVertex
100
AcDb2dVertex
 10
-881.411678
 20
-19659.367646
 30
0.0
 70
     8
  0
VERTEX
  5
2D8
100
AcDbEntity
  8
0
  6
CONTINUOUS
 62
     7
100
AcDbVertex
100
AcDb2dVertex
 10
-876.089736
 20
-19671.761547
 30
0.0
 70
     8
  0
VERTEX
  5
2D9
100
AcDbEntity
  8
0
  6
CONTINUOUS
 62
     7
100
AcDbVertex
100
AcDb2dVertex
 10
-872.675272
 20
-19683.755775
 30
0.0
 70
     8
  0
VERTEX
  5
2DA
100
AcDbEntity
  8
0
  6
CONTINUOUS
 62
     7
100
AcDbVertex
100
AcDb2dVertex
 10
-871.544396
 20
-19695.312945
 30
0.0
 70
     8
  0
VERTEX
  5
2DB
100
AcDbEntity
  8
0
  6
CONTINUOUS
 62
     7
100
AcDbVertex
100
AcDb2dVertex
 10
-872.499116
 20
-19706.423773
 30
0.0
 70
     8
  0
VERTEX
  5
2DC
100
AcDbEntity
  8
0
  6
CONTINUOUS
 62
     7
100
AcDbVertex
100
AcDb2dVertex
 10
-875.197913
 20
-19717.086003
 30
0.0
 70
     8
  0
VERTEX
  5
2DD
100
AcDbEntity
  8
0
  6
CONTINUOUS
 62
     7
100
AcDbVertex
100
AcDb2dVertex
 10
-879.299271
 20
-19727.297375
 30
0.0
 70
     8
  0
VERTEX
  5
2DE
100
AcDbEntity
  8
0
  6
CONTINUOUS
 62
     7
100
AcDbVertex
100
AcDb2dVertex
 10
-884.461673
 20
-19737.05563
 30
0.0
 70
     8
  0
VERTEX
  5
2DF
100
AcDbEntity
  8
0
  6
CONTINUOUS
 62
     7
100
AcDbVertex
100
AcDb2dVertex
 10
-890.343601
 20
-19746.358512
 30
0.0
 70
     8
  0
VERTEX
  5
2E0
100
AcDbEntity
  8
0
  6
CONTINUOUS
 62
     7
100
AcDbVertex
100
AcDb2dVertex
 10
-896.603538
 20
-19755.20376
 30
0.0
 70
     8
  0
VERTEX
  5
2E1
100
AcDbEntity
  8
0
  6
CONTINUOUS
 62
     7
100
AcDbVertex
100
AcDb2dVertex
 10
-902.899966
 20
-19763.589116
 30
0.0
 70
     8
  0
VERTEX
  5
2E2
100
AcDbEntity
  8
0
  6
CONTINUOUS
 62
     7
100
AcDbVertex
100
AcDb2dVertex
 10
-908.891368
 20
-19771.512323
 30
0.0
 70
     8
  0
VERTEX
  5
2E3
100
AcDbEntity
  8
0
  6
CONTINUOUS
 62
     7
100
AcDbVertex
100
AcDb2dVertex
 10
-914.236227
 20
-19778.971122
 30
0.0
 70
     8
  0
VERTEX
  5
2E4
100
AcDbEntity
  8
0
  6
CONTINUOUS
 62
     7
100
AcDbVertex
100
AcDb2dVertex
 10
-918.666447
 20
-19785.96363
 30
0.0
 70
     8
  0
VERTEX
  5
2E5
100
AcDbEntity
  8
0
  6
CONTINUOUS
 62
     7
100
AcDbVertex
100
AcDb2dVertex
 10
-922.207625
 20
-19792.489471
 30
0.0
 70
     8
  0
VERTEX
  5
2E6
100
AcDbEntity
  8
0
  6
CONTINUOUS
 62
     7
100
AcDbVertex
100
AcDb2dVertex
 10
-924.958779
 20
-19798.548646
 30
0.0
 70
     8
  0
VERTEX
  5
2E7
100
AcDbEntity
  8
0
  6
CONTINUOUS
 62
     7
100
AcDbVertex
100
AcDb2dVertex
 10
-927.018925
 20
-19804.141155
 30
0.0
 70
     8
  0
VERTEX
  5
2E8
100
AcDbEntity
  8
0
  6
CONTINUOUS
 62
     7
100
AcDbVertex
100
AcDb2dVertex
 10
-928.487082
 20
-19809.266996
 30
0.0
 70
     8
  0
VERTEX
  5
2E9
100
AcDbEntity
  8
0
  6
CONTINUOUS
 62
     7
100
AcDbVertex
100
AcDb2dVertex
 10
-929.462267
 20
-19813.926171
 30
0.0
 70
     8
  0
VERTEX
  5
2EA
100
AcDbEntity
  8
0
  6
CONTINUOUS
 62
     7
100
AcDbVertex
100
AcDb2dVertex
 10
-930.0435
 20
-19818.11868
 30
0.0
 70
     8
  0
VERTEX
  5
2EB
100
AcDbEntity
  8
0
  6
CONTINUOUS
 62
     7
100
AcDbVertex
100
AcDb2dVertex
 10
-930.329796
 20
-19821.844521
 30
0.0
 70
     8
  0
VERTEX
  5
2EC
100
AcDbEntity
  8
0
  6
CONTINUOUS
 62
     7
100
AcDbVertex
100
AcDb2dVertex
 10
-930.420175
 20
-19825.103696
 30
0.0
 70
     8
  0
VERTEX
  5
2ED
100
AcDbEntity
  8
0
  6
CONTINUOUS
 62
     7
100
AcDbVertex
100
AcDb2dVertex
 10
-930.413654
 20
-19827.896204
 30
0.0
 70
     8
  0
VERTEX
  5
2EE
100
AcDbEntity
  8
0
  6
CONTINUOUS
 62
     7
100
AcDbVertex
100
AcDb2dVertex
 10
-930.392713
 20
-19830.229824
 30
0.0
 70
     8
  0
VERTEX
  5
2EF
100
AcDbEntity
  8
0
  6
CONTINUOUS
 62
     7
100
AcDbVertex
100
AcDb2dVertex
 10
-930.373678
 20
-19832.143443
 30
0.0
 70
     8
  0
VERTEX
  5
2F0
100
AcDbEntity
  8
0
  6
CONTINUOUS
 62
     7
100
AcDbVertex
100
AcDb2dVertex
 10
-930.356337
 20
-19833.683729
 30
0.0
 70
     8
  0
VERTEX
  5
2F1
100
AcDbEntity
  8
0
  6
CONTINUOUS
 62
     7
100
AcDbVertex
100
AcDb2dVertex
 10
-930.340479
 20
-19834.897349
 30
0.0
 70
     8
  0
VERTEX
  5
2F2
100
AcDbEntity
  8
0
  6
CONTINUOUS
 62
     7
100
AcDbVertex
100
AcDb2dVertex
 10
-930.325892
 20
-19835.830968
 30
0.0
 70
     8
  0
VERTEX
  5
2F3
100
AcDbEntity
  8
0
  6
CONTINUOUS
 62
     7
100
AcDbVertex
100
AcDb2dVertex
 10
-930.312364
 20
-19836.531254
 30
0.0
 70
     8
  0
VERTEX
  5
2F4
100
AcDbEntity
  8
0
  6
CONTINUOUS
 62
     7
100
AcDbVertex
100
AcDb2dVertex
 10
-930.299683
 20
-19837.044873
 30
0.0
 70
     8
  0
VERTEX
  5
2F5
100
AcDbEntity
  8
0
  6
CONTINUOUS
 62
     7
100
AcDbVertex
100
AcDb2dVertex
 10
-930.287637
 20
-19837.418493
 30
0.0
 70
     8
  0
VERTEX
  5
2F6
100
AcDbEntity
  8
0
  6
CONTINUOUS
 62
     7
100
AcDbVertex
100
AcDb2dVertex
 10
-930.276015
 20
-19837.698779
 30
0.0
 70
     8
  0
VERTEX
  5
2F7
100
AcDbEntity
  8
0
  6
CONTINUOUS
 62
     7
100
AcDbVertex
100
AcDb2dVertex
 10
-930.264605
 20
-19837.932398
 30
0.0
 70
     8
  0
VERTEX
  5
2F8
100
AcDbEntity
  8
0
  6
CONTINUOUS
 62
     7
100
AcDbVertex
100
AcDb2dVertex
 10
-901.454161
 20
-19317.823817
 30
0.0
 70
    16
  0
VERTEX
  5
2F9
100
AcDbEntity
  8
0
  6
CONTINUOUS
 62
     7
100
AcDbVertex
100
AcDb2dVertex
 10
-843.761854
 20
-19411.15715
 30
0.0
 70
    16
  0
VERTEX
  5
2FA
100
AcDbEntity
  8
0
  6
CONTINUOUS
 62
     7
100
AcDbVertex
100
AcDb2dVertex
 10
-976.454161
 20
-19551.15715
 30
0.0
 70
    16
  0
VERTEX
  5
2FB
100
AcDbEntity
  8
0
  6
CONTINUOUS
 62
     7
100
AcDbVertex
100
AcDb2dVertex
 10
-832.223392
 20
-19691.15715
 30
0.0
 70
    16
  0
VERTEX
  5
2FC
100
AcDbEntity
  8
0
  6
CONTINUOUS
 62
     7
100
AcDbVertex
100
AcDb2dVertex
 10
-930.703903
 20
-19786.748899
 30
0.0
 70
    16
  0
VERTEX
  5
2FD
100
AcDbEntity
  8
0
  6
CONTINUOUS
 62
     7
100
AcDbVertex
100
AcDb2dVertex
 10
-930.378354
 20
-19835.673982
 30
0.0
 70
    16
  0
VERTEX
  5
2FE
100
AcDbEntity
  8
0
  6
CONTINUOUS
 62
     7
100
AcDbVertex
100
AcDb2dVertex
 10
-930.264605
 20
-19837.932398
 30
0.0
 70
    16
  0
SEQEND
  5
2FF
100
AcDbEntity
  8
0
  6
CONTINUOUS
 62
     7
  0
ENDSEC
  0
SECTION
  2
OBJECTS
  0
DICTIONARY
  5
19
100
AcDbDictionary
  3
ACAD_GROUP
350
1A
  3
ACAD_MLINESTYLE
350
1B
  0
DICTIONARY
  5
1A
102
{ACAD_REACTORS
330
19
102
}
100
AcDbDictionary
  0
DICTIONARY
  5
1B
102
{ACAD_REACTORS
330
19
102
}
100
AcDbDictionary
  3
STANDARD
350
1C
  0
MLINESTYLE
  5
1C
102
{ACAD_REACTORS
330
1B
102
}
100
AcDbMlineStyle
  2
STANDARD
 70
     0
  3

 62
     0
 51
90.0
 52
90.0
 71
     2
 49
0.5
 62
   256
  6
ByLayer
 49
-0.5
 62
   256
  6
ByLayer
  0
ENDSEC
  0
EOF
