  0
SECTION
  2
HEADER
  9
$ACADVER
  1
AC1014
  9
$ACADMAINTVER
 70
     0
  9
$DWGCODEPAGE
  3
ANSI_932
  9
$INSBASE
 10
0.0
 20
0.0
 30
0.0
  9
$EXTMIN
 10
6002.202784
 20
-16859.356591
 30
0.0
  9
$EXTMAX
 10
8895.452784
 20
-14850.056591
 30
0.0
  9
$LIMMIN
 10
-22251.172216
 20
-36854.706591
  9
$LIMMAX
 10
37148.827784
 20
5145.293409
  9
$ORTHOMODE
 70
     0
  9
$REGENMODE
 70
     1
  9
$FILLMODE
 70
     1
  9
$QTEXTMODE
 70
     0
  9
$MIRRTEXT
 70
     1
  9
$DRAGMODE
 70
     2
  9
$LTSCALE
 40
100.0
  9
$OSMODE
 70
     0
  9
$ATTMODE
 70
     1
  9
$TEXTSIZE
 40
0.2
  9
$TRACEWID
 40
0.05
  9
$TEXTSTYLE
  7
STANDARD
  9
$CLAYER
  8
0
  9
$CELTYPE
  6
CONTINUOUS
  9
$CECOLOR
 62
   256
  9
$CELTSCALE
 40
1.0
  9
$DELOBJ
 70
     1
  9
$DISPSILH
 70
     0
  9
$DIMSCALE
 40
1.0
  9
$DIMASZ
 40
0.18
  9
$DIMEXO
 40
0.0625
  9
$DIMDLI
 40
0.38
  9
$DIMRND
 40
0.0
  9
$DIMDLE
 40
0.0
  9
$DIMEXE
 40
0.18
  9
$DIMTP
 40
0.0
  9
$DIMTM
 40
0.0
  9
$DIMTXT
 40
0.18
  9
$DIMCEN
 40
0.09
  9
$DIMTSZ
 40
0.0
  9
$DIMTOL
 70
     0
  9
$DIMLIM
 70
     0
  9
$DIMTIH
 70
     1
  9
$DIMTOH
 70
     1
  9
$DIMSE1
 70
     0
  9
$DIMSE2
 70
     0
  9
$DIMTAD
 70
     0
  9
$DIMZIN
 70
     0
  9
$DIMBLK
  1

  9
$DIMASO
 70
     1
  9
$DIMSHO
 70
     1
  9
$DIMPOST
  1

  9
$DIMAPOST
  1

  9
$DIMALT
 70
     0
  9
$DIMALTD
 70
     2
  9
$DIMALTF
 40
25.4
  9
$DIMLFAC
 40
1.0
  9
$DIMTOFL
 70
     0
  9
$DIMTVP
 40
0.0
  9
$DIMTIX
 70
     0
  9
$DIMSOXD
 70
     0
  9
$DIMSAH
 70
     0
  9
$DIMBLK1
  1

  9
$DIMBLK2
  1

  9
$DIMSTYLE
  2
STANDARD
  9
$DIMCLRD
 70
     0
  9
$DIMCLRE
 70
     0
  9
$DIMCLRT
 70
     0
  9
$DIMTFAC
 40
1.0
  9
$DIMGAP
 40
0.09
  9
$DIMJUST
 70
     0
  9
$DIMSD1
 70
     0
  9
$DIMSD2
 70
     0
  9
$DIMTOLJ
 70
     1
  9
$DIMTZIN
 70
     0
  9
$DIMALTZ
 70
     0
  9
$DIMALTTZ
 70
     0
  9
$DIMFIT
 70
     3
  9
$DIMUPT
 70
     0
  9
$DIMUNIT
 70
     2
  9
$DIMDEC
 70
     4
  9
$DIMTDEC
 70
     4
  9
$DIMALTU
 70
     2
  9
$DIMALTTD
 70
     2
  9
$DIMTXSTY
  7
STANDARD
  9
$DIMAUNIT
 70
     0
  9
$LUNITS
 70
     2
  9
$LUPREC
 70
     4
  9
$SKETCHINC
 40
0.1
  9
$FILLETRAD
 40
0.0
  9
$AUNITS
 70
     0
  9
$AUPREC
 70
     0
  9
$MENU
  1
acad
  9
$ELEVATION
 40
0.0
  9
$PELEVATION
 40
0.0
  9
$THICKNESS
 40
0.0
  9
$LIMCHECK
 70
     0
  9
$BLIPMODE
 70
     1
  9
$CHAMFERA
 40
0.0
  9
$CHAMFERB
 40
0.0
  9
$CHAMFERC
 40
0.0
  9
$CHAMFERD
 40
0.0
  9
$SKPOLY
 70
     0
  9
$TDCREATE
 40
0.000000000
  9
$TDUPDATE
 40
0.000000000
  9
$TDINDWG
 40
0.0000000000
  9
$TDUSRTIMER
 40
0.0000000000
  9
$USRTIMER
 70
     1
  9
$ANGBASE
 50
0.0
  9
$ANGDIR
 70
     0
  9
$PDMODE
 70
     0
  9
$PDSIZE
 40
0.0
  9
$PLINEWID
 40
0.0
  9
$COORDS
 70
     0
  9
$SPLFRAME
 70
     0
  9
$SPLINETYPE
 70
     6
  9
$SPLINESEGS
 70
     8
  9
$ATTDIA
 70
     0
  9
$ATTREQ
 70
     1
  9
$HANDLING
 70
     1
  9
$HANDSEED
  5
3AB
  9
$SURFTAB1
 70
     6
  9
$SURFTAB2
 70
     6
  9
$SURFTYPE
 70
     6
  9
$SURFU
 70
     6
  9
$SURFV
 70
     6
  9
$UCSNAME
  2

  9
$UCSORG
 10
0.0
 20
0.0
 30
0.0
  9
$UCSXDIR
 10
1.0
 20
0.0
 30
0.0
  9
$UCSYDIR
 10
0.0
 20
1.0
 30
0.0
  9
$PUCSNAME
  2

  9
$PUCSORG
 10
0.0
 20
0.0
 30
0.0
  9
$PUCSXDIR
 10
1.0
 20
0.0
 30
0.0
  9
$PUCSYDIR
 10
0.0
 20
1.0
 30
0.0
  9
$USERI1
 70
     0
  9
$USERI2
 70
     0
  9
$USERI3
 70
     0
  9
$USERI4
 70
     0
  9
$USERI5
 70
     0
  9
$USERR1
 40
0.0
  9
$USERR2
 40
0.0
  9
$USERR3
 40
0.0
  9
$USERR4
 40
0.0
  9
$USERR5
 40
0.0
  9
$WORLDVIEW
 70
     1
  9
$SHADEDGE
 70
     3
  9
$SHADEDIF
 70
    70
  9
$TILEMODE
 70
     1
  9
$MAXACTVP
 70
    16
  9
$PINSBASE
 10
0.0
 20
0.0
 30
0.0
  9
$PLIMCHECK
 70
     0
  9
$PEXTMIN
 10
1.000000E+20
 20
1.000000E+20
 30
1.000000E+20
  9
$PEXTMAX
 10
-1.000000E+20
 20
-1.000000E+20
 30
-1.000000E+20
  9
$PLIMMIN
 10
0.0
 20
0.0
  9
$PLIMMAX
 10
12.0
 20
9.0
  9
$UNITMODE
 70
     0
  9
$VISRETAIN
 70
     0
  9
$PLINEGEN
 70
     1
  9
$PSLTSCALE
 70
     0
  9
$TREEDEPTH
 70
  3020
  9
$PICKSTYLE
 70
     1
  9
$CMLSTYLE
  2
STANDARD
  9
$CMLJUST
 70
     0
  9
$CMLSCALE
 40
1.0
  9
$PROXYGRAPHICS
 70
     0
  9
$MEASUREMENT
 70
     0
  0
ENDSEC
  0
SECTION
  2
CLASSES
  0
CLASS
  1
LWPOLYLINE
  2
AcDbPolyline
  3
"AutoCAD"
 90
        0
280
     0
281
     1
  0
CLASS
  1
IMAGE
  2
AcDbRasterImage
  3
ISM
 90
      127
280
     0
281
     1
  0
CLASS
  1
OLE2FRAME
  2
AcDbOle2Frame
  3
""
 90
        0
280
     0
281
     1
  0
CLASS
  1
HATCH
  2
AcDbHatch
  3
"ACAD_SEDONA"
 90
        0
280
     0
281
     1
  0
CLASS
  1
DICTIONARYVAR
  2
AcDbDictionaryVar
  3
"AutoCAD"
 90
        0
280
     0
281
     0
  0
CLASS
  1
RASTERVARIABLES
  2
AcDbRasterVariables
  3
ISM
 90
        0
280
     0
281
     0
  0
CLASS
  1
IMAGEDEF
  2
AcDbRasterImageDef
  3
ISM
 90
        0
280
     0
281
     0
  0
CLASS
  1
IMAGEDEF_REACTOR
  2
AcDbRasterImageDefReactor
  3
ISM
 90
        1
280
     0
281
     0
  0
CLASS
  1
IDBUFFER
  2
AcDbIdBuffer
  3
"Acad"
 90
        0
280
     0
281
     0
  0
CLASS
  1
SPATIAL_FILTER
  2
AcDbSpatialFilter
  3
"Acad"
 90
        0
280
     0
281
     0
  0
CLASS
  1
XRECORD
  2
AcDbXrecord
  3
"<Built In>"
 90
        0
280
     0
281
     0
  0
CLASS
  1
SORTENTSTABLE
  2
AcDbSortentsTable
  3
"AutoCAD"
 90
        0
280
     0
281
     0
  0
CLASS
  1
LAYER_INDEX
  2
AcDbLayerIndex
  3
"Acad"
 90
        0
280
     0
281
     0
  0
CLASS
  1
SPATIAL_INDEX
  2
AcDbSpatialIndex
  3
"Acad"
 90
        0
280
     0
281
     0
  0
CLASS
  1
OBJECT_PTR
  2
CAseDLPNTableRecord
  3
"ASE-LPNTableRecord"
 90
        1
280
     0
281
     0
  0
CLASS
  1
LAYOUT
  2
AcDbLayout
  3
"AutoCAD 2000"
 90
        0
280
     0
281
     0
  0
CLASS
  1
PLOTSETTINGS
  2
AcDbPlotSettings
  3
"AutoCAD 2000"
 90
        0
280
     0
281
     0
  0
CLASS
  1
ACDBDICTIONARYWDFLT
  2
AcDbDictionaryWithDefault
  3
"AutoCAD 2000"
 90
        0
280
     0
281
     0
  0
CLASS
  1
ACDBPLACEHOLDER
  2
AcDbPlaceHolder
  3
"AutoCAD 2000"
 90
        0
280
     0
281
     0
  0
CLASS
  1
VBA_PROJECT
  2
AcDbVbaProject
  3
"acadvba"
 90
        0
280
     0
281
     0
  0
CLASS
  1
WIPEOUT
  2
AcDbWipeout
  3
WipeOut|AutoCAD Express Tool|expresstools@autodesk.com
 90
      127
280
     0
281
     1
  0
CLASS
  1
WIPEOUTVARIABLES
  2
AcDbWipeoutVariables
  3
WipeOut|AutoCAD Express Tool|expresstools@autodesk.com
 90
        0
280
     0
281
     0
  0
CLASS
  1
RTEXT
  2
RText
  3
RText|AutoCAD Express Tool|expresstools@autodesk.com
 90
        0
280
     0
281
     1
  0
CLASS
  1
ARCALIGNEDTEXT
  2
AcDbArcAlignedText
  3
ATEXT|AutoCAD Express Tool|expresstools@autodesk.com
 90
        0
280
     0
281
     1
  0
ENDSEC
  0
SECTION
  2
TABLES
  0
TABLE
  2
VPORT
  5
7
100
AcDbSymbolTable
 70
     1
  0
VPORT
  5
15
100
AcDbSymbolTableRecord
100
AcDbViewportTableRecord
  2
*ACTIVE
 70
     0
 10
0.0
 20
0.0
 11
1.0
 21
1.0
 12
7448.827784
 22
-15854.706591
 13
0.0
 23
0.0
 14
1000.0
 24
1000.0
 15
1000.0
 25
1000.0
 16
0.0
 26
0.0
 36
1.0
 17
0.0
 27
0.0
 37
0.0
 40
42000.0
 41
1.414286
 42
50.0
 43
0.0
 44
0.0
 50
0.0
 51
0.0
 71
     0
 72
   100
 73
     1
 74
     1
 75
     0
 76
     0
 77
     0
 78
     0
  0
ENDTAB
  0
TABLE
  2
LTYPE
  5
4
100
AcDbSymbolTable
 70
     8
  0
LTYPE
  5
11
100
AcDbSymbolTableRecord
100
AcDbLinetypeTableRecord
  2
BYBLOCK
 70
    64
  3

 72
    65
 73
     0
 40
0.0
  0
LTYPE
  5
12
100
AcDbSymbolTableRecord
100
AcDbLinetypeTableRecord
  2
BYLAYER
 70
    64
  3

 72
    65
 73
     0
 40
0.0
  0
LTYPE
  5
13
100
AcDbSymbolTableRecord
100
AcDbLinetypeTableRecord
  2
CONTINUOUS
 70
    64
  3
Solid line
 72
    65
 73
     0
 40
0.0
  0
LTYPE
  5
12B
100
AcDbSymbolTableRecord
100
AcDbLinetypeTableRecord
  2
HIDDEN
 70
    64
  3
__ __ __ __ __ __ __ __ __ __ __ __ __ __ __ __
 72
    65
 73
     5
 40
8.0
 49
1.0
 74
     0
 49
-2.0
 74
     0
 49
2.0
 74
     0
 49
-2.0
 74
     0
 49
1.0
 74
     0
  0
LTYPE
  5
12C
100
AcDbSymbolTableRecord
100
AcDbLinetypeTableRecord
  2
DOT
 70
    64
  3
. . . . . . . . . . . . . . . . . . . . . . . .
 72
    65
 73
     3
 40
1.6
 49
0.4
 74
     0
 49
-0.8
 74
     0
 49
0.4
 74
     0
  0
LTYPE
  5
12D
100
AcDbSymbolTableRecord
100
AcDbLinetypeTableRecord
  2
CENTER
 70
    64
  3
____ _ ____ _ ____ _ ____ _ ____ _ ____ _ ____ 
 72
    65
 73
     5
 40
12.0
 49
5.0
 74
     0
 49
-0.8
 74
     0
 49
0.4
 74
     0
 49
-0.8
 74
     0
 49
5.0
 74
     0
  0
LTYPE
  5
12E
100
AcDbSymbolTableRecord
100
AcDbLinetypeTableRecord
  2
DIVIDE
 70
    64
  3
____ . . ____ . . ____ . . ____ . . ____ . . __
 72
    65
 73
     7
 40
13.2
 49
5.0
 74
     0
 49
-0.8
 74
     0
 49
0.4
 74
     0
 49
-0.8
 74
     0
 49
0.4
 74
     0
 49
-0.8
 74
     0
 49
5.0
 74
     0
  0
LTYPE
  5
12F
100
AcDbSymbolTableRecord
100
AcDbLinetypeTableRecord
  2
STYLE_07
 70
     0
  3
Solid Line
 72
    65
 73
     6
 40
7.48
 49
2.5
 74
     0
 49
-0.83
 74
     0
 49
2.5
 74
     0
 49
-0.83
 74
     0
 49
0.27
 74
     0
 49
-0.55
 74
     0
  0
ENDTAB
  0
TABLE
  2
LAYER
  5
2
100
AcDbSymbolTable
 70
     5
  0
LAYER
  5
14
100
AcDbSymbolTableRecord
100
AcDbLayerTableRecord
  2
0
 70
     0
 62
     7
  6
CONTINUOUS
  0
LAYER
  5
27
100
AcDbSymbolTableRecord
100
AcDbLayerTableRecord
  2
001
 70
     0
 62
     7
  6
CONTINUOUS
  0
LAYER
  5
28
100
AcDbSymbolTableRecord
100
AcDbLayerTableRecord
  2
002
 70
     0
 62
     7
  6
CONTINUOUS
  0
LAYER
  5
29
100
AcDbSymbolTableRecord
100
AcDbLayerTableRecord
  2
003
 70
     0
 62
     7
  6
CONTINUOUS
  0
LAYER
  5
2A
100
AcDbSymbolTableRecord
100
AcDbLayerTableRecord
  2
004
 70
     0
 62
     7
  6
CONTINUOUS
  0
ENDTAB
  0
TABLE
  2
STYLE
  5
3
100
AcDbSymbolTable
 70
     3
  0
STYLE
  5
17
100
AcDbSymbolTableRecord
100
AcDbTextStyleTableRecord
  2
STANDARD
 70
     0
 40
0.0
 41
1.0
 50
0.0
 71
     0
 42
0.0
  3
txt
  4

  0
STYLE
  5
127
100
AcDbSymbolTableRecord
100
AcDbTextStyleTableRecord
  2
DRACAD
 70
     0
 40
0.0
 41
1.0
 50
0.0
 71
     0
 42
0.0
  3
txt
  4
extfont
  0
STYLE
  5
128
100
AcDbSymbolTableRecord
100
AcDbTextStyleTableRecord
  2
TATEDRACAD
 70
     4
 40
0.0
 41
1.0
 50
0.0
 71
     0
 42
0.0
  3
txt
  4
extfont
  0
ENDTAB
  0
TABLE
  2
VIEW
  5
5
100
AcDbSymbolTable
 70
     0
  0
ENDTAB
  0
TABLE
  2
UCS
  5
6
100
AcDbSymbolTable
 70
     0
  0
ENDTAB
  0
TABLE
  2
APPID
  5
8
100
AcDbSymbolTable
 70
     1
  0
APPID
  5
16
100
AcDbSymbolTableRecord
100
AcDbRegAppTableRecord
  2
ACAD
 70
     0
  0
ENDTAB
  0
TABLE
  2
DIMSTYLE
  5
9
100
AcDbSymbolTable
 70
     2
  0
DIMSTYLE
105
18
100
AcDbSymbolTableRecord
100
AcDbDimStyleTableRecord
  2
STANDARD
 70
     0
  3

  4

  5

  6

  7

 40
1.0
 41
0.18
 42
0.0625
 43
0.38
 44
0.18
 45
0.0
 46
0.0
 47
0.0
 48
0.0
 71
     0
 72
     0
 73
     1
 74
     1
 75
     0
 76
     0
 77
     0
 78
     0
140
0.18
141
0.09
142
0.0
143
25.4
144
1.0
145
0.0
146
1.0
147
0.09
170
     0
171
     2
172
     0
173
     0
174
     0
175
     0
176
     0
177
     0
178
     0
270
     2
271
     4
272
     4
273
     2
274
     2
275
     0
280
     0
281
     0
282
     0
283
     1
284
     0
285
     0
286
     0
287
     0
288
     0
340
17
  0
DIMSTYLE
105
14F
100
AcDbSymbolTableRecord
100
AcDbDimStyleTableRecord
  2
DIMSTYLE001
 70
     0
  3

  4

  5
_ORIGIN
  6

  7

 40
1.0
 41
10.0
 42
0.0
 43
1000.0
 44
0.0
 45
0.0
 46
0.0
 47
0.0
 48
0.0
 71
     0
 72
     0
 73
     0
 74
     0
 75
     0
 76
     0
 77
     1
 78
     0
140
25.0
141
0.09
142
0.0
143
25.4
144
1.0
145
0.0
146
1.0
147
0.0
170
     0
171
     2
172
     1
173
     0
174
     1
175
     0
176
     0
177
     0
178
     0
270
     2
271
     0
272
     4
273
     2
274
     2
275
     0
280
     0
281
     0
282
     0
283
     1
284
     0
285
     0
286
     0
287
     3
288
     0
340
127
  0
ENDTAB
  0
TABLE
  2
BLOCK_RECORD
  5
1
100
AcDbSymbolTable
 70
    11
  0
BLOCK_RECORD
  5
A
100
AcDbSymbolTableRecord
100
AcDbBlockTableRecord
  2
*MODEL_SPACE
  0
BLOCK_RECORD
  5
B
100
AcDbSymbolTableRecord
100
AcDbBlockTableRecord
  2
*PAPER_SPACE
  0
BLOCK_RECORD
  5
14A
100
AcDbSymbolTableRecord
100
AcDbBlockTableRecord
  2
_ORIGIN
  0
BLOCK_RECORD
  5
150
100
AcDbSymbolTableRecord
100
AcDbBlockTableRecord
  2
1
  0
BLOCK_RECORD
  5
151
100
AcDbSymbolTableRecord
100
AcDbBlockTableRecord
  2
2
  0
BLOCK_RECORD
  5
152
100
AcDbSymbolTableRecord
100
AcDbBlockTableRecord
  2
3
  0
BLOCK_RECORD
  5
365
100
AcDbSymbolTableRecord
100
AcDbBlockTableRecord
  2
*D4
  0
BLOCK_RECORD
  5
36F
100
AcDbSymbolTableRecord
100
AcDbBlockTableRecord
  2
*D5
  0
BLOCK_RECORD
  5
379
100
AcDbSymbolTableRecord
100
AcDbBlockTableRecord
  2
*D6
  0
BLOCK_RECORD
  5
383
100
AcDbSymbolTableRecord
100
AcDbBlockTableRecord
  2
*D7
  0
BLOCK_RECORD
  5
38D
100
AcDbSymbolTableRecord
100
AcDbBlockTableRecord
  2
*D8
  0
BLOCK_RECORD
  5
397
100
AcDbSymbolTableRecord
100
AcDbBlockTableRecord
  2
*D9
  0
BLOCK_RECORD
  5
3A1
100
AcDbSymbolTableRecord
100
AcDbBlockTableRecord
  2
*D10
  0
ENDTAB
  0
ENDSEC
  0
SECTION
  2
BLOCKS
  0
BLOCK
  5
D
100
AcDbEntity
  8
0
100
AcDbBlockBegin
  2
*MODEL_SPACE
 70
     0
 10
0.0
 20
0.0
 30
0.0
  3
*MODEL_SPACE
  1

  0
ENDBLK
  5
E
100
AcDbEntity
  8
0
100
AcDbBlockEnd
  0
BLOCK
  5
F
100
AcDbEntity
 67
     1
  8
0
100
AcDbBlockBegin
  2
*PAPER_SPACE
 70
     0
 10
0.0
 20
0.0
 30
0.0
  3
*PAPER_SPACE
  1

  0
ENDBLK
  5
10
100
AcDbEntity
 67
     1
  8
0
100
AcDbBlockEnd
  0
BLOCK
  5
14B
100
AcDbEntity
  8
0
100
AcDbBlockBegin
  2
_ORIGIN
 70
     0
 10
0.0
 20
0.0
 30
0.0
  3
_ORIGIN
  1

  0
CIRCLE
  5
14C
100
AcDbEntity
  8
0
  6
ByBlock
 62
     0
100
AcDbCircle
 10
0.0
 20
0.0
 30
0.0
 40
0.5
  0
LINE
  5
14D
100
AcDbEntity
  8
0
  6
ByBlock
 62
     0
100
AcDbLine
 10
0.0
 20
0.0
 30
0.0
 11
-1.0
 21
0.0
 31
0.0
  0
ENDBLK
  5
14E
100
AcDbEntity
  8
0
100
AcDbBlockEnd
  0
BLOCK
  5
153
100
AcDbEntity
  8
0
100
AcDbBlockBegin
  2
1
 70
     0
 10
0.0
 20
0.0
 30
0.0
  3
1
  1

  0
ARC
  5
154
100
AcDbEntity
  8
004
  6
CONTINUOUS
 62
     7
100
AcDbCircle
 10
133.068018
 20
-9.500511
 30
0.0
 40
134.969188
100
AcDbArc
 50
45.663628
 51
224.512358
  0
LINE
  5
155
100
AcDbEntity
  8
004
  6
CONTINUOUS
 62
     7
100
AcDbLine
 10
-120.089883
 20
249.590778
 30
0.0
 11
386.225919
 21
249.590778
 31
0.0
  0
LINE
  5
156
100
AcDbEntity
  8
004
  6
CONTINUOUS
 62
     7
100
AcDbLine
 10
-120.089883
 20
-268.591801
 30
0.0
 11
-120.089883
 21
249.590778
 31
0.0
  0
ARC
  5
157
100
AcDbEntity
  8
004
  6
CONTINUOUS
 62
     7
100
AcDbCircle
 10
133.068018
 20
-9.500511
 30
0.0
 40
134.969188
100
AcDbArc
 50
224.512358
 51
225.663628
  0
LINE
  5
158
100
AcDbEntity
  8
004
  6
CONTINUOUS
 62
     7
100
AcDbLine
 10
-120.089883
 20
239.590778
 30
0.0
 11
376.454927
 21
239.590778
 31
0.0
  0
LINE
  5
159
100
AcDbEntity
  8
004
  6
CONTINUOUS
 62
     7
100
AcDbLine
 10
-120.089883
 20
229.590778
 30
0.0
 11
366.683934
 21
229.590778
 31
0.0
  0
LINE
  5
15A
100
AcDbEntity
  8
004
  6
CONTINUOUS
 62
     7
100
AcDbLine
 10
-120.089883
 20
219.590778
 30
0.0
 11
356.912942
 21
219.590778
 31
0.0
  0
LINE
  5
15B
100
AcDbEntity
  8
004
  6
CONTINUOUS
 62
     7
100
AcDbLine
 10
-120.089883
 20
209.590778
 30
0.0
 11
347.14195
 21
209.590778
 31
0.0
  0
LINE
  5
15C
100
AcDbEntity
  8
004
  6
CONTINUOUS
 62
     7
100
AcDbLine
 10
-120.089883
 20
199.590778
 30
0.0
 11
337.370957
 21
199.590778
 31
0.0
  0
LINE
  5
15D
100
AcDbEntity
  8
004
  6
CONTINUOUS
 62
     7
100
AcDbLine
 10
-120.089883
 20
189.590778
 30
0.0
 11
327.599965
 21
189.590778
 31
0.0
  0
LINE
  5
15E
100
AcDbEntity
  8
004
  6
CONTINUOUS
 62
     7
100
AcDbLine
 10
-120.089883
 20
179.590778
 30
0.0
 11
317.828973
 21
179.590778
 31
0.0
  0
LINE
  5
15F
100
AcDbEntity
  8
004
  6
CONTINUOUS
 62
     7
100
AcDbLine
 10
-120.089883
 20
169.590778
 30
0.0
 11
308.05798
 21
169.590778
 31
0.0
  0
LINE
  5
160
100
AcDbEntity
  8
004
  6
CONTINUOUS
 62
     7
100
AcDbLine
 10
-120.089883
 20
159.590778
 30
0.0
 11
298.286988
 21
159.590778
 31
0.0
  0
LINE
  5
161
100
AcDbEntity
  8
004
  6
CONTINUOUS
 62
     7
100
AcDbLine
 10
-120.089883
 20
149.590778
 30
0.0
 11
288.515995
 21
149.590778
 31
0.0
  0
LINE
  5
162
100
AcDbEntity
  8
004
  6
CONTINUOUS
 62
     7
100
AcDbLine
 10
-120.089883
 20
139.590778
 30
0.0
 11
278.745003
 21
139.590778
 31
0.0
  0
LINE
  5
163
100
AcDbEntity
  8
004
  6
CONTINUOUS
 62
     7
100
AcDbLine
 10
-120.089883
 20
129.590778
 30
0.0
 11
268.974011
 21
129.590778
 31
0.0
  0
LINE
  5
164
100
AcDbEntity
  8
004
  6
CONTINUOUS
 62
     7
100
AcDbLine
 10
386.225919
 20
249.590778
 30
0.0
 11
227.393864
 21
87.036097
 31
0.0
  0
LINE
  5
165
100
AcDbEntity
  8
004
  6
CONTINUOUS
 62
     7
100
AcDbLine
 10
-120.089883
 20
-110.409222
 30
0.0
 11
34.470194
 21
-110.409222
 31
0.0
  0
LINE
  5
166
100
AcDbEntity
  8
004
  6
CONTINUOUS
 62
     7
100
AcDbLine
 10
-120.089883
 20
-120.409222
 30
0.0
 11
24.699202
 21
-120.409222
 31
0.0
  0
LINE
  5
167
100
AcDbEntity
  8
004
  6
CONTINUOUS
 62
     7
100
AcDbLine
 10
-120.089883
 20
-130.409222
 30
0.0
 11
14.928209
 21
-130.409222
 31
0.0
  0
LINE
  5
168
100
AcDbEntity
  8
004
  6
CONTINUOUS
 62
     7
100
AcDbLine
 10
-120.089883
 20
-140.409222
 30
0.0
 11
5.157217
 21
-140.409222
 31
0.0
  0
LINE
  5
169
100
AcDbEntity
  8
004
  6
CONTINUOUS
 62
     7
100
AcDbLine
 10
-120.089883
 20
-150.409222
 30
0.0
 11
-4.613776
 21
-150.409222
 31
0.0
  0
LINE
  5
16A
100
AcDbEntity
  8
004
  6
CONTINUOUS
 62
     7
100
AcDbLine
 10
-120.089883
 20
-160.409222
 30
0.0
 11
-14.384768
 21
-160.409222
 31
0.0
  0
LINE
  5
16B
100
AcDbEntity
  8
004
  6
CONTINUOUS
 62
     7
100
AcDbLine
 10
-120.089883
 20
-170.409222
 30
0.0
 11
-24.15576
 21
-170.409222
 31
0.0
  0
LINE
  5
16C
100
AcDbEntity
  8
004
  6
CONTINUOUS
 62
     7
100
AcDbLine
 10
-120.089883
 20
-180.409222
 30
0.0
 11
-33.926753
 21
-180.409222
 31
0.0
  0
LINE
  5
16D
100
AcDbEntity
  8
004
  6
CONTINUOUS
 62
     7
100
AcDbLine
 10
-120.089883
 20
-190.409222
 30
0.0
 11
-43.697745
 21
-190.409222
 31
0.0
  0
LINE
  5
16E
100
AcDbEntity
  8
004
  6
CONTINUOUS
 62
     7
100
AcDbLine
 10
-120.089883
 20
-200.409222
 30
0.0
 11
-53.468737
 21
-200.409222
 31
0.0
  0
LINE
  5
16F
100
AcDbEntity
  8
004
  6
CONTINUOUS
 62
     7
100
AcDbLine
 10
-120.089883
 20
-210.409222
 30
0.0
 11
-63.23973
 21
-210.409222
 31
0.0
  0
LINE
  5
170
100
AcDbEntity
  8
004
  6
CONTINUOUS
 62
     7
100
AcDbLine
 10
-120.089883
 20
-220.409222
 30
0.0
 11
-73.010722
 21
-220.409222
 31
0.0
  0
LINE
  5
171
100
AcDbEntity
  8
004
  6
CONTINUOUS
 62
     7
100
AcDbLine
 10
-120.089883
 20
-230.409222
 30
0.0
 11
-82.781714
 21
-230.409222
 31
0.0
  0
LINE
  5
172
100
AcDbEntity
  8
004
  6
CONTINUOUS
 62
     7
100
AcDbLine
 10
-120.089883
 20
-240.409222
 30
0.0
 11
-92.552707
 21
-240.409222
 31
0.0
  0
LINE
  5
173
100
AcDbEntity
  8
004
  6
CONTINUOUS
 62
     7
100
AcDbLine
 10
-120.089883
 20
-250.409222
 30
0.0
 11
-102.323699
 21
-250.409222
 31
0.0
  0
LINE
  5
174
100
AcDbEntity
  8
004
  6
CONTINUOUS
 62
     7
100
AcDbLine
 10
-120.089883
 20
-260.409222
 30
0.0
 11
-112.094692
 21
-260.409222
 31
0.0
  0
LINE
  5
175
100
AcDbEntity
  8
004
  6
CONTINUOUS
 62
     7
100
AcDbLine
 10
38.761214
 20
-106.017631
 30
0.0
 11
-120.089883
 21
-268.591801
 31
0.0
  0
LINE
  5
176
100
AcDbEntity
  8
004
  6
CONTINUOUS
 62
     7
100
AcDbLine
 10
-120.089883
 20
-100.409222
 30
0.0
 11
33.306863
 21
-100.409222
 31
0.0
  0
LINE
  5
177
100
AcDbEntity
  8
004
  6
CONTINUOUS
 62
     7
100
AcDbLine
 10
-120.089883
 20
-90.409222
 30
0.0
 11
25.038104
 21
-90.409222
 31
0.0
  0
LINE
  5
178
100
AcDbEntity
  8
004
  6
CONTINUOUS
 62
     7
100
AcDbLine
 10
-120.089883
 20
-80.409222
 30
0.0
 11
18.226229
 21
-80.409222
 31
0.0
  0
LINE
  5
179
100
AcDbEntity
  8
004
  6
CONTINUOUS
 62
     7
100
AcDbLine
 10
-120.089883
 20
-70.409222
 30
0.0
 11
12.623795
 21
-70.409222
 31
0.0
  0
LINE
  5
17A
100
AcDbEntity
  8
004
  6
CONTINUOUS
 62
     7
100
AcDbLine
 10
-120.089883
 20
-60.409222
 30
0.0
 11
8.068078
 21
-60.409222
 31
0.0
  0
LINE
  5
17B
100
AcDbEntity
  8
004
  6
CONTINUOUS
 62
     7
100
AcDbLine
 10
-120.089883
 20
-50.409222
 30
0.0
 11
4.447805
 21
-50.409222
 31
0.0
  0
LINE
  5
17C
100
AcDbEntity
  8
004
  6
CONTINUOUS
 62
     7
100
AcDbLine
 10
-120.089883
 20
-40.409222
 30
0.0
 11
1.685624
 21
-40.409222
 31
0.0
  0
LINE
  5
17D
100
AcDbEntity
  8
004
  6
CONTINUOUS
 62
     7
100
AcDbLine
 10
-120.089883
 20
-30.409222
 30
0.0
 11
-0.271802
 21
-30.409222
 31
0.0
  0
LINE
  5
17E
100
AcDbEntity
  8
004
  6
CONTINUOUS
 62
     7
100
AcDbLine
 10
-120.089883
 20
-20.409222
 30
0.0
 11
-1.459607
 21
-20.409222
 31
0.0
  0
LINE
  5
17F
100
AcDbEntity
  8
004
  6
CONTINUOUS
 62
     7
100
AcDbLine
 10
-120.089883
 20
-10.409222
 30
0.0
 11
-1.898111
 21
-10.409222
 31
0.0
  0
LINE
  5
180
100
AcDbEntity
  8
004
  6
CONTINUOUS
 62
     7
100
AcDbLine
 10
-120.089883
 20
-0.409222
 30
0.0
 11
-1.594635
 21
-0.409222
 31
0.0
  0
LINE
  5
181
100
AcDbEntity
  8
004
  6
CONTINUOUS
 62
     7
100
AcDbLine
 10
-120.089883
 20
9.590778
 30
0.0
 11
-0.544124
 21
9.590778
 31
0.0
  0
LINE
  5
182
100
AcDbEntity
  8
004
  6
CONTINUOUS
 62
     7
100
AcDbLine
 10
-120.089883
 20
19.590778
 30
0.0
 11
1.271286
 21
19.590778
 31
0.0
  0
LINE
  5
183
100
AcDbEntity
  8
004
  6
CONTINUOUS
 62
     7
100
AcDbLine
 10
-120.089883
 20
29.590778
 30
0.0
 11
3.883836
 21
29.590778
 31
0.0
  0
LINE
  5
184
100
AcDbEntity
  8
004
  6
CONTINUOUS
 62
     7
100
AcDbLine
 10
-120.089883
 20
39.590778
 30
0.0
 11
7.343211
 21
39.590778
 31
0.0
  0
LINE
  5
185
100
AcDbEntity
  8
004
  6
CONTINUOUS
 62
     7
100
AcDbLine
 10
-120.089883
 20
49.590778
 30
0.0
 11
11.721814
 21
49.590778
 31
0.0
  0
LINE
  5
186
100
AcDbEntity
  8
004
  6
CONTINUOUS
 62
     7
100
AcDbLine
 10
-120.089883
 20
59.590778
 30
0.0
 11
17.12374
 21
59.590778
 31
0.0
  0
LINE
  5
187
100
AcDbEntity
  8
004
  6
CONTINUOUS
 62
     7
100
AcDbLine
 10
-120.089883
 20
69.590778
 30
0.0
 11
23.70052
 21
69.590778
 31
0.0
  0
LINE
  5
188
100
AcDbEntity
  8
004
  6
CONTINUOUS
 62
     7
100
AcDbLine
 10
-120.089883
 20
79.590778
 30
0.0
 11
31.680524
 21
79.590778
 31
0.0
  0
LINE
  5
189
100
AcDbEntity
  8
004
  6
CONTINUOUS
 62
     7
100
AcDbLine
 10
-120.089883
 20
89.590778
 30
0.0
 11
41.429608
 21
89.590778
 31
0.0
  0
LINE
  5
18A
100
AcDbEntity
  8
004
  6
CONTINUOUS
 62
     7
100
AcDbLine
 10
-120.089883
 20
99.590778
 30
0.0
 11
53.596184
 21
99.590778
 31
0.0
  0
LINE
  5
18B
100
AcDbEntity
  8
004
  6
CONTINUOUS
 62
     7
100
AcDbLine
 10
-120.089883
 20
109.590778
 30
0.0
 11
69.554661
 21
109.590778
 31
0.0
  0
LINE
  5
18C
100
AcDbEntity
  8
004
  6
CONTINUOUS
 62
     7
100
AcDbLine
 10
-120.089883
 20
119.590778
 30
0.0
 11
93.671054
 21
119.590778
 31
0.0
  0
LINE
  5
18D
100
AcDbEntity
  8
004
  6
CONTINUOUS
 62
     7
100
AcDbLine
 10
172.464982
 20
119.590778
 30
0.0
 11
259.203018
 21
119.590778
 31
0.0
  0
LINE
  5
18E
100
AcDbEntity
  8
004
  6
CONTINUOUS
 62
     7
100
AcDbLine
 10
196.581375
 20
109.590778
 30
0.0
 11
249.432026
 21
109.590778
 31
0.0
  0
LINE
  5
18F
100
AcDbEntity
  8
004
  6
CONTINUOUS
 62
     7
100
AcDbLine
 10
212.539852
 20
99.590778
 30
0.0
 11
239.661034
 21
99.590778
 31
0.0
  0
ENDBLK
  5
190
100
AcDbEntity
  8
0
100
AcDbBlockEnd
  0
BLOCK
  5
191
100
AcDbEntity
  8
0
100
AcDbBlockBegin
  2
2
 70
     0
 10
0.0
 20
0.0
 30
0.0
  3
2
  1

  0
INSERT
  5
192
100
AcDbEntity
  8
004
  6
CONTINUOUS
 62
     7
100
AcDbBlockReference
  2
1
 10
-26.613604
 20
1.900102
 30
0.0
 41
0.2
 42
0.2
  0
ENDBLK
  5
193
100
AcDbEntity
  8
0
100
AcDbBlockEnd
  0
BLOCK
  5
194
100
AcDbEntity
  8
0
100
AcDbBlockBegin
  2
3
 70
     0
 10
0.0
 20
0.0
 30
0.0
  3
3
  1

  0
INSERT
  5
195
100
AcDbEntity
  8
003
  6
CONTINUOUS
 62
     7
100
AcDbBlockReference
  2
2
 10
187.309635
 20
61.739262
 30
0.0
  0
ENDBLK
  5
196
100
AcDbEntity
  8
0
100
AcDbBlockEnd
  0
BLOCK
  5
366
100
AcDbEntity
  8
0
100
AcDbBlockBegin
  2
*D4
 70
     1
 10
0.0
 20
0.0
 30
0.0
  3
*D4
  1

  0
LINE
  5
367
100
AcDbEntity
  8
0
  6
ByBlock
 62
     0
100
AcDbLine
 10
7150.806937
 20
-15713.817447
 30
0.0
 11
7015.4968
 21
-15713.817447
 31
0.0
  0
LINE
  5
368
100
AcDbEntity
  8
0
  6
ByBlock
 62
     0
100
AcDbLine
 10
7150.806937
 20
-15071.573407
 30
0.0
 11
7015.4968
 21
-15071.573407
 31
0.0
  0
LINE
  5
369
100
AcDbEntity
  8
0
  6
ByBlock
 62
     0
100
AcDbLine
 10
7015.4968
 20
-15713.817447
 30
0.0
 11
7015.4968
 21
-15071.573407
 31
0.0
  0
INSERT
  5
36A
100
AcDbEntity
  8
0
  6
ByBlock
 62
     0
100
AcDbBlockReference
  2
_ORIGIN
 10
7015.4968
 20
-15713.817447
 30
0.0
 41
10.0
 42
10.0
 43
10.0
 50
270.0
  0
INSERT
  5
36B
100
AcDbEntity
  8
0
  6
ByBlock
 62
     0
100
AcDbBlockReference
  2
_ORIGIN
 10
7015.4968
 20
-15071.573407
 30
0.0
 41
10.0
 42
10.0
 43
10.0
 50
90.0
  0
MTEXT
  5
36C
100
AcDbEntity
  8
0
  6
ByBlock
 62
     0
100
AcDbMText
 10
7002.9968
 20
-15392.695427
 30
0.0
 40
25.0
 41
0.0
 71
     5
 72
     1
  1
{\A1;642}
  7
DRACAD
 11
0.0
 21
1.0
 31
0.0
  0
ENDBLK
  5
36D
100
AcDbEntity
  8
0
100
AcDbBlockEnd
  0
BLOCK
  5
370
100
AcDbEntity
  8
0
100
AcDbBlockBegin
  2
*D5
 70
     1
 10
0.0
 20
0.0
 30
0.0
  3
*D5
  1

  0
LINE
  5
371
100
AcDbEntity
  8
0
  6
ByBlock
 62
     0
100
AcDbLine
 10
7194.782921
 20
-15077.646165
 30
0.0
 11
7194.782921
 21
-14956.128864
 31
0.0
  0
LINE
  5
372
100
AcDbEntity
  8
0
  6
ByBlock
 62
     0
100
AcDbLine
 10
7837.026961
 20
-15077.646165
 30
0.0
 11
7837.026961
 21
-14956.128864
 31
0.0
  0
LINE
  5
373
100
AcDbEntity
  8
0
  6
ByBlock
 62
     0
100
AcDbLine
 10
7194.782921
 20
-14956.128864
 30
0.0
 11
7837.026961
 21
-14956.128864
 31
0.0
  0
INSERT
  5
374
100
AcDbEntity
  8
0
  6
ByBlock
 62
     0
100
AcDbBlockReference
  2
_ORIGIN
 10
7194.782921
 20
-14956.128864
 30
0.0
 41
10.0
 42
10.0
 43
10.0
 50
180.0
  0
INSERT
  5
375
100
AcDbEntity
  8
0
  6
ByBlock
 62
     0
100
AcDbBlockReference
  2
_ORIGIN
 10
7837.026961
 20
-14956.128864
 30
0.0
 41
10.0
 42
10.0
 43
10.0
  0
MTEXT
  5
376
100
AcDbEntity
  8
0
  6
ByBlock
 62
     0
100
AcDbMText
 10
7515.904941
 20
-14943.628864
 30
0.0
 40
25.0
 41
0.0
 71
     5
 72
     1
  1
{\A1;642}
  7
DRACAD
  0
ENDBLK
  5
377
100
AcDbEntity
  8
0
100
AcDbBlockEnd
  0
BLOCK
  5
37A
100
AcDbEntity
  8
0
100
AcDbBlockBegin
  2
*D6
 70
     1
 10
0.0
 20
0.0
 30
0.0
  3
*D6
  1

  0
LINE
  5
37B
100
AcDbEntity
  8
0
  6
ByBlock
 62
     0
100
AcDbLine
 10
7220.153196
 20
-15275.096674
 30
0.0
 11
7115.673088
 21
-15275.096674
 31
0.0
  0
LINE
  5
37C
100
AcDbEntity
  8
0
  6
ByBlock
 62
     0
100
AcDbLine
 10
7219.733562
 20
-15495.703842
 30
0.0
 11
7115.673088
 21
-15495.703842
 31
0.0
  0
LINE
  5
37D
100
AcDbEntity
  8
0
  6
ByBlock
 62
     0
100
AcDbLine
 10
7115.673088
 20
-15275.096674
 30
0.0
 11
7115.673088
 21
-15495.703842
 31
0.0
  0
INSERT
  5
37E
100
AcDbEntity
  8
0
  6
ByBlock
 62
     0
100
AcDbBlockReference
  2
_ORIGIN
 10
7115.673088
 20
-15275.096674
 30
0.0
 41
10.0
 42
10.0
 43
10.0
 50
90.0
  0
INSERT
  5
37F
100
AcDbEntity
  8
0
  6
ByBlock
 62
     0
100
AcDbBlockReference
  2
_ORIGIN
 10
7115.673088
 20
-15495.703842
 30
0.0
 41
10.0
 42
10.0
 43
10.0
 50
270.0
  0
MTEXT
  5
380
100
AcDbEntity
  8
0
  6
ByBlock
 62
     0
100
AcDbMText
 10
7103.173088
 20
-15385.400258
 30
0.0
 40
25.0
 41
0.0
 71
     5
 72
     1
  1
{\A1;221}
  7
DRACAD
 11
0.0
 21
1.0
 31
0.0
  0
ENDBLK
  5
381
100
AcDbEntity
  8
0
100
AcDbBlockEnd
  0
BLOCK
  5
384
100
AcDbEntity
  8
0
100
AcDbBlockBegin
  2
*D7
 70
     1
 10
0.0
 20
0.0
 30
0.0
  3
*D7
  1

  0
LINE
  5
385
100
AcDbEntity
  8
0
  6
ByBlock
 62
     0
100
AcDbLine
 10
7274.956997
 20
-16252.62786
 30
0.0
 11
7237.218408
 21
-16160.677992
 31
0.0
  0
LINE
  5
386
100
AcDbEntity
  8
0
  6
ByBlock
 62
     0
100
AcDbLine
 10
7607.997897
 20
-16115.939313
 30
0.0
 11
7570.259308
 21
-16023.989445
 31
0.0
  0
LINE
  5
387
100
AcDbEntity
  8
0
  6
ByBlock
 62
     0
100
AcDbLine
 10
7237.218408
 20
-16160.677992
 30
0.0
 11
7570.259308
 21
-16023.989445
 31
0.0
  0
INSERT
  5
388
100
AcDbEntity
  8
0
  6
ByBlock
 62
     0
100
AcDbBlockReference
  2
_ORIGIN
 10
7237.218408
 20
-16160.677992
 30
0.0
 41
10.0
 42
10.0
 43
10.0
 50
202.314507
  0
INSERT
  5
389
100
AcDbEntity
  8
0
  6
ByBlock
 62
     0
100
AcDbBlockReference
  2
_ORIGIN
 10
7570.259308
 20
-16023.989445
 30
0.0
 41
10.0
 42
10.0
 43
10.0
 50
22.314507
  0
MTEXT
  5
38A
100
AcDbEntity
  8
0
  6
ByBlock
 62
     0
100
AcDbMText
 10
7398.992728
 20
-16080.769798
 30
0.0
 40
25.0
 41
0.0
 71
     5
 72
     1
  1
{\A1;360}
  7
DRACAD
 11
0.925114
 21
0.37969
 31
0.0
  0
ENDBLK
  5
38B
100
AcDbEntity
  8
0
100
AcDbBlockEnd
  0
BLOCK
  5
38E
100
AcDbEntity
  8
0
100
AcDbBlockBegin
  2
*D8
 70
     1
 10
0.0
 20
0.0
 30
0.0
  3
*D8
  1

  0
LINE
  5
38F
100
AcDbEntity
  8
0
  6
ByBlock
 62
     0
100
AcDbLine
 10
7194.782921
 20
-16448.487649
 30
0.0
 11
7194.782921
 21
-16570.00495
 31
0.0
  0
LINE
  5
390
100
AcDbEntity
  8
0
  6
ByBlock
 62
     0
100
AcDbLine
 10
7837.026961
 20
-16448.487649
 30
0.0
 11
7837.026961
 21
-16570.00495
 31
0.0
  0
LINE
  5
391
100
AcDbEntity
  8
0
  6
ByBlock
 62
     0
100
AcDbLine
 10
7194.782921
 20
-16570.00495
 30
0.0
 11
7837.026961
 21
-16570.00495
 31
0.0
  0
INSERT
  5
392
100
AcDbEntity
  8
0
  6
ByBlock
 62
     0
100
AcDbBlockReference
  2
_ORIGIN
 10
7194.782921
 20
-16570.00495
 30
0.0
 41
10.0
 42
10.0
 43
10.0
 50
180.0
  0
INSERT
  5
393
100
AcDbEntity
  8
0
  6
ByBlock
 62
     0
100
AcDbBlockReference
  2
_ORIGIN
 10
7837.026961
 20
-16570.00495
 30
0.0
 41
10.0
 42
10.0
 43
10.0
  0
MTEXT
  5
394
100
AcDbEntity
  8
0
  6
ByBlock
 62
     0
100
AcDbMText
 10
7515.904941
 20
-16557.50495
 30
0.0
 40
25.0
 41
0.0
 71
     5
 72
     1
  1
{\A1;642}
  7
DRACAD
  0
ENDBLK
  5
395
100
AcDbEntity
  8
0
100
AcDbBlockEnd
  0
BLOCK
  5
398
100
AcDbEntity
  8
0
100
AcDbBlockBegin
  2
*D9
 70
     1
 10
0.0
 20
0.0
 30
0.0
  3
*D9
  1

  0
LINE
  5
399
100
AcDbEntity
  8
0
  6
ByBlock
 62
     0
100
AcDbLine
 10
7200.539007
 20
-16361.393126
 30
0.0
 11
7132.030815
 21
-16361.393126
 31
0.0
  0
LINE
  5
39A
100
AcDbEntity
  8
0
  6
ByBlock
 62
     0
100
AcDbLine
 10
7200.539007
 20
-16298.602794
 30
0.0
 11
7132.030815
 21
-16298.602794
 31
0.0
  0
LINE
  5
39B
100
AcDbEntity
  8
0
  6
ByBlock
 62
     0
100
AcDbLine
 10
7132.030815
 20
-16361.393126
 30
0.0
 11
7132.030815
 21
-16298.602794
 31
0.0
  0
INSERT
  5
39C
100
AcDbEntity
  8
0
  6
ByBlock
 62
     0
100
AcDbBlockReference
  2
_ORIGIN
 10
7132.030815
 20
-16361.393126
 30
0.0
 41
10.0
 42
10.0
 43
10.0
 50
270.0
  0
INSERT
  5
39D
100
AcDbEntity
  8
0
  6
ByBlock
 62
     0
100
AcDbBlockReference
  2
_ORIGIN
 10
7132.030815
 20
-16298.602794
 30
0.0
 41
10.0
 42
10.0
 43
10.0
 50
90.0
  0
MTEXT
  5
39E
100
AcDbEntity
  8
0
  6
ByBlock
 62
     0
100
AcDbMText
 10
7119.530815
 20
-16329.99796
 30
0.0
 40
25.0
 41
0.0
 71
     5
 72
     1
  1
{\A1;63}
  7
DRACAD
 11
0.0
 21
1.0
 31
0.0
  0
ENDBLK
  5
39F
100
AcDbEntity
  8
0
100
AcDbBlockEnd
  0
BLOCK
  5
3A2
100
AcDbEntity
  8
0
100
AcDbBlockBegin
  2
*D10
 70
     1
 10
0.0
 20
0.0
 30
0.0
  3
*D10
  1

  0
LINE
  5
3A3
100
AcDbEntity
  8
0
  6
ByBlock
 62
     0
100
AcDbLine
 10
7837.026976
 20
-16361.39315
 30
0.0
 11
7921.429043
 21
-16361.39315
 31
0.0
  0
LINE
  5
3A4
100
AcDbEntity
  8
0
  6
ByBlock
 62
     0
100
AcDbLine
 10
7837.026976
 20
-16161.557988
 30
0.0
 11
7921.429043
 21
-16161.557988
 31
0.0
  0
LINE
  5
3A5
100
AcDbEntity
  8
0
  6
ByBlock
 62
     0
100
AcDbLine
 10
7921.429043
 20
-16361.39315
 30
0.0
 11
7921.429043
 21
-16161.557988
 31
0.0
  0
INSERT
  5
3A6
100
AcDbEntity
  8
0
  6
ByBlock
 62
     0
100
AcDbBlockReference
  2
_ORIGIN
 10
7921.429043
 20
-16361.39315
 30
0.0
 41
10.0
 42
10.0
 43
10.0
 50
270.0
  0
INSERT
  5
3A7
100
AcDbEntity
  8
0
  6
ByBlock
 62
     0
100
AcDbBlockReference
  2
_ORIGIN
 10
7921.429043
 20
-16161.557988
 30
0.0
 41
10.0
 42
10.0
 43
10.0
 50
90.0
  0
MTEXT
  5
3A8
100
AcDbEntity
  8
0
  6
ByBlock
 62
     0
100
AcDbMText
 10
7908.929043
 20
-16261.475569
 30
0.0
 40
25.0
 41
0.0
 71
     5
 72
     1
  1
{\A1;200}
  7
DRACAD
 11
0.0
 21
1.0
 31
0.0
  0
ENDBLK
  5
3A9
100
AcDbEntity
  8
0
100
AcDbBlockEnd
  0
ENDSEC
  0
SECTION
  2
ENTITIES
  0
TEXT
  5
197
100
AcDbEntity
  8
002
  6
CONTINUOUS
 62
     7
100
AcDbText
 10
8605.626196
 20
-16853.35095
 30
0.0
 40
17.219965
  1
1/10
 41
1.176471
  7
DRACAD
 72
     5
 11
8686.661326
 21
-16853.35095
 31
0.0
100
AcDbText
  0
POLYLINE
  5
198
100
AcDbEntity
  8
002
  6
CONTINUOUS
 62
     6
100
AcDb2dPolyline
 66
     1
 10
0.0
 20
0.0
 30
0.0
 70
   129
  0
VERTEX
  5
199
100
AcDbEntity
  8
002
  6
CONTINUOUS
 62
     6
100
AcDbVertex
100
AcDb2dVertex
 10
6002.202784
 20
-14850.056591
 30
0.0
  0
VERTEX
  5
19A
100
AcDbEntity
  8
002
  6
CONTINUOUS
 62
     6
100
AcDbVertex
100
AcDb2dVertex
 10
8895.452784
 20
-14850.056591
 30
0.0
  0
VERTEX
  5
19B
100
AcDbEntity
  8
002
  6
CONTINUOUS
 62
     6
100
AcDbVertex
100
AcDb2dVertex
 10
8895.452784
 20
-16859.356591
 30
0.0
  0
VERTEX
  5
19C
100
AcDbEntity
  8
002
  6
CONTINUOUS
 62
     6
100
AcDbVertex
100
AcDb2dVertex
 10
6002.202784
 20
-16859.356591
 30
0.0
  0
SEQEND
  5
19D
100
AcDbEntity
  8
002
  6
CONTINUOUS
 62
     6
  0
LINE
  5
19E
100
AcDbEntity
  8
002
  6
CONTINUOUS
 62
     6
100
AcDbLine
 10
6051.902784
 20
-16765.958339
 30
0.0
 11
8895.452784
 21
-16765.958339
 31
0.0
  0
LINE
  5
19F
100
AcDbEntity
  8
002
  6
CONTINUOUS
 62
     6
100
AcDbLine
 10
6002.202784
 20
-16765.958339
 30
0.0
 11
8895.452784
 21
-16765.958339
 31
0.0
  0
LINE
  5
1A0
100
AcDbEntity
  8
002
  6
CONTINUOUS
 62
     6
100
AcDbLine
 10
8895.452784
 20
-16765.958339
 30
0.0
 11
8895.452784
 21
-16857.988539
 31
0.0
  0
LINE
  5
1A1
100
AcDbEntity
  8
002
  6
CONTINUOUS
 62
     6
100
AcDbLine
 10
6716.462784
 20
-16765.958339
 30
0.0
 11
6716.462784
 21
-16857.988539
 31
0.0
  0
TEXT
  5
1A2
100
AcDbEntity
  8
002
  6
CONTINUOUS
 62
     7
100
AcDbText
 10
8757.357784
 20
-16787.145922
 30
0.0
 40
10.762478
  1
No.
 41
1.176471
  7
DRACAD
 72
     5
 11
8795.343002
 21
-16787.145922
 31
0.0
100
AcDbText
  0
LINE
  5
1A3
100
AcDbEntity
  8
002
  6
CONTINUOUS
 62
     7
100
AcDbLine
 10
8575.952784
 20
-16765.958339
 30
0.0
 11
8575.952784
 21
-16857.988539
 31
0.0
  0
TEXT
  5
1A4
100
AcDbEntity
  8
002
  6
CONTINUOUS
 62
     7
100
AcDbText
 10
8578.211176
 20
-16823.944631
 30
0.0
 40
10.762478
  1
SCALE
 41
1.176471
  7
DRACAD
 72
     5
 11
8641.519872
 21
-16823.944631
 31
0.0
100
AcDbText
  0
LINE
  5
1A5
100
AcDbEntity
  8
002
  6
CONTINUOUS
 62
     6
100
AcDbLine
 10
8753.452784
 20
-16765.958339
 30
0.0
 11
8753.452784
 21
-16857.988539
 31
0.0
  0
LINE
  5
1A6
100
AcDbEntity
  8
002
  6
CONTINUOUS
 62
     6
100
AcDbLine
 10
8220.952784
 20
-16765.958339
 30
0.0
 11
8220.952784
 21
-16857.988539
 31
0.0
  0
TEXT
  5
1A7
100
AcDbEntity
  8
002
  6
CONTINUOUS
 62
     7
100
AcDbText
 10
8578.417671
 20
-16785.354569
 30
0.0
 40
10.762478
  1
Date
 41
1.176471
  7
DRACAD
 72
     5
 11
8629.064627
 21
-16785.354569
 31
0.0
100
AcDbText
  0
LINE
  5
1A8
100
AcDbEntity
  8
002
  6
CONTINUOUS
 62
     7
100
AcDbLine
 10
8575.952784
 20
-16804.873439
 30
0.0
 11
8753.452784
 21
-16804.873439
 31
0.0
  0
TEXT
  5
1A9
100
AcDbEntity
  8
002
  6
CONTINUOUS
 62
     7
100
AcDbText
 10
8225.014578
 20
-16790.219631
 30
0.0
 40
10.762478
  1
Drawing Title
 41
1.176471
  7
DRACAD
 72
     5
 11
8389.617188
 21
-16790.219631
 31
0.0
100
AcDbText
  0
LINE
  5
1AA
100
AcDbEntity
  8
002
  6
CONTINUOUS
 62
     4
100
AcDbLine
 10
6717.444831
 20
-16811.973439
 30
0.0
 11
7716.852784
 21
-16811.973439
 31
0.0
  0
LINE
  5
1AB
100
AcDbEntity
  8
002
  6
CONTINUOUS
 62
     4
100
AcDbLine
 10
6716.561891
 20
-16788.965889
 30
0.0
 11
7716.852784
 21
-16788.965889
 31
0.0
  0
LINE
  5
1AC
100
AcDbEntity
  8
002
  6
CONTINUOUS
 62
     4
100
AcDbLine
 10
6716.561891
 20
-16834.980989
 30
0.0
 11
7716.852784
 21
-16834.980989
 31
0.0
  0
TEXT
  5
1AD
100
AcDbEntity
  8
002
  6
CONTINUOUS
 62
     7
100
AcDbText
 10
6722.489222
 20
-16785.717728
 30
0.0
 40
10.054993
  1
Memo
 41
1.176471
  7
DRACAD
 72
     5
 11
6769.806834
 21
-16785.717728
 31
0.0
100
AcDbText
  0
LINE
  5
1AE
100
AcDbEntity
  8
002
  6
CONTINUOUS
 62
     6
100
AcDbLine
 10
7716.852784
 20
-16765.958339
 30
0.0
 11
7716.852784
 21
-16857.988539
 31
0.0
  0
TEXT
  5
1AF
100
AcDbEntity
  8
002
  6
CONTINUOUS
 62
     7
100
AcDbText
 10
7722.879222
 20
-16785.354569
 30
0.0
 40
10.270983
  1
Project
 41
1.176471
  7
DRACAD
 72
     5
 11
7807.463785
 21
-16785.354569
 31
0.0
100
AcDbText
  0
TEXT
  5
1B0
100
AcDbEntity
  8
002
  6
CONTINUOUS
 62
     7
100
AcDbText
 10
7764.007867
 20
-16829.188429
 30
0.0
 40
19.410192
  1
SLT　CAD部品図面
 41
0.984706
  7
DRACAD
 72
     5
 11
8015.198593
 21
-16829.188429
 31
0.0
100
AcDbText
  0
TEXT
  5
1B1
100
AcDbEntity
  8
002
  6
CONTINUOUS
 62
     7
100
AcDbText
 10
8615.018561
 20
-16802.467841
 30
0.0
 40
15.497969
  1
11/2/10
 41
1.176471
  7
DRACAD
 72
     5
 11
8742.648892
 21
-16802.467841
 31
0.0
100
AcDbText
  0
TEXT
  5
1B2
100
AcDbEntity
  8
002
  6
CONTINUOUS
 62
     7
100
AcDbText
 10
8278.02055
 20
-16836.161477
 30
0.0
 40
19.811038
  1
ＲＢ-290-2P
 41
0.984706
  7
DRACAD
 72
     5
 11
8487.784476
 21
-16836.161477
 31
0.0
100
AcDbText
  0
TEXT
  5
1B3
100
AcDbEntity
  8
002
  6
CONTINUOUS
 62
     4
100
AcDbText
 10
6170.739027
 20
-16833.193928
 30
0.0
 40
18.941962
  1
ス カ イ ラ イ ト チ ュ ー ブ
 41
0.984706
  7
DRACAD
 72
     5
 11
6594.147585
 21
-16833.193928
 31
0.0
100
AcDbText
  0
INSERT
  5
1B4
100
AcDbEntity
  8
003
  6
CONTINUOUS
 62
     4
100
AcDbBlockReference
  2
3
 10
6002.202784
 20
-16859.356591
 30
0.0
 41
0.71
 42
0.71
  0
CIRCLE
  5
1B5
100
AcDbEntity
  8
0
  6
CONTINUOUS
 62
     7
100
AcDbCircle
 10
7811.204308
 20
-15496.828932
 30
0.0
 40
3.556423
  0
CIRCLE
  5
1B6
100
AcDbEntity
  8
0
  6
CONTINUOUS
 62
     7
100
AcDbCircle
 10
7811.204302
 20
-15496.828932
 30
0.0
 40
5.398143
  0
CIRCLE
  5
1B7
100
AcDbEntity
  8
0
  6
CONTINUOUS
 62
     7
100
AcDbCircle
 10
7811.623932
 20
-15276.221757
 30
0.0
 40
3.556425
  0
CIRCLE
  5
1B8
100
AcDbEntity
  8
0
  6
CONTINUOUS
 62
     7
100
AcDbCircle
 10
7811.623935
 20
-15276.221748
 30
0.0
 40
5.398137
  0
CIRCLE
  5
1B9
100
AcDbEntity
  8
0
  6
CONTINUOUS
 62
     7
100
AcDbCircle
 10
7405.937717
 20
-15090.017621
 30
0.0
 40
3.556422
  0
CIRCLE
  5
1BA
100
AcDbEntity
  8
0
  6
CONTINUOUS
 62
     7
100
AcDbCircle
 10
7405.937689
 20
-15090.017619
 30
0.0
 40
5.398129
  0
CIRCLE
  5
1BB
100
AcDbEntity
  8
0
  6
CONTINUOUS
 62
     7
100
AcDbCircle
 10
7220.153196
 20
-15275.096674
 30
0.0
 40
3.556423
  0
CIRCLE
  5
1BC
100
AcDbEntity
  8
0
  6
CONTINUOUS
 62
     7
100
AcDbCircle
 10
7220.153202
 20
-15275.096682
 30
0.0
 40
5.398137
  0
CIRCLE
  5
1BD
100
AcDbEntity
  8
0
  6
CONTINUOUS
 62
     7
100
AcDbCircle
 10
7219.733562
 20
-15495.703842
 30
0.0
 40
3.556425
  0
CIRCLE
  5
1BE
100
AcDbEntity
  8
0
  6
CONTINUOUS
 62
     7
100
AcDbCircle
 10
7219.733576
 20
-15495.70385
 30
0.0
 40
5.398144
  0
CIRCLE
  5
1BF
100
AcDbEntity
  8
0
  6
CONTINUOUS
 62
     7
100
AcDbCircle
 10
7404.812627
 20
-15681.488355
 30
0.0
 40
3.55642
  0
CIRCLE
  5
1C0
100
AcDbEntity
  8
0
  6
CONTINUOUS
 62
     7
100
AcDbCircle
 10
7404.812613
 20
-15681.488343
 30
0.0
 40
5.398147
  0
CIRCLE
  5
1C1
100
AcDbEntity
  8
0
  6
CONTINUOUS
 62
     7
100
AcDbCircle
 10
7626.544883
 20
-15090.437255
 30
0.0
 40
3.556423
  0
CIRCLE
  5
1C2
100
AcDbEntity
  8
0
  6
CONTINUOUS
 62
     7
100
AcDbCircle
 10
7626.544893
 20
-15090.437262
 30
0.0
 40
5.398149
  0
CIRCLE
  5
1C3
100
AcDbEntity
  8
0
  6
CONTINUOUS
 62
     7
100
AcDbCircle
 10
7625.419793
 20
-15681.907984
 30
0.0
 40
3.556423
  0
CIRCLE
  5
1C4
100
AcDbEntity
  8
0
  6
CONTINUOUS
 62
     7
100
AcDbCircle
 10
7625.419813
 20
-15681.907986
 30
0.0
 40
5.398129
  0
POLYLINE
  5
1C5
100
AcDbEntity
  8
0
  6
CONTINUOUS
 62
     7
100
AcDb2dPolyline
 66
     1
 10
0.0
 20
0.0
 30
0.0
 70
   128
  0
VERTEX
  5
1C6
100
AcDbEntity
  8
0
  6
CONTINUOUS
 62
     7
100
AcDbVertex
100
AcDb2dVertex
 10
7383.464901
 20
-15071.087824
 30
0.0
  0
VERTEX
  5
1C7
100
AcDbEntity
  8
0
  6
CONTINUOUS
 62
     7
100
AcDbVertex
100
AcDb2dVertex
 10
7383.024162
 20
-15070.647055
 30
0.0
  0
VERTEX
  5
1C8
100
AcDbEntity
  8
0
  6
CONTINUOUS
 62
     7
100
AcDbVertex
100
AcDb2dVertex
 10
7382.561158
 20
-15070.18408
 30
0.0
  0
VERTEX
  5
1C9
100
AcDbEntity
  8
0
  6
CONTINUOUS
 62
     7
100
AcDbVertex
100
AcDb2dVertex
 10
7382.090076
 20
-15069.712999
 30
0.0
  0
VERTEX
  5
1CA
100
AcDbEntity
  8
0
  6
CONTINUOUS
 62
     7
100
AcDbVertex
100
AcDb2dVertex
 10
7381.625313
 20
-15069.248236
 30
0.0
  0
VERTEX
  5
1CB
100
AcDbEntity
  8
0
  6
CONTINUOUS
 62
     7
100
AcDbVertex
100
AcDb2dVertex
 10
7381.181086
 20
-15068.803979
 30
0.0
  0
VERTEX
  5
1CC
100
AcDbEntity
  8
0
  6
CONTINUOUS
 62
     7
100
AcDbVertex
100
AcDb2dVertex
 10
7380.770958
 20
-15068.393851
 30
0.0
  0
VERTEX
  5
1CD
100
AcDbEntity
  8
0
  6
CONTINUOUS
 62
     7
100
AcDbVertex
100
AcDb2dVertex
 10
7380.407445
 20
-15068.030368
 30
0.0
  0
VERTEX
  5
1CE
100
AcDbEntity
  8
0
  6
CONTINUOUS
 62
     7
100
AcDbVertex
100
AcDb2dVertex
 10
7380.101697
 20
-15067.724619
 30
0.0
  0
SEQEND
  5
1CF
100
AcDbEntity
  8
0
  6
CONTINUOUS
 62
     7
  0
ARC
  5
1D0
100
AcDbEntity
  8
0
  6
CONTINUOUS
 62
     7
100
AcDbCircle
 10
7386.517795
 20
-15074.1407
 30
0.0
 40
9.073721
100
AcDbArc
 50
90.0
 51
135.000079
  0
LINE
  5
1D1
100
AcDbEntity
  8
0
  6
CONTINUOUS
 62
     7
100
AcDbLine
 10
7386.517827
 20
-15069.82325
 30
0.0
 11
7386.517827
 21
-15065.066979
 31
0.0
  0
POLYLINE
  5
1D2
100
AcDbEntity
  8
0
  6
CONTINUOUS
 62
     7
100
AcDb2dPolyline
 66
     1
 10
0.0
 20
0.0
 30
0.0
 70
   128
  0
VERTEX
  5
1D3
100
AcDbEntity
  8
0
  6
CONTINUOUS
 62
     7
100
AcDbVertex
100
AcDb2dVertex
 10
7384.233326
 20
-15068.625442
 30
0.0
  0
VERTEX
  5
1D4
100
AcDbEntity
  8
0
  6
CONTINUOUS
 62
     7
100
AcDbVertex
100
AcDb2dVertex
 10
7384.244712
 20
-15068.630181
 30
0.0
  0
VERTEX
  5
1D5
100
AcDbEntity
  8
0
  6
CONTINUOUS
 62
     7
100
AcDbVertex
100
AcDb2dVertex
 10
7386.517827
 20
-15069.82325
 30
0.0
  0
SEQEND
  5
1D6
100
AcDbEntity
  8
0
  6
CONTINUOUS
 62
     7
  0
ARC
  5
1D7
100
AcDbEntity
  8
0
  6
CONTINUOUS
 62
     7
100
AcDbCircle
 10
7397.101213
 20
-15073.992159
 30
0.0
 40
13.942172
100
AcDbArc
 50
157.360797
 51
167.976493
  0
POLYLINE
  5
1D8
100
AcDbEntity
  8
0
  6
CONTINUOUS
 62
     7
100
AcDb2dPolyline
 66
     1
 10
0.0
 20
0.0
 30
0.0
 70
   128
  0
VERTEX
  5
1D9
100
AcDbEntity
  8
0
  6
CONTINUOUS
 62
     7
100
AcDbVertex
100
AcDb2dVertex
 10
7386.517827
 20
-15069.82325
 30
0.0
  0
VERTEX
  5
1DA
100
AcDbEntity
  8
0
  6
CONTINUOUS
 62
     7
100
AcDbVertex
100
AcDb2dVertex
 10
7387.341601
 20
-15070.373675
 30
0.0
  0
VERTEX
  5
1DB
100
AcDbEntity
  8
0
  6
CONTINUOUS
 62
     7
100
AcDbVertex
100
AcDb2dVertex
 10
7388.072739
 20
-15070.862223
 30
0.0
  0
VERTEX
  5
1DC
100
AcDbEntity
  8
0
  6
CONTINUOUS
 62
     7
100
AcDbVertex
100
AcDb2dVertex
 10
7388.690644
 20
-15071.275094
 30
0.0
  0
SEQEND
  5
1DD
100
AcDbEntity
  8
0
  6
CONTINUOUS
 62
     7
  0
LINE
  5
1DE
100
AcDbEntity
  8
0
  6
CONTINUOUS
 62
     7
100
AcDbLine
 10
7388.690644
 20
-15071.275094
 30
0.0
 11
7425.124694
 21
-15159.234663
 31
0.0
  0
POLYLINE
  5
1DF
100
AcDbEntity
  8
0
  6
CONTINUOUS
 62
     7
100
AcDb2dPolyline
 66
     1
 10
0.0
 20
0.0
 30
0.0
 70
   128
  0
VERTEX
  5
1E0
100
AcDbEntity
  8
0
  6
CONTINUOUS
 62
     7
100
AcDbVertex
100
AcDb2dVertex
 10
7425.124694
 20
-15159.234663
 30
0.0
  0
VERTEX
  5
1E1
100
AcDbEntity
  8
0
  6
CONTINUOUS
 62
     7
100
AcDbVertex
100
AcDb2dVertex
 10
7424.562436
 20
-15159.467566
 30
0.0
  0
VERTEX
  5
1E2
100
AcDbEntity
  8
0
  6
CONTINUOUS
 62
     7
100
AcDbVertex
100
AcDb2dVertex
 10
7423.870165
 20
-15159.754314
 30
0.0
  0
VERTEX
  5
1E3
100
AcDbEntity
  8
0
  6
CONTINUOUS
 62
     7
100
AcDbVertex
100
AcDb2dVertex
 10
7423.086941
 20
-15160.078736
 30
0.0
  0
VERTEX
  5
1E4
100
AcDbEntity
  8
0
  6
CONTINUOUS
 62
     7
100
AcDbVertex
100
AcDb2dVertex
 10
7422.256923
 20
-15160.422546
 30
0.0
  0
VERTEX
  5
1E5
100
AcDbEntity
  8
0
  6
CONTINUOUS
 62
     7
100
AcDbVertex
100
AcDb2dVertex
 10
7421.426889
 20
-15160.766342
 30
0.0
  0
VERTEX
  5
1E6
100
AcDbEntity
  8
0
  6
CONTINUOUS
 62
     7
100
AcDbVertex
100
AcDb2dVertex
 10
7420.643665
 20
-15161.090764
 30
0.0
  0
VERTEX
  5
1E7
100
AcDbEntity
  8
0
  6
CONTINUOUS
 62
     7
100
AcDbVertex
100
AcDb2dVertex
 10
7419.951409
 20
-15161.377511
 30
0.0
  0
VERTEX
  5
1E8
100
AcDbEntity
  8
0
  6
CONTINUOUS
 62
     7
100
AcDbVertex
100
AcDb2dVertex
 10
7419.389136
 20
-15161.610414
 30
0.0
  0
SEQEND
  5
1E9
100
AcDbEntity
  8
0
  6
CONTINUOUS
 62
     7
  0
LINE
  5
1EA
100
AcDbEntity
  8
0
  6
CONTINUOUS
 62
     7
100
AcDbLine
 10
7382.955102
 20
-15073.65083
 30
0.0
 11
7419.389136
 21
-15161.610414
 31
0.0
  0
POLYLINE
  5
1EB
100
AcDbEntity
  8
0
  6
CONTINUOUS
 62
     7
100
AcDb2dPolyline
 66
     1
 10
0.0
 20
0.0
 30
0.0
 70
   128
  0
VERTEX
  5
1EC
100
AcDbEntity
  8
0
  6
CONTINUOUS
 62
     7
100
AcDbVertex
100
AcDb2dVertex
 10
7382.955102
 20
-15073.65083
 30
0.0
  0
VERTEX
  5
1ED
100
AcDbEntity
  8
0
  6
CONTINUOUS
 62
     7
100
AcDbVertex
100
AcDb2dVertex
 10
7383.100077
 20
-15072.921958
 30
0.0
  0
VERTEX
  5
1EE
100
AcDbEntity
  8
0
  6
CONTINUOUS
 62
     7
100
AcDbVertex
100
AcDb2dVertex
 10
7383.27161
 20
-15072.059525
 30
0.0
  0
VERTEX
  5
1EF
100
AcDbEntity
  8
0
  6
CONTINUOUS
 62
     7
100
AcDbVertex
100
AcDb2dVertex
 10
7383.464901
 20
-15071.087824
 30
0.0
  0
SEQEND
  5
1F0
100
AcDbEntity
  8
0
  6
CONTINUOUS
 62
     7
  0
ARC
  5
1F1
100
AcDbEntity
  8
0
  6
CONTINUOUS
 62
     7
100
AcDbCircle
 10
7203.656877
 20
-15504.704495
 30
0.0
 40
13.770966
100
AcDbArc
 50
247.294615
 51
258.042675
  0
POLYLINE
  5
1F2
100
AcDbEntity
  8
0
  6
CONTINUOUS
 62
     7
100
AcDb2dPolyline
 66
     1
 10
0.0
 20
0.0
 30
0.0
 70
   128
  0
VERTEX
  5
1F3
100
AcDbEntity
  8
0
  6
CONTINUOUS
 62
     7
100
AcDbVertex
100
AcDb2dVertex
 10
7198.341384
 20
-15517.408236
 30
0.0
  0
VERTEX
  5
1F4
100
AcDbEntity
  8
0
  6
CONTINUOUS
 62
     7
100
AcDbVertex
100
AcDb2dVertex
 10
7198.346123
 20
-15517.396835
 30
0.0
  0
VERTEX
  5
1F5
100
AcDbEntity
  8
0
  6
CONTINUOUS
 62
     7
100
AcDbVertex
100
AcDb2dVertex
 10
7199.539192
 20
-15515.123735
 30
0.0
  0
SEQEND
  5
1F6
100
AcDbEntity
  8
0
  6
CONTINUOUS
 62
     7
  0
POLYLINE
  5
1F7
100
AcDbEntity
  8
0
  6
CONTINUOUS
 62
     7
100
AcDb2dPolyline
 66
     1
 10
0.0
 20
0.0
 30
0.0
 70
   128
  0
VERTEX
  5
1F8
100
AcDbEntity
  8
0
  6
CONTINUOUS
 62
     7
100
AcDbVertex
100
AcDb2dVertex
 10
7199.539192
 20
-15515.123735
 30
0.0
  0
VERTEX
  5
1F9
100
AcDbEntity
  8
0
  6
CONTINUOUS
 62
     7
100
AcDbVertex
100
AcDb2dVertex
 10
7200.089647
 20
-15514.299946
 30
0.0
  0
VERTEX
  5
1FA
100
AcDbEntity
  8
0
  6
CONTINUOUS
 62
     7
100
AcDbVertex
100
AcDb2dVertex
 10
7200.578165
 20
-15513.568823
 30
0.0
  0
VERTEX
  5
1FB
100
AcDbEntity
  8
0
  6
CONTINUOUS
 62
     7
100
AcDbVertex
100
AcDb2dVertex
 10
7200.991036
 20
-15512.950918
 30
0.0
  0
SEQEND
  5
1FC
100
AcDbEntity
  8
0
  6
CONTINUOUS
 62
     7
  0
LINE
  5
1FD
100
AcDbEntity
  8
0
  6
CONTINUOUS
 62
     7
100
AcDbLine
 10
7200.991036
 20
-15512.950918
 30
0.0
 11
7288.95062
 21
-15476.516861
 31
0.0
  0
POLYLINE
  5
1FE
100
AcDbEntity
  8
0
  6
CONTINUOUS
 62
     7
100
AcDb2dPolyline
 66
     1
 10
0.0
 20
0.0
 30
0.0
 70
   128
  0
VERTEX
  5
1FF
100
AcDbEntity
  8
0
  6
CONTINUOUS
 62
     7
100
AcDbVertex
100
AcDb2dVertex
 10
7288.95062
 20
-15476.516861
 30
0.0
  0
VERTEX
  5
200
100
AcDbEntity
  8
0
  6
CONTINUOUS
 62
     7
100
AcDbVertex
100
AcDb2dVertex
 10
7289.183523
 20
-15477.079126
 30
0.0
  0
VERTEX
  5
201
100
AcDbEntity
  8
0
  6
CONTINUOUS
 62
     7
100
AcDbVertex
100
AcDb2dVertex
 10
7289.470255
 20
-15477.771389
 30
0.0
  0
VERTEX
  5
202
100
AcDbEntity
  8
0
  6
CONTINUOUS
 62
     7
100
AcDbVertex
100
AcDb2dVertex
 10
7289.794692
 20
-15478.554613
 30
0.0
  0
VERTEX
  5
203
100
AcDbEntity
  8
0
  6
CONTINUOUS
 62
     7
100
AcDbVertex
100
AcDb2dVertex
 10
7290.138503
 20
-15479.384639
 30
0.0
  0
VERTEX
  5
204
100
AcDbEntity
  8
0
  6
CONTINUOUS
 62
     7
100
AcDbVertex
100
AcDb2dVertex
 10
7290.482284
 20
-15480.214666
 30
0.0
  0
VERTEX
  5
205
100
AcDbEntity
  8
0
  6
CONTINUOUS
 62
     7
100
AcDbVertex
100
AcDb2dVertex
 10
7290.806721
 20
-15480.997889
 30
0.0
  0
VERTEX
  5
206
100
AcDbEntity
  8
0
  6
CONTINUOUS
 62
     7
100
AcDbVertex
100
AcDb2dVertex
 10
7291.093453
 20
-15481.690153
 30
0.0
  0
VERTEX
  5
207
100
AcDbEntity
  8
0
  6
CONTINUOUS
 62
     7
100
AcDbVertex
100
AcDb2dVertex
 10
7291.326356
 20
-15482.252411
 30
0.0
  0
SEQEND
  5
208
100
AcDbEntity
  8
0
  6
CONTINUOUS
 62
     7
  0
LINE
  5
209
100
AcDbEntity
  8
0
  6
CONTINUOUS
 62
     7
100
AcDbLine
 10
7203.366772
 20
-15518.686475
 30
0.0
 11
7291.326356
 21
-15482.252411
 31
0.0
  0
POLYLINE
  5
20A
100
AcDbEntity
  8
0
  6
CONTINUOUS
 62
     7
100
AcDb2dPolyline
 66
     1
 10
0.0
 20
0.0
 30
0.0
 70
   128
  0
VERTEX
  5
20B
100
AcDbEntity
  8
0
  6
CONTINUOUS
 62
     7
100
AcDbVertex
100
AcDb2dVertex
 10
7203.366772
 20
-15518.686475
 30
0.0
  0
VERTEX
  5
20C
100
AcDbEntity
  8
0
  6
CONTINUOUS
 62
     7
100
AcDbVertex
100
AcDb2dVertex
 10
7202.637899
 20
-15518.541485
 30
0.0
  0
VERTEX
  5
20D
100
AcDbEntity
  8
0
  6
CONTINUOUS
 62
     7
100
AcDbVertex
100
AcDb2dVertex
 10
7201.775497
 20
-15518.369937
 30
0.0
  0
VERTEX
  5
20E
100
AcDbEntity
  8
0
  6
CONTINUOUS
 62
     7
100
AcDbVertex
100
AcDb2dVertex
 10
7200.803766
 20
-15518.176661
 30
0.0
  0
SEQEND
  5
20F
100
AcDbEntity
  8
0
  6
CONTINUOUS
 62
     7
  0
POLYLINE
  5
210
100
AcDbEntity
  8
0
  6
CONTINUOUS
 62
     7
100
AcDb2dPolyline
 66
     1
 10
0.0
 20
0.0
 30
0.0
 70
   128
  0
VERTEX
  5
211
100
AcDbEntity
  8
0
  6
CONTINUOUS
 62
     7
100
AcDbVertex
100
AcDb2dVertex
 10
7200.803766
 20
-15518.176661
 30
0.0
  0
VERTEX
  5
212
100
AcDbEntity
  8
0
  6
CONTINUOUS
 62
     7
100
AcDbVertex
100
AcDb2dVertex
 10
7200.363026
 20
-15518.6174
 30
0.0
  0
VERTEX
  5
213
100
AcDbEntity
  8
0
  6
CONTINUOUS
 62
     7
100
AcDbVertex
100
AcDb2dVertex
 10
7199.900022
 20
-15519.08039
 30
0.0
  0
VERTEX
  5
214
100
AcDbEntity
  8
0
  6
CONTINUOUS
 62
     7
100
AcDbVertex
100
AcDb2dVertex
 10
7199.42894
 20
-15519.551471
 30
0.0
  0
VERTEX
  5
215
100
AcDbEntity
  8
0
  6
CONTINUOUS
 62
     7
100
AcDbVertex
100
AcDb2dVertex
 10
7198.964177
 20
-15520.016234
 30
0.0
  0
VERTEX
  5
216
100
AcDbEntity
  8
0
  6
CONTINUOUS
 62
     7
100
AcDbVertex
100
AcDb2dVertex
 10
7198.519951
 20
-15520.460476
 30
0.0
  0
VERTEX
  5
217
100
AcDbEntity
  8
0
  6
CONTINUOUS
 62
     7
100
AcDbVertex
100
AcDb2dVertex
 10
7198.109792
 20
-15520.870619
 30
0.0
  0
VERTEX
  5
218
100
AcDbEntity
  8
0
  6
CONTINUOUS
 62
     7
100
AcDbVertex
100
AcDb2dVertex
 10
7197.74631
 20
-15521.234117
 30
0.0
  0
VERTEX
  5
219
100
AcDbEntity
  8
0
  6
CONTINUOUS
 62
     7
100
AcDbVertex
100
AcDb2dVertex
 10
7197.440561
 20
-15521.53985
 30
0.0
  0
SEQEND
  5
21A
100
AcDbEntity
  8
0
  6
CONTINUOUS
 62
     7
  0
ARC
  5
21B
100
AcDbEntity
  8
0
  6
CONTINUOUS
 62
     7
100
AcDbCircle
 10
7203.856573
 20
-15515.123781
 30
0.0
 40
9.073651
100
AcDbArc
 50
179.999713
 51
225.00026
  0
LINE
  5
21C
100
AcDbEntity
  8
0
  6
CONTINUOUS
 62
     7
100
AcDbLine
 10
7199.539192
 20
-15515.123735
 30
0.0
 11
7194.782921
 21
-15515.123735
 31
0.0
  0
ARC
  5
21D
100
AcDbEntity
  8
0
  6
CONTINUOUS
 62
     7
100
AcDbCircle
 10
7827.700627
 20
-15267.221111
 30
0.0
 40
13.770966
100
AcDbArc
 50
67.294615
 51
78.042675
  0
POLYLINE
  5
21E
100
AcDbEntity
  8
0
  6
CONTINUOUS
 62
     7
100
AcDb2dPolyline
 66
     1
 10
0.0
 20
0.0
 30
0.0
 70
   128
  0
VERTEX
  5
21F
100
AcDbEntity
  8
0
  6
CONTINUOUS
 62
     7
100
AcDbVertex
100
AcDb2dVertex
 10
7833.01612
 20
-15254.51737
 30
0.0
  0
VERTEX
  5
220
100
AcDbEntity
  8
0
  6
CONTINUOUS
 62
     7
100
AcDbVertex
100
AcDb2dVertex
 10
7833.011396
 20
-15254.52877
 30
0.0
  0
VERTEX
  5
221
100
AcDbEntity
  8
0
  6
CONTINUOUS
 62
     7
100
AcDbVertex
100
AcDb2dVertex
 10
7831.818312
 20
-15256.80187
 30
0.0
  0
SEQEND
  5
222
100
AcDbEntity
  8
0
  6
CONTINUOUS
 62
     7
  0
POLYLINE
  5
223
100
AcDbEntity
  8
0
  6
CONTINUOUS
 62
     7
100
AcDb2dPolyline
 66
     1
 10
0.0
 20
0.0
 30
0.0
 70
   128
  0
VERTEX
  5
224
100
AcDbEntity
  8
0
  6
CONTINUOUS
 62
     7
100
AcDbVertex
100
AcDb2dVertex
 10
7831.818312
 20
-15256.80187
 30
0.0
  0
VERTEX
  5
225
100
AcDbEntity
  8
0
  6
CONTINUOUS
 62
     7
100
AcDbVertex
100
AcDb2dVertex
 10
7831.267872
 20
-15257.625659
 30
0.0
  0
VERTEX
  5
226
100
AcDbEntity
  8
0
  6
CONTINUOUS
 62
     7
100
AcDbVertex
100
AcDb2dVertex
 10
7830.779339
 20
-15258.356782
 30
0.0
  0
VERTEX
  5
227
100
AcDbEntity
  8
0
  6
CONTINUOUS
 62
     7
100
AcDbVertex
100
AcDb2dVertex
 10
7830.366483
 20
-15258.974688
 30
0.0
  0
SEQEND
  5
228
100
AcDbEntity
  8
0
  6
CONTINUOUS
 62
     7
  0
LINE
  5
229
100
AcDbEntity
  8
0
  6
CONTINUOUS
 62
     7
100
AcDbLine
 10
7830.366483
 20
-15258.974688
 30
0.0
 11
7742.406891
 21
-15295.408745
 31
0.0
  0
POLYLINE
  5
22A
100
AcDbEntity
  8
0
  6
CONTINUOUS
 62
     7
100
AcDb2dPolyline
 66
     1
 10
0.0
 20
0.0
 30
0.0
 70
   128
  0
VERTEX
  5
22B
100
AcDbEntity
  8
0
  6
CONTINUOUS
 62
     7
100
AcDbVertex
100
AcDb2dVertex
 10
7742.406891
 20
-15295.408745
 30
0.0
  0
VERTEX
  5
22C
100
AcDbEntity
  8
0
  6
CONTINUOUS
 62
     7
100
AcDbVertex
100
AcDb2dVertex
 10
7742.173988
 20
-15294.846479
 30
0.0
  0
VERTEX
  5
22D
100
AcDbEntity
  8
0
  6
CONTINUOUS
 62
     7
100
AcDbVertex
100
AcDb2dVertex
 10
7741.887248
 20
-15294.154216
 30
0.0
  0
VERTEX
  5
22E
100
AcDbEntity
  8
0
  6
CONTINUOUS
 62
     7
100
AcDbVertex
100
AcDb2dVertex
 10
7741.562827
 20
-15293.370992
 30
0.0
  0
VERTEX
  5
22F
100
AcDbEntity
  8
0
  6
CONTINUOUS
 62
     7
100
AcDbVertex
100
AcDb2dVertex
 10
7741.219016
 20
-15292.540966
 30
0.0
  0
VERTEX
  5
230
100
AcDbEntity
  8
0
  6
CONTINUOUS
 62
     7
100
AcDbVertex
100
AcDb2dVertex
 10
7740.875213
 20
-15291.71094
 30
0.0
  0
VERTEX
  5
231
100
AcDbEntity
  8
0
  6
CONTINUOUS
 62
     7
100
AcDbVertex
100
AcDb2dVertex
 10
7740.550791
 20
-15290.927716
 30
0.0
  0
VERTEX
  5
232
100
AcDbEntity
  8
0
  6
CONTINUOUS
 62
     7
100
AcDbVertex
100
AcDb2dVertex
 10
7740.264043
 20
-15290.235452
 30
0.0
  0
VERTEX
  5
233
100
AcDbEntity
  8
0
  6
CONTINUOUS
 62
     7
100
AcDbVertex
100
AcDb2dVertex
 10
7740.031148
 20
-15289.673195
 30
0.0
  0
SEQEND
  5
234
100
AcDbEntity
  8
0
  6
CONTINUOUS
 62
     7
  0
LINE
  5
235
100
AcDbEntity
  8
0
  6
CONTINUOUS
 62
     7
100
AcDbLine
 10
7827.990732
 20
-15253.23913
 30
0.0
 11
7740.031148
 21
-15289.673195
 31
0.0
  0
POLYLINE
  5
236
100
AcDbEntity
  8
0
  6
CONTINUOUS
 62
     7
100
AcDb2dPolyline
 66
     1
 10
0.0
 20
0.0
 30
0.0
 70
   128
  0
VERTEX
  5
237
100
AcDbEntity
  8
0
  6
CONTINUOUS
 62
     7
100
AcDbVertex
100
AcDb2dVertex
 10
7827.990732
 20
-15253.23913
 30
0.0
  0
VERTEX
  5
238
100
AcDbEntity
  8
0
  6
CONTINUOUS
 62
     7
100
AcDbVertex
100
AcDb2dVertex
 10
7828.719604
 20
-15253.384121
 30
0.0
  0
VERTEX
  5
239
100
AcDbEntity
  8
0
  6
CONTINUOUS
 62
     7
100
AcDbVertex
100
AcDb2dVertex
 10
7829.582022
 20
-15253.555668
 30
0.0
  0
VERTEX
  5
23A
100
AcDbEntity
  8
0
  6
CONTINUOUS
 62
     7
100
AcDbVertex
100
AcDb2dVertex
 10
7830.553738
 20
-15253.748945
 30
0.0
  0
SEQEND
  5
23B
100
AcDbEntity
  8
0
  6
CONTINUOUS
 62
     7
  0
POLYLINE
  5
23C
100
AcDbEntity
  8
0
  6
CONTINUOUS
 62
     7
100
AcDb2dPolyline
 66
     1
 10
0.0
 20
0.0
 30
0.0
 70
   128
  0
VERTEX
  5
23D
100
AcDbEntity
  8
0
  6
CONTINUOUS
 62
     7
100
AcDbVertex
100
AcDb2dVertex
 10
7830.553738
 20
-15253.748945
 30
0.0
  0
VERTEX
  5
23E
100
AcDbEntity
  8
0
  6
CONTINUOUS
 62
     7
100
AcDbVertex
100
AcDb2dVertex
 10
7830.994492
 20
-15253.308205
 30
0.0
  0
VERTEX
  5
23F
100
AcDbEntity
  8
0
  6
CONTINUOUS
 62
     7
100
AcDbVertex
100
AcDb2dVertex
 10
7831.457482
 20
-15252.845216
 30
0.0
  0
VERTEX
  5
240
100
AcDbEntity
  8
0
  6
CONTINUOUS
 62
     7
100
AcDbVertex
100
AcDb2dVertex
 10
7831.928564
 20
-15252.374134
 30
0.0
  0
VERTEX
  5
241
100
AcDbEntity
  8
0
  6
CONTINUOUS
 62
     7
100
AcDbVertex
100
AcDb2dVertex
 10
7832.393326
 20
-15251.909371
 30
0.0
  0
VERTEX
  5
242
100
AcDbEntity
  8
0
  6
CONTINUOUS
 62
     7
100
AcDbVertex
100
AcDb2dVertex
 10
7832.837568
 20
-15251.46513
 30
0.0
  0
VERTEX
  5
243
100
AcDbEntity
  8
0
  6
CONTINUOUS
 62
     7
100
AcDbVertex
100
AcDb2dVertex
 10
7833.247697
 20
-15251.054986
 30
0.0
  0
VERTEX
  5
244
100
AcDbEntity
  8
0
  6
CONTINUOUS
 62
     7
100
AcDbVertex
100
AcDb2dVertex
 10
7833.611209
 20
-15250.691489
 30
0.0
  0
VERTEX
  5
245
100
AcDbEntity
  8
0
  6
CONTINUOUS
 62
     7
100
AcDbVertex
100
AcDb2dVertex
 10
7833.916943
 20
-15250.385755
 30
0.0
  0
SEQEND
  5
246
100
AcDbEntity
  8
0
  6
CONTINUOUS
 62
     7
  0
ARC
  5
247
100
AcDbEntity
  8
0
  6
CONTINUOUS
 62
     7
100
AcDbCircle
 10
7827.500848
 20
-15256.80188
 30
0.0
 40
9.073749
100
AcDbArc
 50
0.000063
 51
45.000137
  0
LINE
  5
248
100
AcDbEntity
  8
0
  6
CONTINUOUS
 62
     7
100
AcDbLine
 10
7831.818312
 20
-15256.80187
 30
0.0
 11
7836.574598
 21
-15256.80187
 31
0.0
  0
ARC
  5
249
100
AcDbEntity
  8
0
  6
CONTINUOUS
 62
     7
100
AcDbCircle
 10
7634.150313
 20
-15697.900442
 30
0.0
 40
14.052706
100
AcDbArc
 50
337.40295
 51
347.934893
  0
POLYLINE
  5
24A
100
AcDbEntity
  8
0
  6
CONTINUOUS
 62
     7
100
AcDb2dPolyline
 66
     1
 10
0.0
 20
0.0
 30
0.0
 70
   128
  0
VERTEX
  5
24B
100
AcDbEntity
  8
0
  6
CONTINUOUS
 62
     7
100
AcDbVertex
100
AcDb2dVertex
 10
7647.124193
 20
-15703.300163
 30
0.0
  0
VERTEX
  5
24C
100
AcDbEntity
  8
0
  6
CONTINUOUS
 62
     7
100
AcDbVertex
100
AcDb2dVertex
 10
7647.112789
 20
-15703.295424
 30
0.0
  0
VERTEX
  5
24D
100
AcDbEntity
  8
0
  6
CONTINUOUS
 62
     7
100
AcDbVertex
100
AcDb2dVertex
 10
7644.839685
 20
-15702.102355
 30
0.0
  0
SEQEND
  5
24E
100
AcDbEntity
  8
0
  6
CONTINUOUS
 62
     7
  0
POLYLINE
  5
24F
100
AcDbEntity
  8
0
  6
CONTINUOUS
 62
     7
100
AcDb2dPolyline
 66
     1
 10
0.0
 20
0.0
 30
0.0
 70
   128
  0
VERTEX
  5
250
100
AcDbEntity
  8
0
  6
CONTINUOUS
 62
     7
100
AcDbVertex
100
AcDb2dVertex
 10
7642.666869
 20
-15700.650511
 30
0.0
  0
VERTEX
  5
251
100
AcDbEntity
  8
0
  6
CONTINUOUS
 62
     7
100
AcDbVertex
100
AcDb2dVertex
 10
7643.284771
 20
-15701.063382
 30
0.0
  0
VERTEX
  5
252
100
AcDbEntity
  8
0
  6
CONTINUOUS
 62
     7
100
AcDbVertex
100
AcDb2dVertex
 10
7644.015894
 20
-15701.55193
 30
0.0
  0
VERTEX
  5
253
100
AcDbEntity
  8
0
  6
CONTINUOUS
 62
     7
100
AcDbVertex
100
AcDb2dVertex
 10
7644.839685
 20
-15702.102355
 30
0.0
  0
SEQEND
  5
254
100
AcDbEntity
  8
0
  6
CONTINUOUS
 62
     7
  0
LINE
  5
255
100
AcDbEntity
  8
0
  6
CONTINUOUS
 62
     7
100
AcDbLine
 10
7642.666869
 20
-15700.650511
 30
0.0
 11
7606.232814
 21
-15612.690942
 31
0.0
  0
POLYLINE
  5
256
100
AcDbEntity
  8
0
  6
CONTINUOUS
 62
     7
100
AcDb2dPolyline
 66
     1
 10
0.0
 20
0.0
 30
0.0
 70
   128
  0
VERTEX
  5
257
100
AcDbEntity
  8
0
  6
CONTINUOUS
 62
     7
100
AcDbVertex
100
AcDb2dVertex
 10
7606.232814
 20
-15612.690942
 30
0.0
  0
VERTEX
  5
258
100
AcDbEntity
  8
0
  6
CONTINUOUS
 62
     7
100
AcDbVertex
100
AcDb2dVertex
 10
7606.795079
 20
-15612.458039
 30
0.0
  0
VERTEX
  5
259
100
AcDbEntity
  8
0
  6
CONTINUOUS
 62
     7
100
AcDbVertex
100
AcDb2dVertex
 10
7607.487341
 20
-15612.171292
 30
0.0
  0
VERTEX
  5
25A
100
AcDbEntity
  8
0
  6
CONTINUOUS
 62
     7
100
AcDbVertex
100
AcDb2dVertex
 10
7608.270564
 20
-15611.84687
 30
0.0
  0
VERTEX
  5
25B
100
AcDbEntity
  8
0
  6
CONTINUOUS
 62
     7
100
AcDbVertex
100
AcDb2dVertex
 10
7609.100591
 20
-15611.503059
 30
0.0
  0
VERTEX
  5
25C
100
AcDbEntity
  8
0
  6
CONTINUOUS
 62
     7
100
AcDbVertex
100
AcDb2dVertex
 10
7609.930615
 20
-15611.159263
 30
0.0
  0
VERTEX
  5
25D
100
AcDbEntity
  8
0
  6
CONTINUOUS
 62
     7
100
AcDbVertex
100
AcDb2dVertex
 10
7610.71384
 20
-15610.834841
 30
0.0
  0
VERTEX
  5
25E
100
AcDbEntity
  8
0
  6
CONTINUOUS
 62
     7
100
AcDbVertex
100
AcDb2dVertex
 10
7611.4061
 20
-15610.548094
 30
0.0
  0
VERTEX
  5
25F
100
AcDbEntity
  8
0
  6
CONTINUOUS
 62
     7
100
AcDbVertex
100
AcDb2dVertex
 10
7611.968366
 20
-15610.315191
 30
0.0
  0
SEQEND
  5
260
100
AcDbEntity
  8
0
  6
CONTINUOUS
 62
     7
  0
LINE
  5
261
100
AcDbEntity
  8
0
  6
CONTINUOUS
 62
     7
100
AcDbLine
 10
7648.40242
 20
-15698.274775
 30
0.0
 11
7611.968366
 21
-15610.315191
 31
0.0
  0
POLYLINE
  5
262
100
AcDbEntity
  8
0
  6
CONTINUOUS
 62
     7
100
AcDb2dPolyline
 66
     1
 10
0.0
 20
0.0
 30
0.0
 70
   128
  0
VERTEX
  5
263
100
AcDbEntity
  8
0
  6
CONTINUOUS
 62
     7
100
AcDbVertex
100
AcDb2dVertex
 10
7648.40242
 20
-15698.274775
 30
0.0
  0
VERTEX
  5
264
100
AcDbEntity
  8
0
  6
CONTINUOUS
 62
     7
100
AcDbVertex
100
AcDb2dVertex
 10
7648.257439
 20
-15699.003648
 30
0.0
  0
VERTEX
  5
265
100
AcDbEntity
  8
0
  6
CONTINUOUS
 62
     7
100
AcDbVertex
100
AcDb2dVertex
 10
7648.085894
 20
-15699.86608
 30
0.0
  0
VERTEX
  5
266
100
AcDbEntity
  8
0
  6
CONTINUOUS
 62
     7
100
AcDbVertex
100
AcDb2dVertex
 10
7647.892605
 20
-15700.837781
 30
0.0
  0
SEQEND
  5
267
100
AcDbEntity
  8
0
  6
CONTINUOUS
 62
     7
  0
POLYLINE
  5
268
100
AcDbEntity
  8
0
  6
CONTINUOUS
 62
     7
100
AcDb2dPolyline
 66
     1
 10
0.0
 20
0.0
 30
0.0
 70
   128
  0
VERTEX
  5
269
100
AcDbEntity
  8
0
  6
CONTINUOUS
 62
     7
100
AcDbVertex
100
AcDb2dVertex
 10
7647.892605
 20
-15700.837781
 30
0.0
  0
VERTEX
  5
26A
100
AcDbEntity
  8
0
  6
CONTINUOUS
 62
     7
100
AcDbVertex
100
AcDb2dVertex
 10
7648.333352
 20
-15701.278551
 30
0.0
  0
VERTEX
  5
26B
100
AcDbEntity
  8
0
  6
CONTINUOUS
 62
     7
100
AcDbVertex
100
AcDb2dVertex
 10
7648.796341
 20
-15701.741525
 30
0.0
  0
VERTEX
  5
26C
100
AcDbEntity
  8
0
  6
CONTINUOUS
 62
     7
100
AcDbVertex
100
AcDb2dVertex
 10
7649.267418
 20
-15702.212607
 30
0.0
  0
VERTEX
  5
26D
100
AcDbEntity
  8
0
  6
CONTINUOUS
 62
     7
100
AcDbVertex
100
AcDb2dVertex
 10
7649.732182
 20
-15702.67737
 30
0.0
  0
VERTEX
  5
26E
100
AcDbEntity
  8
0
  6
CONTINUOUS
 62
     7
100
AcDbVertex
100
AcDb2dVertex
 10
7650.176424
 20
-15703.121626
 30
0.0
  0
VERTEX
  5
26F
100
AcDbEntity
  8
0
  6
CONTINUOUS
 62
     7
100
AcDbVertex
100
AcDb2dVertex
 10
7650.586564
 20
-15703.531755
 30
0.0
  0
VERTEX
  5
270
100
AcDbEntity
  8
0
  6
CONTINUOUS
 62
     7
100
AcDbVertex
100
AcDb2dVertex
 10
7650.950062
 20
-15703.895237
 30
0.0
  0
VERTEX
  5
271
100
AcDbEntity
  8
0
  6
CONTINUOUS
 62
     7
100
AcDbVertex
100
AcDb2dVertex
 10
7651.255807
 20
-15704.200986
 30
0.0
  0
SEQEND
  5
272
100
AcDbEntity
  8
0
  6
CONTINUOUS
 62
     7
  0
ARC
  5
273
100
AcDbEntity
  8
0
  6
CONTINUOUS
 62
     7
100
AcDbCircle
 10
7644.839718
 20
-15697.784927
 30
0.0
 40
9.073699
100
AcDbArc
 50
270.0
 51
315.000135
  0
LINE
  5
274
100
AcDbEntity
  8
0
  6
CONTINUOUS
 62
     7
100
AcDbLine
 10
7644.839685
 20
-15702.102355
 30
0.0
 11
7644.839685
 21
-15706.858626
 31
0.0
  0
LINE
  5
275
100
AcDbEntity
  8
0
  6
CONTINUOUS
 62
     7
100
AcDbLine
 10
7199.539192
 20
-15256.80187
 30
0.0
 11
7194.782921
 21
-15256.80187
 31
0.0
  0
ARC
  5
276
100
AcDbEntity
  8
0
  6
CONTINUOUS
 62
     7
100
AcDbCircle
 10
7203.856573
 20
-15256.801824
 30
0.0
 40
9.073651
100
AcDbArc
 50
134.99974
 51
180.000287
  0
POLYLINE
  5
277
100
AcDbEntity
  8
0
  6
CONTINUOUS
 62
     7
100
AcDb2dPolyline
 66
     1
 10
0.0
 20
0.0
 30
0.0
 70
   128
  0
VERTEX
  5
278
100
AcDbEntity
  8
0
  6
CONTINUOUS
 62
     7
100
AcDbVertex
100
AcDb2dVertex
 10
7200.803766
 20
-15253.748945
 30
0.0
  0
VERTEX
  5
279
100
AcDbEntity
  8
0
  6
CONTINUOUS
 62
     7
100
AcDbVertex
100
AcDb2dVertex
 10
7200.363026
 20
-15253.308205
 30
0.0
  0
VERTEX
  5
27A
100
AcDbEntity
  8
0
  6
CONTINUOUS
 62
     7
100
AcDbVertex
100
AcDb2dVertex
 10
7199.900022
 20
-15252.845216
 30
0.0
  0
VERTEX
  5
27B
100
AcDbEntity
  8
0
  6
CONTINUOUS
 62
     7
100
AcDbVertex
100
AcDb2dVertex
 10
7199.42894
 20
-15252.374134
 30
0.0
  0
VERTEX
  5
27C
100
AcDbEntity
  8
0
  6
CONTINUOUS
 62
     7
100
AcDbVertex
100
AcDb2dVertex
 10
7198.964177
 20
-15251.909371
 30
0.0
  0
VERTEX
  5
27D
100
AcDbEntity
  8
0
  6
CONTINUOUS
 62
     7
100
AcDbVertex
100
AcDb2dVertex
 10
7198.519951
 20
-15251.46513
 30
0.0
  0
VERTEX
  5
27E
100
AcDbEntity
  8
0
  6
CONTINUOUS
 62
     7
100
AcDbVertex
100
AcDb2dVertex
 10
7198.109792
 20
-15251.054986
 30
0.0
  0
VERTEX
  5
27F
100
AcDbEntity
  8
0
  6
CONTINUOUS
 62
     7
100
AcDbVertex
100
AcDb2dVertex
 10
7197.74631
 20
-15250.691489
 30
0.0
  0
VERTEX
  5
280
100
AcDbEntity
  8
0
  6
CONTINUOUS
 62
     7
100
AcDbVertex
100
AcDb2dVertex
 10
7197.440561
 20
-15250.385755
 30
0.0
  0
SEQEND
  5
281
100
AcDbEntity
  8
0
  6
CONTINUOUS
 62
     7
  0
ARC
  5
282
100
AcDbEntity
  8
0
  6
CONTINUOUS
 62
     7
100
AcDbCircle
 10
7203.504501
 20
-15266.732829
 30
0.0
 40
13.261796
100
AcDbArc
 50
101.750353
 51
112.912357
  0
ARC
  5
283
100
AcDbEntity
  8
0
  6
CONTINUOUS
 62
     7
100
AcDbCircle
 10
7211.509037
 20
-15249.069578
 30
0.0
 40
14.250106
100
AcDbArc
 50
202.476117
 51
212.86169
  0
POLYLINE
  5
284
100
AcDbEntity
  8
0
  6
CONTINUOUS
 62
     7
100
AcDb2dPolyline
 66
     1
 10
0.0
 20
0.0
 30
0.0
 70
   128
  0
VERTEX
  5
285
100
AcDbEntity
  8
0
  6
CONTINUOUS
 62
     7
100
AcDbVertex
100
AcDb2dVertex
 10
7200.803766
 20
-15253.748945
 30
0.0
  0
VERTEX
  5
286
100
AcDbEntity
  8
0
  6
CONTINUOUS
 62
     7
100
AcDbVertex
100
AcDb2dVertex
 10
7201.775497
 20
-15253.555668
 30
0.0
  0
VERTEX
  5
287
100
AcDbEntity
  8
0
  6
CONTINUOUS
 62
     7
100
AcDbVertex
100
AcDb2dVertex
 10
7202.637899
 20
-15253.384121
 30
0.0
  0
VERTEX
  5
288
100
AcDbEntity
  8
0
  6
CONTINUOUS
 62
     7
100
AcDbVertex
100
AcDb2dVertex
 10
7203.366772
 20
-15253.23913
 30
0.0
  0
SEQEND
  5
289
100
AcDbEntity
  8
0
  6
CONTINUOUS
 62
     7
  0
LINE
  5
28A
100
AcDbEntity
  8
0
  6
CONTINUOUS
 62
     7
100
AcDbLine
 10
7203.366772
 20
-15253.23913
 30
0.0
 11
7291.326356
 21
-15289.673195
 31
0.0
  0
POLYLINE
  5
28B
100
AcDbEntity
  8
0
  6
CONTINUOUS
 62
     7
100
AcDb2dPolyline
 66
     1
 10
0.0
 20
0.0
 30
0.0
 70
   128
  0
VERTEX
  5
28C
100
AcDbEntity
  8
0
  6
CONTINUOUS
 62
     7
100
AcDbVertex
100
AcDb2dVertex
 10
7291.326356
 20
-15289.673195
 30
0.0
  0
VERTEX
  5
28D
100
AcDbEntity
  8
0
  6
CONTINUOUS
 62
     7
100
AcDbVertex
100
AcDb2dVertex
 10
7291.093453
 20
-15290.235452
 30
0.0
  0
VERTEX
  5
28E
100
AcDbEntity
  8
0
  6
CONTINUOUS
 62
     7
100
AcDbVertex
100
AcDb2dVertex
 10
7290.806721
 20
-15290.927716
 30
0.0
  0
VERTEX
  5
28F
100
AcDbEntity
  8
0
  6
CONTINUOUS
 62
     7
100
AcDbVertex
100
AcDb2dVertex
 10
7290.482284
 20
-15291.71094
 30
0.0
  0
VERTEX
  5
290
100
AcDbEntity
  8
0
  6
CONTINUOUS
 62
     7
100
AcDbVertex
100
AcDb2dVertex
 10
7290.138503
 20
-15292.540966
 30
0.0
  0
VERTEX
  5
291
100
AcDbEntity
  8
0
  6
CONTINUOUS
 62
     7
100
AcDbVertex
100
AcDb2dVertex
 10
7289.794692
 20
-15293.370992
 30
0.0
  0
VERTEX
  5
292
100
AcDbEntity
  8
0
  6
CONTINUOUS
 62
     7
100
AcDbVertex
100
AcDb2dVertex
 10
7289.470255
 20
-15294.154216
 30
0.0
  0
VERTEX
  5
293
100
AcDbEntity
  8
0
  6
CONTINUOUS
 62
     7
100
AcDbVertex
100
AcDb2dVertex
 10
7289.183523
 20
-15294.846479
 30
0.0
  0
VERTEX
  5
294
100
AcDbEntity
  8
0
  6
CONTINUOUS
 62
     7
100
AcDbVertex
100
AcDb2dVertex
 10
7288.95062
 20
-15295.408745
 30
0.0
  0
SEQEND
  5
295
100
AcDbEntity
  8
0
  6
CONTINUOUS
 62
     7
  0
LINE
  5
296
100
AcDbEntity
  8
0
  6
CONTINUOUS
 62
     7
100
AcDbLine
 10
7200.991036
 20
-15258.974688
 30
0.0
 11
7288.95062
 21
-15295.408745
 31
0.0
  0
POLYLINE
  5
297
100
AcDbEntity
  8
0
  6
CONTINUOUS
 62
     7
100
AcDb2dPolyline
 66
     1
 10
0.0
 20
0.0
 30
0.0
 70
   128
  0
VERTEX
  5
298
100
AcDbEntity
  8
0
  6
CONTINUOUS
 62
     7
100
AcDbVertex
100
AcDb2dVertex
 10
7200.991036
 20
-15258.974688
 30
0.0
  0
VERTEX
  5
299
100
AcDbEntity
  8
0
  6
CONTINUOUS
 62
     7
100
AcDbVertex
100
AcDb2dVertex
 10
7200.578165
 20
-15258.356782
 30
0.0
  0
VERTEX
  5
29A
100
AcDbEntity
  8
0
  6
CONTINUOUS
 62
     7
100
AcDbVertex
100
AcDb2dVertex
 10
7200.089647
 20
-15257.625659
 30
0.0
  0
VERTEX
  5
29B
100
AcDbEntity
  8
0
  6
CONTINUOUS
 62
     7
100
AcDbVertex
100
AcDb2dVertex
 10
7199.539192
 20
-15256.80187
 30
0.0
  0
SEQEND
  5
29C
100
AcDbEntity
  8
0
  6
CONTINUOUS
 62
     7
  0
ARC
  5
29D
100
AcDbEntity
  8
0
  6
CONTINUOUS
 62
     7
100
AcDbCircle
 10
7652.477541
 20
-15081.613023
 30
0.0
 40
14.047618
100
AcDbArc
 50
112.400955
 51
122.936679
  0
ARC
  5
29E
100
AcDbEntity
  8
0
  6
CONTINUOUS
 62
     7
100
AcDbCircle
 10
7634.894812
 20
-15073.792835
 30
0.0
 40
13.276285
100
AcDbArc
 50
11.756194
 51
22.905962
  0
POLYLINE
  5
29F
100
AcDbEntity
  8
0
  6
CONTINUOUS
 62
     7
100
AcDb2dPolyline
 66
     1
 10
0.0
 20
0.0
 30
0.0
 70
   128
  0
VERTEX
  5
2A0
100
AcDbEntity
  8
0
  6
CONTINUOUS
 62
     7
100
AcDbVertex
100
AcDb2dVertex
 10
7647.892605
 20
-15071.087824
 30
0.0
  0
VERTEX
  5
2A1
100
AcDbEntity
  8
0
  6
CONTINUOUS
 62
     7
100
AcDbVertex
100
AcDb2dVertex
 10
7648.085894
 20
-15072.059525
 30
0.0
  0
VERTEX
  5
2A2
100
AcDbEntity
  8
0
  6
CONTINUOUS
 62
     7
100
AcDbVertex
100
AcDb2dVertex
 10
7648.257439
 20
-15072.921958
 30
0.0
  0
VERTEX
  5
2A3
100
AcDbEntity
  8
0
  6
CONTINUOUS
 62
     7
100
AcDbVertex
100
AcDb2dVertex
 10
7648.40242
 20
-15073.65083
 30
0.0
  0
SEQEND
  5
2A4
100
AcDbEntity
  8
0
  6
CONTINUOUS
 62
     7
  0
LINE
  5
2A5
100
AcDbEntity
  8
0
  6
CONTINUOUS
 62
     7
100
AcDbLine
 10
7648.40242
 20
-15073.65083
 30
0.0
 11
7611.968366
 21
-15161.610414
 31
0.0
  0
POLYLINE
  5
2A6
100
AcDbEntity
  8
0
  6
CONTINUOUS
 62
     7
100
AcDb2dPolyline
 66
     1
 10
0.0
 20
0.0
 30
0.0
 70
   128
  0
VERTEX
  5
2A7
100
AcDbEntity
  8
0
  6
CONTINUOUS
 62
     7
100
AcDbVertex
100
AcDb2dVertex
 10
7611.968366
 20
-15161.610414
 30
0.0
  0
VERTEX
  5
2A8
100
AcDbEntity
  8
0
  6
CONTINUOUS
 62
     7
100
AcDbVertex
100
AcDb2dVertex
 10
7611.4061
 20
-15161.377511
 30
0.0
  0
VERTEX
  5
2A9
100
AcDbEntity
  8
0
  6
CONTINUOUS
 62
     7
100
AcDbVertex
100
AcDb2dVertex
 10
7610.71384
 20
-15161.090764
 30
0.0
  0
VERTEX
  5
2AA
100
AcDbEntity
  8
0
  6
CONTINUOUS
 62
     7
100
AcDbVertex
100
AcDb2dVertex
 10
7609.930615
 20
-15160.766342
 30
0.0
  0
VERTEX
  5
2AB
100
AcDbEntity
  8
0
  6
CONTINUOUS
 62
     7
100
AcDbVertex
100
AcDb2dVertex
 10
7609.100591
 20
-15160.422546
 30
0.0
  0
VERTEX
  5
2AC
100
AcDbEntity
  8
0
  6
CONTINUOUS
 62
     7
100
AcDbVertex
100
AcDb2dVertex
 10
7608.270564
 20
-15160.078736
 30
0.0
  0
VERTEX
  5
2AD
100
AcDbEntity
  8
0
  6
CONTINUOUS
 62
     7
100
AcDbVertex
100
AcDb2dVertex
 10
7607.487341
 20
-15159.754314
 30
0.0
  0
VERTEX
  5
2AE
100
AcDbEntity
  8
0
  6
CONTINUOUS
 62
     7
100
AcDbVertex
100
AcDb2dVertex
 10
7606.795079
 20
-15159.467566
 30
0.0
  0
VERTEX
  5
2AF
100
AcDbEntity
  8
0
  6
CONTINUOUS
 62
     7
100
AcDbVertex
100
AcDb2dVertex
 10
7606.232814
 20
-15159.234663
 30
0.0
  0
SEQEND
  5
2B0
100
AcDbEntity
  8
0
  6
CONTINUOUS
 62
     7
  0
LINE
  5
2B1
100
AcDbEntity
  8
0
  6
CONTINUOUS
 62
     7
100
AcDbLine
 10
7642.666869
 20
-15071.275094
 30
0.0
 11
7606.232814
 21
-15159.234663
 31
0.0
  0
POLYLINE
  5
2B2
100
AcDbEntity
  8
0
  6
CONTINUOUS
 62
     7
100
AcDb2dPolyline
 66
     1
 10
0.0
 20
0.0
 30
0.0
 70
   128
  0
VERTEX
  5
2B3
100
AcDbEntity
  8
0
  6
CONTINUOUS
 62
     7
100
AcDbVertex
100
AcDb2dVertex
 10
7642.666869
 20
-15071.275094
 30
0.0
  0
VERTEX
  5
2B4
100
AcDbEntity
  8
0
  6
CONTINUOUS
 62
     7
100
AcDbVertex
100
AcDb2dVertex
 10
7643.284771
 20
-15070.862223
 30
0.0
  0
VERTEX
  5
2B5
100
AcDbEntity
  8
0
  6
CONTINUOUS
 62
     7
100
AcDbVertex
100
AcDb2dVertex
 10
7644.015894
 20
-15070.373675
 30
0.0
  0
VERTEX
  5
2B6
100
AcDbEntity
  8
0
  6
CONTINUOUS
 62
     7
100
AcDbVertex
100
AcDb2dVertex
 10
7644.839685
 20
-15069.82325
 30
0.0
  0
SEQEND
  5
2B7
100
AcDbEntity
  8
0
  6
CONTINUOUS
 62
     7
  0
LINE
  5
2B8
100
AcDbEntity
  8
0
  6
CONTINUOUS
 62
     7
100
AcDbLine
 10
7644.839685
 20
-15069.82325
 30
0.0
 11
7644.839685
 21
-15065.066979
 31
0.0
  0
ARC
  5
2B9
100
AcDbEntity
  8
0
  6
CONTINUOUS
 62
     7
100
AcDbCircle
 10
7644.839718
 20
-15074.140678
 30
0.0
 40
9.073699
100
AcDbArc
 50
44.999865
 51
90.0
  0
POLYLINE
  5
2BA
100
AcDbEntity
  8
0
  6
CONTINUOUS
 62
     7
100
AcDb2dPolyline
 66
     1
 10
0.0
 20
0.0
 30
0.0
 70
   128
  0
VERTEX
  5
2BB
100
AcDbEntity
  8
0
  6
CONTINUOUS
 62
     7
100
AcDbVertex
100
AcDb2dVertex
 10
7647.892605
 20
-15071.087824
 30
0.0
  0
VERTEX
  5
2BC
100
AcDbEntity
  8
0
  6
CONTINUOUS
 62
     7
100
AcDbVertex
100
AcDb2dVertex
 10
7648.333352
 20
-15070.647055
 30
0.0
  0
VERTEX
  5
2BD
100
AcDbEntity
  8
0
  6
CONTINUOUS
 62
     7
100
AcDbVertex
100
AcDb2dVertex
 10
7648.796341
 20
-15070.18408
 30
0.0
  0
VERTEX
  5
2BE
100
AcDbEntity
  8
0
  6
CONTINUOUS
 62
     7
100
AcDbVertex
100
AcDb2dVertex
 10
7649.267418
 20
-15069.712999
 30
0.0
  0
VERTEX
  5
2BF
100
AcDbEntity
  8
0
  6
CONTINUOUS
 62
     7
100
AcDbVertex
100
AcDb2dVertex
 10
7649.732182
 20
-15069.248236
 30
0.0
  0
VERTEX
  5
2C0
100
AcDbEntity
  8
0
  6
CONTINUOUS
 62
     7
100
AcDbVertex
100
AcDb2dVertex
 10
7650.176424
 20
-15068.803979
 30
0.0
  0
VERTEX
  5
2C1
100
AcDbEntity
  8
0
  6
CONTINUOUS
 62
     7
100
AcDbVertex
100
AcDb2dVertex
 10
7650.586564
 20
-15068.393851
 30
0.0
  0
VERTEX
  5
2C2
100
AcDbEntity
  8
0
  6
CONTINUOUS
 62
     7
100
AcDbVertex
100
AcDb2dVertex
 10
7650.950062
 20
-15068.030368
 30
0.0
  0
VERTEX
  5
2C3
100
AcDbEntity
  8
0
  6
CONTINUOUS
 62
     7
100
AcDbVertex
100
AcDb2dVertex
 10
7651.255807
 20
-15067.724619
 30
0.0
  0
SEQEND
  5
2C4
100
AcDbEntity
  8
0
  6
CONTINUOUS
 62
     7
  0
ARC
  5
2C5
100
AcDbEntity
  8
0
  6
CONTINUOUS
 62
     7
100
AcDbCircle
 10
7819.927767
 20
-15522.814448
 30
0.0
 40
14.160936
100
AcDbArc
 50
22.443328
 51
32.894479
  0
ARC
  5
2C6
100
AcDbEntity
  8
0
  6
CONTINUOUS
 62
     7
100
AcDbCircle
 10
7827.853984
 20
-15505.19592
 30
0.0
 40
13.258518
100
AcDbArc
 50
281.748969
 51
292.913741
  0
POLYLINE
  5
2C7
100
AcDbEntity
  8
0
  6
CONTINUOUS
 62
     7
100
AcDb2dPolyline
 66
     1
 10
0.0
 20
0.0
 30
0.0
 70
   128
  0
VERTEX
  5
2C8
100
AcDbEntity
  8
0
  6
CONTINUOUS
 62
     7
100
AcDbVertex
100
AcDb2dVertex
 10
7830.553738
 20
-15518.176661
 30
0.0
  0
VERTEX
  5
2C9
100
AcDbEntity
  8
0
  6
CONTINUOUS
 62
     7
100
AcDbVertex
100
AcDb2dVertex
 10
7829.582022
 20
-15518.369937
 30
0.0
  0
VERTEX
  5
2CA
100
AcDbEntity
  8
0
  6
CONTINUOUS
 62
     7
100
AcDbVertex
100
AcDb2dVertex
 10
7828.719604
 20
-15518.541485
 30
0.0
  0
VERTEX
  5
2CB
100
AcDbEntity
  8
0
  6
CONTINUOUS
 62
     7
100
AcDbVertex
100
AcDb2dVertex
 10
7827.990732
 20
-15518.686475
 30
0.0
  0
SEQEND
  5
2CC
100
AcDbEntity
  8
0
  6
CONTINUOUS
 62
     7
  0
LINE
  5
2CD
100
AcDbEntity
  8
0
  6
CONTINUOUS
 62
     7
100
AcDbLine
 10
7827.990732
 20
-15518.686475
 30
0.0
 11
7740.031148
 21
-15482.252411
 31
0.0
  0
POLYLINE
  5
2CE
100
AcDbEntity
  8
0
  6
CONTINUOUS
 62
     7
100
AcDb2dPolyline
 66
     1
 10
0.0
 20
0.0
 30
0.0
 70
   128
  0
VERTEX
  5
2CF
100
AcDbEntity
  8
0
  6
CONTINUOUS
 62
     7
100
AcDbVertex
100
AcDb2dVertex
 10
7740.031148
 20
-15482.252411
 30
0.0
  0
VERTEX
  5
2D0
100
AcDbEntity
  8
0
  6
CONTINUOUS
 62
     7
100
AcDbVertex
100
AcDb2dVertex
 10
7740.264043
 20
-15481.690153
 30
0.0
  0
VERTEX
  5
2D1
100
AcDbEntity
  8
0
  6
CONTINUOUS
 62
     7
100
AcDbVertex
100
AcDb2dVertex
 10
7740.550791
 20
-15480.997889
 30
0.0
  0
VERTEX
  5
2D2
100
AcDbEntity
  8
0
  6
CONTINUOUS
 62
     7
100
AcDbVertex
100
AcDb2dVertex
 10
7740.875213
 20
-15480.214666
 30
0.0
  0
VERTEX
  5
2D3
100
AcDbEntity
  8
0
  6
CONTINUOUS
 62
     7
100
AcDbVertex
100
AcDb2dVertex
 10
7741.219016
 20
-15479.384639
 30
0.0
  0
VERTEX
  5
2D4
100
AcDbEntity
  8
0
  6
CONTINUOUS
 62
     7
100
AcDbVertex
100
AcDb2dVertex
 10
7741.562827
 20
-15478.554613
 30
0.0
  0
VERTEX
  5
2D5
100
AcDbEntity
  8
0
  6
CONTINUOUS
 62
     7
100
AcDbVertex
100
AcDb2dVertex
 10
7741.887248
 20
-15477.771389
 30
0.0
  0
VERTEX
  5
2D6
100
AcDbEntity
  8
0
  6
CONTINUOUS
 62
     7
100
AcDbVertex
100
AcDb2dVertex
 10
7742.173988
 20
-15477.079126
 30
0.0
  0
VERTEX
  5
2D7
100
AcDbEntity
  8
0
  6
CONTINUOUS
 62
     7
100
AcDbVertex
100
AcDb2dVertex
 10
7742.406891
 20
-15476.516861
 30
0.0
  0
SEQEND
  5
2D8
100
AcDbEntity
  8
0
  6
CONTINUOUS
 62
     7
  0
LINE
  5
2D9
100
AcDbEntity
  8
0
  6
CONTINUOUS
 62
     7
100
AcDbLine
 10
7830.366483
 20
-15512.950918
 30
0.0
 11
7742.406891
 21
-15476.516861
 31
0.0
  0
POLYLINE
  5
2DA
100
AcDbEntity
  8
0
  6
CONTINUOUS
 62
     7
100
AcDb2dPolyline
 66
     1
 10
0.0
 20
0.0
 30
0.0
 70
   128
  0
VERTEX
  5
2DB
100
AcDbEntity
  8
0
  6
CONTINUOUS
 62
     7
100
AcDbVertex
100
AcDb2dVertex
 10
7830.366483
 20
-15512.950918
 30
0.0
  0
VERTEX
  5
2DC
100
AcDbEntity
  8
0
  6
CONTINUOUS
 62
     7
100
AcDbVertex
100
AcDb2dVertex
 10
7830.779339
 20
-15513.568823
 30
0.0
  0
VERTEX
  5
2DD
100
AcDbEntity
  8
0
  6
CONTINUOUS
 62
     7
100
AcDbVertex
100
AcDb2dVertex
 10
7831.267872
 20
-15514.299946
 30
0.0
  0
VERTEX
  5
2DE
100
AcDbEntity
  8
0
  6
CONTINUOUS
 62
     7
100
AcDbVertex
100
AcDb2dVertex
 10
7831.818312
 20
-15515.123735
 30
0.0
  0
SEQEND
  5
2DF
100
AcDbEntity
  8
0
  6
CONTINUOUS
 62
     7
  0
LINE
  5
2E0
100
AcDbEntity
  8
0
  6
CONTINUOUS
 62
     7
100
AcDbLine
 10
7831.818312
 20
-15515.123735
 30
0.0
 11
7836.574598
 21
-15515.123735
 31
0.0
  0
ARC
  5
2E1
100
AcDbEntity
  8
0
  6
CONTINUOUS
 62
     7
100
AcDbCircle
 10
7827.500848
 20
-15515.123725
 30
0.0
 40
9.073749
100
AcDbArc
 50
314.999863
 51
359.999937
  0
POLYLINE
  5
2E2
100
AcDbEntity
  8
0
  6
CONTINUOUS
 62
     7
100
AcDb2dPolyline
 66
     1
 10
0.0
 20
0.0
 30
0.0
 70
   128
  0
VERTEX
  5
2E3
100
AcDbEntity
  8
0
  6
CONTINUOUS
 62
     7
100
AcDbVertex
100
AcDb2dVertex
 10
7830.553738
 20
-15518.176661
 30
0.0
  0
VERTEX
  5
2E4
100
AcDbEntity
  8
0
  6
CONTINUOUS
 62
     7
100
AcDbVertex
100
AcDb2dVertex
 10
7830.994492
 20
-15518.6174
 30
0.0
  0
VERTEX
  5
2E5
100
AcDbEntity
  8
0
  6
CONTINUOUS
 62
     7
100
AcDbVertex
100
AcDb2dVertex
 10
7831.457482
 20
-15519.08039
 30
0.0
  0
VERTEX
  5
2E6
100
AcDbEntity
  8
0
  6
CONTINUOUS
 62
     7
100
AcDbVertex
100
AcDb2dVertex
 10
7831.928564
 20
-15519.551471
 30
0.0
  0
VERTEX
  5
2E7
100
AcDbEntity
  8
0
  6
CONTINUOUS
 62
     7
100
AcDbVertex
100
AcDb2dVertex
 10
7832.393326
 20
-15520.016234
 30
0.0
  0
VERTEX
  5
2E8
100
AcDbEntity
  8
0
  6
CONTINUOUS
 62
     7
100
AcDbVertex
100
AcDb2dVertex
 10
7832.837568
 20
-15520.460476
 30
0.0
  0
VERTEX
  5
2E9
100
AcDbEntity
  8
0
  6
CONTINUOUS
 62
     7
100
AcDbVertex
100
AcDb2dVertex
 10
7833.247697
 20
-15520.870619
 30
0.0
  0
VERTEX
  5
2EA
100
AcDbEntity
  8
0
  6
CONTINUOUS
 62
     7
100
AcDbVertex
100
AcDb2dVertex
 10
7833.611209
 20
-15521.234117
 30
0.0
  0
VERTEX
  5
2EB
100
AcDbEntity
  8
0
  6
CONTINUOUS
 62
     7
100
AcDbVertex
100
AcDb2dVertex
 10
7833.916943
 20
-15521.53985
 30
0.0
  0
SEQEND
  5
2EC
100
AcDbEntity
  8
0
  6
CONTINUOUS
 62
     7
  0
POLYLINE
  5
2ED
100
AcDbEntity
  8
0
  6
CONTINUOUS
 62
     7
100
AcDb2dPolyline
 66
     1
 10
0.0
 20
0.0
 30
0.0
 70
   128
  0
VERTEX
  5
2EE
100
AcDbEntity
  8
0
  6
CONTINUOUS
 62
     7
100
AcDbVertex
100
AcDb2dVertex
 10
7383.464901
 20
-15700.837781
 30
0.0
  0
VERTEX
  5
2EF
100
AcDbEntity
  8
0
  6
CONTINUOUS
 62
     7
100
AcDbVertex
100
AcDb2dVertex
 10
7383.27161
 20
-15699.86608
 30
0.0
  0
VERTEX
  5
2F0
100
AcDbEntity
  8
0
  6
CONTINUOUS
 62
     7
100
AcDbVertex
100
AcDb2dVertex
 10
7383.100077
 20
-15699.003648
 30
0.0
  0
VERTEX
  5
2F1
100
AcDbEntity
  8
0
  6
CONTINUOUS
 62
     7
100
AcDbVertex
100
AcDb2dVertex
 10
7382.955102
 20
-15698.274775
 30
0.0
  0
SEQEND
  5
2F2
100
AcDbEntity
  8
0
  6
CONTINUOUS
 62
     7
  0
LINE
  5
2F3
100
AcDbEntity
  8
0
  6
CONTINUOUS
 62
     7
100
AcDbLine
 10
7382.955102
 20
-15698.274775
 30
0.0
 11
7419.389136
 21
-15610.315191
 31
0.0
  0
POLYLINE
  5
2F4
100
AcDbEntity
  8
0
  6
CONTINUOUS
 62
     7
100
AcDb2dPolyline
 66
     1
 10
0.0
 20
0.0
 30
0.0
 70
   128
  0
VERTEX
  5
2F5
100
AcDbEntity
  8
0
  6
CONTINUOUS
 62
     7
100
AcDbVertex
100
AcDb2dVertex
 10
7419.389136
 20
-15610.315191
 30
0.0
  0
VERTEX
  5
2F6
100
AcDbEntity
  8
0
  6
CONTINUOUS
 62
     7
100
AcDbVertex
100
AcDb2dVertex
 10
7419.951409
 20
-15610.548094
 30
0.0
  0
VERTEX
  5
2F7
100
AcDbEntity
  8
0
  6
CONTINUOUS
 62
     7
100
AcDbVertex
100
AcDb2dVertex
 10
7420.643665
 20
-15610.834841
 30
0.0
  0
VERTEX
  5
2F8
100
AcDbEntity
  8
0
  6
CONTINUOUS
 62
     7
100
AcDbVertex
100
AcDb2dVertex
 10
7421.426889
 20
-15611.159263
 30
0.0
  0
VERTEX
  5
2F9
100
AcDbEntity
  8
0
  6
CONTINUOUS
 62
     7
100
AcDbVertex
100
AcDb2dVertex
 10
7422.256923
 20
-15611.503059
 30
0.0
  0
VERTEX
  5
2FA
100
AcDbEntity
  8
0
  6
CONTINUOUS
 62
     7
100
AcDbVertex
100
AcDb2dVertex
 10
7423.086941
 20
-15611.84687
 30
0.0
  0
VERTEX
  5
2FB
100
AcDbEntity
  8
0
  6
CONTINUOUS
 62
     7
100
AcDbVertex
100
AcDb2dVertex
 10
7423.870165
 20
-15612.171292
 30
0.0
  0
VERTEX
  5
2FC
100
AcDbEntity
  8
0
  6
CONTINUOUS
 62
     7
100
AcDbVertex
100
AcDb2dVertex
 10
7424.562436
 20
-15612.458039
 30
0.0
  0
VERTEX
  5
2FD
100
AcDbEntity
  8
0
  6
CONTINUOUS
 62
     7
100
AcDbVertex
100
AcDb2dVertex
 10
7425.124694
 20
-15612.690942
 30
0.0
  0
SEQEND
  5
2FE
100
AcDbEntity
  8
0
  6
CONTINUOUS
 62
     7
  0
LINE
  5
2FF
100
AcDbEntity
  8
0
  6
CONTINUOUS
 62
     7
100
AcDbLine
 10
7388.690644
 20
-15700.650511
 30
0.0
 11
7425.124694
 21
-15612.690942
 31
0.0
  0
POLYLINE
  5
300
100
AcDbEntity
  8
0
  6
CONTINUOUS
 62
     7
100
AcDb2dPolyline
 66
     1
 10
0.0
 20
0.0
 30
0.0
 70
   128
  0
VERTEX
  5
301
100
AcDbEntity
  8
0
  6
CONTINUOUS
 62
     7
100
AcDbVertex
100
AcDb2dVertex
 10
7386.517827
 20
-15702.102355
 30
0.0
  0
VERTEX
  5
302
100
AcDbEntity
  8
0
  6
CONTINUOUS
 62
     7
100
AcDbVertex
100
AcDb2dVertex
 10
7387.341601
 20
-15701.55193
 30
0.0
  0
VERTEX
  5
303
100
AcDbEntity
  8
0
  6
CONTINUOUS
 62
     7
100
AcDbVertex
100
AcDb2dVertex
 10
7388.072739
 20
-15701.063382
 30
0.0
  0
VERTEX
  5
304
100
AcDbEntity
  8
0
  6
CONTINUOUS
 62
     7
100
AcDbVertex
100
AcDb2dVertex
 10
7388.690644
 20
-15700.650511
 30
0.0
  0
SEQEND
  5
305
100
AcDbEntity
  8
0
  6
CONTINUOUS
 62
     7
  0
ARC
  5
306
100
AcDbEntity
  8
0
  6
CONTINUOUS
 62
     7
100
AcDbCircle
 10
7378.864144
 20
-15690.282436
 30
0.0
 40
14.081525
100
AcDbArc
 50
292.413777
 51
302.92403
  0
ARC
  5
307
100
AcDbEntity
  8
0
  6
CONTINUOUS
 62
     7
100
AcDbCircle
 10
7396.374248
 20
-15698.160307
 30
0.0
 40
13.184086
100
AcDbArc
 50
191.717351
 51
202.945358
  0
LINE
  5
308
100
AcDbEntity
  8
0
  6
CONTINUOUS
 62
     7
100
AcDbLine
 10
7386.517827
 20
-15702.102355
 30
0.0
 11
7386.517827
 21
-15706.858626
 31
0.0
  0
ARC
  5
309
100
AcDbEntity
  8
0
  6
CONTINUOUS
 62
     7
100
AcDbCircle
 10
7386.517795
 20
-15697.784905
 30
0.0
 40
9.073721
100
AcDbArc
 50
224.999921
 51
270.0
  0
POLYLINE
  5
30A
100
AcDbEntity
  8
0
  6
CONTINUOUS
 62
     7
100
AcDb2dPolyline
 66
     1
 10
0.0
 20
0.0
 30
0.0
 70
   128
  0
VERTEX
  5
30B
100
AcDbEntity
  8
0
  6
CONTINUOUS
 62
     7
100
AcDbVertex
100
AcDb2dVertex
 10
7383.464901
 20
-15700.837781
 30
0.0
  0
VERTEX
  5
30C
100
AcDbEntity
  8
0
  6
CONTINUOUS
 62
     7
100
AcDbVertex
100
AcDb2dVertex
 10
7383.024162
 20
-15701.278551
 30
0.0
  0
VERTEX
  5
30D
100
AcDbEntity
  8
0
  6
CONTINUOUS
 62
     7
100
AcDbVertex
100
AcDb2dVertex
 10
7382.561158
 20
-15701.741525
 30
0.0
  0
VERTEX
  5
30E
100
AcDbEntity
  8
0
  6
CONTINUOUS
 62
     7
100
AcDbVertex
100
AcDb2dVertex
 10
7382.090076
 20
-15702.212607
 30
0.0
  0
VERTEX
  5
30F
100
AcDbEntity
  8
0
  6
CONTINUOUS
 62
     7
100
AcDbVertex
100
AcDb2dVertex
 10
7381.625313
 20
-15702.67737
 30
0.0
  0
VERTEX
  5
310
100
AcDbEntity
  8
0
  6
CONTINUOUS
 62
     7
100
AcDbVertex
100
AcDb2dVertex
 10
7381.181086
 20
-15703.121626
 30
0.0
  0
VERTEX
  5
311
100
AcDbEntity
  8
0
  6
CONTINUOUS
 62
     7
100
AcDbVertex
100
AcDb2dVertex
 10
7380.770958
 20
-15703.531755
 30
0.0
  0
VERTEX
  5
312
100
AcDbEntity
  8
0
  6
CONTINUOUS
 62
     7
100
AcDbVertex
100
AcDb2dVertex
 10
7380.407445
 20
-15703.895237
 30
0.0
  0
VERTEX
  5
313
100
AcDbEntity
  8
0
  6
CONTINUOUS
 62
     7
100
AcDbVertex
100
AcDb2dVertex
 10
7380.101697
 20
-15704.200986
 30
0.0
  0
SEQEND
  5
314
100
AcDbEntity
  8
0
  6
CONTINUOUS
 62
     7
  0
LINE
  5
315
100
AcDbEntity
  8
0
  6
CONTINUOUS
 62
     7
100
AcDbLine
 10
7380.101697
 20
-15067.724619
 30
0.0
 11
7197.440561
 21
-15250.385755
 31
0.0
  0
LINE
  5
316
100
AcDbEntity
  8
0
  6
CONTINUOUS
 62
     7
100
AcDbLine
 10
7382.955102
 20
-15073.65083
 30
0.0
 11
7203.366772
 21
-15253.23913
 31
0.0
  0
LINE
  5
317
100
AcDbEntity
  8
0
  6
CONTINUOUS
 62
     7
100
AcDbLine
 10
7200.991036
 20
-15258.974688
 30
0.0
 11
7200.991036
 21
-15512.950918
 31
0.0
  0
LINE
  5
318
100
AcDbEntity
  8
0
  6
CONTINUOUS
 62
     7
100
AcDbLine
 10
7194.782921
 20
-15256.80187
 30
0.0
 11
7194.782921
 21
-15515.123735
 31
0.0
  0
LINE
  5
319
100
AcDbEntity
  8
0
  6
CONTINUOUS
 62
     7
100
AcDbLine
 10
7644.839685
 20
-15065.066979
 30
0.0
 11
7386.517827
 21
-15065.066979
 31
0.0
  0
LINE
  5
31A
100
AcDbEntity
  8
0
  6
CONTINUOUS
 62
     7
100
AcDbLine
 10
7642.666869
 20
-15071.275094
 30
0.0
 11
7388.690644
 21
-15071.275094
 31
0.0
  0
ARC
  5
31B
100
AcDbEntity
  8
0
  6
CONTINUOUS
 62
     7
100
AcDbCircle
 10
7290.138499
 20
-15292.540966
 30
0.0
 40
3.104049
100
AcDbArc
 50
1.704122
 51
67.500209
  0
ARC
  5
31C
100
AcDbEntity
  8
0
  6
CONTINUOUS
 62
     7
100
AcDbCircle
 10
7290.138491
 20
-15292.540921
 30
0.0
 40
3.104102
100
AcDbArc
 50
247.500342
 51
305.938195
  0
LINE
  5
31D
100
AcDbEntity
  8
0
  6
CONTINUOUS
 62
     7
100
AcDbLine
 10
7197.440561
 20
-15521.53985
 30
0.0
 11
7380.101697
 21
-15704.200986
 31
0.0
  0
LINE
  5
31E
100
AcDbEntity
  8
0
  6
CONTINUOUS
 62
     7
100
AcDbLine
 10
7203.366772
 20
-15518.686475
 30
0.0
 11
7382.955102
 21
-15698.274775
 31
0.0
  0
ARC
  5
31F
100
AcDbEntity
  8
0
  6
CONTINUOUS
 62
     7
100
AcDbCircle
 10
7422.256912
 20
-15160.422531
 30
0.0
 40
3.104062
100
AcDbArc
 50
202.5002
 51
22.49989
  0
ARC
  5
320
100
AcDbEntity
  8
0
  6
CONTINUOUS
 62
     7
100
AcDbCircle
 10
7290.138493
 20
-15479.384648
 30
0.0
 40
3.104069
100
AcDbArc
 50
52.718717
 51
112.499952
  0
ARC
  5
321
100
AcDbEntity
  8
0
  6
CONTINUOUS
 62
     7
100
AcDbCircle
 10
7290.138468
 20
-15479.384607
 30
0.0
 40
3.10409
100
AcDbArc
 50
292.500072
 51
356.589408
  0
LINE
  5
322
100
AcDbEntity
  8
0
  6
CONTINUOUS
 62
     7
100
AcDbLine
 10
7833.916943
 20
-15250.385755
 30
0.0
 11
7651.255807
 21
-15067.724619
 31
0.0
  0
LINE
  5
323
100
AcDbEntity
  8
0
  6
CONTINUOUS
 62
     7
100
AcDbLine
 10
7827.990732
 20
-15253.23913
 30
0.0
 11
7648.40242
 21
-15073.65083
 31
0.0
  0
ARC
  5
324
100
AcDbEntity
  8
0
  6
CONTINUOUS
 62
     7
100
AcDbCircle
 10
7609.100592
 20
-15160.422532
 30
0.0
 40
3.10406
100
AcDbArc
 50
157.500071
 51
337.499799
  0
ARC
  5
325
100
AcDbEntity
  8
0
  6
CONTINUOUS
 62
     7
100
AcDbCircle
 10
7422.256912
 20
-15611.503075
 30
0.0
 40
3.104062
100
AcDbArc
 50
337.500113
 51
157.499797
  0
LINE
  5
326
100
AcDbEntity
  8
0
  6
CONTINUOUS
 62
     7
100
AcDbLine
 10
7644.839685
 20
-15706.858626
 30
0.0
 11
7386.517827
 21
-15706.858626
 31
0.0
  0
LINE
  5
327
100
AcDbEntity
  8
0
  6
CONTINUOUS
 62
     7
100
AcDbLine
 10
7642.666869
 20
-15700.650511
 30
0.0
 11
7388.690644
 21
-15700.650511
 31
0.0
  0
LINE
  5
328
100
AcDbEntity
  8
0
  6
CONTINUOUS
 62
     7
100
AcDbLine
 10
7836.574598
 20
-15515.123735
 30
0.0
 11
7836.574598
 21
-15256.80187
 31
0.0
  0
LINE
  5
329
100
AcDbEntity
  8
0
  6
CONTINUOUS
 62
     7
100
AcDbLine
 10
7830.366483
 20
-15512.950918
 30
0.0
 11
7830.366483
 21
-15258.974688
 31
0.0
  0
ARC
  5
32A
100
AcDbEntity
  8
0
  6
CONTINUOUS
 62
     7
100
AcDbCircle
 10
7741.219022
 20
-15292.540969
 30
0.0
 40
3.104058
100
AcDbArc
 50
112.50005
 51
292.499965
  0
LINE
  5
32B
100
AcDbEntity
  8
0
  6
CONTINUOUS
 62
     7
100
AcDbLine
 10
7651.255807
 20
-15704.200986
 30
0.0
 11
7833.916943
 21
-15521.53985
 31
0.0
  0
LINE
  5
32C
100
AcDbEntity
  8
0
  6
CONTINUOUS
 62
     7
100
AcDbLine
 10
7648.40242
 20
-15698.274775
 30
0.0
 11
7827.990732
 21
-15518.686475
 31
0.0
  0
ARC
  5
32D
100
AcDbEntity
  8
0
  6
CONTINUOUS
 62
     7
100
AcDbCircle
 10
7609.100592
 20
-15611.503072
 30
0.0
 40
3.10406
100
AcDbArc
 50
22.500181
 51
202.499949
  0
ARC
  5
32E
100
AcDbEntity
  8
0
  6
CONTINUOUS
 62
     7
100
AcDbCircle
 10
7741.219022
 20
-15479.384637
 30
0.0
 40
3.104058
100
AcDbArc
 50
67.500036
 51
247.499948
  0
LINE
  5
32F
100
AcDbEntity
  8
0
  6
CONTINUOUS
 62
     7
100
AcDbLine
 10
7648.785538
 20
-15064.614586
 30
0.0
 11
7382.571977
 21
-15064.614586
 31
0.0
  0
LINE
  5
330
100
AcDbEntity
  8
0
  6
CONTINUOUS
 62
     7
100
AcDbLine
 10
7837.026961
 20
-15252.85602
 30
0.0
 11
7648.785538
 21
-15064.614586
 31
0.0
  0
LINE
  5
331
100
AcDbEntity
  8
0
  6
CONTINUOUS
 62
     7
100
AcDbLine
 10
7837.026961
 20
-15252.85602
 30
0.0
 11
7837.026961
 21
-15519.069585
 31
0.0
  0
LINE
  5
332
100
AcDbEntity
  8
0
  6
CONTINUOUS
 62
     7
100
AcDbLine
 10
7837.026961
 20
-15519.069585
 30
0.0
 11
7648.785538
 21
-15707.311019
 31
0.0
  0
LINE
  5
333
100
AcDbEntity
  8
0
  6
CONTINUOUS
 62
     7
100
AcDbLine
 10
7648.785538
 20
-15707.311019
 30
0.0
 11
7382.571977
 21
-15707.311019
 31
0.0
  0
LINE
  5
334
100
AcDbEntity
  8
0
  6
CONTINUOUS
 62
     7
100
AcDbLine
 10
7382.571977
 20
-15707.311019
 30
0.0
 11
7194.330558
 21
-15519.069585
 31
0.0
  0
LINE
  5
335
100
AcDbEntity
  8
0
  6
CONTINUOUS
 62
     7
100
AcDbLine
 10
7194.330558
 20
-15252.85602
 30
0.0
 11
7194.330558
 21
-15519.069585
 31
0.0
  0
LINE
  5
336
100
AcDbEntity
  8
0
  6
CONTINUOUS
 62
     7
100
AcDbLine
 10
7382.571977
 20
-15064.614586
 30
0.0
 11
7194.330558
 21
-15252.85602
 31
0.0
  0
LINE
  5
337
100
AcDbEntity
  8
0
  6
CONTINUOUS
 62
     7
100
AcDbLine
 10
7639.378386
 20
-16184.306388
 30
0.0
 11
7742.927409
 21
-16351.966544
 31
0.0
  0
ARC
  5
338
100
AcDbEntity
  8
0
  6
CONTINUOUS
 62
     7
100
AcDbCircle
 10
7759.828909
 20
-16341.527965
 30
0.0
 40
19.865162
100
AcDbArc
 50
211.7
 51
270.0
  0
LINE
  5
339
100
AcDbEntity
  8
0
  6
CONTINUOUS
 62
     7
100
AcDbLine
 10
7640.10062
 20
-16183.928785
 30
0.0
 11
7743.619031
 21
-16351.53939
 31
0.0
  0
ARC
  5
33A
100
AcDbEntity
  8
0
  6
CONTINUOUS
 62
     7
100
AcDbCircle
 10
7759.828909
 20
-16341.527965
 30
0.0
 40
19.052265
100
AcDbArc
 50
211.7
 51
270.0
  0
ARC
  5
33B
100
AcDbEntity
  8
0
  6
CONTINUOUS
 62
     7
100
AcDbCircle
 10
7280.983222
 20
-16341.527965
 30
0.0
 40
19.865162
100
AcDbArc
 50
270.0
 51
360.0
  0
ARC
  5
33C
100
AcDbEntity
  8
0
  6
CONTINUOUS
 62
     7
100
AcDbCircle
 10
7280.983222
 20
-16341.527965
 30
0.0
 40
19.052265
100
AcDbArc
 50
270.0
 51
360.0
  0
LINE
  5
33D
100
AcDbEntity
  8
0
  6
CONTINUOUS
 62
     7
100
AcDbLine
 10
7300.035487
 20
-16341.527965
 30
0.0
 11
7300.035481
 21
-16323.526867
 31
0.0
  0
LINE
  5
33E
100
AcDbEntity
  8
0
  6
CONTINUOUS
 62
     7
100
AcDbLine
 10
7300.848384
 20
-16341.527965
 30
0.0
 11
7300.848373
 21
-16323.372564
 31
0.0
  0
LINE
  5
33F
100
AcDbEntity
  8
0
  6
CONTINUOUS
 62
     7
100
AcDbLine
 10
7639.378386
 20
-16184.306388
 30
0.0
 11
7631.990866
 21
-16167.316255
 31
0.0
  0
LINE
  5
340
100
AcDbEntity
  8
0
  6
CONTINUOUS
 62
     7
100
AcDbLine
 10
7294.023103
 20
-16306.045575
 30
0.0
 11
7300.848373
 21
-16323.372564
 31
0.0
  0
LINE
  5
341
100
AcDbEntity
  8
0
  6
CONTINUOUS
 62
     7
100
AcDbLine
 10
7640.10062
 20
-16183.928785
 30
0.0
 11
7632.704599
 21
-16166.919112
 31
0.0
  0
LINE
  5
342
100
AcDbEntity
  8
0
  6
CONTINUOUS
 62
     7
100
AcDbLine
 10
7293.237595
 20
-16306.269438
 30
0.0
 11
7300.035481
 21
-16323.526867
 31
0.0
  0
ARC
  5
343
100
AcDbEntity
  8
0
  6
CONTINUOUS
 62
     7
100
AcDbCircle
 10
7318.222905
 20
-16301.68166
 30
0.0
 40
25.40302
100
AcDbArc
 50
173.84742
 51
190.404692
  0
LINE
  5
344
100
AcDbEntity
  8
0
  6
CONTINUOUS
 62
     7
100
AcDbLine
 10
7292.966207
 20
-16298.959053
 30
0.0
 11
7293.826292
 21
-16298.602794
 31
0.0
  0
ARC
  5
345
100
AcDbEntity
  8
0
  6
CONTINUOUS
 62
     7
100
AcDbCircle
 10
7318.222905
 20
-16301.68166
 30
0.0
 40
24.590123
100
AcDbArc
 50
172.807265
 51
190.222204
  0
ARC
  5
346
100
AcDbEntity
  8
0
  6
CONTINUOUS
 62
     7
100
AcDbCircle
 10
7197.886976
 20
-16362.790292
 30
0.0
 40
2.997556
100
AcDbArc
 50
27.781545
 51
152.218455
  0
LINE
  5
347
100
AcDbEntity
  8
0
  6
CONTINUOUS
 62
     7
100
AcDbLine
 10
7195.234944
 20
-16361.393126
 30
0.0
 11
7194.330558
 21
-16361.393117
 31
0.0
  0
LINE
  5
348
100
AcDbEntity
  8
0
  6
CONTINUOUS
 62
     7
100
AcDbLine
 10
7194.330571
 20
-16360.580247
 30
0.0
 11
7194.330558
 21
-16361.393117
 31
0.0
  0
LINE
  5
349
100
AcDbEntity
  8
0
  6
CONTINUOUS
 62
     7
100
AcDbLine
 10
7194.782918
 20
-16360.58023
 30
0.0
 11
7194.330571
 21
-16360.580247
 31
0.0
  0
ARC
  5
34A
100
AcDbEntity
  8
0
  6
CONTINUOUS
 62
     7
100
AcDbCircle
 10
7197.886976
 20
-16362.790292
 30
0.0
 40
3.810453
100
AcDbArc
 50
35.450543
 51
144.549457
  0
LINE
  5
34B
100
AcDbEntity
  8
0
  6
CONTINUOUS
 62
     7
100
AcDbLine
 10
7280.983222
 20
-16360.58023
 30
0.0
 11
7200.991034
 21
-16360.58023
 31
0.0
  0
LINE
  5
34C
100
AcDbEntity
  8
0
  6
CONTINUOUS
 62
     7
100
AcDbLine
 10
7280.983222
 20
-16361.393126
 30
0.0
 11
7200.539007
 21
-16361.393126
 31
0.0
  0
ARC
  5
34D
100
AcDbEntity
  8
0
  6
CONTINUOUS
 62
     7
100
AcDbCircle
 10
7611.793269
 20
-16181.342345
 30
0.0
 40
25.40302
100
AcDbArc
 50
34.595308
 51
51.15258
  0
ARC
  5
34E
100
AcDbEntity
  8
0
  6
CONTINUOUS
 62
     7
100
AcDbCircle
 10
7611.793269
 20
-16181.342345
 30
0.0
 40
24.590123
100
AcDbArc
 50
34.777796
 51
52.192735
  0
ARC
  5
34F
100
AcDbEntity
  8
0
  6
CONTINUOUS
 62
     7
100
AcDbCircle
 10
7833.470537
 20
-16362.790292
 30
0.0
 40
2.997556
100
AcDbArc
 50
27.781545
 51
152.218455
  0
ARC
  5
350
100
AcDbEntity
  8
0
  6
CONTINUOUS
 62
     7
100
AcDbCircle
 10
7833.470537
 20
-16362.790292
 30
0.0
 40
3.810453
100
AcDbArc
 50
35.450543
 51
144.549457
  0
LINE
  5
351
100
AcDbEntity
  8
0
  6
CONTINUOUS
 62
     7
100
AcDbLine
 10
7837.026952
 20
-16360.580231
 30
0.0
 11
7837.026976
 21
-16361.39315
 31
0.0
  0
LINE
  5
352
100
AcDbEntity
  8
0
  6
CONTINUOUS
 62
     7
100
AcDbLine
 10
7626.867192
 20
-16161.914247
 30
0.0
 11
7627.727278
 21
-16161.557988
 31
0.0
  0
LINE
  5
353
100
AcDbEntity
  8
0
  6
CONTINUOUS
 62
     7
100
AcDbLine
 10
7837.026952
 20
-16360.580231
 30
0.0
 11
7836.574594
 21
-16360.58023
 31
0.0
  0
LINE
  5
354
100
AcDbEntity
  8
0
  6
CONTINUOUS
 62
     7
100
AcDbLine
 10
7837.026976
 20
-16361.39315
 30
0.0
 11
7836.122568
 21
-16361.393126
 31
0.0
  0
LINE
  5
355
100
AcDbEntity
  8
0
  6
CONTINUOUS
 62
     7
100
AcDbLine
 10
7830.366479
 20
-16360.58023
 30
0.0
 11
7759.828909
 21
-16360.58023
 31
0.0
  0
LINE
  5
356
100
AcDbEntity
  8
0
  6
CONTINUOUS
 62
     7
100
AcDbLine
 10
7830.818505
 20
-16361.393126
 30
0.0
 11
7759.828909
 21
-16361.393126
 31
0.0
  0
POLYLINE
  5
357
100
AcDbEntity
  8
0
  6
CONTINUOUS
 62
     7
100
AcDb2dPolyline
 66
     1
 10
0.0
 20
0.0
 30
0.0
 70
   128
  0
VERTEX
  5
358
100
AcDbEntity
  8
0
  6
CONTINUOUS
 62
     7
100
AcDbVertex
100
AcDb2dVertex
 10
7288.615725
 20
-16358.979842
 30
0.0
  0
VERTEX
  5
359
100
AcDbEntity
  8
0
  6
CONTINUOUS
 62
     7
100
AcDbVertex
100
AcDb2dVertex
 10
7288.271925
 20
-16359.087277
 30
0.0
  0
VERTEX
  5
35A
100
AcDbEntity
  8
0
  6
CONTINUOUS
 62
     7
100
AcDbVertex
100
AcDb2dVertex
 10
7288.146863
 20
-16359.182181
 30
0.0
  0
SEQEND
  5
35B
100
AcDbEntity
  8
0
  6
CONTINUOUS
 62
     7
  0
LINE
  5
35C
100
AcDbEntity
  8
0
  6
CONTINUOUS
 62
     5
100
AcDbLine
 10
7293.826292
 20
-16298.602794
 30
0.0
 11
7626.867192
 21
-16161.914247
 31
0.0
  0
LINE
  5
35D
100
AcDbEntity
  8
0
  6
CONTINUOUS
 62
     5
100
AcDbLine
 10
7280.983222
 20
-16361.393126
 30
0.0
 11
7757.620401
 21
-16361.393126
 31
0.0
  0
LINE
  5
35E
100
AcDbEntity
  8
0
  6
STYLE_07
 62
     1
100
AcDbLine
 10
7396.905439
 20
-16077.097667
 30
0.0
 11
7523.788045
 21
-16383.419374
 31
0.0
  0
LINE
  5
35F
100
AcDbEntity
  8
0
  6
STYLE_07
 62
     1
100
AcDbLine
 10
7460.346742
 20
-16361.393126
 30
0.0
 11
7460.346742
 21
-15035.244047
 31
0.0
  0
LINE
  5
360
100
AcDbEntity
  8
0
  6
STYLE_07
 62
     1
100
AcDbLine
 10
7194.330558
 20
-15385.962803
 30
0.0
 11
7889.016717
 21
-15385.962803
 31
0.0
  0
ELLIPSE
  5
361
100
AcDbEntity
  8
0
  6
CONTINUOUS
 62
     7
100
AcDbEllipse
 10
7460.346742
 20
-15385.962803
 30
0.0
 11
-0.0000000000000331
 21
-179.99999999999997
 31
0.0
210
0.0
220
0.0
230
1.0
 40
0.916654
 41
0.0
 42
6.2831853071795862
  0
ELLIPSE
  5
362
100
AcDbEntity
  8
0
  6
CONTINUOUS
 62
     7
100
AcDbEllipse
 10
7522.657386
 20
-15385.942983
 30
0.0
 11
219.42542477119545
 21
0.0
 31
0.0
210
0.0
220
0.0
230
1.0
 40
0.905971
 41
4.1960505258724989
 42
8.3713729406541795
  0
LINE
  5
363
100
AcDbEntity
  8
0
  6
STYLE_07
 62
     1
100
AcDbLine
 10
7282.506001
 20
-15385.962803
 30
0.0
 11
7758.306131
 21
-15385.962761
 31
0.0
  0
ELLIPSE
  5
364
100
AcDbEntity
  8
0
  6
CONTINUOUS
 62
     7
100
AcDbEllipse
 10
7520.407061
 20
-15385.962803
 30
0.0
 11
-237.90106053597628
 21
0.0000000000000291
 31
0.0
210
0.0
220
0.0
230
1.0
 40
0.914437
 41
0.0
 42
6.2831853071795862
  0
DIMENSION
  5
36E
100
AcDbEntity
  8
0
  6
CONTINUOUS
 62
     5
100
AcDbDimension
  2
*D4
 10
7015.4968
 20
-15071.573407
 30
0.0
 11
7002.9968
 21
-15392.695427
 31
0.0
 70
    32
  3
DIMSTYLE001
100
AcDbAlignedDimension
 13
7150.806937
 23
-15713.817447
 33
0.0
 14
7150.806937
 24
-15071.573407
 34
0.0
 50
90.0
100
AcDbRotatedDimension
1001
ACAD
1000
DSTYLE
1002
{
1070
    43
1040
1000.0
1070
    73
1070
     0
1070
    74
1070
     0
1070
    77
1070
     1
1070
   277
1070
     2
1070
   172
1070
     1
1070
   174
1070
     1
1070
   179
1070
     0
1070
   287
1070
     3
1070
   289
1070
     3
1070
     5
1000
_ORIGIN
1002
}
  0
DIMENSION
  5
378
100
AcDbEntity
  8
0
  6
CONTINUOUS
 62
     5
100
AcDbDimension
  2
*D5
 10
7837.026961
 20
-14956.128864
 30
0.0
 11
7515.904941
 21
-14943.628864
 31
0.0
 70
    32
  3
DIMSTYLE001
100
AcDbAlignedDimension
 13
7194.782921
 23
-15077.646165
 33
0.0
 14
7837.026961
 24
-15077.646165
 34
0.0
100
AcDbRotatedDimension
1001
ACAD
1000
DSTYLE
1002
{
1070
    43
1040
1000.0
1070
    73
1070
     0
1070
    74
1070
     0
1070
    77
1070
     1
1070
   277
1070
     2
1070
   172
1070
     1
1070
   174
1070
     1
1070
   179
1070
     0
1070
   287
1070
     3
1070
   289
1070
     3
1070
     5
1000
_ORIGIN
1002
}
  0
DIMENSION
  5
382
100
AcDbEntity
  8
0
  6
CONTINUOUS
 62
     5
100
AcDbDimension
  2
*D6
 10
7115.673088
 20
-15495.703842
 30
0.0
 11
7103.173088
 21
-15385.400258
 31
0.0
 70
    32
  3
DIMSTYLE001
100
AcDbAlignedDimension
 13
7220.153196
 23
-15275.096674
 33
0.0
 14
7219.733562
 24
-15495.703842
 34
0.0
 50
270.0
100
AcDbRotatedDimension
1001
ACAD
1000
DSTYLE
1002
{
1070
    43
1040
1000.0
1070
    73
1070
     0
1070
    74
1070
     0
1070
    77
1070
     1
1070
   277
1070
     2
1070
   172
1070
     1
1070
   174
1070
     1
1070
   179
1070
     0
1070
   287
1070
     3
1070
   289
1070
     3
1070
     5
1000
_ORIGIN
1002
}
  0
DIMENSION
  5
38C
100
AcDbEntity
  8
0
  6
CONTINUOUS
 62
     5
100
AcDbDimension
  2
*D7
 10
7570.259308
 20
-16023.989445
 30
0.0
 11
7398.992728
 21
-16080.769798
 31
0.0
 70
    33
  3
DIMSTYLE001
100
AcDbAlignedDimension
 13
7274.956997
 23
-16252.62786
 33
0.0
 14
7607.997897
 24
-16115.939313
 34
0.0
 50
22.314507
1001
ACAD
1000
DSTYLE
1002
{
1070
    43
1040
1000.0
1070
    73
1070
     0
1070
    74
1070
     0
1070
    77
1070
     1
1070
   277
1070
     2
1070
   172
1070
     1
1070
   174
1070
     1
1070
   179
1070
     0
1070
   287
1070
     3
1070
   289
1070
     3
1070
     5
1000
_ORIGIN
1002
}
  0
DIMENSION
  5
396
100
AcDbEntity
  8
0
  6
CONTINUOUS
 62
     5
100
AcDbDimension
  2
*D8
 10
7837.026961
 20
-16570.00495
 30
0.0
 11
7515.904941
 21
-16557.50495
 31
0.0
 70
    32
  3
DIMSTYLE001
100
AcDbAlignedDimension
 13
7194.782921
 23
-16448.487649
 33
0.0
 14
7837.026961
 24
-16448.487649
 34
0.0
100
AcDbRotatedDimension
1001
ACAD
1000
DSTYLE
1002
{
1070
    43
1040
1000.0
1070
    73
1070
     0
1070
    74
1070
     0
1070
    77
1070
     1
1070
   277
1070
     2
1070
   172
1070
     1
1070
   174
1070
     1
1070
   179
1070
     0
1070
   287
1070
     3
1070
   289
1070
     3
1070
     5
1000
_ORIGIN
1002
}
  0
DIMENSION
  5
3A0
100
AcDbEntity
  8
0
  6
CONTINUOUS
 62
     5
100
AcDbDimension
  2
*D9
 10
7132.030815
 20
-16298.602794
 30
0.0
 11
7119.530815
 21
-16329.99796
 31
0.0
 70
    32
  3
DIMSTYLE001
100
AcDbAlignedDimension
 13
7200.539007
 23
-16361.393126
 33
0.0
 14
7200.539007
 24
-16298.602794
 34
0.0
 50
90.0
100
AcDbRotatedDimension
1001
ACAD
1000
DSTYLE
1002
{
1070
    43
1040
1000.0
1070
    73
1070
     0
1070
    74
1070
     0
1070
    77
1070
     1
1070
   277
1070
     2
1070
   172
1070
     1
1070
   174
1070
     1
1070
   179
1070
     0
1070
   287
1070
     3
1070
   289
1070
     3
1070
     5
1000
_ORIGIN
1002
}
  0
DIMENSION
  5
3AA
100
AcDbEntity
  8
0
  6
CONTINUOUS
 62
     5
100
AcDbDimension
  2
*D10
 10
7921.429043
 20
-16161.557988
 30
0.0
 11
7908.929043
 21
-16261.475569
 31
0.0
 70
    32
  3
DIMSTYLE001
100
AcDbAlignedDimension
 13
7837.026976
 23
-16361.39315
 33
0.0
 14
7837.026976
 24
-16161.557988
 34
0.0
 50
90.0
100
AcDbRotatedDimension
1001
ACAD
1000
DSTYLE
1002
{
1070
    43
1040
1000.0
1070
    73
1070
     0
1070
    74
1070
     0
1070
    77
1070
     1
1070
   277
1070
     2
1070
   172
1070
     1
1070
   174
1070
     1
1070
   179
1070
     0
1070
   287
1070
     3
1070
   289
1070
     3
1070
     5
1000
_ORIGIN
1002
}
  0
ENDSEC
  0
SECTION
  2
OBJECTS
  0
DICTIONARY
  5
19
100
AcDbDictionary
  3
ACAD_GROUP
350
1A
  3
ACAD_MLINESTYLE
350
1B
  0
DICTIONARY
  5
1A
102
{ACAD_REACTORS
330
19
102
}
100
AcDbDictionary
  0
DICTIONARY
  5
1B
102
{ACAD_REACTORS
330
19
102
}
100
AcDbDictionary
  3
STANDARD
350
1C
  0
MLINESTYLE
  5
1C
102
{ACAD_REACTORS
330
1B
102
}
100
AcDbMlineStyle
  2
STANDARD
 70
     0
  3

 62
     0
 51
90.0
 52
90.0
 71
     2
 49
0.5
 62
   256
  6
ByLayer
 49
-0.5
 62
   256
  6
ByLayer
  0
ENDSEC
  0
EOF
