  0
SECTION
  2
HEADER
  9
$ACADVER
  1
AC1014
  9
$ACADMAINTVER
 70
     0
  9
$DWGCODEPAGE
  3
ANSI_932
  9
$INSBASE
 10
0.0
 20
0.0
 30
0.0
  9
$EXTMIN
 10
18002.202784
 20
-20877.910282
 30
0.0
  9
$EXTMAX
 10
20895.452784
 20
-18868.610282
 30
0.0
  9
$LIMMIN
 10
-10251.172216
 20
-40873.260282
  9
$LIMMAX
 10
49148.827784
 20
1126.739718
  9
$ORTHOMODE
 70
     0
  9
$REGENMODE
 70
     1
  9
$FILLMODE
 70
     1
  9
$QTEXTMODE
 70
     0
  9
$MIRRTEXT
 70
     1
  9
$DRAGMODE
 70
     2
  9
$LTSCALE
 40
100.0
  9
$OSMODE
 70
     0
  9
$ATTMODE
 70
     1
  9
$TEXTSIZE
 40
0.2
  9
$TRACEWID
 40
0.05
  9
$TEXTSTYLE
  7
STANDARD
  9
$CLAYER
  8
0
  9
$CELTYPE
  6
CONTINUOUS
  9
$CECOLOR
 62
   256
  9
$CELTSCALE
 40
1.0
  9
$DELOBJ
 70
     1
  9
$DISPSILH
 70
     0
  9
$DIMSCALE
 40
1.0
  9
$DIMASZ
 40
0.18
  9
$DIMEXO
 40
0.0625
  9
$DIMDLI
 40
0.38
  9
$DIMRND
 40
0.0
  9
$DIMDLE
 40
0.0
  9
$DIMEXE
 40
0.18
  9
$DIMTP
 40
0.0
  9
$DIMTM
 40
0.0
  9
$DIMTXT
 40
0.18
  9
$DIMCEN
 40
0.09
  9
$DIMTSZ
 40
0.0
  9
$DIMTOL
 70
     0
  9
$DIMLIM
 70
     0
  9
$DIMTIH
 70
     1
  9
$DIMTOH
 70
     1
  9
$DIMSE1
 70
     0
  9
$DIMSE2
 70
     0
  9
$DIMTAD
 70
     0
  9
$DIMZIN
 70
     0
  9
$DIMBLK
  1

  9
$DIMASO
 70
     1
  9
$DIMSHO
 70
     1
  9
$DIMPOST
  1

  9
$DIMAPOST
  1

  9
$DIMALT
 70
     0
  9
$DIMALTD
 70
     2
  9
$DIMALTF
 40
25.4
  9
$DIMLFAC
 40
1.0
  9
$DIMTOFL
 70
     0
  9
$DIMTVP
 40
0.0
  9
$DIMTIX
 70
     0
  9
$DIMSOXD
 70
     0
  9
$DIMSAH
 70
     0
  9
$DIMBLK1
  1

  9
$DIMBLK2
  1

  9
$DIMSTYLE
  2
STANDARD
  9
$DIMCLRD
 70
     0
  9
$DIMCLRE
 70
     0
  9
$DIMCLRT
 70
     0
  9
$DIMTFAC
 40
1.0
  9
$DIMGAP
 40
0.09
  9
$DIMJUST
 70
     0
  9
$DIMSD1
 70
     0
  9
$DIMSD2
 70
     0
  9
$DIMTOLJ
 70
     1
  9
$DIMTZIN
 70
     0
  9
$DIMALTZ
 70
     0
  9
$DIMALTTZ
 70
     0
  9
$DIMFIT
 70
     3
  9
$DIMUPT
 70
     0
  9
$DIMUNIT
 70
     2
  9
$DIMDEC
 70
     4
  9
$DIMTDEC
 70
     4
  9
$DIMALTU
 70
     2
  9
$DIMALTTD
 70
     2
  9
$DIMTXSTY
  7
STANDARD
  9
$DIMAUNIT
 70
     0
  9
$LUNITS
 70
     2
  9
$LUPREC
 70
     4
  9
$SKETCHINC
 40
0.1
  9
$FILLETRAD
 40
0.0
  9
$AUNITS
 70
     0
  9
$AUPREC
 70
     0
  9
$MENU
  1
acad
  9
$ELEVATION
 40
0.0
  9
$PELEVATION
 40
0.0
  9
$THICKNESS
 40
0.0
  9
$LIMCHECK
 70
     0
  9
$BLIPMODE
 70
     1
  9
$CHAMFERA
 40
0.0
  9
$CHAMFERB
 40
0.0
  9
$CHAMFERC
 40
0.0
  9
$CHAMFERD
 40
0.0
  9
$SKPOLY
 70
     0
  9
$TDCREATE
 40
0.000000000
  9
$TDUPDATE
 40
0.000000000
  9
$TDINDWG
 40
0.0000000000
  9
$TDUSRTIMER
 40
0.0000000000
  9
$USRTIMER
 70
     1
  9
$ANGBASE
 50
0.0
  9
$ANGDIR
 70
     0
  9
$PDMODE
 70
     0
  9
$PDSIZE
 40
0.0
  9
$PLINEWID
 40
0.0
  9
$COORDS
 70
     0
  9
$SPLFRAME
 70
     0
  9
$SPLINETYPE
 70
     6
  9
$SPLINESEGS
 70
     8
  9
$ATTDIA
 70
     0
  9
$ATTREQ
 70
     1
  9
$HANDLING
 70
     1
  9
$HANDSEED
  5
436
  9
$SURFTAB1
 70
     6
  9
$SURFTAB2
 70
     6
  9
$SURFTYPE
 70
     6
  9
$SURFU
 70
     6
  9
$SURFV
 70
     6
  9
$UCSNAME
  2

  9
$UCSORG
 10
0.0
 20
0.0
 30
0.0
  9
$UCSXDIR
 10
1.0
 20
0.0
 30
0.0
  9
$UCSYDIR
 10
0.0
 20
1.0
 30
0.0
  9
$PUCSNAME
  2

  9
$PUCSORG
 10
0.0
 20
0.0
 30
0.0
  9
$PUCSXDIR
 10
1.0
 20
0.0
 30
0.0
  9
$PUCSYDIR
 10
0.0
 20
1.0
 30
0.0
  9
$USERI1
 70
     0
  9
$USERI2
 70
     0
  9
$USERI3
 70
     0
  9
$USERI4
 70
     0
  9
$USERI5
 70
     0
  9
$USERR1
 40
0.0
  9
$USERR2
 40
0.0
  9
$USERR3
 40
0.0
  9
$USERR4
 40
0.0
  9
$USERR5
 40
0.0
  9
$WORLDVIEW
 70
     1
  9
$SHADEDGE
 70
     3
  9
$SHADEDIF
 70
    70
  9
$TILEMODE
 70
     1
  9
$MAXACTVP
 70
    16
  9
$PINSBASE
 10
0.0
 20
0.0
 30
0.0
  9
$PLIMCHECK
 70
     0
  9
$PEXTMIN
 10
1.000000E+20
 20
1.000000E+20
 30
1.000000E+20
  9
$PEXTMAX
 10
-1.000000E+20
 20
-1.000000E+20
 30
-1.000000E+20
  9
$PLIMMIN
 10
0.0
 20
0.0
  9
$PLIMMAX
 10
12.0
 20
9.0
  9
$UNITMODE
 70
     0
  9
$VISRETAIN
 70
     0
  9
$PLINEGEN
 70
     1
  9
$PSLTSCALE
 70
     0
  9
$TREEDEPTH
 70
  3020
  9
$PICKSTYLE
 70
     1
  9
$CMLSTYLE
  2
STANDARD
  9
$CMLJUST
 70
     0
  9
$CMLSCALE
 40
1.0
  9
$PROXYGRAPHICS
 70
     0
  9
$MEASUREMENT
 70
     0
  0
ENDSEC
  0
SECTION
  2
CLASSES
  0
CLASS
  1
LWPOLYLINE
  2
AcDbPolyline
  3
"AutoCAD"
 90
        0
280
     0
281
     1
  0
CLASS
  1
IMAGE
  2
AcDbRasterImage
  3
ISM
 90
      127
280
     0
281
     1
  0
CLASS
  1
OLE2FRAME
  2
AcDbOle2Frame
  3
""
 90
        0
280
     0
281
     1
  0
CLASS
  1
HATCH
  2
AcDbHatch
  3
"ACAD_SEDONA"
 90
        0
280
     0
281
     1
  0
CLASS
  1
DICTIONARYVAR
  2
AcDbDictionaryVar
  3
"AutoCAD"
 90
        0
280
     0
281
     0
  0
CLASS
  1
RASTERVARIABLES
  2
AcDbRasterVariables
  3
ISM
 90
        0
280
     0
281
     0
  0
CLASS
  1
IMAGEDEF
  2
AcDbRasterImageDef
  3
ISM
 90
        0
280
     0
281
     0
  0
CLASS
  1
IMAGEDEF_REACTOR
  2
AcDbRasterImageDefReactor
  3
ISM
 90
        1
280
     0
281
     0
  0
CLASS
  1
IDBUFFER
  2
AcDbIdBuffer
  3
"Acad"
 90
        0
280
     0
281
     0
  0
CLASS
  1
SPATIAL_FILTER
  2
AcDbSpatialFilter
  3
"Acad"
 90
        0
280
     0
281
     0
  0
CLASS
  1
XRECORD
  2
AcDbXrecord
  3
"<Built In>"
 90
        0
280
     0
281
     0
  0
CLASS
  1
SORTENTSTABLE
  2
AcDbSortentsTable
  3
"AutoCAD"
 90
        0
280
     0
281
     0
  0
CLASS
  1
LAYER_INDEX
  2
AcDbLayerIndex
  3
"Acad"
 90
        0
280
     0
281
     0
  0
CLASS
  1
SPATIAL_INDEX
  2
AcDbSpatialIndex
  3
"Acad"
 90
        0
280
     0
281
     0
  0
CLASS
  1
OBJECT_PTR
  2
CAseDLPNTableRecord
  3
"ASE-LPNTableRecord"
 90
        1
280
     0
281
     0
  0
CLASS
  1
LAYOUT
  2
AcDbLayout
  3
"AutoCAD 2000"
 90
        0
280
     0
281
     0
  0
CLASS
  1
PLOTSETTINGS
  2
AcDbPlotSettings
  3
"AutoCAD 2000"
 90
        0
280
     0
281
     0
  0
CLASS
  1
ACDBDICTIONARYWDFLT
  2
AcDbDictionaryWithDefault
  3
"AutoCAD 2000"
 90
        0
280
     0
281
     0
  0
CLASS
  1
ACDBPLACEHOLDER
  2
AcDbPlaceHolder
  3
"AutoCAD 2000"
 90
        0
280
     0
281
     0
  0
CLASS
  1
VBA_PROJECT
  2
AcDbVbaProject
  3
"acadvba"
 90
        0
280
     0
281
     0
  0
CLASS
  1
WIPEOUT
  2
AcDbWipeout
  3
WipeOut|AutoCAD Express Tool|expresstools@autodesk.com
 90
      127
280
     0
281
     1
  0
CLASS
  1
WIPEOUTVARIABLES
  2
AcDbWipeoutVariables
  3
WipeOut|AutoCAD Express Tool|expresstools@autodesk.com
 90
        0
280
     0
281
     0
  0
CLASS
  1
RTEXT
  2
RText
  3
RText|AutoCAD Express Tool|expresstools@autodesk.com
 90
        0
280
     0
281
     1
  0
CLASS
  1
ARCALIGNEDTEXT
  2
AcDbArcAlignedText
  3
ATEXT|AutoCAD Express Tool|expresstools@autodesk.com
 90
        0
280
     0
281
     1
  0
ENDSEC
  0
SECTION
  2
TABLES
  0
TABLE
  2
VPORT
  5
7
100
AcDbSymbolTable
 70
     1
  0
VPORT
  5
15
100
AcDbSymbolTableRecord
100
AcDbViewportTableRecord
  2
*ACTIVE
 70
     0
 10
0.0
 20
0.0
 11
1.0
 21
1.0
 12
19448.827784
 22
-19873.260282
 13
0.0
 23
0.0
 14
1000.0
 24
1000.0
 15
1000.0
 25
1000.0
 16
0.0
 26
0.0
 36
1.0
 17
0.0
 27
0.0
 37
0.0
 40
42000.0
 41
1.414286
 42
50.0
 43
0.0
 44
0.0
 50
0.0
 51
0.0
 71
     0
 72
   100
 73
     1
 74
     1
 75
     0
 76
     0
 77
     0
 78
     0
  0
ENDTAB
  0
TABLE
  2
LTYPE
  5
4
100
AcDbSymbolTable
 70
     8
  0
LTYPE
  5
11
100
AcDbSymbolTableRecord
100
AcDbLinetypeTableRecord
  2
BYBLOCK
 70
    64
  3

 72
    65
 73
     0
 40
0.0
  0
LTYPE
  5
12
100
AcDbSymbolTableRecord
100
AcDbLinetypeTableRecord
  2
BYLAYER
 70
    64
  3

 72
    65
 73
     0
 40
0.0
  0
LTYPE
  5
13
100
AcDbSymbolTableRecord
100
AcDbLinetypeTableRecord
  2
CONTINUOUS
 70
    64
  3
Solid line
 72
    65
 73
     0
 40
0.0
  0
LTYPE
  5
12B
100
AcDbSymbolTableRecord
100
AcDbLinetypeTableRecord
  2
HIDDEN
 70
    64
  3
__ __ __ __ __ __ __ __ __ __ __ __ __ __ __ __
 72
    65
 73
     5
 40
8.0
 49
1.0
 74
     0
 49
-2.0
 74
     0
 49
2.0
 74
     0
 49
-2.0
 74
     0
 49
1.0
 74
     0
  0
LTYPE
  5
12C
100
AcDbSymbolTableRecord
100
AcDbLinetypeTableRecord
  2
DOT
 70
    64
  3
. . . . . . . . . . . . . . . . . . . . . . . .
 72
    65
 73
     3
 40
1.6
 49
0.4
 74
     0
 49
-0.8
 74
     0
 49
0.4
 74
     0
  0
LTYPE
  5
12D
100
AcDbSymbolTableRecord
100
AcDbLinetypeTableRecord
  2
CENTER
 70
    64
  3
____ _ ____ _ ____ _ ____ _ ____ _ ____ _ ____ 
 72
    65
 73
     5
 40
12.0
 49
5.0
 74
     0
 49
-0.8
 74
     0
 49
0.4
 74
     0
 49
-0.8
 74
     0
 49
5.0
 74
     0
  0
LTYPE
  5
12E
100
AcDbSymbolTableRecord
100
AcDbLinetypeTableRecord
  2
DIVIDE
 70
    64
  3
____ . . ____ . . ____ . . ____ . . ____ . . __
 72
    65
 73
     7
 40
13.2
 49
5.0
 74
     0
 49
-0.8
 74
     0
 49
0.4
 74
     0
 49
-0.8
 74
     0
 49
0.4
 74
     0
 49
-0.8
 74
     0
 49
5.0
 74
     0
  0
LTYPE
  5
12F
100
AcDbSymbolTableRecord
100
AcDbLinetypeTableRecord
  2
STYLE_07
 70
     0
  3
Solid Line
 72
    65
 73
     6
 40
7.48
 49
2.5
 74
     0
 49
-0.83
 74
     0
 49
2.5
 74
     0
 49
-0.83
 74
     0
 49
0.27
 74
     0
 49
-0.55
 74
     0
  0
ENDTAB
  0
TABLE
  2
LAYER
  5
2
100
AcDbSymbolTable
 70
     5
  0
LAYER
  5
14
100
AcDbSymbolTableRecord
100
AcDbLayerTableRecord
  2
0
 70
     0
 62
     7
  6
CONTINUOUS
  0
LAYER
  5
27
100
AcDbSymbolTableRecord
100
AcDbLayerTableRecord
  2
001
 70
     0
 62
     7
  6
CONTINUOUS
  0
LAYER
  5
28
100
AcDbSymbolTableRecord
100
AcDbLayerTableRecord
  2
002
 70
     0
 62
     7
  6
CONTINUOUS
  0
LAYER
  5
29
100
AcDbSymbolTableRecord
100
AcDbLayerTableRecord
  2
003
 70
     0
 62
     7
  6
CONTINUOUS
  0
LAYER
  5
2A
100
AcDbSymbolTableRecord
100
AcDbLayerTableRecord
  2
004
 70
     0
 62
     7
  6
CONTINUOUS
  0
ENDTAB
  0
TABLE
  2
STYLE
  5
3
100
AcDbSymbolTable
 70
     3
  0
STYLE
  5
17
100
AcDbSymbolTableRecord
100
AcDbTextStyleTableRecord
  2
STANDARD
 70
     0
 40
0.0
 41
1.0
 50
0.0
 71
     0
 42
0.0
  3
txt
  4

  0
STYLE
  5
127
100
AcDbSymbolTableRecord
100
AcDbTextStyleTableRecord
  2
DRACAD
 70
     0
 40
0.0
 41
1.0
 50
0.0
 71
     0
 42
0.0
  3
txt
  4
extfont
  0
STYLE
  5
128
100
AcDbSymbolTableRecord
100
AcDbTextStyleTableRecord
  2
TATEDRACAD
 70
     4
 40
0.0
 41
1.0
 50
0.0
 71
     0
 42
0.0
  3
txt
  4
extfont
  0
ENDTAB
  0
TABLE
  2
VIEW
  5
5
100
AcDbSymbolTable
 70
     0
  0
ENDTAB
  0
TABLE
  2
UCS
  5
6
100
AcDbSymbolTable
 70
     0
  0
ENDTAB
  0
TABLE
  2
APPID
  5
8
100
AcDbSymbolTable
 70
     1
  0
APPID
  5
16
100
AcDbSymbolTableRecord
100
AcDbRegAppTableRecord
  2
ACAD
 70
     0
  0
ENDTAB
  0
TABLE
  2
DIMSTYLE
  5
9
100
AcDbSymbolTable
 70
     3
  0
DIMSTYLE
105
18
100
AcDbSymbolTableRecord
100
AcDbDimStyleTableRecord
  2
STANDARD
 70
     0
  3

  4

  5

  6

  7

 40
1.0
 41
0.18
 42
0.0625
 43
0.38
 44
0.18
 45
0.0
 46
0.0
 47
0.0
 48
0.0
 71
     0
 72
     0
 73
     1
 74
     1
 75
     0
 76
     0
 77
     0
 78
     0
140
0.18
141
0.09
142
0.0
143
25.4
144
1.0
145
0.0
146
1.0
147
0.09
170
     0
171
     2
172
     0
173
     0
174
     0
175
     0
176
     0
177
     0
178
     0
270
     2
271
     4
272
     4
273
     2
274
     2
275
     0
280
     0
281
     0
282
     0
283
     1
284
     0
285
     0
286
     0
287
     0
288
     0
340
17
  0
DIMSTYLE
105
14F
100
AcDbSymbolTableRecord
100
AcDbDimStyleTableRecord
  2
DIMSTYLE001
 70
     0
  3

  4

  5
_ORIGIN
  6

  7

 40
1.0
 41
10.0
 42
0.0
 43
1000.0
 44
0.0
 45
0.0
 46
0.0
 47
0.0
 48
0.0
 71
     0
 72
     0
 73
     0
 74
     0
 75
     0
 76
     0
 77
     1
 78
     0
140
25.0
141
0.09
142
0.0
143
25.4
144
1.0
145
0.0
146
1.0
147
0.0
170
     0
171
     2
172
     1
173
     0
174
     1
175
     0
176
     0
177
     0
178
     0
270
     2
271
     0
272
     4
273
     2
274
     2
275
     0
280
     0
281
     0
282
     0
283
     1
284
     0
285
     0
286
     0
287
     3
288
     0
340
127
  0
DIMSTYLE
105
150
100
AcDbSymbolTableRecord
100
AcDbDimStyleTableRecord
  2
DIMSTYLE002
 70
     0
  3

  4

  5
_ORIGIN
  6

  7

 40
1.0
 41
8.0
 42
0.0
 43
1000.0
 44
0.0
 45
0.0
 46
0.0
 47
0.0
 48
0.0
 71
     0
 72
     0
 73
     0
 74
     0
 75
     0
 76
     0
 77
     1
 78
     0
140
25.0
141
0.09
142
0.0
143
25.4
144
1.0
145
0.0
146
1.0
147
0.0
170
     0
171
     2
172
     1
173
     0
174
     1
175
     0
176
     0
177
     0
178
     0
270
     2
271
     1
272
     4
273
     2
274
     2
275
     0
280
     0
281
     0
282
     0
283
     1
284
     0
285
     0
286
     0
287
     3
288
     0
340
127
  0
ENDTAB
  0
TABLE
  2
BLOCK_RECORD
  5
1
100
AcDbSymbolTable
 70
    16
  0
BLOCK_RECORD
  5
A
100
AcDbSymbolTableRecord
100
AcDbBlockTableRecord
  2
*MODEL_SPACE
  0
BLOCK_RECORD
  5
B
100
AcDbSymbolTableRecord
100
AcDbBlockTableRecord
  2
*PAPER_SPACE
  0
BLOCK_RECORD
  5
14A
100
AcDbSymbolTableRecord
100
AcDbBlockTableRecord
  2
_ORIGIN
  0
BLOCK_RECORD
  5
151
100
AcDbSymbolTableRecord
100
AcDbBlockTableRecord
  2
1
  0
BLOCK_RECORD
  5
152
100
AcDbSymbolTableRecord
100
AcDbBlockTableRecord
  2
2
  0
BLOCK_RECORD
  5
153
100
AcDbSymbolTableRecord
100
AcDbBlockTableRecord
  2
3
  0
BLOCK_RECORD
  5
39F
100
AcDbSymbolTableRecord
100
AcDbBlockTableRecord
  2
*D4
  0
BLOCK_RECORD
  5
3A9
100
AcDbSymbolTableRecord
100
AcDbBlockTableRecord
  2
*D5
  0
BLOCK_RECORD
  5
3B3
100
AcDbSymbolTableRecord
100
AcDbBlockTableRecord
  2
*D6
  0
BLOCK_RECORD
  5
3BD
100
AcDbSymbolTableRecord
100
AcDbBlockTableRecord
  2
*D7
  0
BLOCK_RECORD
  5
3D4
100
AcDbSymbolTableRecord
100
AcDbBlockTableRecord
  2
*D8
  0
BLOCK_RECORD
  5
3DE
100
AcDbSymbolTableRecord
100
AcDbBlockTableRecord
  2
*D9
  0
BLOCK_RECORD
  5
3E8
100
AcDbSymbolTableRecord
100
AcDbBlockTableRecord
  2
*D10
  0
BLOCK_RECORD
  5
3F2
100
AcDbSymbolTableRecord
100
AcDbBlockTableRecord
  2
*D11
  0
BLOCK_RECORD
  5
3FC
100
AcDbSymbolTableRecord
100
AcDbBlockTableRecord
  2
*D12
  0
BLOCK_RECORD
  5
40F
100
AcDbSymbolTableRecord
100
AcDbBlockTableRecord
  2
*D13
  0
BLOCK_RECORD
  5
419
100
AcDbSymbolTableRecord
100
AcDbBlockTableRecord
  2
*D14
  0
BLOCK_RECORD
  5
42A
100
AcDbSymbolTableRecord
100
AcDbBlockTableRecord
  2
*D15
  0
ENDTAB
  0
ENDSEC
  0
SECTION
  2
BLOCKS
  0
BLOCK
  5
D
100
AcDbEntity
  8
0
100
AcDbBlockBegin
  2
*MODEL_SPACE
 70
     0
 10
0.0
 20
0.0
 30
0.0
  3
*MODEL_SPACE
  1

  0
ENDBLK
  5
E
100
AcDbEntity
  8
0
100
AcDbBlockEnd
  0
BLOCK
  5
F
100
AcDbEntity
 67
     1
  8
0
100
AcDbBlockBegin
  2
*PAPER_SPACE
 70
     0
 10
0.0
 20
0.0
 30
0.0
  3
*PAPER_SPACE
  1

  0
ENDBLK
  5
10
100
AcDbEntity
 67
     1
  8
0
100
AcDbBlockEnd
  0
BLOCK
  5
14B
100
AcDbEntity
  8
0
100
AcDbBlockBegin
  2
_ORIGIN
 70
     0
 10
0.0
 20
0.0
 30
0.0
  3
_ORIGIN
  1

  0
CIRCLE
  5
14C
100
AcDbEntity
  8
0
  6
ByBlock
 62
     0
100
AcDbCircle
 10
0.0
 20
0.0
 30
0.0
 40
0.5
  0
LINE
  5
14D
100
AcDbEntity
  8
0
  6
ByBlock
 62
     0
100
AcDbLine
 10
0.0
 20
0.0
 30
0.0
 11
-1.0
 21
0.0
 31
0.0
  0
ENDBLK
  5
14E
100
AcDbEntity
  8
0
100
AcDbBlockEnd
  0
BLOCK
  5
154
100
AcDbEntity
  8
0
100
AcDbBlockBegin
  2
1
 70
     0
 10
0.0
 20
0.0
 30
0.0
  3
1
  1

  0
ARC
  5
155
100
AcDbEntity
  8
004
  6
CONTINUOUS
 62
     7
100
AcDbCircle
 10
133.068018
 20
-9.500511
 30
0.0
 40
134.969188
100
AcDbArc
 50
45.663628
 51
224.512358
  0
LINE
  5
156
100
AcDbEntity
  8
004
  6
CONTINUOUS
 62
     7
100
AcDbLine
 10
-120.089883
 20
249.590778
 30
0.0
 11
386.225919
 21
249.590778
 31
0.0
  0
LINE
  5
157
100
AcDbEntity
  8
004
  6
CONTINUOUS
 62
     7
100
AcDbLine
 10
-120.089883
 20
-268.591801
 30
0.0
 11
-120.089883
 21
249.590778
 31
0.0
  0
ARC
  5
158
100
AcDbEntity
  8
004
  6
CONTINUOUS
 62
     7
100
AcDbCircle
 10
133.068018
 20
-9.500511
 30
0.0
 40
134.969188
100
AcDbArc
 50
224.512358
 51
225.663628
  0
LINE
  5
159
100
AcDbEntity
  8
004
  6
CONTINUOUS
 62
     7
100
AcDbLine
 10
-120.089883
 20
239.590778
 30
0.0
 11
376.454927
 21
239.590778
 31
0.0
  0
LINE
  5
15A
100
AcDbEntity
  8
004
  6
CONTINUOUS
 62
     7
100
AcDbLine
 10
-120.089883
 20
229.590778
 30
0.0
 11
366.683934
 21
229.590778
 31
0.0
  0
LINE
  5
15B
100
AcDbEntity
  8
004
  6
CONTINUOUS
 62
     7
100
AcDbLine
 10
-120.089883
 20
219.590778
 30
0.0
 11
356.912942
 21
219.590778
 31
0.0
  0
LINE
  5
15C
100
AcDbEntity
  8
004
  6
CONTINUOUS
 62
     7
100
AcDbLine
 10
-120.089883
 20
209.590778
 30
0.0
 11
347.14195
 21
209.590778
 31
0.0
  0
LINE
  5
15D
100
AcDbEntity
  8
004
  6
CONTINUOUS
 62
     7
100
AcDbLine
 10
-120.089883
 20
199.590778
 30
0.0
 11
337.370957
 21
199.590778
 31
0.0
  0
LINE
  5
15E
100
AcDbEntity
  8
004
  6
CONTINUOUS
 62
     7
100
AcDbLine
 10
-120.089883
 20
189.590778
 30
0.0
 11
327.599965
 21
189.590778
 31
0.0
  0
LINE
  5
15F
100
AcDbEntity
  8
004
  6
CONTINUOUS
 62
     7
100
AcDbLine
 10
-120.089883
 20
179.590778
 30
0.0
 11
317.828973
 21
179.590778
 31
0.0
  0
LINE
  5
160
100
AcDbEntity
  8
004
  6
CONTINUOUS
 62
     7
100
AcDbLine
 10
-120.089883
 20
169.590778
 30
0.0
 11
308.05798
 21
169.590778
 31
0.0
  0
LINE
  5
161
100
AcDbEntity
  8
004
  6
CONTINUOUS
 62
     7
100
AcDbLine
 10
-120.089883
 20
159.590778
 30
0.0
 11
298.286988
 21
159.590778
 31
0.0
  0
LINE
  5
162
100
AcDbEntity
  8
004
  6
CONTINUOUS
 62
     7
100
AcDbLine
 10
-120.089883
 20
149.590778
 30
0.0
 11
288.515995
 21
149.590778
 31
0.0
  0
LINE
  5
163
100
AcDbEntity
  8
004
  6
CONTINUOUS
 62
     7
100
AcDbLine
 10
-120.089883
 20
139.590778
 30
0.0
 11
278.745003
 21
139.590778
 31
0.0
  0
LINE
  5
164
100
AcDbEntity
  8
004
  6
CONTINUOUS
 62
     7
100
AcDbLine
 10
-120.089883
 20
129.590778
 30
0.0
 11
268.974011
 21
129.590778
 31
0.0
  0
LINE
  5
165
100
AcDbEntity
  8
004
  6
CONTINUOUS
 62
     7
100
AcDbLine
 10
386.225919
 20
249.590778
 30
0.0
 11
227.393864
 21
87.036097
 31
0.0
  0
LINE
  5
166
100
AcDbEntity
  8
004
  6
CONTINUOUS
 62
     7
100
AcDbLine
 10
-120.089883
 20
-110.409222
 30
0.0
 11
34.470194
 21
-110.409222
 31
0.0
  0
LINE
  5
167
100
AcDbEntity
  8
004
  6
CONTINUOUS
 62
     7
100
AcDbLine
 10
-120.089883
 20
-120.409222
 30
0.0
 11
24.699202
 21
-120.409222
 31
0.0
  0
LINE
  5
168
100
AcDbEntity
  8
004
  6
CONTINUOUS
 62
     7
100
AcDbLine
 10
-120.089883
 20
-130.409222
 30
0.0
 11
14.928209
 21
-130.409222
 31
0.0
  0
LINE
  5
169
100
AcDbEntity
  8
004
  6
CONTINUOUS
 62
     7
100
AcDbLine
 10
-120.089883
 20
-140.409222
 30
0.0
 11
5.157217
 21
-140.409222
 31
0.0
  0
LINE
  5
16A
100
AcDbEntity
  8
004
  6
CONTINUOUS
 62
     7
100
AcDbLine
 10
-120.089883
 20
-150.409222
 30
0.0
 11
-4.613776
 21
-150.409222
 31
0.0
  0
LINE
  5
16B
100
AcDbEntity
  8
004
  6
CONTINUOUS
 62
     7
100
AcDbLine
 10
-120.089883
 20
-160.409222
 30
0.0
 11
-14.384768
 21
-160.409222
 31
0.0
  0
LINE
  5
16C
100
AcDbEntity
  8
004
  6
CONTINUOUS
 62
     7
100
AcDbLine
 10
-120.089883
 20
-170.409222
 30
0.0
 11
-24.15576
 21
-170.409222
 31
0.0
  0
LINE
  5
16D
100
AcDbEntity
  8
004
  6
CONTINUOUS
 62
     7
100
AcDbLine
 10
-120.089883
 20
-180.409222
 30
0.0
 11
-33.926753
 21
-180.409222
 31
0.0
  0
LINE
  5
16E
100
AcDbEntity
  8
004
  6
CONTINUOUS
 62
     7
100
AcDbLine
 10
-120.089883
 20
-190.409222
 30
0.0
 11
-43.697745
 21
-190.409222
 31
0.0
  0
LINE
  5
16F
100
AcDbEntity
  8
004
  6
CONTINUOUS
 62
     7
100
AcDbLine
 10
-120.089883
 20
-200.409222
 30
0.0
 11
-53.468737
 21
-200.409222
 31
0.0
  0
LINE
  5
170
100
AcDbEntity
  8
004
  6
CONTINUOUS
 62
     7
100
AcDbLine
 10
-120.089883
 20
-210.409222
 30
0.0
 11
-63.23973
 21
-210.409222
 31
0.0
  0
LINE
  5
171
100
AcDbEntity
  8
004
  6
CONTINUOUS
 62
     7
100
AcDbLine
 10
-120.089883
 20
-220.409222
 30
0.0
 11
-73.010722
 21
-220.409222
 31
0.0
  0
LINE
  5
172
100
AcDbEntity
  8
004
  6
CONTINUOUS
 62
     7
100
AcDbLine
 10
-120.089883
 20
-230.409222
 30
0.0
 11
-82.781714
 21
-230.409222
 31
0.0
  0
LINE
  5
173
100
AcDbEntity
  8
004
  6
CONTINUOUS
 62
     7
100
AcDbLine
 10
-120.089883
 20
-240.409222
 30
0.0
 11
-92.552707
 21
-240.409222
 31
0.0
  0
LINE
  5
174
100
AcDbEntity
  8
004
  6
CONTINUOUS
 62
     7
100
AcDbLine
 10
-120.089883
 20
-250.409222
 30
0.0
 11
-102.323699
 21
-250.409222
 31
0.0
  0
LINE
  5
175
100
AcDbEntity
  8
004
  6
CONTINUOUS
 62
     7
100
AcDbLine
 10
-120.089883
 20
-260.409222
 30
0.0
 11
-112.094692
 21
-260.409222
 31
0.0
  0
LINE
  5
176
100
AcDbEntity
  8
004
  6
CONTINUOUS
 62
     7
100
AcDbLine
 10
38.761214
 20
-106.017631
 30
0.0
 11
-120.089883
 21
-268.591801
 31
0.0
  0
LINE
  5
177
100
AcDbEntity
  8
004
  6
CONTINUOUS
 62
     7
100
AcDbLine
 10
-120.089883
 20
-100.409222
 30
0.0
 11
33.306863
 21
-100.409222
 31
0.0
  0
LINE
  5
178
100
AcDbEntity
  8
004
  6
CONTINUOUS
 62
     7
100
AcDbLine
 10
-120.089883
 20
-90.409222
 30
0.0
 11
25.038104
 21
-90.409222
 31
0.0
  0
LINE
  5
179
100
AcDbEntity
  8
004
  6
CONTINUOUS
 62
     7
100
AcDbLine
 10
-120.089883
 20
-80.409222
 30
0.0
 11
18.226229
 21
-80.409222
 31
0.0
  0
LINE
  5
17A
100
AcDbEntity
  8
004
  6
CONTINUOUS
 62
     7
100
AcDbLine
 10
-120.089883
 20
-70.409222
 30
0.0
 11
12.623795
 21
-70.409222
 31
0.0
  0
LINE
  5
17B
100
AcDbEntity
  8
004
  6
CONTINUOUS
 62
     7
100
AcDbLine
 10
-120.089883
 20
-60.409222
 30
0.0
 11
8.068078
 21
-60.409222
 31
0.0
  0
LINE
  5
17C
100
AcDbEntity
  8
004
  6
CONTINUOUS
 62
     7
100
AcDbLine
 10
-120.089883
 20
-50.409222
 30
0.0
 11
4.447805
 21
-50.409222
 31
0.0
  0
LINE
  5
17D
100
AcDbEntity
  8
004
  6
CONTINUOUS
 62
     7
100
AcDbLine
 10
-120.089883
 20
-40.409222
 30
0.0
 11
1.685624
 21
-40.409222
 31
0.0
  0
LINE
  5
17E
100
AcDbEntity
  8
004
  6
CONTINUOUS
 62
     7
100
AcDbLine
 10
-120.089883
 20
-30.409222
 30
0.0
 11
-0.271802
 21
-30.409222
 31
0.0
  0
LINE
  5
17F
100
AcDbEntity
  8
004
  6
CONTINUOUS
 62
     7
100
AcDbLine
 10
-120.089883
 20
-20.409222
 30
0.0
 11
-1.459607
 21
-20.409222
 31
0.0
  0
LINE
  5
180
100
AcDbEntity
  8
004
  6
CONTINUOUS
 62
     7
100
AcDbLine
 10
-120.089883
 20
-10.409222
 30
0.0
 11
-1.898111
 21
-10.409222
 31
0.0
  0
LINE
  5
181
100
AcDbEntity
  8
004
  6
CONTINUOUS
 62
     7
100
AcDbLine
 10
-120.089883
 20
-0.409222
 30
0.0
 11
-1.594635
 21
-0.409222
 31
0.0
  0
LINE
  5
182
100
AcDbEntity
  8
004
  6
CONTINUOUS
 62
     7
100
AcDbLine
 10
-120.089883
 20
9.590778
 30
0.0
 11
-0.544124
 21
9.590778
 31
0.0
  0
LINE
  5
183
100
AcDbEntity
  8
004
  6
CONTINUOUS
 62
     7
100
AcDbLine
 10
-120.089883
 20
19.590778
 30
0.0
 11
1.271286
 21
19.590778
 31
0.0
  0
LINE
  5
184
100
AcDbEntity
  8
004
  6
CONTINUOUS
 62
     7
100
AcDbLine
 10
-120.089883
 20
29.590778
 30
0.0
 11
3.883836
 21
29.590778
 31
0.0
  0
LINE
  5
185
100
AcDbEntity
  8
004
  6
CONTINUOUS
 62
     7
100
AcDbLine
 10
-120.089883
 20
39.590778
 30
0.0
 11
7.343211
 21
39.590778
 31
0.0
  0
LINE
  5
186
100
AcDbEntity
  8
004
  6
CONTINUOUS
 62
     7
100
AcDbLine
 10
-120.089883
 20
49.590778
 30
0.0
 11
11.721814
 21
49.590778
 31
0.0
  0
LINE
  5
187
100
AcDbEntity
  8
004
  6
CONTINUOUS
 62
     7
100
AcDbLine
 10
-120.089883
 20
59.590778
 30
0.0
 11
17.12374
 21
59.590778
 31
0.0
  0
LINE
  5
188
100
AcDbEntity
  8
004
  6
CONTINUOUS
 62
     7
100
AcDbLine
 10
-120.089883
 20
69.590778
 30
0.0
 11
23.70052
 21
69.590778
 31
0.0
  0
LINE
  5
189
100
AcDbEntity
  8
004
  6
CONTINUOUS
 62
     7
100
AcDbLine
 10
-120.089883
 20
79.590778
 30
0.0
 11
31.680524
 21
79.590778
 31
0.0
  0
LINE
  5
18A
100
AcDbEntity
  8
004
  6
CONTINUOUS
 62
     7
100
AcDbLine
 10
-120.089883
 20
89.590778
 30
0.0
 11
41.429608
 21
89.590778
 31
0.0
  0
LINE
  5
18B
100
AcDbEntity
  8
004
  6
CONTINUOUS
 62
     7
100
AcDbLine
 10
-120.089883
 20
99.590778
 30
0.0
 11
53.596184
 21
99.590778
 31
0.0
  0
LINE
  5
18C
100
AcDbEntity
  8
004
  6
CONTINUOUS
 62
     7
100
AcDbLine
 10
-120.089883
 20
109.590778
 30
0.0
 11
69.554661
 21
109.590778
 31
0.0
  0
LINE
  5
18D
100
AcDbEntity
  8
004
  6
CONTINUOUS
 62
     7
100
AcDbLine
 10
-120.089883
 20
119.590778
 30
0.0
 11
93.671054
 21
119.590778
 31
0.0
  0
LINE
  5
18E
100
AcDbEntity
  8
004
  6
CONTINUOUS
 62
     7
100
AcDbLine
 10
172.464982
 20
119.590778
 30
0.0
 11
259.203018
 21
119.590778
 31
0.0
  0
LINE
  5
18F
100
AcDbEntity
  8
004
  6
CONTINUOUS
 62
     7
100
AcDbLine
 10
196.581375
 20
109.590778
 30
0.0
 11
249.432026
 21
109.590778
 31
0.0
  0
LINE
  5
190
100
AcDbEntity
  8
004
  6
CONTINUOUS
 62
     7
100
AcDbLine
 10
212.539852
 20
99.590778
 30
0.0
 11
239.661034
 21
99.590778
 31
0.0
  0
ENDBLK
  5
191
100
AcDbEntity
  8
0
100
AcDbBlockEnd
  0
BLOCK
  5
192
100
AcDbEntity
  8
0
100
AcDbBlockBegin
  2
2
 70
     0
 10
0.0
 20
0.0
 30
0.0
  3
2
  1

  0
INSERT
  5
193
100
AcDbEntity
  8
004
  6
CONTINUOUS
 62
     7
100
AcDbBlockReference
  2
1
 10
-26.613604
 20
1.900102
 30
0.0
 41
0.2
 42
0.2
  0
ENDBLK
  5
194
100
AcDbEntity
  8
0
100
AcDbBlockEnd
  0
BLOCK
  5
195
100
AcDbEntity
  8
0
100
AcDbBlockBegin
  2
3
 70
     0
 10
0.0
 20
0.0
 30
0.0
  3
3
  1

  0
INSERT
  5
196
100
AcDbEntity
  8
003
  6
CONTINUOUS
 62
     7
100
AcDbBlockReference
  2
2
 10
187.309635
 20
61.739262
 30
0.0
  0
ENDBLK
  5
197
100
AcDbEntity
  8
0
100
AcDbBlockEnd
  0
BLOCK
  5
3A0
100
AcDbEntity
  8
0
100
AcDbBlockBegin
  2
*D4
 70
     1
 10
0.0
 20
0.0
 30
0.0
  3
*D4
  1

  0
LINE
  5
3A1
100
AcDbEntity
  8
0
  6
ByBlock
 62
     0
100
AcDbLine
 10
18879.755611
 20
-20023.684866
 30
0.0
 11
18808.349802
 21
-20023.684866
 31
0.0
  0
LINE
  5
3A2
100
AcDbEntity
  8
0
  6
ByBlock
 62
     0
100
AcDbLine
 10
18879.880611
 20
-19168.684866
 30
0.0
 11
18808.349802
 21
-19168.684866
 31
0.0
  0
LINE
  5
3A3
100
AcDbEntity
  8
0
  6
ByBlock
 62
     0
100
AcDbLine
 10
18808.349802
 20
-20023.684866
 30
0.0
 11
18808.349802
 21
-19168.684866
 31
0.0
  0
INSERT
  5
3A4
100
AcDbEntity
  8
0
  6
ByBlock
 62
     0
100
AcDbBlockReference
  2
_ORIGIN
 10
18808.349802
 20
-20023.684866
 30
0.0
 41
10.0
 42
10.0
 43
10.0
 50
270.0
  0
INSERT
  5
3A5
100
AcDbEntity
  8
0
  6
ByBlock
 62
     0
100
AcDbBlockReference
  2
_ORIGIN
 10
18808.349802
 20
-19168.684866
 30
0.0
 41
10.0
 42
10.0
 43
10.0
 50
90.0
  0
MTEXT
  5
3A6
100
AcDbEntity
  8
0
  6
ByBlock
 62
     0
100
AcDbMText
 10
18795.849802
 20
-19596.184866
 30
0.0
 40
25.0
 41
0.0
 71
     5
 72
     1
  1
{\A1;855}
  7
DRACAD
 11
0.0
 21
1.0
 31
0.0
  0
ENDBLK
  5
3A7
100
AcDbEntity
  8
0
100
AcDbBlockEnd
  0
BLOCK
  5
3AA
100
AcDbEntity
  8
0
100
AcDbBlockBegin
  2
*D5
 70
     1
 10
0.0
 20
0.0
 30
0.0
  3
*D5
  1

  0
LINE
  5
3AB
100
AcDbEntity
  8
0
  6
ByBlock
 62
     0
100
AcDbLine
 10
19867.178526
 20
-19071.95142
 30
0.0
 11
19867.178526
 21
-19014.049436
 31
0.0
  0
LINE
  5
3AC
100
AcDbEntity
  8
0
  6
ByBlock
 62
     0
100
AcDbLine
 10
19002.178526
 20
-19071.95142
 30
0.0
 11
19002.178526
 21
-19014.049436
 31
0.0
  0
LINE
  5
3AD
100
AcDbEntity
  8
0
  6
ByBlock
 62
     0
100
AcDbLine
 10
19867.178526
 20
-19014.049436
 30
0.0
 11
19002.178526
 21
-19014.049436
 31
0.0
  0
INSERT
  5
3AE
100
AcDbEntity
  8
0
  6
ByBlock
 62
     0
100
AcDbBlockReference
  2
_ORIGIN
 10
19867.178526
 20
-19014.049436
 30
0.0
 41
10.0
 42
10.0
 43
10.0
  0
INSERT
  5
3AF
100
AcDbEntity
  8
0
  6
ByBlock
 62
     0
100
AcDbBlockReference
  2
_ORIGIN
 10
19002.178526
 20
-19014.049436
 30
0.0
 41
10.0
 42
10.0
 43
10.0
 50
180.0
  0
MTEXT
  5
3B0
100
AcDbEntity
  8
0
  6
ByBlock
 62
     0
100
AcDbMText
 10
19434.678526
 20
-19001.549436
 30
0.0
 40
25.0
 41
0.0
 71
     5
 72
     1
  1
{\A1;865}
  7
DRACAD
 11
1.0
 21
0.0
 31
0.0
  0
ENDBLK
  5
3B1
100
AcDbEntity
  8
0
100
AcDbBlockEnd
  0
BLOCK
  5
3B4
100
AcDbEntity
  8
0
100
AcDbBlockBegin
  2
*D6
 70
     1
 10
0.0
 20
0.0
 30
0.0
  3
*D6
  1

  0
LINE
  5
3B5
100
AcDbEntity
  8
0
  6
ByBlock
 62
     0
100
AcDbLine
 10
19434.678526
 20
-20130.429081
 30
0.0
 11
19434.678526
 21
-20234.475885
 31
0.0
  0
LINE
  5
3B6
100
AcDbEntity
  8
0
  6
ByBlock
 62
     0
100
AcDbLine
 10
19867.178526
 20
-20130.429081
 30
0.0
 11
19867.178526
 21
-20234.475885
 31
0.0
  0
LINE
  5
3B7
100
AcDbEntity
  8
0
  6
ByBlock
 62
     0
100
AcDbLine
 10
19434.678526
 20
-20234.475885
 30
0.0
 11
19867.178526
 21
-20234.475885
 31
0.0
  0
INSERT
  5
3B8
100
AcDbEntity
  8
0
  6
ByBlock
 62
     0
100
AcDbBlockReference
  2
_ORIGIN
 10
19434.678526
 20
-20234.475885
 30
0.0
 41
8.0
 42
8.0
 43
8.0
 50
180.0
  0
INSERT
  5
3B9
100
AcDbEntity
  8
0
  6
ByBlock
 62
     0
100
AcDbBlockReference
  2
_ORIGIN
 10
19867.178526
 20
-20234.475885
 30
0.0
 41
8.0
 42
8.0
 43
8.0
  0
MTEXT
  5
3BA
100
AcDbEntity
  8
0
  6
ByBlock
 62
     0
100
AcDbMText
 10
19650.928526
 20
-20221.975885
 30
0.0
 40
25.0
 41
0.0
 71
     5
 72
     1
  1
{\A1;432.5}
  7
DRACAD
  0
ENDBLK
  5
3BB
100
AcDbEntity
  8
0
100
AcDbBlockEnd
  0
BLOCK
  5
3BE
100
AcDbEntity
  8
0
100
AcDbBlockBegin
  2
*D7
 70
     1
 10
0.0
 20
0.0
 30
0.0
  3
*D7
  1

  0
LINE
  5
3BF
100
AcDbEntity
  8
0
  6
ByBlock
 62
     0
100
AcDbLine
 10
19002.178526
 20
-20130.429081
 30
0.0
 11
19002.178526
 21
-20234.475885
 31
0.0
  0
LINE
  5
3C0
100
AcDbEntity
  8
0
  6
ByBlock
 62
     0
100
AcDbLine
 10
19434.678526
 20
-20130.429081
 30
0.0
 11
19434.678526
 21
-20234.475885
 31
0.0
  0
LINE
  5
3C1
100
AcDbEntity
  8
0
  6
ByBlock
 62
     0
100
AcDbLine
 10
19002.178526
 20
-20234.475885
 30
0.0
 11
19434.678526
 21
-20234.475885
 31
0.0
  0
INSERT
  5
3C2
100
AcDbEntity
  8
0
  6
ByBlock
 62
     0
100
AcDbBlockReference
  2
_ORIGIN
 10
19002.178526
 20
-20234.475885
 30
0.0
 41
8.0
 42
8.0
 43
8.0
 50
180.0
  0
INSERT
  5
3C3
100
AcDbEntity
  8
0
  6
ByBlock
 62
     0
100
AcDbBlockReference
  2
_ORIGIN
 10
19434.678526
 20
-20234.475885
 30
0.0
 41
8.0
 42
8.0
 43
8.0
  0
MTEXT
  5
3C4
100
AcDbEntity
  8
0
  6
ByBlock
 62
     0
100
AcDbMText
 10
19218.428526
 20
-20221.975885
 30
0.0
 40
25.0
 41
0.0
 71
     5
 72
     1
  1
{\A1;432.5}
  7
DRACAD
  0
ENDBLK
  5
3C5
100
AcDbEntity
  8
0
100
AcDbBlockEnd
  0
BLOCK
  5
3D5
100
AcDbEntity
  8
0
100
AcDbBlockBegin
  2
*D8
 70
     1
 10
0.0
 20
0.0
 30
0.0
  3
*D8
  1

  0
LINE
  5
3D6
100
AcDbEntity
  8
0
  6
ByBlock
 62
     0
100
AcDbLine
 10
18900.434311
 20
-20593.57536
 30
0.0
 11
18796.387506
 21
-20593.57536
 31
0.0
  0
LINE
  5
3D7
100
AcDbEntity
  8
0
  6
ByBlock
 62
     0
100
AcDbLine
 10
18900.434311
 20
-20518.57536
 30
0.0
 11
18796.387506
 21
-20518.57536
 31
0.0
  0
LINE
  5
3D8
100
AcDbEntity
  8
0
  6
ByBlock
 62
     0
100
AcDbLine
 10
18796.387506
 20
-20593.57536
 30
0.0
 11
18796.387506
 21
-20518.57536
 31
0.0
  0
INSERT
  5
3D9
100
AcDbEntity
  8
0
  6
ByBlock
 62
     0
100
AcDbBlockReference
  2
_ORIGIN
 10
18796.387506
 20
-20593.57536
 30
0.0
 41
10.0
 42
10.0
 43
10.0
 50
270.0
  0
INSERT
  5
3DA
100
AcDbEntity
  8
0
  6
ByBlock
 62
     0
100
AcDbBlockReference
  2
_ORIGIN
 10
18796.387506
 20
-20518.57536
 30
0.0
 41
10.0
 42
10.0
 43
10.0
 50
90.0
  0
MTEXT
  5
3DB
100
AcDbEntity
  8
0
  6
ByBlock
 62
     0
100
AcDbMText
 10
18783.887506
 20
-20556.07536
 30
0.0
 40
25.0
 41
0.0
 71
     5
 72
     1
  1
{\A1;75}
  7
DRACAD
 11
0.0
 21
1.0
 31
0.0
  0
ENDBLK
  5
3DC
100
AcDbEntity
  8
0
100
AcDbBlockEnd
  0
BLOCK
  5
3DF
100
AcDbEntity
  8
0
100
AcDbBlockBegin
  2
*D9
 70
     1
 10
0.0
 20
0.0
 30
0.0
  3
*D9
  1

  0
LINE
  5
3E0
100
AcDbEntity
  8
0
  6
ByBlock
 62
     0
100
AcDbLine
 10
18900.434311
 20
-20518.57536
 30
0.0
 11
18796.387506
 21
-20518.57536
 31
0.0
  0
LINE
  5
3E1
100
AcDbEntity
  8
0
  6
ByBlock
 62
     0
100
AcDbLine
 10
18900.434311
 20
-20488.57536
 30
0.0
 11
18796.387506
 21
-20488.57536
 31
0.0
  0
LINE
  5
3E2
100
AcDbEntity
  8
0
  6
ByBlock
 62
     0
100
AcDbLine
 10
18796.387506
 20
-20518.57536
 30
0.0
 11
18796.387506
 21
-20488.57536
 31
0.0
  0
INSERT
  5
3E3
100
AcDbEntity
  8
0
  6
ByBlock
 62
     0
100
AcDbBlockReference
  2
_ORIGIN
 10
18796.387506
 20
-20518.57536
 30
0.0
 41
10.0
 42
10.0
 43
10.0
 50
270.0
  0
INSERT
  5
3E4
100
AcDbEntity
  8
0
  6
ByBlock
 62
     0
100
AcDbBlockReference
  2
_ORIGIN
 10
18796.387506
 20
-20488.57536
 30
0.0
 41
10.0
 42
10.0
 43
10.0
 50
90.0
  0
MTEXT
  5
3E5
100
AcDbEntity
  8
0
  6
ByBlock
 62
     0
100
AcDbMText
 10
18783.887506
 20
-20503.57536
 30
0.0
 40
25.0
 41
0.0
 71
     5
 72
     1
  1
{\A1;30}
  7
DRACAD
 11
0.0
 21
1.0
 31
0.0
  0
ENDBLK
  5
3E6
100
AcDbEntity
  8
0
100
AcDbBlockEnd
  0
BLOCK
  5
3E9
100
AcDbEntity
  8
0
100
AcDbBlockBegin
  2
*D10
 70
     1
 10
0.0
 20
0.0
 30
0.0
  3
*D10
  1

  0
LINE
  5
3EA
100
AcDbEntity
  8
0
  6
ByBlock
 62
     0
100
AcDbLine
 10
18840.434311
 20
-20593.57536
 30
0.0
 11
18736.387506
 21
-20593.57536
 31
0.0
  0
LINE
  5
3EB
100
AcDbEntity
  8
0
  6
ByBlock
 62
     0
100
AcDbLine
 10
18840.434311
 20
-20488.57536
 30
0.0
 11
18736.387506
 21
-20488.57536
 31
0.0
  0
LINE
  5
3EC
100
AcDbEntity
  8
0
  6
ByBlock
 62
     0
100
AcDbLine
 10
18736.387506
 20
-20593.57536
 30
0.0
 11
18736.387506
 21
-20488.57536
 31
0.0
  0
INSERT
  5
3ED
100
AcDbEntity
  8
0
  6
ByBlock
 62
     0
100
AcDbBlockReference
  2
_ORIGIN
 10
18736.387506
 20
-20593.57536
 30
0.0
 41
10.0
 42
10.0
 43
10.0
 50
270.0
  0
INSERT
  5
3EE
100
AcDbEntity
  8
0
  6
ByBlock
 62
     0
100
AcDbBlockReference
  2
_ORIGIN
 10
18736.387506
 20
-20488.57536
 30
0.0
 41
10.0
 42
10.0
 43
10.0
 50
90.0
  0
MTEXT
  5
3EF
100
AcDbEntity
  8
0
  6
ByBlock
 62
     0
100
AcDbMText
 10
18723.887506
 20
-20541.07536
 30
0.0
 40
25.0
 41
0.0
 71
     5
 72
     1
  1
{\A1;105}
  7
DRACAD
 11
0.0
 21
1.0
 31
0.0
  0
ENDBLK
  5
3F0
100
AcDbEntity
  8
0
100
AcDbBlockEnd
  0
BLOCK
  5
3F3
100
AcDbEntity
  8
0
100
AcDbBlockBegin
  2
*D11
 70
     1
 10
0.0
 20
0.0
 30
0.0
  3
*D11
  1

  0
LINE
  5
3F4
100
AcDbEntity
  8
0
  6
ByBlock
 62
     0
100
AcDbLine
 10
19304.678526
 20
-20394.9238
 30
0.0
 11
19304.678526
 21
-20312.85376
 31
0.0
  0
LINE
  5
3F5
100
AcDbEntity
  8
0
  6
ByBlock
 62
     0
100
AcDbLine
 10
19564.678526
 20
-20394.9238
 30
0.0
 11
19564.678526
 21
-20312.85376
 31
0.0
  0
LINE
  5
3F6
100
AcDbEntity
  8
0
  6
ByBlock
 62
     0
100
AcDbLine
 10
19304.678526
 20
-20312.85376
 30
0.0
 11
19564.678526
 21
-20312.85376
 31
0.0
  0
INSERT
  5
3F7
100
AcDbEntity
  8
0
  6
ByBlock
 62
     0
100
AcDbBlockReference
  2
_ORIGIN
 10
19304.678526
 20
-20312.85376
 30
0.0
 41
10.0
 42
10.0
 43
10.0
 50
180.0
  0
INSERT
  5
3F8
100
AcDbEntity
  8
0
  6
ByBlock
 62
     0
100
AcDbBlockReference
  2
_ORIGIN
 10
19564.678526
 20
-20312.85376
 30
0.0
 41
10.0
 42
10.0
 43
10.0
  0
MTEXT
  5
3F9
100
AcDbEntity
  8
0
  6
ByBlock
 62
     0
100
AcDbMText
 10
19434.678526
 20
-20300.35376
 30
0.0
 40
25.0
 41
0.0
 71
     5
 72
     1
  1
{\A1;260}
  7
DRACAD
  0
ENDBLK
  5
3FA
100
AcDbEntity
  8
0
100
AcDbBlockEnd
  0
BLOCK
  5
3FD
100
AcDbEntity
  8
0
100
AcDbBlockBegin
  2
*D12
 70
     1
 10
0.0
 20
0.0
 30
0.0
  3
*D12
  1

  0
LINE
  5
3FE
100
AcDbEntity
  8
0
  6
ByBlock
 62
     0
100
AcDbLine
 10
19002.178526
 20
-20673.914729
 30
0.0
 11
19002.178526
 21
-20755.98477
 31
0.0
  0
LINE
  5
3FF
100
AcDbEntity
  8
0
  6
ByBlock
 62
     0
100
AcDbLine
 10
19867.178526
 20
-20673.914729
 30
0.0
 11
19867.178526
 21
-20755.98477
 31
0.0
  0
LINE
  5
400
100
AcDbEntity
  8
0
  6
ByBlock
 62
     0
100
AcDbLine
 10
19002.178526
 20
-20755.98477
 30
0.0
 11
19867.178526
 21
-20755.98477
 31
0.0
  0
INSERT
  5
401
100
AcDbEntity
  8
0
  6
ByBlock
 62
     0
100
AcDbBlockReference
  2
_ORIGIN
 10
19002.178526
 20
-20755.98477
 30
0.0
 41
10.0
 42
10.0
 43
10.0
 50
180.0
  0
INSERT
  5
402
100
AcDbEntity
  8
0
  6
ByBlock
 62
     0
100
AcDbBlockReference
  2
_ORIGIN
 10
19867.178526
 20
-20755.98477
 30
0.0
 41
10.0
 42
10.0
 43
10.0
  0
MTEXT
  5
403
100
AcDbEntity
  8
0
  6
ByBlock
 62
     0
100
AcDbMText
 10
19434.678526
 20
-20743.48477
 30
0.0
 40
25.0
 41
0.0
 71
     5
 72
     1
  1
{\A1;865}
  7
DRACAD
  0
ENDBLK
  5
404
100
AcDbEntity
  8
0
100
AcDbBlockEnd
  0
BLOCK
  5
410
100
AcDbEntity
  8
0
100
AcDbBlockBegin
  2
*D13
 70
     1
 10
0.0
 20
0.0
 30
0.0
  3
*D13
  1

  0
LINE
  5
411
100
AcDbEntity
  8
0
  6
ByBlock
 62
     0
100
AcDbLine
 10
20016.79835
 20
-20023.684862
 30
0.0
 11
20078.947136
 21
-20023.684862
 31
0.0
  0
LINE
  5
412
100
AcDbEntity
  8
0
  6
ByBlock
 62
     0
100
AcDbLine
 10
20016.79835
 20
-19596.184866
 30
0.0
 11
20078.947136
 21
-19596.184866
 31
0.0
  0
LINE
  5
413
100
AcDbEntity
  8
0
  6
ByBlock
 62
     0
100
AcDbLine
 10
20078.947136
 20
-20023.684862
 30
0.0
 11
20078.947136
 21
-19596.184866
 31
0.0
  0
INSERT
  5
414
100
AcDbEntity
  8
0
  6
ByBlock
 62
     0
100
AcDbBlockReference
  2
_ORIGIN
 10
20078.947136
 20
-20023.684862
 30
0.0
 41
8.0
 42
8.0
 43
8.0
 50
270.0
  0
INSERT
  5
415
100
AcDbEntity
  8
0
  6
ByBlock
 62
     0
100
AcDbBlockReference
  2
_ORIGIN
 10
20078.947136
 20
-19596.184866
 30
0.0
 41
8.0
 42
8.0
 43
8.0
 50
90.0
  0
MTEXT
  5
416
100
AcDbEntity
  8
0
  6
ByBlock
 62
     0
100
AcDbMText
 10
20066.447136
 20
-19809.934864
 30
0.0
 40
25.0
 41
0.0
 71
     5
 72
     1
  1
{\A1;427.5}
  7
DRACAD
 11
0.0
 21
1.0
 31
0.0
  0
ENDBLK
  5
417
100
AcDbEntity
  8
0
100
AcDbBlockEnd
  0
BLOCK
  5
41A
100
AcDbEntity
  8
0
100
AcDbBlockBegin
  2
*D14
 70
     1
 10
0.0
 20
0.0
 30
0.0
  3
*D14
  1

  0
LINE
  5
41B
100
AcDbEntity
  8
0
  6
ByBlock
 62
     0
100
AcDbLine
 10
20016.79835
 20
-19596.184866
 30
0.0
 11
20078.947136
 21
-19596.184866
 31
0.0
  0
LINE
  5
41C
100
AcDbEntity
  8
0
  6
ByBlock
 62
     0
100
AcDbLine
 10
20016.79835
 20
-19168.684866
 30
0.0
 11
20078.947136
 21
-19168.684866
 31
0.0
  0
LINE
  5
41D
100
AcDbEntity
  8
0
  6
ByBlock
 62
     0
100
AcDbLine
 10
20078.947136
 20
-19596.184866
 30
0.0
 11
20078.947136
 21
-19168.684866
 31
0.0
  0
INSERT
  5
41E
100
AcDbEntity
  8
0
  6
ByBlock
 62
     0
100
AcDbBlockReference
  2
_ORIGIN
 10
20078.947136
 20
-19596.184866
 30
0.0
 41
8.0
 42
8.0
 43
8.0
 50
270.0
  0
INSERT
  5
41F
100
AcDbEntity
  8
0
  6
ByBlock
 62
     0
100
AcDbBlockReference
  2
_ORIGIN
 10
20078.947136
 20
-19168.684866
 30
0.0
 41
8.0
 42
8.0
 43
8.0
 50
90.0
  0
MTEXT
  5
420
100
AcDbEntity
  8
0
  6
ByBlock
 62
     0
100
AcDbMText
 10
20066.447136
 20
-19382.434866
 30
0.0
 40
25.0
 41
0.0
 71
     5
 72
     1
  1
{\A1;427.5}
  7
DRACAD
 11
0.0
 21
1.0
 31
0.0
  0
ENDBLK
  5
421
100
AcDbEntity
  8
0
100
AcDbBlockEnd
  0
BLOCK
  5
42B
100
AcDbEntity
  8
0
100
AcDbBlockBegin
  2
*D15
 70
     1
 10
0.0
 20
0.0
 30
0.0
  3
*D15
  1

  0
LINE
  5
42C
100
AcDbEntity
  8
0
  6
ByBlock
 62
     0
100
AcDbLine
 10
19504.013107
 20
-19706.151751
 30
0.0
 11
19365.343944
 21
-19486.217981
 31
0.0
  0
INSERT
  5
42D
100
AcDbEntity
  8
0
  6
ByBlock
 62
     0
100
AcDbBlockReference
  2
_ORIGIN
 10
19504.013107
 20
-19706.151751
 30
0.0
 41
10.0
 42
10.0
 43
10.0
 50
302.231603
  0
INSERT
  5
42E
100
AcDbEntity
  8
0
  6
ByBlock
 62
     0
100
AcDbBlockReference
  2
_ORIGIN
 10
19365.343944
 20
-19486.217981
 30
0.0
 41
10.0
 42
10.0
 43
10.0
 50
122.231603
  0
MTEXT
  5
42F
100
AcDbEntity
  8
0
  6
ByBlock
 62
     0
100
AcDbMText
 10
19413.476673
 20
-19539.120965
 30
0.0
 40
25.0
 41
0.0
 71
     5
 72
     1
  1
{\A1;260}
  7
DRACAD
 11
0.533343
 21
-0.845899
 31
0.0
  0
ENDBLK
  5
430
100
AcDbEntity
  8
0
100
AcDbBlockEnd
  0
ENDSEC
  0
SECTION
  2
ENTITIES
  0
LINE
  5
198
100
AcDbEntity
  8
0
  6
STYLE_07
 62
     1
100
AcDbLine
 10
19975.409895
 20
-19596.184866
 30
0.0
 11
18893.947157
 21
-19596.184866
 31
0.0
  0
LINE
  5
199
100
AcDbEntity
  8
0
  6
STYLE_07
 62
     1
100
AcDbLine
 10
19434.678526
 20
-19088.311494
 30
0.0
 11
19434.678526
 21
-20633.358319
 31
0.0
  0
TEXT
  5
19A
100
AcDbEntity
  8
002
  6
CONTINUOUS
 62
     7
100
AcDbText
 10
20605.626196
 20
-20871.904641
 30
0.0
 40
17.219965
  1
1/10
 41
1.176471
  7
DRACAD
 72
     5
 11
20686.661326
 21
-20871.904641
 31
0.0
100
AcDbText
  0
POLYLINE
  5
19B
100
AcDbEntity
  8
002
  6
CONTINUOUS
 62
     6
100
AcDb2dPolyline
 66
     1
 10
0.0
 20
0.0
 30
0.0
 70
   129
  0
VERTEX
  5
19C
100
AcDbEntity
  8
002
  6
CONTINUOUS
 62
     6
100
AcDbVertex
100
AcDb2dVertex
 10
18002.202784
 20
-18868.610282
 30
0.0
  0
VERTEX
  5
19D
100
AcDbEntity
  8
002
  6
CONTINUOUS
 62
     6
100
AcDbVertex
100
AcDb2dVertex
 10
20895.452784
 20
-18868.610282
 30
0.0
  0
VERTEX
  5
19E
100
AcDbEntity
  8
002
  6
CONTINUOUS
 62
     6
100
AcDbVertex
100
AcDb2dVertex
 10
20895.452784
 20
-20877.910282
 30
0.0
  0
VERTEX
  5
19F
100
AcDbEntity
  8
002
  6
CONTINUOUS
 62
     6
100
AcDbVertex
100
AcDb2dVertex
 10
18002.202784
 20
-20877.910282
 30
0.0
  0
SEQEND
  5
1A0
100
AcDbEntity
  8
002
  6
CONTINUOUS
 62
     6
  0
LINE
  5
1A1
100
AcDbEntity
  8
002
  6
CONTINUOUS
 62
     6
100
AcDbLine
 10
18051.902784
 20
-20784.51203
 30
0.0
 11
20895.452784
 21
-20784.51203
 31
0.0
  0
LINE
  5
1A2
100
AcDbEntity
  8
002
  6
CONTINUOUS
 62
     6
100
AcDbLine
 10
18002.202784
 20
-20784.51203
 30
0.0
 11
20895.452784
 21
-20784.51203
 31
0.0
  0
LINE
  5
1A3
100
AcDbEntity
  8
002
  6
CONTINUOUS
 62
     6
100
AcDbLine
 10
20895.452784
 20
-20784.51203
 30
0.0
 11
20895.452784
 21
-20876.54223
 31
0.0
  0
LINE
  5
1A4
100
AcDbEntity
  8
002
  6
CONTINUOUS
 62
     6
100
AcDbLine
 10
18716.462784
 20
-20784.51203
 30
0.0
 11
18716.462784
 21
-20876.54223
 31
0.0
  0
TEXT
  5
1A5
100
AcDbEntity
  8
002
  6
CONTINUOUS
 62
     7
100
AcDbText
 10
20757.357784
 20
-20805.699614
 30
0.0
 40
10.762478
  1
No.
 41
1.176471
  7
DRACAD
 72
     5
 11
20795.343002
 21
-20805.699614
 31
0.0
100
AcDbText
  0
LINE
  5
1A6
100
AcDbEntity
  8
002
  6
CONTINUOUS
 62
     7
100
AcDbLine
 10
20575.952784
 20
-20784.51203
 30
0.0
 11
20575.952784
 21
-20876.54223
 31
0.0
  0
TEXT
  5
1A7
100
AcDbEntity
  8
002
  6
CONTINUOUS
 62
     7
100
AcDbText
 10
20578.211176
 20
-20842.498322
 30
0.0
 40
10.762478
  1
SCALE
 41
1.176471
  7
DRACAD
 72
     5
 11
20641.519872
 21
-20842.498322
 31
0.0
100
AcDbText
  0
LINE
  5
1A8
100
AcDbEntity
  8
002
  6
CONTINUOUS
 62
     6
100
AcDbLine
 10
20753.452784
 20
-20784.51203
 30
0.0
 11
20753.452784
 21
-20876.54223
 31
0.0
  0
LINE
  5
1A9
100
AcDbEntity
  8
002
  6
CONTINUOUS
 62
     6
100
AcDbLine
 10
20220.952784
 20
-20784.51203
 30
0.0
 11
20220.952784
 21
-20876.54223
 31
0.0
  0
TEXT
  5
1AA
100
AcDbEntity
  8
002
  6
CONTINUOUS
 62
     7
100
AcDbText
 10
20578.417671
 20
-20803.90826
 30
0.0
 40
10.762478
  1
Date
 41
1.176471
  7
DRACAD
 72
     5
 11
20629.064627
 21
-20803.90826
 31
0.0
100
AcDbText
  0
LINE
  5
1AB
100
AcDbEntity
  8
002
  6
CONTINUOUS
 62
     7
100
AcDbLine
 10
20575.952784
 20
-20823.42713
 30
0.0
 11
20753.452784
 21
-20823.42713
 31
0.0
  0
TEXT
  5
1AC
100
AcDbEntity
  8
002
  6
CONTINUOUS
 62
     7
100
AcDbText
 10
20225.014578
 20
-20808.773322
 30
0.0
 40
10.762478
  1
Drawing Title
 41
1.176471
  7
DRACAD
 72
     5
 11
20389.617188
 21
-20808.773322
 31
0.0
100
AcDbText
  0
LINE
  5
1AD
100
AcDbEntity
  8
002
  6
CONTINUOUS
 62
     4
100
AcDbLine
 10
18717.444831
 20
-20830.52713
 30
0.0
 11
19716.852784
 21
-20830.52713
 31
0.0
  0
LINE
  5
1AE
100
AcDbEntity
  8
002
  6
CONTINUOUS
 62
     4
100
AcDbLine
 10
18716.561891
 20
-20807.51958
 30
0.0
 11
19716.852784
 21
-20807.51958
 31
0.0
  0
LINE
  5
1AF
100
AcDbEntity
  8
002
  6
CONTINUOUS
 62
     4
100
AcDbLine
 10
18716.561891
 20
-20853.53468
 30
0.0
 11
19716.852784
 21
-20853.53468
 31
0.0
  0
TEXT
  5
1B0
100
AcDbEntity
  8
002
  6
CONTINUOUS
 62
     7
100
AcDbText
 10
18722.489222
 20
-20804.271419
 30
0.0
 40
10.054993
  1
Memo
 41
1.176471
  7
DRACAD
 72
     5
 11
18769.806834
 21
-20804.271419
 31
0.0
100
AcDbText
  0
LINE
  5
1B1
100
AcDbEntity
  8
002
  6
CONTINUOUS
 62
     6
100
AcDbLine
 10
19716.852784
 20
-20784.51203
 30
0.0
 11
19716.852784
 21
-20876.54223
 31
0.0
  0
TEXT
  5
1B2
100
AcDbEntity
  8
002
  6
CONTINUOUS
 62
     7
100
AcDbText
 10
19722.879222
 20
-20803.90826
 30
0.0
 40
10.270983
  1
Project
 41
1.176471
  7
DRACAD
 72
     5
 11
19807.463785
 21
-20803.90826
 31
0.0
100
AcDbText
  0
TEXT
  5
1B3
100
AcDbEntity
  8
002
  6
CONTINUOUS
 62
     7
100
AcDbText
 10
19764.007867
 20
-20847.742121
 30
0.0
 40
19.410192
  1
SLT　CAD部品図面
 41
0.984706
  7
DRACAD
 72
     5
 11
20015.198593
 21
-20847.742121
 31
0.0
100
AcDbText
  0
TEXT
  5
1B4
100
AcDbEntity
  8
002
  6
CONTINUOUS
 62
     7
100
AcDbText
 10
20615.018561
 20
-20821.021532
 30
0.0
 40
15.497969
  1
11/2/10
 41
1.176471
  7
DRACAD
 72
     5
 11
20742.648892
 21
-20821.021532
 31
0.0
100
AcDbText
  0
TEXT
  5
1B5
100
AcDbEntity
  8
002
  6
CONTINUOUS
 62
     7
100
AcDbText
 10
20256.696013
 20
-20845.933956
 30
0.0
 40
15.0
  1
ＲＢ-ＵＦ
 41
0.984706
  7
DRACAD
 72
     5
 11
20344.931307
 21
-20845.933956
 31
0.0
100
AcDbText
  0
TEXT
  5
1B6
100
AcDbEntity
  8
002
  6
CONTINUOUS
 62
     4
100
AcDbText
 10
18170.739027
 20
-20851.747619
 30
0.0
 40
18.941962
  1
ス カ イ ラ イ ト チ ュ ー ブ
 41
0.984706
  7
DRACAD
 72
     5
 11
18594.147585
 21
-20851.747619
 31
0.0
100
AcDbText
  0
INSERT
  5
1B7
100
AcDbEntity
  8
003
  6
CONTINUOUS
 62
     4
100
AcDbBlockReference
  2
3
 10
18002.202784
 20
-20877.910282
 30
0.0
 41
0.71
 42
0.71
  0
ARC
  5
1B8
100
AcDbEntity
  8
0
  6
CONTINUOUS
 62
     7
100
AcDbCircle
 10
19873.114668
 20
-19346.952365
 30
0.0
 40
7.765856
100
AcDbArc
 50
152.763755
 51
207.236245
  0
ARC
  5
1B9
100
AcDbEntity
  8
0
  6
CONTINUOUS
 62
     7
100
AcDbCircle
 10
19010.142791
 20
-19346.952365
 30
0.0
 40
7.765943
100
AcDbArc
 50
152.764087
 51
207.235913
  0
ARC
  5
1BA
100
AcDbEntity
  8
0
  6
CONTINUOUS
 62
     7
100
AcDbCircle
 10
19010.142791
 20
-19845.417367
 30
0.0
 40
7.765943
100
AcDbArc
 50
152.764087
 51
207.235913
  0
LINE
  5
1BB
100
AcDbEntity
  8
0
  6
CONTINUOUS
 62
     1
100
AcDbLine
 10
19866.20984
 20
-19841.863233
 30
0.0
 11
19003.237868
 21
-19841.863248
 31
0.0
  0
ARC
  5
1BC
100
AcDbEntity
  8
0
  6
CONTINUOUS
 62
     7
100
AcDbCircle
 10
19873.114668
 20
-19845.417367
 30
0.0
 40
7.765856
100
AcDbArc
 50
152.763755
 51
207.236245
  0
LINE
  5
1BD
100
AcDbEntity
  8
0
  6
CONTINUOUS
 62
     1
100
AcDbLine
 10
19866.209841
 20
-19848.971501
 30
0.0
 11
19003.237868
 21
-19848.971483
 31
0.0
  0
LINE
  5
1BE
100
AcDbEntity
  8
0
  6
CONTINUOUS
 62
     1
100
AcDbLine
 10
19866.209836
 20
-19426.031484
 30
0.0
 11
19003.237868
 21
-19426.031483
 31
0.0
  0
ARC
  5
1BF
100
AcDbEntity
  8
0
  6
CONTINUOUS
 62
     7
100
AcDbCircle
 10
19010.142768
 20
-19422.477366
 30
0.0
 40
7.765919
100
AcDbArc
 50
152.764058
 51
207.235942
  0
LINE
  5
1C0
100
AcDbEntity
  8
0
  6
CONTINUOUS
 62
     1
100
AcDbLine
 10
19866.209836
 20
-19418.923248
 30
0.0
 11
19003.237868
 21
-19418.923248
 31
0.0
  0
ARC
  5
1C1
100
AcDbEntity
  8
0
  6
CONTINUOUS
 62
     7
100
AcDbCircle
 10
19873.114645
 20
-19422.477366
 30
0.0
 40
7.765832
100
AcDbArc
 50
152.763726
 51
207.236274
  0
ARC
  5
1C2
100
AcDbEntity
  8
0
  6
CONTINUOUS
 62
     7
100
AcDbCircle
 10
19010.142768
 20
-19815.207362
 30
0.0
 40
7.765919
100
AcDbArc
 50
152.764058
 51
207.235942
  0
LINE
  5
1C3
100
AcDbEntity
  8
0
  6
CONTINUOUS
 62
     1
100
AcDbLine
 10
19866.209839
 20
-19811.653237
 30
0.0
 11
19003.237868
 21
-19811.653248
 31
0.0
  0
ARC
  5
1C4
100
AcDbEntity
  8
0
  6
CONTINUOUS
 62
     7
100
AcDbCircle
 10
19873.114645
 20
-19815.207362
 30
0.0
 40
7.765832
100
AcDbArc
 50
152.763726
 51
207.236274
  0
LINE
  5
1C5
100
AcDbEntity
  8
0
  6
CONTINUOUS
 62
     1
100
AcDbLine
 10
19866.209833
 20
-19818.761474
 30
0.0
 11
19003.237868
 21
-19818.761483
 31
0.0
  0
ARC
  5
1C6
100
AcDbEntity
  8
0
  6
CONTINUOUS
 62
     7
100
AcDbCircle
 10
19010.142768
 20
-19377.16237
 30
0.0
 40
7.765919
100
AcDbArc
 50
152.764058
 51
207.235942
  0
ARC
  5
1C7
100
AcDbEntity
  8
0
  6
CONTINUOUS
 62
     7
100
AcDbCircle
 10
19873.114645
 20
-19377.16237
 30
0.0
 40
7.765832
100
AcDbArc
 50
152.763726
 51
207.236274
  0
ARC
  5
1C8
100
AcDbEntity
  8
0
  6
CONTINUOUS
 62
     7
100
AcDbCircle
 10
18995.469985
 20
-19762.339866
 30
0.0
 40
8.736529
100
AcDbArc
 50
332.763627
 51
27.236373
  0
LINE
  5
1C9
100
AcDbEntity
  8
0
  6
CONTINUOUS
 62
     1
100
AcDbLine
 10
19866.209838
 20
-19758.341488
 30
0.0
 11
19003.237868
 21
-19758.341483
 31
0.0
  0
LINE
  5
1CA
100
AcDbEntity
  8
0
  6
CONTINUOUS
 62
     1
100
AcDbLine
 10
19866.209836
 20
-19766.338247
 30
0.0
 11
19003.237868
 21
-19766.338248
 31
0.0
  0
ARC
  5
1CB
100
AcDbEntity
  8
0
  6
CONTINUOUS
 62
     7
100
AcDbCircle
 10
18995.469985
 20
-19747.234868
 30
0.0
 40
8.736529
100
AcDbArc
 50
332.763627
 51
27.236373
  0
LINE
  5
1CC
100
AcDbEntity
  8
0
  6
CONTINUOUS
 62
     1
100
AcDbLine
 10
19385.680356
 20
-19743.236487
 30
0.0
 11
19003.237868
 21
-19743.236483
 31
0.0
  0
LINE
  5
1CD
100
AcDbEntity
  8
0
  6
CONTINUOUS
 62
     1
100
AcDbLine
 10
19434.678526
 20
-19751.23325
 30
0.0
 11
19003.237868
 21
-19751.233248
 31
0.0
  0
LINE
  5
1CE
100
AcDbEntity
  8
0
  6
CONTINUOUS
 62
     1
100
AcDbLine
 10
19866.209844
 20
-19229.666483
 30
0.0
 11
19003.237868
 21
-19229.666483
 31
0.0
  0
ARC
  5
1CF
100
AcDbEntity
  8
0
  6
CONTINUOUS
 62
     7
100
AcDbCircle
 10
19858.442282
 20
-19233.664852
 30
0.0
 40
8.736243
100
AcDbArc
 50
332.762661
 51
27.237339
  0
LINE
  5
1D0
100
AcDbEntity
  8
0
  6
CONTINUOUS
 62
     1
100
AcDbLine
 10
19866.209844
 20
-19237.663248
 30
0.0
 11
19003.237868
 21
-19237.663248
 31
0.0
  0
ARC
  5
1D1
100
AcDbEntity
  8
0
  6
CONTINUOUS
 62
     7
100
AcDbCircle
 10
18995.469967
 20
-19233.664852
 30
0.0
 40
8.736545
100
AcDbArc
 50
332.763678
 51
27.236322
  0
LINE
  5
1D2
100
AcDbEntity
  8
0
  6
CONTINUOUS
 62
     1
100
AcDbLine
 10
19866.209844
 20
-19879.181483
 30
0.0
 11
19003.237868
 21
-19879.181483
 31
0.0
  0
ARC
  5
1D3
100
AcDbEntity
  8
0
  6
CONTINUOUS
 62
     7
100
AcDbCircle
 10
19858.442316
 20
-19883.179871
 30
0.0
 40
8.736213
100
AcDbArc
 50
332.762558
 51
27.237442
  0
LINE
  5
1D4
100
AcDbEntity
  8
0
  6
CONTINUOUS
 62
     1
100
AcDbLine
 10
19866.209844
 20
-19887.178248
 30
0.0
 11
19003.237868
 21
-19887.178248
 31
0.0
  0
ARC
  5
1D5
100
AcDbEntity
  8
0
  6
CONTINUOUS
 62
     7
100
AcDbCircle
 10
18995.470002
 20
-19883.179871
 30
0.0
 40
8.736514
100
AcDbArc
 50
332.763576
 51
27.236424
  0
ARC
  5
1D6
100
AcDbEntity
  8
0
  6
CONTINUOUS
 62
     7
100
AcDbCircle
 10
18995.469985
 20
-19701.919864
 30
0.0
 40
8.736529
100
AcDbArc
 50
332.763627
 51
27.236373
  0
LINE
  5
1D7
100
AcDbEntity
  8
0
  6
CONTINUOUS
 62
     1
100
AcDbLine
 10
19317.73982
 20
-19697.921482
 30
0.0
 11
19003.237868
 21
-19697.921483
 31
0.0
  0
LINE
  5
1D8
100
AcDbEntity
  8
0
  6
CONTINUOUS
 62
     1
100
AcDbLine
 10
19325.208961
 20
-19705.918245
 30
0.0
 11
19003.237868
 21
-19705.918248
 31
0.0
  0
LINE
  5
1D9
100
AcDbEntity
  8
0
  6
CONTINUOUS
 62
     1
100
AcDbLine
 10
19866.209844
 20
-19984.916483
 30
0.0
 11
19003.237868
 21
-19984.916483
 31
0.0
  0
ARC
  5
1DA
100
AcDbEntity
  8
0
  6
CONTINUOUS
 62
     7
100
AcDbCircle
 10
19858.442282
 20
-19988.914876
 30
0.0
 40
8.736243
100
AcDbArc
 50
332.762661
 51
27.237339
  0
LINE
  5
1DB
100
AcDbEntity
  8
0
  6
CONTINUOUS
 62
     1
100
AcDbLine
 10
19866.209844
 20
-19992.913248
 30
0.0
 11
19003.237868
 21
-19992.913248
 31
0.0
  0
ARC
  5
1DC
100
AcDbEntity
  8
0
  6
CONTINUOUS
 62
     7
100
AcDbCircle
 10
18995.469967
 20
-19988.914876
 30
0.0
 40
8.736545
100
AcDbArc
 50
332.763678
 51
27.236322
  0
ARC
  5
1DD
100
AcDbEntity
  8
0
  6
CONTINUOUS
 62
     7
100
AcDbCircle
 10
18995.469964
 20
-19717.024866
 30
0.0
 40
8.736549
100
AcDbArc
 50
332.763666
 51
27.236334
  0
LINE
  5
1DE
100
AcDbEntity
  8
0
  6
CONTINUOUS
 62
     1
100
AcDbLine
 10
19332.830418
 20
-19713.02648
 30
0.0
 11
19003.237868
 21
-19713.026483
 31
0.0
  0
LINE
  5
1DF
100
AcDbEntity
  8
0
  6
CONTINUOUS
 62
     1
100
AcDbLine
 10
19342.807001
 20
-19721.023253
 30
0.0
 11
19003.237868
 21
-19721.023248
 31
0.0
  0
LINE
  5
1E0
100
AcDbEntity
  8
0
  6
CONTINUOUS
 62
     1
100
AcDbLine
 10
19866.209844
 20
-19894.286483
 30
0.0
 11
19003.237868
 21
-19894.286483
 31
0.0
  0
ARC
  5
1E1
100
AcDbEntity
  8
0
  6
CONTINUOUS
 62
     7
100
AcDbCircle
 10
19858.442282
 20
-19898.284855
 30
0.0
 40
8.736243
100
AcDbArc
 50
332.762661
 51
27.237339
  0
LINE
  5
1E2
100
AcDbEntity
  8
0
  6
CONTINUOUS
 62
     1
100
AcDbLine
 10
19866.209844
 20
-19902.283248
 30
0.0
 11
19003.237868
 21
-19902.283248
 31
0.0
  0
ARC
  5
1E3
100
AcDbEntity
  8
0
  6
CONTINUOUS
 62
     7
100
AcDbCircle
 10
18995.469967
 20
-19898.284855
 30
0.0
 40
8.736545
100
AcDbArc
 50
332.763678
 51
27.236322
  0
LINE
  5
1E4
100
AcDbEntity
  8
0
  6
CONTINUOUS
 62
     1
100
AcDbLine
 10
19866.209844
 20
-19214.561483
 30
0.0
 11
19003.237868
 21
-19214.561483
 31
0.0
  0
ARC
  5
1E5
100
AcDbEntity
  8
0
  6
CONTINUOUS
 62
     7
100
AcDbCircle
 10
19858.442316
 20
-19218.559868
 30
0.0
 40
8.736213
100
AcDbArc
 50
332.762558
 51
27.237442
  0
LINE
  5
1E6
100
AcDbEntity
  8
0
  6
CONTINUOUS
 62
     1
100
AcDbLine
 10
19866.209844
 20
-19222.558248
 30
0.0
 11
19003.237868
 21
-19222.558248
 31
0.0
  0
ARC
  5
1E7
100
AcDbEntity
  8
0
  6
CONTINUOUS
 62
     7
100
AcDbCircle
 10
18995.470002
 20
-19218.559868
 30
0.0
 40
8.736514
100
AcDbArc
 50
332.763576
 51
27.236424
  0
LINE
  5
1E8
100
AcDbEntity
  8
0
  6
CONTINUOUS
 62
     1
100
AcDbLine
 10
19866.209844
 20
-20015.126483
 30
0.0
 11
19003.237868
 21
-20015.126483
 31
0.0
  0
ARC
  5
1E9
100
AcDbEntity
  8
0
  6
CONTINUOUS
 62
     7
100
AcDbCircle
 10
19858.442282
 20
-20019.124874
 30
0.0
 40
8.736243
100
AcDbArc
 50
332.762661
 51
27.237339
  0
ARC
  5
1EA
100
AcDbEntity
  8
0
  6
CONTINUOUS
 62
     7
100
AcDbCircle
 10
18995.469967
 20
-20019.124874
 30
0.0
 40
8.736545
100
AcDbArc
 50
328.537248
 51
27.236322
  0
ARC
  5
1EB
100
AcDbEntity
  8
0
  6
CONTINUOUS
 62
     7
100
AcDbCircle
 10
18995.469985
 20
-19732.129869
 30
0.0
 40
8.736529
100
AcDbArc
 50
332.763627
 51
27.236373
  0
LINE
  5
1EC
100
AcDbEntity
  8
0
  6
CONTINUOUS
 62
     1
100
AcDbLine
 10
19353.34533
 20
-19728.131489
 30
0.0
 11
19003.237868
 21
-19728.131483
 31
0.0
  0
LINE
  5
1ED
100
AcDbEntity
  8
0
  6
CONTINUOUS
 62
     1
100
AcDbLine
 10
19368.038832
 20
-19736.128252
 30
0.0
 11
19003.237868
 21
-19736.128248
 31
0.0
  0
ARC
  5
1EE
100
AcDbEntity
  8
0
  6
CONTINUOUS
 62
     7
100
AcDbCircle
 10
18995.469985
 20
-19414.924866
 30
0.0
 40
8.736529
100
AcDbArc
 50
332.763627
 51
27.236373
  0
LINE
  5
1EF
100
AcDbEntity
  8
0
  6
CONTINUOUS
 62
     1
100
AcDbLine
 10
19866.209838
 20
-19410.926488
 30
0.0
 11
19003.237868
 21
-19410.926483
 31
0.0
  0
LINE
  5
1F0
100
AcDbEntity
  8
0
  6
CONTINUOUS
 62
     1
100
AcDbLine
 10
19866.209844
 20
-19864.076483
 30
0.0
 11
19003.237868
 21
-19864.076483
 31
0.0
  0
ARC
  5
1F1
100
AcDbEntity
  8
0
  6
CONTINUOUS
 62
     7
100
AcDbCircle
 10
19858.442282
 20
-19868.074857
 30
0.0
 40
8.736243
100
AcDbArc
 50
332.762661
 51
27.237339
  0
LINE
  5
1F2
100
AcDbEntity
  8
0
  6
CONTINUOUS
 62
     1
100
AcDbLine
 10
19866.209844
 20
-19872.073248
 30
0.0
 11
19003.237868
 21
-19872.073248
 31
0.0
  0
ARC
  5
1F3
100
AcDbEntity
  8
0
  6
CONTINUOUS
 62
     7
100
AcDbCircle
 10
18995.469967
 20
-19868.074857
 30
0.0
 40
8.736545
100
AcDbArc
 50
332.763678
 51
27.236322
  0
LINE
  5
1F4
100
AcDbEntity
  8
0
  6
CONTINUOUS
 62
     1
100
AcDbLine
 10
19866.209844
 20
-19924.496483
 30
0.0
 11
19003.237868
 21
-19924.496483
 31
0.0
  0
ARC
  5
1F5
100
AcDbEntity
  8
0
  6
CONTINUOUS
 62
     7
100
AcDbCircle
 10
19858.442282
 20
-19928.494852
 30
0.0
 40
8.736243
100
AcDbArc
 50
332.762661
 51
27.237339
  0
LINE
  5
1F6
100
AcDbEntity
  8
0
  6
CONTINUOUS
 62
     1
100
AcDbLine
 10
19866.209844
 20
-19932.493248
 30
0.0
 11
19003.237868
 21
-19932.493248
 31
0.0
  0
ARC
  5
1F7
100
AcDbEntity
  8
0
  6
CONTINUOUS
 62
     7
100
AcDbCircle
 10
18995.469967
 20
-19928.494852
 30
0.0
 40
8.736545
100
AcDbArc
 50
332.763678
 51
27.236322
  0
LINE
  5
1F8
100
AcDbEntity
  8
0
  6
CONTINUOUS
 62
     1
100
AcDbLine
 10
19866.209844
 20
-19969.811483
 30
0.0
 11
19003.237868
 21
-19969.811483
 31
0.0
  0
ARC
  5
1F9
100
AcDbEntity
  8
0
  6
CONTINUOUS
 62
     7
100
AcDbCircle
 10
19858.442316
 20
-19973.809863
 30
0.0
 40
8.736213
100
AcDbArc
 50
332.762558
 51
27.237442
  0
LINE
  5
1FA
100
AcDbEntity
  8
0
  6
CONTINUOUS
 62
     1
100
AcDbLine
 10
19866.209844
 20
-19977.808248
 30
0.0
 11
19003.237868
 21
-19977.808248
 31
0.0
  0
ARC
  5
1FB
100
AcDbEntity
  8
0
  6
CONTINUOUS
 62
     7
100
AcDbCircle
 10
18995.470002
 20
-19973.809863
 30
0.0
 40
8.736514
100
AcDbArc
 50
332.763576
 51
27.236424
  0
LINE
  5
1FC
100
AcDbEntity
  8
0
  6
CONTINUOUS
 62
     1
100
AcDbLine
 10
19866.209844
 20
-20000.021483
 30
0.0
 11
19003.237868
 21
-20000.021483
 31
0.0
  0
ARC
  5
1FD
100
AcDbEntity
  8
0
  6
CONTINUOUS
 62
     7
100
AcDbCircle
 10
19858.442316
 20
-20004.01986
 30
0.0
 40
8.736213
100
AcDbArc
 50
332.762558
 51
27.237442
  0
LINE
  5
1FE
100
AcDbEntity
  8
0
  6
CONTINUOUS
 62
     1
100
AcDbLine
 10
19866.209844
 20
-20008.018248
 30
0.0
 11
19003.237868
 21
-20008.018248
 31
0.0
  0
ARC
  5
1FF
100
AcDbEntity
  8
0
  6
CONTINUOUS
 62
     7
100
AcDbCircle
 10
18995.470002
 20
-20004.01986
 30
0.0
 40
8.736514
100
AcDbArc
 50
332.763576
 51
27.236424
  0
LINE
  5
200
100
AcDbEntity
  8
0
  6
CONTINUOUS
 62
     1
100
AcDbLine
 10
19866.209844
 20
-19909.391483
 30
0.0
 11
19003.237868
 21
-19909.391483
 31
0.0
  0
ARC
  5
201
100
AcDbEntity
  8
0
  6
CONTINUOUS
 62
     7
100
AcDbCircle
 10
19858.442316
 20
-19913.389868
 30
0.0
 40
8.736213
100
AcDbArc
 50
332.762558
 51
27.237442
  0
LINE
  5
202
100
AcDbEntity
  8
0
  6
CONTINUOUS
 62
     1
100
AcDbLine
 10
19866.209844
 20
-19917.388248
 30
0.0
 11
19003.237868
 21
-19917.388248
 31
0.0
  0
ARC
  5
203
100
AcDbEntity
  8
0
  6
CONTINUOUS
 62
     7
100
AcDbCircle
 10
18995.470002
 20
-19913.389868
 30
0.0
 40
8.736514
100
AcDbArc
 50
332.763576
 51
27.236424
  0
LINE
  5
204
100
AcDbEntity
  8
0
  6
CONTINUOUS
 62
     1
100
AcDbLine
 10
19866.209844
 20
-19954.706483
 30
0.0
 11
19003.237868
 21
-19954.706483
 31
0.0
  0
ARC
  5
205
100
AcDbEntity
  8
0
  6
CONTINUOUS
 62
     7
100
AcDbCircle
 10
19858.442282
 20
-19958.704879
 30
0.0
 40
8.736243
100
AcDbArc
 50
332.762661
 51
27.237339
  0
LINE
  5
206
100
AcDbEntity
  8
0
  6
CONTINUOUS
 62
     1
100
AcDbLine
 10
19866.209844
 20
-19962.703248
 30
0.0
 11
19003.237868
 21
-19962.703248
 31
0.0
  0
ARC
  5
207
100
AcDbEntity
  8
0
  6
CONTINUOUS
 62
     7
100
AcDbCircle
 10
18995.469967
 20
-19958.704879
 30
0.0
 40
8.736545
100
AcDbArc
 50
332.763678
 51
27.236322
  0
ARC
  5
208
100
AcDbEntity
  8
0
  6
CONTINUOUS
 62
     7
100
AcDbCircle
 10
19010.142745
 20
-19165.692366
 30
0.0
 40
7.765895
100
AcDbArc
 50
202.66477
 51
207.235971
  0
ARC
  5
209
100
AcDbEntity
  8
0
  6
CONTINUOUS
 62
     7
100
AcDbCircle
 10
18995.469967
 20
-19173.244858
 30
0.0
 40
8.736545
100
AcDbArc
 50
332.763678
 51
27.236322
  0
ARC
  5
20A
100
AcDbEntity
  8
0
  6
CONTINUOUS
 62
     7
100
AcDbCircle
 10
19010.142791
 20
-19180.797364
 30
0.0
 40
7.765943
100
AcDbArc
 50
152.764087
 51
207.235913
  0
ARC
  5
20B
100
AcDbEntity
  8
0
  6
CONTINUOUS
 62
     7
100
AcDbCircle
 10
18995.470002
 20
-19188.349871
 30
0.0
 40
8.736514
100
AcDbArc
 50
332.763576
 51
27.236424
  0
ARC
  5
20C
100
AcDbEntity
  8
0
  6
CONTINUOUS
 62
     7
100
AcDbCircle
 10
19010.142745
 20
-19195.902363
 30
0.0
 40
7.765895
100
AcDbArc
 50
152.764029
 51
207.235971
  0
ARC
  5
20D
100
AcDbEntity
  8
0
  6
CONTINUOUS
 62
     7
100
AcDbCircle
 10
18995.469967
 20
-19203.454855
 30
0.0
 40
8.736545
100
AcDbArc
 50
332.763678
 51
27.236322
  0
ARC
  5
20E
100
AcDbEntity
  8
0
  6
CONTINUOUS
 62
     7
100
AcDbCircle
 10
19010.142791
 20
-19211.007362
 30
0.0
 40
7.765943
100
AcDbArc
 50
152.764087
 51
207.235913
  0
ARC
  5
20F
100
AcDbEntity
  8
0
  6
CONTINUOUS
 62
     7
100
AcDbCircle
 10
19010.14271
 20
-19226.11236
 30
0.0
 40
7.765865
100
AcDbArc
 50
152.763913
 51
207.236087
  0
ARC
  5
210
100
AcDbEntity
  8
0
  6
CONTINUOUS
 62
     7
100
AcDbCircle
 10
19010.142791
 20
-19241.217359
 30
0.0
 40
7.765943
100
AcDbArc
 50
152.764087
 51
207.235913
  0
ARC
  5
211
100
AcDbEntity
  8
0
  6
CONTINUOUS
 62
     7
100
AcDbCircle
 10
18995.470002
 20
-19248.769866
 30
0.0
 40
8.736514
100
AcDbArc
 50
332.763576
 51
27.236424
  0
ARC
  5
212
100
AcDbEntity
  8
0
  6
CONTINUOUS
 62
     7
100
AcDbCircle
 10
19010.142791
 20
-19256.322373
 30
0.0
 40
7.765943
100
AcDbArc
 50
152.764087
 51
207.235913
  0
ARC
  5
213
100
AcDbEntity
  8
0
  6
CONTINUOUS
 62
     7
100
AcDbCircle
 10
18995.469967
 20
-19263.874879
 30
0.0
 40
8.736545
100
AcDbArc
 50
332.763678
 51
27.236322
  0
ARC
  5
214
100
AcDbEntity
  8
0
  6
CONTINUOUS
 62
     7
100
AcDbCircle
 10
19010.14271
 20
-19271.427371
 30
0.0
 40
7.765865
100
AcDbArc
 50
152.763913
 51
207.236087
  0
ARC
  5
215
100
AcDbEntity
  8
0
  6
CONTINUOUS
 62
     7
100
AcDbCircle
 10
18995.470002
 20
-19278.979863
 30
0.0
 40
8.736514
100
AcDbArc
 50
332.763576
 51
27.236424
  0
ARC
  5
216
100
AcDbEntity
  8
0
  6
CONTINUOUS
 62
     7
100
AcDbCircle
 10
19010.142791
 20
-19286.53237
 30
0.0
 40
7.765943
100
AcDbArc
 50
152.764087
 51
207.235913
  0
ARC
  5
217
100
AcDbEntity
  8
0
  6
CONTINUOUS
 62
     7
100
AcDbCircle
 10
18995.469967
 20
-19294.084877
 30
0.0
 40
8.736545
100
AcDbArc
 50
332.763678
 51
27.236322
  0
ARC
  5
218
100
AcDbEntity
  8
0
  6
CONTINUOUS
 62
     7
100
AcDbCircle
 10
19010.142745
 20
-19301.637369
 30
0.0
 40
7.765895
100
AcDbArc
 50
152.764029
 51
207.235971
  0
ARC
  5
219
100
AcDbEntity
  8
0
  6
CONTINUOUS
 62
     7
100
AcDbCircle
 10
18995.470002
 20
-19309.189861
 30
0.0
 40
8.736514
100
AcDbArc
 50
332.763576
 51
27.236424
  0
ARC
  5
21A
100
AcDbEntity
  8
0
  6
CONTINUOUS
 62
     7
100
AcDbCircle
 10
19010.142791
 20
-19316.742367
 30
0.0
 40
7.765943
100
AcDbArc
 50
152.764087
 51
207.235913
  0
ARC
  5
21B
100
AcDbEntity
  8
0
  6
CONTINUOUS
 62
     7
100
AcDbCircle
 10
18995.469967
 20
-19324.294874
 30
0.0
 40
8.736545
100
AcDbArc
 50
332.763678
 51
27.236322
  0
ARC
  5
21C
100
AcDbEntity
  8
0
  6
CONTINUOUS
 62
     7
100
AcDbCircle
 10
19010.142745
 20
-19331.847366
 30
0.0
 40
7.765895
100
AcDbArc
 50
152.764029
 51
207.235971
  0
ARC
  5
21D
100
AcDbEntity
  8
0
  6
CONTINUOUS
 62
     7
100
AcDbCircle
 10
18995.469967
 20
-19339.399858
 30
0.0
 40
8.736545
100
AcDbArc
 50
332.763678
 51
27.236322
  0
ARC
  5
21E
100
AcDbEntity
  8
0
  6
CONTINUOUS
 62
     7
100
AcDbCircle
 10
18995.469985
 20
-19354.504872
 30
0.0
 40
8.736529
100
AcDbArc
 50
332.763627
 51
27.236373
  0
ARC
  5
21F
100
AcDbEntity
  8
0
  6
CONTINUOUS
 62
     7
100
AcDbCircle
 10
19010.142768
 20
-19362.057371
 30
0.0
 40
7.765919
100
AcDbArc
 50
152.764058
 51
207.235942
  0
ARC
  5
220
100
AcDbEntity
  8
0
  6
CONTINUOUS
 62
     7
100
AcDbCircle
 10
18995.469985
 20
-19369.60987
 30
0.0
 40
8.736529
100
AcDbArc
 50
332.763627
 51
27.236373
  0
ARC
  5
221
100
AcDbEntity
  8
0
  6
CONTINUOUS
 62
     7
100
AcDbCircle
 10
18995.469985
 20
-19384.714869
 30
0.0
 40
8.736529
100
AcDbArc
 50
332.763627
 51
27.236373
  0
ARC
  5
222
100
AcDbEntity
  8
0
  6
CONTINUOUS
 62
     7
100
AcDbCircle
 10
19010.142768
 20
-19392.267368
 30
0.0
 40
7.765919
100
AcDbArc
 50
152.764058
 51
207.235942
  0
ARC
  5
223
100
AcDbEntity
  8
0
  6
CONTINUOUS
 62
     7
100
AcDbCircle
 10
18995.469985
 20
-19399.819868
 30
0.0
 40
8.736529
100
AcDbArc
 50
332.763627
 51
27.236373
  0
ARC
  5
224
100
AcDbEntity
  8
0
  6
CONTINUOUS
 62
     7
100
AcDbCircle
 10
19010.142768
 20
-19407.372367
 30
0.0
 40
7.765919
100
AcDbArc
 50
152.764058
 51
207.235942
  0
ARC
  5
225
100
AcDbEntity
  8
0
  6
CONTINUOUS
 62
     7
100
AcDbCircle
 10
18995.469985
 20
-19430.029865
 30
0.0
 40
8.736529
100
AcDbArc
 50
332.763627
 51
27.236373
  0
ARC
  5
226
100
AcDbEntity
  8
0
  6
CONTINUOUS
 62
     7
100
AcDbCircle
 10
19010.142768
 20
-19437.582364
 30
0.0
 40
7.765919
100
AcDbArc
 50
152.764058
 51
207.235942
  0
ARC
  5
227
100
AcDbEntity
  8
0
  6
CONTINUOUS
 62
     7
100
AcDbCircle
 10
18995.469985
 20
-19445.134864
 30
0.0
 40
8.736529
100
AcDbArc
 50
332.763627
 51
27.236373
  0
ARC
  5
228
100
AcDbEntity
  8
0
  6
CONTINUOUS
 62
     7
100
AcDbCircle
 10
19010.142768
 20
-19452.687363
 30
0.0
 40
7.765919
100
AcDbArc
 50
152.764058
 51
207.235942
  0
ARC
  5
229
100
AcDbEntity
  8
0
  6
CONTINUOUS
 62
     7
100
AcDbCircle
 10
18995.469985
 20
-19460.239863
 30
0.0
 40
8.736529
100
AcDbArc
 50
332.763627
 51
27.236373
  0
ARC
  5
22A
100
AcDbEntity
  8
0
  6
CONTINUOUS
 62
     7
100
AcDbCircle
 10
19010.142768
 20
-19467.792362
 30
0.0
 40
7.765919
100
AcDbArc
 50
152.764058
 51
207.235942
  0
ARC
  5
22B
100
AcDbEntity
  8
0
  6
CONTINUOUS
 62
     7
100
AcDbCircle
 10
18995.469964
 20
-19475.344865
 30
0.0
 40
8.736549
100
AcDbArc
 50
332.763666
 51
27.236334
  0
ARC
  5
22C
100
AcDbEntity
  8
0
  6
CONTINUOUS
 62
     7
100
AcDbCircle
 10
19010.142759
 20
-19482.897368
 30
0.0
 40
7.765912
100
AcDbArc
 50
152.764029
 51
207.235971
  0
ARC
  5
22D
100
AcDbEntity
  8
0
  6
CONTINUOUS
 62
     7
100
AcDbCircle
 10
18995.469985
 20
-19490.449867
 30
0.0
 40
8.736529
100
AcDbArc
 50
332.763627
 51
27.236373
  0
ARC
  5
22E
100
AcDbEntity
  8
0
  6
CONTINUOUS
 62
     7
100
AcDbCircle
 10
19010.142768
 20
-19498.002367
 30
0.0
 40
7.765919
100
AcDbArc
 50
152.764058
 51
207.235942
  0
ARC
  5
22F
100
AcDbEntity
  8
0
  6
CONTINUOUS
 62
     7
100
AcDbCircle
 10
18995.469985
 20
-19505.554866
 30
0.0
 40
8.736529
100
AcDbArc
 50
332.763627
 51
27.236373
  0
ARC
  5
230
100
AcDbEntity
  8
0
  6
CONTINUOUS
 62
     7
100
AcDbCircle
 10
19010.142768
 20
-19513.107365
 30
0.0
 40
7.765919
100
AcDbArc
 50
152.764058
 51
207.235942
  0
ARC
  5
231
100
AcDbEntity
  8
0
  6
CONTINUOUS
 62
     7
100
AcDbCircle
 10
18995.469985
 20
-19520.659865
 30
0.0
 40
8.736529
100
AcDbArc
 50
332.763627
 51
27.236373
  0
ARC
  5
232
100
AcDbEntity
  8
0
  6
CONTINUOUS
 62
     7
100
AcDbCircle
 10
19010.142759
 20
-19528.212364
 30
0.0
 40
7.765912
100
AcDbArc
 50
152.764029
 51
207.235971
  0
ARC
  5
233
100
AcDbEntity
  8
0
  6
CONTINUOUS
 62
     7
100
AcDbCircle
 10
18995.469979
 20
-19535.764865
 30
0.0
 40
8.736535
100
AcDbArc
 50
332.763633
 51
27.236367
  0
ARC
  5
234
100
AcDbEntity
  8
0
  6
CONTINUOUS
 62
     7
100
AcDbCircle
 10
19010.142763
 20
-19543.317367
 30
0.0
 40
7.765915
100
AcDbArc
 50
152.764043
 51
207.235957
  0
ARC
  5
235
100
AcDbEntity
  8
0
  6
CONTINUOUS
 62
     7
100
AcDbCircle
 10
18995.469985
 20
-19550.869866
 30
0.0
 40
8.736529
100
AcDbArc
 50
332.763627
 51
27.236373
  0
ARC
  5
236
100
AcDbEntity
  8
0
  6
CONTINUOUS
 62
     7
100
AcDbCircle
 10
19010.142763
 20
-19558.422365
 30
0.0
 40
7.765915
100
AcDbArc
 50
152.764043
 51
207.235957
  0
ARC
  5
237
100
AcDbEntity
  8
0
  6
CONTINUOUS
 62
     7
100
AcDbCircle
 10
18995.46998
 20
-19565.974866
 30
0.0
 40
8.736534
100
AcDbArc
 50
332.763637
 51
27.236363
  0
ARC
  5
238
100
AcDbEntity
  8
0
  6
CONTINUOUS
 62
     7
100
AcDbCircle
 10
19010.142763
 20
-19573.527366
 30
0.0
 40
7.765915
100
AcDbArc
 50
152.764043
 51
207.235957
  0
ARC
  5
239
100
AcDbEntity
  8
0
  6
CONTINUOUS
 62
     7
100
AcDbCircle
 10
18995.469982
 20
-19581.079866
 30
0.0
 40
8.736532
100
AcDbArc
 50
332.763632
 51
27.236368
  0
ARC
  5
23A
100
AcDbEntity
  8
0
  6
CONTINUOUS
 62
     7
100
AcDbCircle
 10
19010.142763
 20
-19588.632365
 30
0.0
 40
7.765915
100
AcDbArc
 50
152.764042
 51
207.235958
  0
ARC
  5
23B
100
AcDbEntity
  8
0
  6
CONTINUOUS
 62
     7
100
AcDbCircle
 10
18995.469978
 20
-19596.184866
 30
0.0
 40
8.736535
100
AcDbArc
 50
332.76364
 51
27.23636
  0
ARC
  5
23C
100
AcDbEntity
  8
0
  6
CONTINUOUS
 62
     7
100
AcDbCircle
 10
19010.142763
 20
-19603.737366
 30
0.0
 40
7.765915
100
AcDbArc
 50
152.764042
 51
207.235958
  0
ARC
  5
23D
100
AcDbEntity
  8
0
  6
CONTINUOUS
 62
     7
100
AcDbCircle
 10
18995.469982
 20
-19611.289866
 30
0.0
 40
8.736532
100
AcDbArc
 50
332.763632
 51
27.236368
  0
ARC
  5
23E
100
AcDbEntity
  8
0
  6
CONTINUOUS
 62
     7
100
AcDbCircle
 10
19010.142763
 20
-19618.842366
 30
0.0
 40
7.765915
100
AcDbArc
 50
152.764043
 51
207.235957
  0
ARC
  5
23F
100
AcDbEntity
  8
0
  6
CONTINUOUS
 62
     7
100
AcDbCircle
 10
18995.46998
 20
-19626.394866
 30
0.0
 40
8.736534
100
AcDbArc
 50
332.763637
 51
27.236363
  0
ARC
  5
240
100
AcDbEntity
  8
0
  6
CONTINUOUS
 62
     7
100
AcDbCircle
 10
19010.142763
 20
-19633.947366
 30
0.0
 40
7.765915
100
AcDbArc
 50
152.764043
 51
207.235957
  0
ARC
  5
241
100
AcDbEntity
  8
0
  6
CONTINUOUS
 62
     7
100
AcDbCircle
 10
18995.469985
 20
-19641.499866
 30
0.0
 40
8.736529
100
AcDbArc
 50
332.763627
 51
27.236373
  0
ARC
  5
242
100
AcDbEntity
  8
0
  6
CONTINUOUS
 62
     7
100
AcDbCircle
 10
19010.142763
 20
-19649.052365
 30
0.0
 40
7.765915
100
AcDbArc
 50
152.764043
 51
207.235957
  0
ARC
  5
243
100
AcDbEntity
  8
0
  6
CONTINUOUS
 62
     7
100
AcDbCircle
 10
18995.469979
 20
-19656.604866
 30
0.0
 40
8.736535
100
AcDbArc
 50
332.763633
 51
27.236367
  0
ARC
  5
244
100
AcDbEntity
  8
0
  6
CONTINUOUS
 62
     7
100
AcDbCircle
 10
19010.142759
 20
-19664.157367
 30
0.0
 40
7.765912
100
AcDbArc
 50
152.764029
 51
207.235971
  0
ARC
  5
245
100
AcDbEntity
  8
0
  6
CONTINUOUS
 62
     7
100
AcDbCircle
 10
18995.469985
 20
-19671.709867
 30
0.0
 40
8.736529
100
AcDbArc
 50
332.763627
 51
27.236373
  0
ARC
  5
246
100
AcDbEntity
  8
0
  6
CONTINUOUS
 62
     7
100
AcDbCircle
 10
19010.142768
 20
-19679.262366
 30
0.0
 40
7.765919
100
AcDbArc
 50
152.764058
 51
207.235942
  0
ARC
  5
247
100
AcDbEntity
  8
0
  6
CONTINUOUS
 62
     7
100
AcDbCircle
 10
18995.469985
 20
-19686.814865
 30
0.0
 40
8.736529
100
AcDbArc
 50
332.763627
 51
27.236373
  0
ARC
  5
248
100
AcDbEntity
  8
0
  6
CONTINUOUS
 62
     7
100
AcDbCircle
 10
19010.142768
 20
-19694.367365
 30
0.0
 40
7.765919
100
AcDbArc
 50
152.764058
 51
207.235942
  0
ARC
  5
249
100
AcDbEntity
  8
0
  6
CONTINUOUS
 62
     7
100
AcDbCircle
 10
19010.142759
 20
-19709.472363
 30
0.0
 40
7.765912
100
AcDbArc
 50
152.764029
 51
207.235971
  0
ARC
  5
24A
100
AcDbEntity
  8
0
  6
CONTINUOUS
 62
     7
100
AcDbCircle
 10
19010.142768
 20
-19724.57737
 30
0.0
 40
7.765919
100
AcDbArc
 50
152.764058
 51
207.235942
  0
ARC
  5
24B
100
AcDbEntity
  8
0
  6
CONTINUOUS
 62
     7
100
AcDbCircle
 10
19010.142768
 20
-19739.682368
 30
0.0
 40
7.765919
100
AcDbArc
 50
152.764058
 51
207.235942
  0
ARC
  5
24C
100
AcDbEntity
  8
0
  6
CONTINUOUS
 62
     7
100
AcDbCircle
 10
19010.142768
 20
-19754.787367
 30
0.0
 40
7.765919
100
AcDbArc
 50
152.764058
 51
207.235942
  0
ARC
  5
24D
100
AcDbEntity
  8
0
  6
CONTINUOUS
 62
     7
100
AcDbCircle
 10
19010.142768
 20
-19769.892366
 30
0.0
 40
7.765919
100
AcDbArc
 50
152.764058
 51
207.235942
  0
ARC
  5
24E
100
AcDbEntity
  8
0
  6
CONTINUOUS
 62
     7
100
AcDbCircle
 10
18995.469985
 20
-19777.444865
 30
0.0
 40
8.736529
100
AcDbArc
 50
332.763627
 51
27.236373
  0
ARC
  5
24F
100
AcDbEntity
  8
0
  6
CONTINUOUS
 62
     7
100
AcDbCircle
 10
19010.142768
 20
-19784.997364
 30
0.0
 40
7.765919
100
AcDbArc
 50
152.764058
 51
207.235942
  0
ARC
  5
250
100
AcDbEntity
  8
0
  6
CONTINUOUS
 62
     7
100
AcDbCircle
 10
18995.469985
 20
-19792.549864
 30
0.0
 40
8.736529
100
AcDbArc
 50
332.763627
 51
27.236373
  0
ARC
  5
251
100
AcDbEntity
  8
0
  6
CONTINUOUS
 62
     7
100
AcDbCircle
 10
19010.142768
 20
-19800.102363
 30
0.0
 40
7.765919
100
AcDbArc
 50
152.764058
 51
207.235942
  0
ARC
  5
252
100
AcDbEntity
  8
0
  6
CONTINUOUS
 62
     7
100
AcDbCircle
 10
18995.469985
 20
-19807.654862
 30
0.0
 40
8.736529
100
AcDbArc
 50
332.763627
 51
27.236373
  0
ARC
  5
253
100
AcDbEntity
  8
0
  6
CONTINUOUS
 62
     7
100
AcDbCircle
 10
18995.469985
 20
-19822.759861
 30
0.0
 40
8.736529
100
AcDbArc
 50
332.763627
 51
27.236373
  0
ARC
  5
254
100
AcDbEntity
  8
0
  6
CONTINUOUS
 62
     7
100
AcDbCircle
 10
19010.142768
 20
-19830.31236
 30
0.0
 40
7.765919
100
AcDbArc
 50
152.764058
 51
207.235942
  0
ARC
  5
255
100
AcDbEntity
  8
0
  6
CONTINUOUS
 62
     7
100
AcDbCircle
 10
18995.469985
 20
-19837.86486
 30
0.0
 40
8.736529
100
AcDbArc
 50
332.763627
 51
27.236373
  0
ARC
  5
256
100
AcDbEntity
  8
0
  6
CONTINUOUS
 62
     7
100
AcDbCircle
 10
18995.469967
 20
-19852.969873
 30
0.0
 40
8.736545
100
AcDbArc
 50
332.763678
 51
27.236322
  0
ARC
  5
257
100
AcDbEntity
  8
0
  6
CONTINUOUS
 62
     7
100
AcDbCircle
 10
19010.142745
 20
-19860.522365
 30
0.0
 40
7.765895
100
AcDbArc
 50
152.764029
 51
207.235971
  0
ARC
  5
258
100
AcDbEntity
  8
0
  6
CONTINUOUS
 62
     7
100
AcDbCircle
 10
19010.142791
 20
-19875.627364
 30
0.0
 40
7.765943
100
AcDbArc
 50
152.764087
 51
207.235913
  0
ARC
  5
259
100
AcDbEntity
  8
0
  6
CONTINUOUS
 62
     7
100
AcDbCircle
 10
19010.142745
 20
-19890.732363
 30
0.0
 40
7.765895
100
AcDbArc
 50
152.764029
 51
207.235971
  0
ARC
  5
25A
100
AcDbEntity
  8
0
  6
CONTINUOUS
 62
     7
100
AcDbCircle
 10
19010.142791
 20
-19905.837361
 30
0.0
 40
7.765943
100
AcDbArc
 50
152.764087
 51
207.235913
  0
ARC
  5
25B
100
AcDbEntity
  8
0
  6
CONTINUOUS
 62
     7
100
AcDbCircle
 10
19010.14271
 20
-19920.94236
 30
0.0
 40
7.765865
100
AcDbArc
 50
152.763913
 51
207.236087
  0
ARC
  5
25C
100
AcDbEntity
  8
0
  6
CONTINUOUS
 62
     7
100
AcDbCircle
 10
19010.142791
 20
-19936.047359
 30
0.0
 40
7.765943
100
AcDbArc
 50
152.764087
 51
207.235913
  0
ARC
  5
25D
100
AcDbEntity
  8
0
  6
CONTINUOUS
 62
     7
100
AcDbCircle
 10
18995.470002
 20
-19943.599866
 30
0.0
 40
8.736514
100
AcDbArc
 50
332.763576
 51
27.236424
  0
ARC
  5
25E
100
AcDbEntity
  8
0
  6
CONTINUOUS
 62
     7
100
AcDbCircle
 10
19010.142791
 20
-19951.152372
 30
0.0
 40
7.765943
100
AcDbArc
 50
152.764087
 51
207.235913
  0
ARC
  5
25F
100
AcDbEntity
  8
0
  6
CONTINUOUS
 62
     7
100
AcDbCircle
 10
19010.14271
 20
-19966.257371
 30
0.0
 40
7.765865
100
AcDbArc
 50
152.763913
 51
207.236087
  0
ARC
  5
260
100
AcDbEntity
  8
0
  6
CONTINUOUS
 62
     7
100
AcDbCircle
 10
19010.142791
 20
-19981.36237
 30
0.0
 40
7.765943
100
AcDbArc
 50
152.764087
 51
207.235913
  0
ARC
  5
261
100
AcDbEntity
  8
0
  6
CONTINUOUS
 62
     7
100
AcDbCircle
 10
19010.142745
 20
-19996.467368
 30
0.0
 40
7.765895
100
AcDbArc
 50
152.764029
 51
207.235971
  0
ARC
  5
262
100
AcDbEntity
  8
0
  6
CONTINUOUS
 62
     7
100
AcDbCircle
 10
19010.142791
 20
-20011.572367
 30
0.0
 40
7.765943
100
AcDbArc
 50
152.764087
 51
207.235913
  0
ARC
  5
263
100
AcDbEntity
  8
0
  6
CONTINUOUS
 62
     7
100
AcDbCircle
 10
18996.243005
 20
-20019.124859
 30
0.0
 40
7.765262
100
AcDbArc
 50
324.03924
 51
27.238376
  0
ARC
  5
264
100
AcDbEntity
  8
0
  6
CONTINUOUS
 62
     7
100
AcDbCircle
 10
19010.915036
 20
-20011.572367
 30
0.0
 40
8.736514
100
AcDbArc
 50
152.763576
 51
207.236424
  0
ARC
  5
265
100
AcDbEntity
  8
0
  6
CONTINUOUS
 62
     7
100
AcDbCircle
 10
18996.242925
 20
-20004.01986
 30
0.0
 40
7.76534
100
AcDbArc
 50
332.761798
 51
27.238202
  0
ARC
  5
266
100
AcDbEntity
  8
0
  6
CONTINUOUS
 62
     7
100
AcDbCircle
 10
19010.91507
 20
-19996.467354
 30
0.0
 40
8.736545
100
AcDbArc
 50
152.763678
 51
207.236322
  0
ARC
  5
267
100
AcDbEntity
  8
0
  6
CONTINUOUS
 62
     7
100
AcDbCircle
 10
18996.242971
 20
-19988.914862
 30
0.0
 40
7.765293
100
AcDbArc
 50
332.76174
 51
27.23826
  0
ARC
  5
268
100
AcDbEntity
  8
0
  6
CONTINUOUS
 62
     7
100
AcDbCircle
 10
19010.915036
 20
-19981.36237
 30
0.0
 40
8.736514
100
AcDbArc
 50
152.763576
 51
207.236424
  0
ARC
  5
269
100
AcDbEntity
  8
0
  6
CONTINUOUS
 62
     7
100
AcDbCircle
 10
18996.242925
 20
-19973.809863
 30
0.0
 40
7.76534
100
AcDbArc
 50
332.761798
 51
27.238202
  0
ARC
  5
26A
100
AcDbEntity
  8
0
  6
CONTINUOUS
 62
     7
100
AcDbCircle
 10
19010.91507
 20
-19966.257356
 30
0.0
 40
8.736545
100
AcDbArc
 50
152.763678
 51
207.236322
  0
ARC
  5
26B
100
AcDbEntity
  8
0
  6
CONTINUOUS
 62
     7
100
AcDbCircle
 10
18996.242971
 20
-19958.704864
 30
0.0
 40
7.765293
100
AcDbArc
 50
332.76174
 51
27.23826
  0
ARC
  5
26C
100
AcDbEntity
  8
0
  6
CONTINUOUS
 62
     7
100
AcDbCircle
 10
19010.915036
 20
-19951.152372
 30
0.0
 40
8.736514
100
AcDbArc
 50
152.763576
 51
207.236424
  0
ARC
  5
26D
100
AcDbEntity
  8
0
  6
CONTINUOUS
 62
     7
100
AcDbCircle
 10
18996.242925
 20
-19943.599866
 30
0.0
 40
7.76534
100
AcDbArc
 50
332.761798
 51
27.238202
  0
ARC
  5
26E
100
AcDbEntity
  8
0
  6
CONTINUOUS
 62
     7
100
AcDbCircle
 10
19010.915036
 20
-19936.047359
 30
0.0
 40
8.736514
100
AcDbArc
 50
152.763576
 51
207.236424
  0
ARC
  5
26F
100
AcDbEntity
  8
0
  6
CONTINUOUS
 62
     7
100
AcDbCircle
 10
18996.242971
 20
-19928.494867
 30
0.0
 40
7.765293
100
AcDbArc
 50
332.76174
 51
27.23826
  0
ARC
  5
270
100
AcDbEntity
  8
0
  6
CONTINUOUS
 62
     7
100
AcDbCircle
 10
19010.91507
 20
-19920.942375
 30
0.0
 40
8.736545
100
AcDbArc
 50
152.763678
 51
207.236322
  0
ARC
  5
271
100
AcDbEntity
  8
0
  6
CONTINUOUS
 62
     7
100
AcDbCircle
 10
18996.242925
 20
-19913.389868
 30
0.0
 40
7.76534
100
AcDbArc
 50
332.761798
 51
27.238202
  0
ARC
  5
272
100
AcDbEntity
  8
0
  6
CONTINUOUS
 62
     7
100
AcDbCircle
 10
19010.915036
 20
-19905.837361
 30
0.0
 40
8.736514
100
AcDbArc
 50
152.763576
 51
207.236424
  0
ARC
  5
273
100
AcDbEntity
  8
0
  6
CONTINUOUS
 62
     7
100
AcDbCircle
 10
18996.242971
 20
-19898.284869
 30
0.0
 40
7.765293
100
AcDbArc
 50
332.76174
 51
27.23826
  0
ARC
  5
274
100
AcDbEntity
  8
0
  6
CONTINUOUS
 62
     7
100
AcDbCircle
 10
19010.91507
 20
-19890.732377
 30
0.0
 40
8.736545
100
AcDbArc
 50
152.763678
 51
207.236322
  0
ARC
  5
275
100
AcDbEntity
  8
0
  6
CONTINUOUS
 62
     7
100
AcDbCircle
 10
18996.242925
 20
-19883.179871
 30
0.0
 40
7.76534
100
AcDbArc
 50
332.761798
 51
27.238202
  0
ARC
  5
276
100
AcDbEntity
  8
0
  6
CONTINUOUS
 62
     7
100
AcDbCircle
 10
19010.915036
 20
-19875.627364
 30
0.0
 40
8.736514
100
AcDbArc
 50
152.763576
 51
207.236424
  0
ARC
  5
277
100
AcDbEntity
  8
0
  6
CONTINUOUS
 62
     7
100
AcDbCircle
 10
18996.243005
 20
-19868.074872
 30
0.0
 40
7.765262
100
AcDbArc
 50
332.761624
 51
27.238376
  0
ARC
  5
278
100
AcDbEntity
  8
0
  6
CONTINUOUS
 62
     7
100
AcDbCircle
 10
19010.91515
 20
-19860.522365
 30
0.0
 40
8.736623
100
AcDbArc
 50
152.763833
 51
207.236167
  0
ARC
  5
279
100
AcDbEntity
  8
0
  6
CONTINUOUS
 62
     7
100
AcDbCircle
 10
18996.243005
 20
-19852.969859
 30
0.0
 40
7.765262
100
AcDbArc
 50
332.761624
 51
27.238376
  0
ARC
  5
27A
100
AcDbEntity
  8
0
  6
CONTINUOUS
 62
     7
100
AcDbCircle
 10
18996.242948
 20
-19837.864867
 30
0.0
 40
7.765317
100
AcDbArc
 50
332.761769
 51
27.238231
  0
ARC
  5
27B
100
AcDbEntity
  8
0
  6
CONTINUOUS
 62
     7
100
AcDbCircle
 10
19010.915053
 20
-19830.312368
 30
0.0
 40
8.736529
100
AcDbArc
 50
152.763627
 51
207.236373
  0
ARC
  5
27C
100
AcDbEntity
  8
0
  6
CONTINUOUS
 62
     7
100
AcDbCircle
 10
18996.242948
 20
-19822.759869
 30
0.0
 40
7.765317
100
AcDbArc
 50
332.761769
 51
27.238231
  0
ARC
  5
27D
100
AcDbEntity
  8
0
  6
CONTINUOUS
 62
     7
100
AcDbCircle
 10
19010.915053
 20
-19815.207369
 30
0.0
 40
8.736529
100
AcDbArc
 50
152.763627
 51
207.236373
  0
ARC
  5
27E
100
AcDbEntity
  8
0
  6
CONTINUOUS
 62
     7
100
AcDbCircle
 10
18996.242948
 20
-19807.65487
 30
0.0
 40
7.765317
100
AcDbArc
 50
332.761769
 51
27.238231
  0
ARC
  5
27F
100
AcDbEntity
  8
0
  6
CONTINUOUS
 62
     7
100
AcDbCircle
 10
19010.915053
 20
-19800.10237
 30
0.0
 40
8.736529
100
AcDbArc
 50
152.763627
 51
207.236373
  0
ARC
  5
280
100
AcDbEntity
  8
0
  6
CONTINUOUS
 62
     7
100
AcDbCircle
 10
18996.242965
 20
-19792.549871
 30
0.0
 40
7.765301
100
AcDbArc
 50
332.761711
 51
27.238289
  0
ARC
  5
281
100
AcDbEntity
  8
0
  6
CONTINUOUS
 62
     7
100
AcDbCircle
 10
19010.915053
 20
-19784.997372
 30
0.0
 40
8.736529
100
AcDbArc
 50
152.763627
 51
207.236373
  0
ARC
  5
282
100
AcDbEntity
  8
0
  6
CONTINUOUS
 62
     7
100
AcDbCircle
 10
18996.242965
 20
-19777.444872
 30
0.0
 40
7.765301
100
AcDbArc
 50
332.761711
 51
27.238289
  0
ARC
  5
283
100
AcDbEntity
  8
0
  6
CONTINUOUS
 62
     7
100
AcDbCircle
 10
19010.915093
 20
-19769.892366
 30
0.0
 40
8.736568
100
AcDbArc
 50
152.763704
 51
207.236296
  0
ARC
  5
284
100
AcDbEntity
  8
0
  6
CONTINUOUS
 62
     7
100
AcDbCircle
 10
18996.242965
 20
-19762.339859
 30
0.0
 40
7.765301
100
AcDbArc
 50
332.761711
 51
27.238289
  0
ARC
  5
285
100
AcDbEntity
  8
0
  6
CONTINUOUS
 62
     7
100
AcDbCircle
 10
19010.915053
 20
-19754.78736
 30
0.0
 40
8.736529
100
AcDbArc
 50
152.763627
 51
207.236373
  0
ARC
  5
286
100
AcDbEntity
  8
0
  6
CONTINUOUS
 62
     7
100
AcDbCircle
 10
18996.242965
 20
-19747.23486
 30
0.0
 40
7.765301
100
AcDbArc
 50
332.761711
 51
27.238289
  0
ARC
  5
287
100
AcDbEntity
  8
0
  6
CONTINUOUS
 62
     7
100
AcDbCircle
 10
19010.915053
 20
-19739.682361
 30
0.0
 40
8.736529
100
AcDbArc
 50
152.763627
 51
207.236373
  0
ARC
  5
288
100
AcDbEntity
  8
0
  6
CONTINUOUS
 62
     7
100
AcDbCircle
 10
18996.242948
 20
-19732.129861
 30
0.0
 40
7.765317
100
AcDbArc
 50
332.761769
 51
27.238231
  0
ARC
  5
289
100
AcDbEntity
  8
0
  6
CONTINUOUS
 62
     7
100
AcDbCircle
 10
19010.915053
 20
-19724.577362
 30
0.0
 40
8.736529
100
AcDbArc
 50
152.763627
 51
207.236373
  0
ARC
  5
28A
100
AcDbEntity
  8
0
  6
CONTINUOUS
 62
     7
100
AcDbCircle
 10
18996.242956
 20
-19717.024863
 30
0.0
 40
7.765309
100
AcDbArc
 50
332.76174
 51
27.23826
  0
ARC
  5
28B
100
AcDbEntity
  8
0
  6
CONTINUOUS
 62
     7
100
AcDbCircle
 10
19010.915053
 20
-19709.472363
 30
0.0
 40
8.736529
100
AcDbArc
 50
152.763627
 51
207.236373
  0
ARC
  5
28C
100
AcDbEntity
  8
0
  6
CONTINUOUS
 62
     7
100
AcDbCircle
 10
18996.242956
 20
-19701.919864
 30
0.0
 40
7.765309
100
AcDbArc
 50
332.76174
 51
27.23826
  0
ARC
  5
28D
100
AcDbEntity
  8
0
  6
CONTINUOUS
 62
     7
100
AcDbCircle
 10
19010.915053
 20
-19694.367365
 30
0.0
 40
8.736529
100
AcDbArc
 50
152.763627
 51
207.236373
  0
ARC
  5
28E
100
AcDbEntity
  8
0
  6
CONTINUOUS
 62
     7
100
AcDbCircle
 10
18996.242948
 20
-19686.814865
 30
0.0
 40
7.765317
100
AcDbArc
 50
332.761769
 51
27.238231
  0
ARC
  5
28F
100
AcDbEntity
  8
0
  6
CONTINUOUS
 62
     7
100
AcDbCircle
 10
19010.915053
 20
-19679.262366
 30
0.0
 40
8.736529
100
AcDbArc
 50
152.763627
 51
207.236373
  0
ARC
  5
290
100
AcDbEntity
  8
0
  6
CONTINUOUS
 62
     7
100
AcDbCircle
 10
18996.242948
 20
-19671.709867
 30
0.0
 40
7.765317
100
AcDbArc
 50
332.761769
 51
27.238231
  0
ARC
  5
291
100
AcDbEntity
  8
0
  6
CONTINUOUS
 62
     7
100
AcDbCircle
 10
19010.915053
 20
-19664.157367
 30
0.0
 40
8.736529
100
AcDbArc
 50
152.763627
 51
207.236373
  0
ARC
  5
292
100
AcDbEntity
  8
0
  6
CONTINUOUS
 62
     7
100
AcDbCircle
 10
18996.242942
 20
-19656.604866
 30
0.0
 40
7.765322
100
AcDbArc
 50
332.761776
 51
27.238224
  0
ARC
  5
293
100
AcDbEntity
  8
0
  6
CONTINUOUS
 62
     7
100
AcDbCircle
 10
19010.915053
 20
-19649.052365
 30
0.0
 40
8.736529
100
AcDbArc
 50
152.763627
 51
207.236373
  0
ARC
  5
294
100
AcDbEntity
  8
0
  6
CONTINUOUS
 62
     7
100
AcDbCircle
 10
18996.242956
 20
-19641.499866
 30
0.0
 40
7.765309
100
AcDbArc
 50
332.76174
 51
27.23826
  0
ARC
  5
295
100
AcDbEntity
  8
0
  6
CONTINUOUS
 62
     7
100
AcDbCircle
 10
19010.915053
 20
-19633.947366
 30
0.0
 40
8.736529
100
AcDbArc
 50
152.763627
 51
207.236373
  0
ARC
  5
296
100
AcDbEntity
  8
0
  6
CONTINUOUS
 62
     7
100
AcDbCircle
 10
18996.242947
 20
-19626.394866
 30
0.0
 40
7.765318
100
AcDbArc
 50
332.761765
 51
27.238235
  0
ARC
  5
297
100
AcDbEntity
  8
0
  6
CONTINUOUS
 62
     7
100
AcDbCircle
 10
19010.915053
 20
-19618.842366
 30
0.0
 40
8.736529
100
AcDbArc
 50
152.763627
 51
207.236373
  0
ARC
  5
298
100
AcDbEntity
  8
0
  6
CONTINUOUS
 62
     7
100
AcDbCircle
 10
18996.242953
 20
-19611.289866
 30
0.0
 40
7.765312
100
AcDbArc
 50
332.761751
 51
27.238249
  0
ARC
  5
299
100
AcDbEntity
  8
0
  6
CONTINUOUS
 62
     7
100
AcDbCircle
 10
19010.91506
 20
-19603.737366
 30
0.0
 40
8.736536
100
AcDbArc
 50
152.763641
 51
207.236359
  0
ARC
  5
29A
100
AcDbEntity
  8
0
  6
CONTINUOUS
 62
     7
100
AcDbCircle
 10
18996.242954
 20
-19596.184866
 30
0.0
 40
7.765311
100
AcDbArc
 50
332.76175
 51
27.23825
  0
ARC
  5
29B
100
AcDbEntity
  8
0
  6
CONTINUOUS
 62
     7
100
AcDbCircle
 10
19010.91506
 20
-19588.632366
 30
0.0
 40
8.736536
100
AcDbArc
 50
152.763641
 51
207.236359
  0
ARC
  5
29C
100
AcDbEntity
  8
0
  6
CONTINUOUS
 62
     7
100
AcDbCircle
 10
18996.242953
 20
-19581.079865
 30
0.0
 40
7.765312
100
AcDbArc
 50
332.761751
 51
27.238249
  0
ARC
  5
29D
100
AcDbEntity
  8
0
  6
CONTINUOUS
 62
     7
100
AcDbCircle
 10
19010.915053
 20
-19573.527366
 30
0.0
 40
8.736529
100
AcDbArc
 50
152.763627
 51
207.236373
  0
ARC
  5
29E
100
AcDbEntity
  8
0
  6
CONTINUOUS
 62
     7
100
AcDbCircle
 10
18996.242947
 20
-19565.974866
 30
0.0
 40
7.765318
100
AcDbArc
 50
332.761765
 51
27.238235
  0
ARC
  5
29F
100
AcDbEntity
  8
0
  6
CONTINUOUS
 62
     7
100
AcDbCircle
 10
19010.915053
 20
-19558.422365
 30
0.0
 40
8.736529
100
AcDbArc
 50
152.763627
 51
207.236373
  0
ARC
  5
2A0
100
AcDbEntity
  8
0
  6
CONTINUOUS
 62
     7
100
AcDbCircle
 10
18996.242956
 20
-19550.869866
 30
0.0
 40
7.765309
100
AcDbArc
 50
332.76174
 51
27.23826
  0
ARC
  5
2A1
100
AcDbEntity
  8
0
  6
CONTINUOUS
 62
     7
100
AcDbCircle
 10
19010.915053
 20
-19543.317367
 30
0.0
 40
8.736529
100
AcDbArc
 50
152.763627
 51
207.236373
  0
ARC
  5
2A2
100
AcDbEntity
  8
0
  6
CONTINUOUS
 62
     7
100
AcDbCircle
 10
18996.242942
 20
-19535.764865
 30
0.0
 40
7.765322
100
AcDbArc
 50
332.761776
 51
27.238224
  0
ARC
  5
2A3
100
AcDbEntity
  8
0
  6
CONTINUOUS
 62
     7
100
AcDbCircle
 10
19010.915053
 20
-19528.212364
 30
0.0
 40
8.736529
100
AcDbArc
 50
152.763627
 51
207.236373
  0
ARC
  5
2A4
100
AcDbEntity
  8
0
  6
CONTINUOUS
 62
     7
100
AcDbCircle
 10
18996.242948
 20
-19520.659865
 30
0.0
 40
7.765317
100
AcDbArc
 50
332.761769
 51
27.238231
  0
ARC
  5
2A5
100
AcDbEntity
  8
0
  6
CONTINUOUS
 62
     7
100
AcDbCircle
 10
19010.915053
 20
-19513.107365
 30
0.0
 40
8.736529
100
AcDbArc
 50
152.763627
 51
207.236373
  0
ARC
  5
2A6
100
AcDbEntity
  8
0
  6
CONTINUOUS
 62
     7
100
AcDbCircle
 10
18996.242948
 20
-19505.554866
 30
0.0
 40
7.765317
100
AcDbArc
 50
332.761769
 51
27.238231
  0
ARC
  5
2A7
100
AcDbEntity
  8
0
  6
CONTINUOUS
 62
     7
100
AcDbCircle
 10
19010.915053
 20
-19498.002367
 30
0.0
 40
8.736529
100
AcDbArc
 50
152.763627
 51
207.236373
  0
ARC
  5
2A8
100
AcDbEntity
  8
0
  6
CONTINUOUS
 62
     7
100
AcDbCircle
 10
18996.242956
 20
-19490.449867
 30
0.0
 40
7.765309
100
AcDbArc
 50
332.76174
 51
27.23826
  0
ARC
  5
2A9
100
AcDbEntity
  8
0
  6
CONTINUOUS
 62
     7
100
AcDbCircle
 10
19010.915053
 20
-19482.897368
 30
0.0
 40
8.736529
100
AcDbArc
 50
152.763627
 51
207.236373
  0
ARC
  5
2AA
100
AcDbEntity
  8
0
  6
CONTINUOUS
 62
     7
100
AcDbCircle
 10
18996.242956
 20
-19475.344869
 30
0.0
 40
7.765309
100
AcDbArc
 50
332.76174
 51
27.23826
  0
ARC
  5
2AB
100
AcDbEntity
  8
0
  6
CONTINUOUS
 62
     7
100
AcDbCircle
 10
19010.915053
 20
-19467.792369
 30
0.0
 40
8.736529
100
AcDbArc
 50
152.763627
 51
207.236373
  0
ARC
  5
2AC
100
AcDbEntity
  8
0
  6
CONTINUOUS
 62
     7
100
AcDbCircle
 10
18996.242948
 20
-19460.23987
 30
0.0
 40
7.765317
100
AcDbArc
 50
332.761769
 51
27.238231
  0
ARC
  5
2AD
100
AcDbEntity
  8
0
  6
CONTINUOUS
 62
     7
100
AcDbCircle
 10
19010.915053
 20
-19452.687371
 30
0.0
 40
8.736529
100
AcDbArc
 50
152.763627
 51
207.236373
  0
ARC
  5
2AE
100
AcDbEntity
  8
0
  6
CONTINUOUS
 62
     7
100
AcDbCircle
 10
18996.242965
 20
-19445.134871
 30
0.0
 40
7.765301
100
AcDbArc
 50
332.761711
 51
27.238289
  0
ARC
  5
2AF
100
AcDbEntity
  8
0
  6
CONTINUOUS
 62
     7
100
AcDbCircle
 10
19010.915053
 20
-19437.582372
 30
0.0
 40
8.736529
100
AcDbArc
 50
152.763627
 51
207.236373
  0
ARC
  5
2B0
100
AcDbEntity
  8
0
  6
CONTINUOUS
 62
     7
100
AcDbCircle
 10
18996.242965
 20
-19430.029873
 30
0.0
 40
7.765301
100
AcDbArc
 50
332.761711
 51
27.238289
  0
ARC
  5
2B1
100
AcDbEntity
  8
0
  6
CONTINUOUS
 62
     7
100
AcDbCircle
 10
18996.242965
 20
-19414.924859
 30
0.0
 40
7.765301
100
AcDbArc
 50
332.761711
 51
27.238289
  0
ARC
  5
2B2
100
AcDbEntity
  8
0
  6
CONTINUOUS
 62
     7
100
AcDbCircle
 10
19010.915053
 20
-19407.37236
 30
0.0
 40
8.736529
100
AcDbArc
 50
152.763627
 51
207.236373
  0
ARC
  5
2B3
100
AcDbEntity
  8
0
  6
CONTINUOUS
 62
     7
100
AcDbCircle
 10
18996.242965
 20
-19399.81986
 30
0.0
 40
7.765301
100
AcDbArc
 50
332.761711
 51
27.238289
  0
ARC
  5
2B4
100
AcDbEntity
  8
0
  6
CONTINUOUS
 62
     7
100
AcDbCircle
 10
19010.915053
 20
-19392.267361
 30
0.0
 40
8.736529
100
AcDbArc
 50
152.763627
 51
207.236373
  0
ARC
  5
2B5
100
AcDbEntity
  8
0
  6
CONTINUOUS
 62
     7
100
AcDbCircle
 10
18996.242948
 20
-19384.714862
 30
0.0
 40
7.765317
100
AcDbArc
 50
332.761769
 51
27.238231
  0
ARC
  5
2B6
100
AcDbEntity
  8
0
  6
CONTINUOUS
 62
     7
100
AcDbCircle
 10
19010.915053
 20
-19377.162362
 30
0.0
 40
8.736529
100
AcDbArc
 50
152.763627
 51
207.236373
  0
ARC
  5
2B7
100
AcDbEntity
  8
0
  6
CONTINUOUS
 62
     7
100
AcDbCircle
 10
18996.242948
 20
-19369.609863
 30
0.0
 40
7.765317
100
AcDbArc
 50
332.761769
 51
27.238231
  0
ARC
  5
2B8
100
AcDbEntity
  8
0
  6
CONTINUOUS
 62
     7
100
AcDbCircle
 10
19010.915053
 20
-19362.057364
 30
0.0
 40
8.736529
100
AcDbArc
 50
152.763627
 51
207.236373
  0
ARC
  5
2B9
100
AcDbEntity
  8
0
  6
CONTINUOUS
 62
     7
100
AcDbCircle
 10
18996.242948
 20
-19354.504864
 30
0.0
 40
7.765317
100
AcDbArc
 50
332.761769
 51
27.238231
  0
ARC
  5
2BA
100
AcDbEntity
  8
0
  6
CONTINUOUS
 62
     7
100
AcDbCircle
 10
18996.243005
 20
-19339.399873
 30
0.0
 40
7.765262
100
AcDbArc
 50
332.761624
 51
27.238376
  0
ARC
  5
2BB
100
AcDbEntity
  8
0
  6
CONTINUOUS
 62
     7
100
AcDbCircle
 10
19010.91515
 20
-19331.847366
 30
0.0
 40
8.736623
100
AcDbArc
 50
152.763833
 51
207.236167
  0
ARC
  5
2BC
100
AcDbEntity
  8
0
  6
CONTINUOUS
 62
     7
100
AcDbCircle
 10
18996.243005
 20
-19324.294859
 30
0.0
 40
7.765262
100
AcDbArc
 50
332.761624
 51
27.238376
  0
ARC
  5
2BD
100
AcDbEntity
  8
0
  6
CONTINUOUS
 62
     7
100
AcDbCircle
 10
19010.915036
 20
-19316.742367
 30
0.0
 40
8.736514
100
AcDbArc
 50
152.763576
 51
207.236424
  0
ARC
  5
2BE
100
AcDbEntity
  8
0
  6
CONTINUOUS
 62
     7
100
AcDbCircle
 10
18996.242925
 20
-19309.189861
 30
0.0
 40
7.76534
100
AcDbArc
 50
332.761798
 51
27.238202
  0
ARC
  5
2BF
100
AcDbEntity
  8
0
  6
CONTINUOUS
 62
     7
100
AcDbCircle
 10
19010.91507
 20
-19301.637354
 30
0.0
 40
8.736545
100
AcDbArc
 50
152.763678
 51
207.236322
  0
ARC
  5
2C0
100
AcDbEntity
  8
0
  6
CONTINUOUS
 62
     7
100
AcDbCircle
 10
18996.242971
 20
-19294.084862
 30
0.0
 40
7.765293
100
AcDbArc
 50
332.76174
 51
27.23826
  0
ARC
  5
2C1
100
AcDbEntity
  8
0
  6
CONTINUOUS
 62
     7
100
AcDbCircle
 10
19010.915036
 20
-19286.53237
 30
0.0
 40
8.736514
100
AcDbArc
 50
152.763576
 51
207.236424
  0
ARC
  5
2C2
100
AcDbEntity
  8
0
  6
CONTINUOUS
 62
     7
100
AcDbCircle
 10
18996.242925
 20
-19278.979863
 30
0.0
 40
7.76534
100
AcDbArc
 50
332.761798
 51
27.238202
  0
ARC
  5
2C3
100
AcDbEntity
  8
0
  6
CONTINUOUS
 62
     7
100
AcDbCircle
 10
19010.91507
 20
-19271.427357
 30
0.0
 40
8.736545
100
AcDbArc
 50
152.763678
 51
207.236322
  0
ARC
  5
2C4
100
AcDbEntity
  8
0
  6
CONTINUOUS
 62
     7
100
AcDbCircle
 10
18996.242971
 20
-19263.874865
 30
0.0
 40
7.765293
100
AcDbArc
 50
332.76174
 51
27.23826
  0
ARC
  5
2C5
100
AcDbEntity
  8
0
  6
CONTINUOUS
 62
     7
100
AcDbCircle
 10
19010.915036
 20
-19256.322373
 30
0.0
 40
8.736514
100
AcDbArc
 50
152.763576
 51
207.236424
  0
ARC
  5
2C6
100
AcDbEntity
  8
0
  6
CONTINUOUS
 62
     7
100
AcDbCircle
 10
18996.242925
 20
-19248.769866
 30
0.0
 40
7.76534
100
AcDbArc
 50
332.761798
 51
27.238202
  0
ARC
  5
2C7
100
AcDbEntity
  8
0
  6
CONTINUOUS
 62
     7
100
AcDbCircle
 10
19010.915036
 20
-19241.217359
 30
0.0
 40
8.736514
100
AcDbArc
 50
152.763576
 51
207.236424
  0
ARC
  5
2C8
100
AcDbEntity
  8
0
  6
CONTINUOUS
 62
     7
100
AcDbCircle
 10
18996.242971
 20
-19233.664867
 30
0.0
 40
7.765293
100
AcDbArc
 50
332.76174
 51
27.23826
  0
ARC
  5
2C9
100
AcDbEntity
  8
0
  6
CONTINUOUS
 62
     7
100
AcDbCircle
 10
19010.91507
 20
-19226.112375
 30
0.0
 40
8.736545
100
AcDbArc
 50
152.763678
 51
207.236322
  0
ARC
  5
2CA
100
AcDbEntity
  8
0
  6
CONTINUOUS
 62
     7
100
AcDbCircle
 10
18996.242925
 20
-19218.559868
 30
0.0
 40
7.76534
100
AcDbArc
 50
332.761798
 51
27.238202
  0
ARC
  5
2CB
100
AcDbEntity
  8
0
  6
CONTINUOUS
 62
     7
100
AcDbCircle
 10
19010.915036
 20
-19211.007362
 30
0.0
 40
8.736514
100
AcDbArc
 50
152.763576
 51
207.236424
  0
ARC
  5
2CC
100
AcDbEntity
  8
0
  6
CONTINUOUS
 62
     7
100
AcDbCircle
 10
18996.242971
 20
-19203.45487
 30
0.0
 40
7.765293
100
AcDbArc
 50
332.76174
 51
27.23826
  0
ARC
  5
2CD
100
AcDbEntity
  8
0
  6
CONTINUOUS
 62
     7
100
AcDbCircle
 10
19010.91507
 20
-19195.902378
 30
0.0
 40
8.736545
100
AcDbArc
 50
152.763678
 51
207.236322
  0
ARC
  5
2CE
100
AcDbEntity
  8
0
  6
CONTINUOUS
 62
     7
100
AcDbCircle
 10
18996.242925
 20
-19188.349871
 30
0.0
 40
7.76534
100
AcDbArc
 50
332.761798
 51
27.238202
  0
ARC
  5
2CF
100
AcDbEntity
  8
0
  6
CONTINUOUS
 62
     7
100
AcDbCircle
 10
19010.915036
 20
-19180.797364
 30
0.0
 40
8.736514
100
AcDbArc
 50
152.763576
 51
207.236424
  0
ARC
  5
2D0
100
AcDbEntity
  8
0
  6
CONTINUOUS
 62
     7
100
AcDbCircle
 10
18996.243005
 20
-19173.244872
 30
0.0
 40
7.765262
100
AcDbArc
 50
332.761624
 51
27.238376
  0
ARC
  5
2D1
100
AcDbEntity
  8
0
  6
CONTINUOUS
 62
     7
100
AcDbCircle
 10
19010.91515
 20
-19165.692366
 30
0.0
 40
8.736623
100
AcDbArc
 50
200.030705
 51
207.236167
  0
ARC
  5
2D2
100
AcDbEntity
  8
0
  6
CONTINUOUS
 62
     7
100
AcDbCircle
 10
19010.915093
 20
-19422.477366
 30
0.0
 40
8.736568
100
AcDbArc
 50
152.763704
 51
207.236296
  0
ARC
  5
2D3
100
AcDbEntity
  8
0
  6
CONTINUOUS
 62
     7
100
AcDbCircle
 10
19010.915036
 20
-19845.417367
 30
0.0
 40
8.736514
100
AcDbArc
 50
152.763576
 51
207.236424
  0
ARC
  5
2D4
100
AcDbEntity
  8
0
  6
CONTINUOUS
 62
     7
100
AcDbCircle
 10
19010.915036
 20
-19346.952365
 30
0.0
 40
8.736514
100
AcDbArc
 50
152.763576
 51
207.236424
  0
LINE
  5
2D5
100
AcDbEntity
  8
0
  6
CONTINUOUS
 62
     1
100
AcDbLine
 10
19866.209844
 20
-19939.601483
 30
0.0
 11
19003.237868
 21
-19939.601483
 31
0.0
  0
ARC
  5
2D6
100
AcDbEntity
  8
0
  6
CONTINUOUS
 62
     7
100
AcDbCircle
 10
19858.442316
 20
-19943.599866
 30
0.0
 40
8.736213
100
AcDbArc
 50
332.762558
 51
27.237442
  0
LINE
  5
2D7
100
AcDbEntity
  8
0
  6
CONTINUOUS
 62
     1
100
AcDbLine
 10
19866.209844
 20
-19947.598248
 30
0.0
 11
19003.237868
 21
-19947.598248
 31
0.0
  0
LINE
  5
2D8
100
AcDbEntity
  8
0
  6
CONTINUOUS
 62
     1
100
AcDbLine
 10
19866.209844
 20
-19305.191483
 30
0.0
 11
19003.237868
 21
-19305.191483
 31
0.0
  0
ARC
  5
2D9
100
AcDbEntity
  8
0
  6
CONTINUOUS
 62
     7
100
AcDbCircle
 10
19858.442316
 20
-19309.189861
 30
0.0
 40
8.736213
100
AcDbArc
 50
332.762558
 51
27.237442
  0
LINE
  5
2DA
100
AcDbEntity
  8
0
  6
CONTINUOUS
 62
     1
100
AcDbLine
 10
19866.209844
 20
-19313.188248
 30
0.0
 11
19003.237868
 21
-19313.188248
 31
0.0
  0
LINE
  5
2DB
100
AcDbEntity
  8
0
  6
CONTINUOUS
 62
     1
100
AcDbLine
 10
19866.209844
 20
-19259.876483
 30
0.0
 11
19003.237868
 21
-19259.876483
 31
0.0
  0
ARC
  5
2DC
100
AcDbEntity
  8
0
  6
CONTINUOUS
 62
     7
100
AcDbCircle
 10
19858.442282
 20
-19263.874879
 30
0.0
 40
8.736243
100
AcDbArc
 50
332.762661
 51
27.237339
  0
LINE
  5
2DD
100
AcDbEntity
  8
0
  6
CONTINUOUS
 62
     1
100
AcDbLine
 10
19866.209844
 20
-19267.873248
 30
0.0
 11
19003.237868
 21
-19267.873248
 31
0.0
  0
LINE
  5
2DE
100
AcDbEntity
  8
0
  6
CONTINUOUS
 62
     1
100
AcDbLine
 10
19280.860254
 20
-19577.081484
 30
0.0
 11
19003.237868
 21
-19577.081483
 31
0.0
  0
LINE
  5
2DF
100
AcDbEntity
  8
0
  6
CONTINUOUS
 62
     1
100
AcDbLine
 10
19280.076963
 20
-19585.078248
 30
0.0
 11
19003.237868
 21
-19585.078248
 31
0.0
  0
ARC
  5
2E0
100
AcDbEntity
  8
0
  6
CONTINUOUS
 62
     7
100
AcDbCircle
 10
19858.442282
 20
-19173.244858
 30
0.0
 40
8.736243
100
AcDbArc
 50
332.762661
 51
31.463988
  0
LINE
  5
2E1
100
AcDbEntity
  8
0
  6
CONTINUOUS
 62
     1
100
AcDbLine
 10
19866.209844
 20
-19177.243248
 30
0.0
 11
19003.237868
 21
-19177.243248
 31
0.0
  0
LINE
  5
2E2
100
AcDbEntity
  8
0
  6
CONTINUOUS
 62
     1
100
AcDbLine
 10
19287.732309
 20
-19546.871485
 30
0.0
 11
19003.237868
 21
-19546.871483
 31
0.0
  0
LINE
  5
2E3
100
AcDbEntity
  8
0
  6
CONTINUOUS
 62
     1
100
AcDbLine
 10
19285.286635
 20
-19554.868247
 30
0.0
 11
19003.237868
 21
-19554.868248
 31
0.0
  0
LINE
  5
2E4
100
AcDbEntity
  8
0
  6
CONTINUOUS
 62
     1
100
AcDbLine
 10
19293.69884
 20
-19531.766481
 30
0.0
 11
19003.237868
 21
-19531.766483
 31
0.0
  0
LINE
  5
2E5
100
AcDbEntity
  8
0
  6
CONTINUOUS
 62
     1
100
AcDbLine
 10
19290.31232
 20
-19539.763249
 30
0.0
 11
19003.237868
 21
-19539.763248
 31
0.0
  0
LINE
  5
2E6
100
AcDbEntity
  8
0
  6
CONTINUOUS
 62
     1
100
AcDbLine
 10
19290.31232
 20
-19652.606482
 30
0.0
 11
19003.237868
 21
-19652.606483
 31
0.0
  0
LINE
  5
2E7
100
AcDbEntity
  8
0
  6
CONTINUOUS
 62
     1
100
AcDbLine
 10
19293.69884
 20
-19660.60325
 30
0.0
 11
19003.237868
 21
-19660.603248
 31
0.0
  0
LINE
  5
2E8
100
AcDbEntity
  8
0
  6
CONTINUOUS
 62
     1
100
AcDbLine
 10
19368.038832
 20
-19456.24148
 30
0.0
 11
19003.237868
 21
-19456.241483
 31
0.0
  0
LINE
  5
2E9
100
AcDbEntity
  8
0
  6
CONTINUOUS
 62
     1
100
AcDbLine
 10
19353.34533
 20
-19464.238242
 30
0.0
 11
19003.237868
 21
-19464.238248
 31
0.0
  0
LINE
  5
2EA
100
AcDbEntity
  8
0
  6
CONTINUOUS
 62
     1
100
AcDbLine
 10
19866.209844
 20
-19290.086483
 30
0.0
 11
19003.237868
 21
-19290.086483
 31
0.0
  0
ARC
  5
2EB
100
AcDbEntity
  8
0
  6
CONTINUOUS
 62
     7
100
AcDbCircle
 10
19858.442282
 20
-19294.084877
 30
0.0
 40
8.736243
100
AcDbArc
 50
332.762661
 51
27.237339
  0
LINE
  5
2EC
100
AcDbEntity
  8
0
  6
CONTINUOUS
 62
     1
100
AcDbLine
 10
19866.209844
 20
-19298.083248
 30
0.0
 11
19003.237868
 21
-19298.083248
 31
0.0
  0
LINE
  5
2ED
100
AcDbEntity
  8
0
  6
CONTINUOUS
 62
     1
100
AcDbLine
 10
19866.209844
 20
-19274.981483
 30
0.0
 11
19003.237868
 21
-19274.981483
 31
0.0
  0
ARC
  5
2EE
100
AcDbEntity
  8
0
  6
CONTINUOUS
 62
     7
100
AcDbCircle
 10
19858.442316
 20
-19278.979863
 30
0.0
 40
8.736213
100
AcDbArc
 50
332.762558
 51
27.237442
  0
LINE
  5
2EF
100
AcDbEntity
  8
0
  6
CONTINUOUS
 62
     1
100
AcDbLine
 10
19866.209844
 20
-19282.978248
 30
0.0
 11
19003.237868
 21
-19282.978248
 31
0.0
  0
LINE
  5
2F0
100
AcDbEntity
  8
0
  6
CONTINUOUS
 62
     1
100
AcDbLine
 10
19283.500529
 20
-19561.976483
 30
0.0
 11
19003.237868
 21
-19561.976483
 31
0.0
  0
LINE
  5
2F1
100
AcDbEntity
  8
0
  6
CONTINUOUS
 62
     1
100
AcDbLine
 10
19281.910888
 20
-19569.973248
 30
0.0
 11
19003.237868
 21
-19569.973248
 31
0.0
  0
LINE
  5
2F2
100
AcDbEntity
  8
0
  6
CONTINUOUS
 62
     1
100
AcDbLine
 10
19866.209844
 20
-19244.771483
 30
0.0
 11
19003.237868
 21
-19244.771483
 31
0.0
  0
ARC
  5
2F3
100
AcDbEntity
  8
0
  6
CONTINUOUS
 62
     7
100
AcDbCircle
 10
19858.442316
 20
-19248.769866
 30
0.0
 40
8.736213
100
AcDbArc
 50
332.762558
 51
27.237442
  0
LINE
  5
2F4
100
AcDbEntity
  8
0
  6
CONTINUOUS
 62
     1
100
AcDbLine
 10
19866.209844
 20
-19252.768248
 30
0.0
 11
19003.237868
 21
-19252.768248
 31
0.0
  0
LINE
  5
2F5
100
AcDbEntity
  8
0
  6
CONTINUOUS
 62
     1
100
AcDbLine
 10
19297.168734
 20
-19667.711486
 30
0.0
 11
19003.237868
 21
-19667.711483
 31
0.0
  0
LINE
  5
2F6
100
AcDbEntity
  8
0
  6
CONTINUOUS
 62
     1
100
AcDbLine
 10
19301.633302
 20
-19675.708248
 30
0.0
 11
19003.237868
 21
-19675.708248
 31
0.0
  0
LINE
  5
2F7
100
AcDbEntity
  8
0
  6
CONTINUOUS
 62
     1
100
AcDbLine
 10
19306.148518
 20
-19682.816484
 30
0.0
 11
19003.237868
 21
-19682.816483
 31
0.0
  0
LINE
  5
2F8
100
AcDbEntity
  8
0
  6
CONTINUOUS
 62
     1
100
AcDbLine
 10
19311.916685
 20
-19690.813247
 30
0.0
 11
19003.237868
 21
-19690.813248
 31
0.0
  0
LINE
  5
2F9
100
AcDbEntity
  8
0
  6
CONTINUOUS
 62
     1
100
AcDbLine
 10
19342.807001
 20
-19471.346478
 30
0.0
 11
19003.237868
 21
-19471.346483
 31
0.0
  0
LINE
  5
2FA
100
AcDbEntity
  8
0
  6
CONTINUOUS
 62
     1
100
AcDbLine
 10
19332.830418
 20
-19479.343251
 30
0.0
 11
19003.237868
 21
-19479.343248
 31
0.0
  0
LINE
  5
2FB
100
AcDbEntity
  8
0
  6
CONTINUOUS
 62
     1
100
AcDbLine
 10
19866.209844
 20
-19199.456483
 30
0.0
 11
19003.237868
 21
-19199.456483
 31
0.0
  0
ARC
  5
2FC
100
AcDbEntity
  8
0
  6
CONTINUOUS
 62
     7
100
AcDbCircle
 10
19858.442282
 20
-19203.454855
 30
0.0
 40
8.736243
100
AcDbArc
 50
332.762661
 51
27.237339
  0
LINE
  5
2FD
100
AcDbEntity
  8
0
  6
CONTINUOUS
 62
     1
100
AcDbLine
 10
19866.209844
 20
-19207.453248
 30
0.0
 11
19003.237868
 21
-19207.453248
 31
0.0
  0
LINE
  5
2FE
100
AcDbEntity
  8
0
  6
CONTINUOUS
 62
     1
100
AcDbLine
 10
19866.209844
 20
-19184.351483
 30
0.0
 11
19003.237868
 21
-19184.351483
 31
0.0
  0
ARC
  5
2FF
100
AcDbEntity
  8
0
  6
CONTINUOUS
 62
     7
100
AcDbCircle
 10
19858.442316
 20
-19188.349871
 30
0.0
 40
8.736213
100
AcDbArc
 50
332.762558
 51
27.237442
  0
LINE
  5
300
100
AcDbEntity
  8
0
  6
CONTINUOUS
 62
     1
100
AcDbLine
 10
19866.209844
 20
-19192.348248
 30
0.0
 11
19003.237868
 21
-19192.348248
 31
0.0
  0
LINE
  5
301
100
AcDbEntity
  8
0
  6
CONTINUOUS
 62
     1
100
AcDbLine
 10
19866.209844
 20
-19320.296483
 30
0.0
 11
19003.237868
 21
-19320.296483
 31
0.0
  0
ARC
  5
302
100
AcDbEntity
  8
0
  6
CONTINUOUS
 62
     7
100
AcDbCircle
 10
19858.442282
 20
-19324.294874
 30
0.0
 40
8.736243
100
AcDbArc
 50
332.762661
 51
27.237339
  0
LINE
  5
303
100
AcDbEntity
  8
0
  6
CONTINUOUS
 62
     1
100
AcDbLine
 10
19866.209844
 20
-19328.293248
 30
0.0
 11
19003.237868
 21
-19328.293248
 31
0.0
  0
LINE
  5
304
100
AcDbEntity
  8
0
  6
CONTINUOUS
 62
     1
100
AcDbLine
 10
19280.076963
 20
-19607.291484
 30
0.0
 11
19003.237868
 21
-19607.291483
 31
0.0
  0
LINE
  5
305
100
AcDbEntity
  8
0
  6
CONTINUOUS
 62
     1
100
AcDbLine
 10
19280.860254
 20
-19615.288248
 30
0.0
 11
19003.237868
 21
-19615.288248
 31
0.0
  0
LINE
  5
306
100
AcDbEntity
  8
0
  6
CONTINUOUS
 62
     1
100
AcDbLine
 10
19279.730105
 20
-19592.186483
 30
0.0
 11
19003.237868
 21
-19592.186483
 31
0.0
  0
LINE
  5
307
100
AcDbEntity
  8
0
  6
CONTINUOUS
 62
     1
100
AcDbLine
 10
19279.730105
 20
-19600.183248
 30
0.0
 11
19003.237868
 21
-19600.183248
 31
0.0
  0
LINE
  5
308
100
AcDbEntity
  8
0
  6
CONTINUOUS
 62
     1
100
AcDbLine
 10
19866.209844
 20
-19335.401483
 30
0.0
 11
19003.237868
 21
-19335.401483
 31
0.0
  0
ARC
  5
309
100
AcDbEntity
  8
0
  6
CONTINUOUS
 62
     7
100
AcDbCircle
 10
19858.442282
 20
-19339.399858
 30
0.0
 40
8.736243
100
AcDbArc
 50
332.762661
 51
27.237339
  0
LINE
  5
30A
100
AcDbEntity
  8
0
  6
CONTINUOUS
 62
     1
100
AcDbLine
 10
19281.910888
 20
-19622.396483
 30
0.0
 11
19003.237868
 21
-19622.396483
 31
0.0
  0
LINE
  5
30B
100
AcDbEntity
  8
0
  6
CONTINUOUS
 62
     1
100
AcDbLine
 10
19283.500529
 20
-19630.393249
 30
0.0
 11
19003.237868
 21
-19630.393248
 31
0.0
  0
LINE
  5
30C
100
AcDbEntity
  8
0
  6
CONTINUOUS
 62
     1
100
AcDbLine
 10
19285.286635
 20
-19637.501484
 30
0.0
 11
19003.237868
 21
-19637.501483
 31
0.0
  0
LINE
  5
30D
100
AcDbEntity
  8
0
  6
CONTINUOUS
 62
     1
100
AcDbLine
 10
19287.732309
 20
-19645.498247
 30
0.0
 11
19003.237868
 21
-19645.498248
 31
0.0
  0
LINE
  5
30E
100
AcDbEntity
  8
0
  6
CONTINUOUS
 62
     1
100
AcDbLine
 10
19866.209836
 20
-19773.446484
 30
0.0
 11
19003.237868
 21
-19773.446483
 31
0.0
  0
LINE
  5
30F
100
AcDbEntity
  8
0
  6
CONTINUOUS
 62
     1
100
AcDbLine
 10
19866.209838
 20
-19781.443244
 30
0.0
 11
19003.237868
 21
-19781.443248
 31
0.0
  0
LINE
  5
310
100
AcDbEntity
  8
0
  6
CONTINUOUS
 62
     1
100
AcDbLine
 10
19866.209832
 20
-19833.866471
 30
0.0
 11
19003.237868
 21
-19833.866483
 31
0.0
  0
LINE
  5
311
100
AcDbEntity
  8
0
  6
CONTINUOUS
 62
     1
100
AcDbLine
 10
19301.633302
 20
-19516.661483
 30
0.0
 11
19003.237868
 21
-19516.661483
 31
0.0
  0
LINE
  5
312
100
AcDbEntity
  8
0
  6
CONTINUOUS
 62
     1
100
AcDbLine
 10
19297.168734
 20
-19524.658246
 30
0.0
 11
19003.237868
 21
-19524.658248
 31
0.0
  0
LINE
  5
313
100
AcDbEntity
  8
0
  6
CONTINUOUS
 62
     1
100
AcDbLine
 10
19866.209835
 20
-19788.55148
 30
0.0
 11
19003.237868
 21
-19788.551483
 31
0.0
  0
LINE
  5
314
100
AcDbEntity
  8
0
  6
CONTINUOUS
 62
     1
100
AcDbLine
 10
19866.209839
 20
-19796.54824
 30
0.0
 11
19003.237868
 21
-19796.548248
 31
0.0
  0
LINE
  5
315
100
AcDbEntity
  8
0
  6
CONTINUOUS
 62
     1
100
AcDbLine
 10
19866.20984
 20
-19826.758235
 30
0.0
 11
19003.237868
 21
-19826.758248
 31
0.0
  0
LINE
  5
316
100
AcDbEntity
  8
0
  6
CONTINUOUS
 62
     1
100
AcDbLine
 10
19311.916685
 20
-19501.556485
 30
0.0
 11
19003.237868
 21
-19501.556483
 31
0.0
  0
LINE
  5
317
100
AcDbEntity
  8
0
  6
CONTINUOUS
 62
     1
100
AcDbLine
 10
19306.148518
 20
-19509.553248
 30
0.0
 11
19003.237868
 21
-19509.553248
 31
0.0
  0
ARC
  5
318
100
AcDbEntity
  8
0
  6
CONTINUOUS
 62
     7
100
AcDbCircle
 10
19858.442282
 20
-19852.969873
 30
0.0
 40
8.736243
100
AcDbArc
 50
332.762661
 51
27.237339
  0
LINE
  5
319
100
AcDbEntity
  8
0
  6
CONTINUOUS
 62
     1
100
AcDbLine
 10
19866.209844
 20
-19856.968248
 30
0.0
 11
19003.237868
 21
-19856.968248
 31
0.0
  0
LINE
  5
31A
100
AcDbEntity
  8
0
  6
CONTINUOUS
 62
     1
100
AcDbLine
 10
19434.678526
 20
-19441.136482
 30
0.0
 11
19003.237868
 21
-19441.136483
 31
0.0
  0
LINE
  5
31B
100
AcDbEntity
  8
0
  6
CONTINUOUS
 62
     1
100
AcDbLine
 10
19385.680356
 20
-19449.133244
 30
0.0
 11
19003.237868
 21
-19449.133248
 31
0.0
  0
LINE
  5
31C
100
AcDbEntity
  8
0
  6
CONTINUOUS
 62
     1
100
AcDbLine
 10
19325.208961
 20
-19486.451487
 30
0.0
 11
19003.237868
 21
-19486.451483
 31
0.0
  0
LINE
  5
31D
100
AcDbEntity
  8
0
  6
CONTINUOUS
 62
     1
100
AcDbLine
 10
19317.73982
 20
-19494.448249
 30
0.0
 11
19003.237868
 21
-19494.448248
 31
0.0
  0
LINE
  5
31E
100
AcDbEntity
  8
0
  6
CONTINUOUS
 62
     1
100
AcDbLine
 10
19866.209834
 20
-19803.656477
 30
0.0
 11
19003.237868
 21
-19803.656483
 31
0.0
  0
LINE
  5
31F
100
AcDbEntity
  8
0
  6
CONTINUOUS
 62
     1
100
AcDbLine
 10
19866.209838
 20
-19434.028244
 30
0.0
 11
19003.237868
 21
-19434.028248
 31
0.0
  0
ARC
  5
320
100
AcDbEntity
  8
0
  6
CONTINUOUS
 62
     7
100
AcDbCircle
 10
19873.114645
 20
-19769.892366
 30
0.0
 40
7.765832
100
AcDbArc
 50
152.763726
 51
207.236274
  0
ARC
  5
321
100
AcDbEntity
  8
0
  6
CONTINUOUS
 62
     7
100
AcDbCircle
 10
19873.114645
 20
-19800.102363
 30
0.0
 40
7.765832
100
AcDbArc
 50
152.763726
 51
207.236274
  0
ARC
  5
322
100
AcDbEntity
  8
0
  6
CONTINUOUS
 62
     7
100
AcDbCircle
 10
19873.114645
 20
-19392.267368
 30
0.0
 40
7.765832
100
AcDbArc
 50
152.763726
 51
207.236274
  0
ARC
  5
323
100
AcDbEntity
  8
0
  6
CONTINUOUS
 62
     7
100
AcDbCircle
 10
19873.114645
 20
-19784.997364
 30
0.0
 40
7.765832
100
AcDbArc
 50
152.763726
 51
207.236274
  0
ARC
  5
324
100
AcDbEntity
  8
0
  6
CONTINUOUS
 62
     7
100
AcDbCircle
 10
19873.114645
 20
-19407.372367
 30
0.0
 40
7.765832
100
AcDbArc
 50
152.763726
 51
207.236274
  0
ARC
  5
325
100
AcDbEntity
  8
0
  6
CONTINUOUS
 62
     7
100
AcDbCircle
 10
19873.114645
 20
-19362.057371
 30
0.0
 40
7.765832
100
AcDbArc
 50
152.763726
 51
207.236274
  0
ARC
  5
326
100
AcDbEntity
  8
0
  6
CONTINUOUS
 62
     7
100
AcDbCircle
 10
19873.114645
 20
-19830.31236
 30
0.0
 40
7.765832
100
AcDbArc
 50
152.763726
 51
207.236274
  0
ARC
  5
327
100
AcDbEntity
  8
0
  6
CONTINUOUS
 62
     7
100
AcDbCircle
 10
19873.114622
 20
-19996.467368
 30
0.0
 40
7.765808
100
AcDbArc
 50
152.763697
 51
207.236303
  0
ARC
  5
328
100
AcDbEntity
  8
0
  6
CONTINUOUS
 62
     7
100
AcDbCircle
 10
19873.114668
 20
-19905.837361
 30
0.0
 40
7.765856
100
AcDbArc
 50
152.763755
 51
207.236245
  0
ARC
  5
329
100
AcDbEntity
  8
0
  6
CONTINUOUS
 62
     7
100
AcDbCircle
 10
19873.114668
 20
-19981.36237
 30
0.0
 40
7.765856
100
AcDbArc
 50
152.763755
 51
207.236245
  0
ARC
  5
32A
100
AcDbEntity
  8
0
  6
CONTINUOUS
 62
     7
100
AcDbCircle
 10
19873.114588
 20
-19966.257371
 30
0.0
 40
7.765778
100
AcDbArc
 50
152.763581
 51
207.236419
  0
ARC
  5
32B
100
AcDbEntity
  8
0
  6
CONTINUOUS
 62
     7
100
AcDbCircle
 10
19873.114588
 20
-19920.94236
 30
0.0
 40
7.765778
100
AcDbArc
 50
152.763581
 51
207.236419
  0
ARC
  5
32C
100
AcDbEntity
  8
0
  6
CONTINUOUS
 62
     7
100
AcDbCircle
 10
19873.114668
 20
-19951.152372
 30
0.0
 40
7.765856
100
AcDbArc
 50
152.763755
 51
207.236245
  0
ARC
  5
32D
100
AcDbEntity
  8
0
  6
CONTINUOUS
 62
     7
100
AcDbCircle
 10
19873.114668
 20
-19936.047359
 30
0.0
 40
7.765856
100
AcDbArc
 50
152.763755
 51
207.236245
  0
ARC
  5
32E
100
AcDbEntity
  8
0
  6
CONTINUOUS
 62
     7
100
AcDbCircle
 10
19873.114622
 20
-20026.677366
 30
0.0
 40
7.765808
100
AcDbArc
 50
152.763697
 51
157.334933
  0
ARC
  5
32F
100
AcDbEntity
  8
0
  6
CONTINUOUS
 62
     7
100
AcDbCircle
 10
19873.114668
 20
-20011.572367
 30
0.0
 40
7.765856
100
AcDbArc
 50
152.763755
 51
207.236245
  0
ARC
  5
330
100
AcDbEntity
  8
0
  6
CONTINUOUS
 62
     7
100
AcDbCircle
 10
19873.114622
 20
-19331.847366
 30
0.0
 40
7.765808
100
AcDbArc
 50
152.763697
 51
207.236303
  0
ARC
  5
331
100
AcDbEntity
  8
0
  6
CONTINUOUS
 62
     7
100
AcDbCircle
 10
19873.114622
 20
-19301.637369
 30
0.0
 40
7.765808
100
AcDbArc
 50
152.763697
 51
207.236303
  0
ARC
  5
332
100
AcDbEntity
  8
0
  6
CONTINUOUS
 62
     7
100
AcDbCircle
 10
19873.114668
 20
-19180.797364
 30
0.0
 40
7.765856
100
AcDbArc
 50
152.763755
 51
207.236245
  0
ARC
  5
333
100
AcDbEntity
  8
0
  6
CONTINUOUS
 62
     7
100
AcDbCircle
 10
19873.114588
 20
-19226.11236
 30
0.0
 40
7.765778
100
AcDbArc
 50
152.763581
 51
207.236419
  0
ARC
  5
334
100
AcDbEntity
  8
0
  6
CONTINUOUS
 62
     7
100
AcDbCircle
 10
19873.114668
 20
-19286.53237
 30
0.0
 40
7.765856
100
AcDbArc
 50
152.763755
 51
207.236245
  0
ARC
  5
335
100
AcDbEntity
  8
0
  6
CONTINUOUS
 62
     7
100
AcDbCircle
 10
19873.114622
 20
-19890.732363
 30
0.0
 40
7.765808
100
AcDbArc
 50
152.763697
 51
207.236303
  0
ARC
  5
336
100
AcDbEntity
  8
0
  6
CONTINUOUS
 62
     7
100
AcDbCircle
 10
19873.114622
 20
-19195.902363
 30
0.0
 40
7.765808
100
AcDbArc
 50
152.763697
 51
207.236303
  0
ARC
  5
337
100
AcDbEntity
  8
0
  6
CONTINUOUS
 62
     7
100
AcDbCircle
 10
19873.114622
 20
-19860.522365
 30
0.0
 40
7.765808
100
AcDbArc
 50
152.763697
 51
207.236303
  0
ARC
  5
338
100
AcDbEntity
  8
0
  6
CONTINUOUS
 62
     7
100
AcDbCircle
 10
19873.114668
 20
-19316.742367
 30
0.0
 40
7.765856
100
AcDbArc
 50
152.763755
 51
207.236245
  0
ARC
  5
339
100
AcDbEntity
  8
0
  6
CONTINUOUS
 62
     7
100
AcDbCircle
 10
19873.114668
 20
-19875.627364
 30
0.0
 40
7.765856
100
AcDbArc
 50
152.763755
 51
207.236245
  0
ARC
  5
33A
100
AcDbEntity
  8
0
  6
CONTINUOUS
 62
     7
100
AcDbCircle
 10
19873.114668
 20
-19211.007362
 30
0.0
 40
7.765856
100
AcDbArc
 50
152.763755
 51
207.236245
  0
ARC
  5
33B
100
AcDbEntity
  8
0
  6
CONTINUOUS
 62
     7
100
AcDbCircle
 10
19873.114588
 20
-19271.427371
 30
0.0
 40
7.765778
100
AcDbArc
 50
152.763581
 51
207.236419
  0
ARC
  5
33C
100
AcDbEntity
  8
0
  6
CONTINUOUS
 62
     7
100
AcDbCircle
 10
19873.114668
 20
-19241.217359
 30
0.0
 40
7.765856
100
AcDbArc
 50
152.763755
 51
207.236245
  0
ARC
  5
33D
100
AcDbEntity
  8
0
  6
CONTINUOUS
 62
     7
100
AcDbCircle
 10
19873.114668
 20
-19256.322373
 30
0.0
 40
7.765856
100
AcDbArc
 50
152.763755
 51
207.236245
  0
ARC
  5
33E
100
AcDbEntity
  8
0
  6
CONTINUOUS
 62
     7
100
AcDbCircle
 10
19858.442299
 20
-19837.86486
 30
0.0
 40
8.736228
100
AcDbArc
 50
332.76261
 51
27.23739
  0
ARC
  5
33F
100
AcDbEntity
  8
0
  6
CONTINUOUS
 62
     7
100
AcDbCircle
 10
19858.442299
 20
-19354.504872
 30
0.0
 40
8.736228
100
AcDbArc
 50
332.76261
 51
27.23739
  0
ARC
  5
340
100
AcDbEntity
  8
0
  6
CONTINUOUS
 62
     7
100
AcDbCircle
 10
19873.114645
 20
-19437.582364
 30
0.0
 40
7.765832
100
AcDbArc
 50
152.763726
 51
207.236274
  0
LINE
  5
341
100
AcDbEntity
  8
0
  6
CONTINUOUS
 62
     1
100
AcDbLine
 10
19866.209844
 20
-19441.136483
 30
0.0
 11
19434.678526
 21
-19441.136482
 31
0.0
  0
LINE
  5
342
100
AcDbEntity
  8
0
  6
CONTINUOUS
 62
     1
100
AcDbLine
 10
19866.209844
 20
-19751.233248
 30
0.0
 11
19434.678526
 21
-19751.23325
 31
0.0
  0
ARC
  5
343
100
AcDbEntity
  8
0
  6
CONTINUOUS
 62
     7
100
AcDbCircle
 10
19873.114645
 20
-19754.787367
 30
0.0
 40
7.765832
100
AcDbArc
 50
152.763726
 51
207.236274
  0
ARC
  5
344
100
AcDbEntity
  8
0
  6
CONTINUOUS
 62
     7
100
AcDbCircle
 10
19858.442299
 20
-19822.759861
 30
0.0
 40
8.736228
100
AcDbArc
 50
332.76261
 51
27.23739
  0
ARC
  5
345
100
AcDbEntity
  8
0
  6
CONTINUOUS
 62
     7
100
AcDbCircle
 10
19858.442299
 20
-19369.60987
 30
0.0
 40
8.736228
100
AcDbArc
 50
332.76261
 51
27.23739
  0
LINE
  5
346
100
AcDbEntity
  8
0
  6
CONTINUOUS
 62
     1
100
AcDbLine
 10
19866.209844
 20
-19449.133248
 30
0.0
 11
19483.676694
 21
-19449.133244
 31
0.0
  0
ARC
  5
347
100
AcDbEntity
  8
0
  6
CONTINUOUS
 62
     7
100
AcDbCircle
 10
19873.114645
 20
-19452.687363
 30
0.0
 40
7.765832
100
AcDbArc
 50
152.763726
 51
207.236274
  0
LINE
  5
348
100
AcDbEntity
  8
0
  6
CONTINUOUS
 62
     1
100
AcDbLine
 10
19866.209844
 20
-19456.241483
 30
0.0
 11
19501.318219
 21
-19456.24148
 31
0.0
  0
LINE
  5
349
100
AcDbEntity
  8
0
  6
CONTINUOUS
 62
     1
100
AcDbLine
 10
19866.209844
 20
-19736.128248
 30
0.0
 11
19501.318219
 21
-19736.128252
 31
0.0
  0
ARC
  5
34A
100
AcDbEntity
  8
0
  6
CONTINUOUS
 62
     7
100
AcDbCircle
 10
19873.114645
 20
-19739.682368
 30
0.0
 40
7.765832
100
AcDbArc
 50
152.763726
 51
207.236274
  0
LINE
  5
34B
100
AcDbEntity
  8
0
  6
CONTINUOUS
 62
     1
100
AcDbLine
 10
19866.209844
 20
-19743.236483
 30
0.0
 11
19483.676694
 21
-19743.236487
 31
0.0
  0
LINE
  5
34C
100
AcDbEntity
  8
0
  6
CONTINUOUS
 62
     1
100
AcDbLine
 10
19866.209844
 20
-19464.238248
 30
0.0
 11
19516.01172
 21
-19464.238242
 31
0.0
  0
ARC
  5
34D
100
AcDbEntity
  8
0
  6
CONTINUOUS
 62
     7
100
AcDbCircle
 10
19873.114645
 20
-19467.792362
 30
0.0
 40
7.765832
100
AcDbArc
 50
152.763726
 51
207.236274
  0
LINE
  5
34E
100
AcDbEntity
  8
0
  6
CONTINUOUS
 62
     1
100
AcDbLine
 10
19866.209844
 20
-19471.346483
 30
0.0
 11
19526.55005
 21
-19471.346478
 31
0.0
  0
LINE
  5
34F
100
AcDbEntity
  8
0
  6
CONTINUOUS
 62
     1
100
AcDbLine
 10
19866.209844
 20
-19721.023248
 30
0.0
 11
19526.55005
 21
-19721.023253
 31
0.0
  0
ARC
  5
350
100
AcDbEntity
  8
0
  6
CONTINUOUS
 62
     7
100
AcDbCircle
 10
19873.114645
 20
-19724.57737
 30
0.0
 40
7.765832
100
AcDbArc
 50
152.763726
 51
207.236274
  0
LINE
  5
351
100
AcDbEntity
  8
0
  6
CONTINUOUS
 62
     1
100
AcDbLine
 10
19866.209844
 20
-19728.131483
 30
0.0
 11
19516.01172
 21
-19728.131489
 31
0.0
  0
ARC
  5
352
100
AcDbEntity
  8
0
  6
CONTINUOUS
 62
     7
100
AcDbCircle
 10
19858.442299
 20
-19384.714869
 30
0.0
 40
8.736228
100
AcDbArc
 50
332.76261
 51
27.23739
  0
ARC
  5
353
100
AcDbEntity
  8
0
  6
CONTINUOUS
 62
     7
100
AcDbCircle
 10
19858.442299
 20
-19807.654862
 30
0.0
 40
8.736228
100
AcDbArc
 50
332.76261
 51
27.23739
  0
LINE
  5
354
100
AcDbEntity
  8
0
  6
CONTINUOUS
 62
     1
100
AcDbLine
 10
19866.209844
 20
-19479.343248
 30
0.0
 11
19536.526634
 21
-19479.343251
 31
0.0
  0
ARC
  5
355
100
AcDbEntity
  8
0
  6
CONTINUOUS
 62
     7
100
AcDbCircle
 10
19873.114637
 20
-19482.897368
 30
0.0
 40
7.765824
100
AcDbArc
 50
152.763697
 51
207.236303
  0
LINE
  5
356
100
AcDbEntity
  8
0
  6
CONTINUOUS
 62
     1
100
AcDbLine
 10
19866.209844
 20
-19486.451483
 30
0.0
 11
19544.14809
 21
-19486.451487
 31
0.0
  0
LINE
  5
357
100
AcDbEntity
  8
0
  6
CONTINUOUS
 62
     1
100
AcDbLine
 10
19866.209844
 20
-19705.918248
 30
0.0
 11
19544.14809
 21
-19705.918245
 31
0.0
  0
ARC
  5
358
100
AcDbEntity
  8
0
  6
CONTINUOUS
 62
     7
100
AcDbCircle
 10
19873.114637
 20
-19709.472363
 30
0.0
 40
7.765824
100
AcDbArc
 50
152.763697
 51
207.236303
  0
LINE
  5
359
100
AcDbEntity
  8
0
  6
CONTINUOUS
 62
     1
100
AcDbLine
 10
19866.209844
 20
-19713.026483
 30
0.0
 11
19536.526634
 21
-19713.02648
 31
0.0
  0
ARC
  5
35A
100
AcDbEntity
  8
0
  6
CONTINUOUS
 62
     7
100
AcDbCircle
 10
19858.442299
 20
-19399.819868
 30
0.0
 40
8.736228
100
AcDbArc
 50
332.76261
 51
27.23739
  0
ARC
  5
35B
100
AcDbEntity
  8
0
  6
CONTINUOUS
 62
     7
100
AcDbCircle
 10
19858.442299
 20
-19792.549864
 30
0.0
 40
8.736228
100
AcDbArc
 50
332.76261
 51
27.23739
  0
LINE
  5
35C
100
AcDbEntity
  8
0
  6
CONTINUOUS
 62
     1
100
AcDbLine
 10
19866.209844
 20
-19494.448248
 30
0.0
 11
19551.617231
 21
-19494.448249
 31
0.0
  0
ARC
  5
35D
100
AcDbEntity
  8
0
  6
CONTINUOUS
 62
     7
100
AcDbCircle
 10
19873.114645
 20
-19498.002367
 30
0.0
 40
7.765832
100
AcDbArc
 50
152.763726
 51
207.236274
  0
LINE
  5
35E
100
AcDbEntity
  8
0
  6
CONTINUOUS
 62
     1
100
AcDbLine
 10
19866.209844
 20
-19501.556483
 30
0.0
 11
19557.440366
 21
-19501.556485
 31
0.0
  0
LINE
  5
35F
100
AcDbEntity
  8
0
  6
CONTINUOUS
 62
     1
100
AcDbLine
 10
19866.209844
 20
-19690.813248
 30
0.0
 11
19557.440366
 21
-19690.813246
 31
0.0
  0
ARC
  5
360
100
AcDbEntity
  8
0
  6
CONTINUOUS
 62
     7
100
AcDbCircle
 10
19873.114645
 20
-19694.367365
 30
0.0
 40
7.765832
100
AcDbArc
 50
152.763726
 51
207.236274
  0
LINE
  5
361
100
AcDbEntity
  8
0
  6
CONTINUOUS
 62
     1
100
AcDbLine
 10
19866.209844
 20
-19697.921483
 30
0.0
 11
19551.617231
 21
-19697.921482
 31
0.0
  0
LINE
  5
362
100
AcDbEntity
  8
0
  6
CONTINUOUS
 62
     1
100
AcDbLine
 10
19866.209844
 20
-19509.553248
 30
0.0
 11
19563.208533
 21
-19509.553247
 31
0.0
  0
ARC
  5
363
100
AcDbEntity
  8
0
  6
CONTINUOUS
 62
     7
100
AcDbCircle
 10
19873.114645
 20
-19513.107365
 30
0.0
 40
7.765832
100
AcDbArc
 50
152.763726
 51
207.236274
  0
LINE
  5
364
100
AcDbEntity
  8
0
  6
CONTINUOUS
 62
     1
100
AcDbLine
 10
19866.209844
 20
-19516.661483
 30
0.0
 11
19567.72375
 21
-19516.661483
 31
0.0
  0
LINE
  5
365
100
AcDbEntity
  8
0
  6
CONTINUOUS
 62
     1
100
AcDbLine
 10
19866.209844
 20
-19675.708248
 30
0.0
 11
19567.72375
 21
-19675.708248
 31
0.0
  0
ARC
  5
366
100
AcDbEntity
  8
0
  6
CONTINUOUS
 62
     7
100
AcDbCircle
 10
19873.114645
 20
-19679.262366
 30
0.0
 40
7.765832
100
AcDbArc
 50
152.763726
 51
207.236274
  0
LINE
  5
367
100
AcDbEntity
  8
0
  6
CONTINUOUS
 62
     1
100
AcDbLine
 10
19866.209844
 20
-19682.816483
 30
0.0
 11
19563.208533
 21
-19682.816484
 31
0.0
  0
ARC
  5
368
100
AcDbEntity
  8
0
  6
CONTINUOUS
 62
     7
100
AcDbCircle
 10
19858.442299
 20
-19414.924866
 30
0.0
 40
8.736228
100
AcDbArc
 50
332.76261
 51
27.23739
  0
ARC
  5
369
100
AcDbEntity
  8
0
  6
CONTINUOUS
 62
     7
100
AcDbCircle
 10
19858.442299
 20
-19777.444865
 30
0.0
 40
8.736228
100
AcDbArc
 50
332.76261
 51
27.23739
  0
LINE
  5
36A
100
AcDbEntity
  8
0
  6
CONTINUOUS
 62
     1
100
AcDbLine
 10
19866.209844
 20
-19524.658248
 30
0.0
 11
19572.188317
 21
-19524.658246
 31
0.0
  0
ARC
  5
36B
100
AcDbEntity
  8
0
  6
CONTINUOUS
 62
     7
100
AcDbCircle
 10
19873.114637
 20
-19528.212364
 30
0.0
 40
7.765824
100
AcDbArc
 50
152.763697
 51
207.236303
  0
LINE
  5
36C
100
AcDbEntity
  8
0
  6
CONTINUOUS
 62
     1
100
AcDbLine
 10
19866.209844
 20
-19531.766483
 30
0.0
 11
19575.658211
 21
-19531.766481
 31
0.0
  0
LINE
  5
36D
100
AcDbEntity
  8
0
  6
CONTINUOUS
 62
     1
100
AcDbLine
 10
19866.209844
 20
-19660.603248
 30
0.0
 11
19575.658211
 21
-19660.60325
 31
0.0
  0
ARC
  5
36E
100
AcDbEntity
  8
0
  6
CONTINUOUS
 62
     7
100
AcDbCircle
 10
19873.114637
 20
-19664.157367
 30
0.0
 40
7.765824
100
AcDbArc
 50
152.763697
 51
207.236303
  0
LINE
  5
36F
100
AcDbEntity
  8
0
  6
CONTINUOUS
 62
     1
100
AcDbLine
 10
19866.209844
 20
-19667.711483
 30
0.0
 11
19572.188317
 21
-19667.711486
 31
0.0
  0
LINE
  5
370
100
AcDbEntity
  8
0
  6
CONTINUOUS
 62
     1
100
AcDbLine
 10
19866.209844
 20
-19539.763248
 30
0.0
 11
19579.044731
 21
-19539.763249
 31
0.0
  0
ARC
  5
371
100
AcDbEntity
  8
0
  6
CONTINUOUS
 62
     7
100
AcDbCircle
 10
19873.114641
 20
-19543.317367
 30
0.0
 40
7.765828
100
AcDbArc
 50
152.763711
 51
207.236289
  0
LINE
  5
372
100
AcDbEntity
  8
0
  6
CONTINUOUS
 62
     1
100
AcDbLine
 10
19866.209844
 20
-19546.871483
 30
0.0
 11
19581.624742
 21
-19546.871485
 31
0.0
  0
LINE
  5
373
100
AcDbEntity
  8
0
  6
CONTINUOUS
 62
     1
100
AcDbLine
 10
19866.209844
 20
-19645.498248
 30
0.0
 11
19581.624742
 21
-19645.498247
 31
0.0
  0
ARC
  5
374
100
AcDbEntity
  8
0
  6
CONTINUOUS
 62
     7
100
AcDbCircle
 10
19873.114641
 20
-19649.052365
 30
0.0
 40
7.765828
100
AcDbArc
 50
152.763711
 51
207.236289
  0
LINE
  5
375
100
AcDbEntity
  8
0
  6
CONTINUOUS
 62
     1
100
AcDbLine
 10
19866.209844
 20
-19652.606483
 30
0.0
 11
19579.044731
 21
-19652.606482
 31
0.0
  0
ARC
  5
376
100
AcDbEntity
  8
0
  6
CONTINUOUS
 62
     7
100
AcDbCircle
 10
19858.442299
 20
-19430.029865
 30
0.0
 40
8.736228
100
AcDbArc
 50
332.76261
 51
27.23739
  0
ARC
  5
377
100
AcDbEntity
  8
0
  6
CONTINUOUS
 62
     7
100
AcDbCircle
 10
19858.442299
 20
-19762.339866
 30
0.0
 40
8.736228
100
AcDbArc
 50
332.76261
 51
27.23739
  0
LINE
  5
378
100
AcDbEntity
  8
0
  6
CONTINUOUS
 62
     1
100
AcDbLine
 10
19866.209844
 20
-19554.868248
 30
0.0
 11
19584.070416
 21
-19554.868247
 31
0.0
  0
ARC
  5
379
100
AcDbEntity
  8
0
  6
CONTINUOUS
 62
     7
100
AcDbCircle
 10
19873.114641
 20
-19558.422365
 30
0.0
 40
7.765828
100
AcDbArc
 50
152.763711
 51
207.236289
  0
LINE
  5
37A
100
AcDbEntity
  8
0
  6
CONTINUOUS
 62
     1
100
AcDbLine
 10
19866.209844
 20
-19561.976483
 30
0.0
 11
19585.856522
 21
-19561.976483
 31
0.0
  0
LINE
  5
37B
100
AcDbEntity
  8
0
  6
CONTINUOUS
 62
     1
100
AcDbLine
 10
19866.209844
 20
-19630.393248
 30
0.0
 11
19585.856522
 21
-19630.393249
 31
0.0
  0
ARC
  5
37C
100
AcDbEntity
  8
0
  6
CONTINUOUS
 62
     7
100
AcDbCircle
 10
19873.114641
 20
-19633.947366
 30
0.0
 40
7.765828
100
AcDbArc
 50
152.763711
 51
207.236289
  0
LINE
  5
37D
100
AcDbEntity
  8
0
  6
CONTINUOUS
 62
     1
100
AcDbLine
 10
19866.209844
 20
-19637.501483
 30
0.0
 11
19584.070416
 21
-19637.501484
 31
0.0
  0
LINE
  5
37E
100
AcDbEntity
  8
0
  6
CONTINUOUS
 62
     1
100
AcDbLine
 10
19866.209844
 20
-19569.973248
 30
0.0
 11
19587.446163
 21
-19569.973248
 31
0.0
  0
ARC
  5
37F
100
AcDbEntity
  8
0
  6
CONTINUOUS
 62
     7
100
AcDbCircle
 10
19873.114641
 20
-19573.527366
 30
0.0
 40
7.765828
100
AcDbArc
 50
152.763711
 51
207.236289
  0
LINE
  5
380
100
AcDbEntity
  8
0
  6
CONTINUOUS
 62
     1
100
AcDbLine
 10
19866.209844
 20
-19577.081483
 30
0.0
 11
19588.496798
 21
-19577.081484
 31
0.0
  0
LINE
  5
381
100
AcDbEntity
  8
0
  6
CONTINUOUS
 62
     1
100
AcDbLine
 10
19866.209844
 20
-19615.288248
 30
0.0
 11
19588.496798
 21
-19615.288248
 31
0.0
  0
ARC
  5
382
100
AcDbEntity
  8
0
  6
CONTINUOUS
 62
     7
100
AcDbCircle
 10
19873.114641
 20
-19618.842366
 30
0.0
 40
7.765828
100
AcDbArc
 50
152.763711
 51
207.236289
  0
LINE
  5
383
100
AcDbEntity
  8
0
  6
CONTINUOUS
 62
     1
100
AcDbLine
 10
19866.209844
 20
-19622.396483
 30
0.0
 11
19587.446163
 21
-19622.396483
 31
0.0
  0
LINE
  5
384
100
AcDbEntity
  8
0
  6
CONTINUOUS
 62
     1
100
AcDbLine
 10
19866.209844
 20
-19585.078248
 30
0.0
 11
19589.280088
 21
-19585.078248
 31
0.0
  0
ARC
  5
385
100
AcDbEntity
  8
0
  6
CONTINUOUS
 62
     7
100
AcDbCircle
 10
19873.11464
 20
-19588.632365
 30
0.0
 40
7.765828
100
AcDbArc
 50
152.76371
 51
207.23629
  0
LINE
  5
386
100
AcDbEntity
  8
0
  6
CONTINUOUS
 62
     1
100
AcDbLine
 10
19866.209844
 20
-19592.186483
 30
0.0
 11
19589.626946
 21
-19592.186483
 31
0.0
  0
LINE
  5
387
100
AcDbEntity
  8
0
  6
CONTINUOUS
 62
     1
100
AcDbLine
 10
19866.209844
 20
-19600.183248
 30
0.0
 11
19589.626946
 21
-19600.183248
 31
0.0
  0
ARC
  5
388
100
AcDbEntity
  8
0
  6
CONTINUOUS
 62
     7
100
AcDbCircle
 10
19873.11464
 20
-19603.737366
 30
0.0
 40
7.765828
100
AcDbArc
 50
152.76371
 51
207.23629
  0
LINE
  5
389
100
AcDbEntity
  8
0
  6
CONTINUOUS
 62
     1
100
AcDbLine
 10
19866.209844
 20
-19607.291483
 30
0.0
 11
19589.280088
 21
-19607.291484
 31
0.0
  0
ARC
  5
38A
100
AcDbEntity
  8
0
  6
CONTINUOUS
 62
     7
100
AcDbCircle
 10
19858.442299
 20
-19445.134864
 30
0.0
 40
8.736228
100
AcDbArc
 50
332.76261
 51
27.23739
  0
ARC
  5
38B
100
AcDbEntity
  8
0
  6
CONTINUOUS
 62
     7
100
AcDbCircle
 10
19858.442299
 20
-19747.234868
 30
0.0
 40
8.736228
100
AcDbArc
 50
332.76261
 51
27.23739
  0
ARC
  5
38C
100
AcDbEntity
  8
0
  6
CONTINUOUS
 62
     7
100
AcDbCircle
 10
19858.442299
 20
-19460.239863
 30
0.0
 40
8.736228
100
AcDbArc
 50
332.76261
 51
27.23739
  0
ARC
  5
38D
100
AcDbEntity
  8
0
  6
CONTINUOUS
 62
     7
100
AcDbCircle
 10
19858.442299
 20
-19732.129869
 30
0.0
 40
8.736228
100
AcDbArc
 50
332.76261
 51
27.23739
  0
ARC
  5
38E
100
AcDbEntity
  8
0
  6
CONTINUOUS
 62
     7
100
AcDbCircle
 10
19858.442279
 20
-19475.344865
 30
0.0
 40
8.736248
100
AcDbArc
 50
332.762648
 51
27.237352
  0
ARC
  5
38F
100
AcDbEntity
  8
0
  6
CONTINUOUS
 62
     7
100
AcDbCircle
 10
19858.442279
 20
-19717.024866
 30
0.0
 40
8.736248
100
AcDbArc
 50
332.762648
 51
27.237352
  0
ARC
  5
390
100
AcDbEntity
  8
0
  6
CONTINUOUS
 62
     7
100
AcDbCircle
 10
19858.442299
 20
-19490.449867
 30
0.0
 40
8.736228
100
AcDbArc
 50
332.76261
 51
27.23739
  0
ARC
  5
391
100
AcDbEntity
  8
0
  6
CONTINUOUS
 62
     7
100
AcDbCircle
 10
19858.442299
 20
-19701.919864
 30
0.0
 40
8.736228
100
AcDbArc
 50
332.76261
 51
27.23739
  0
ARC
  5
392
100
AcDbEntity
  8
0
  6
CONTINUOUS
 62
     7
100
AcDbCircle
 10
19858.442299
 20
-19505.554866
 30
0.0
 40
8.736228
100
AcDbArc
 50
332.76261
 51
27.23739
  0
ARC
  5
393
100
AcDbEntity
  8
0
  6
CONTINUOUS
 62
     7
100
AcDbCircle
 10
19858.442299
 20
-19686.814865
 30
0.0
 40
8.736228
100
AcDbArc
 50
332.76261
 51
27.23739
  0
ARC
  5
394
100
AcDbEntity
  8
0
  6
CONTINUOUS
 62
     7
100
AcDbCircle
 10
19858.442299
 20
-19520.659865
 30
0.0
 40
8.736228
100
AcDbArc
 50
332.76261
 51
27.23739
  0
ARC
  5
395
100
AcDbEntity
  8
0
  6
CONTINUOUS
 62
     7
100
AcDbCircle
 10
19858.442299
 20
-19671.709867
 30
0.0
 40
8.736228
100
AcDbArc
 50
332.76261
 51
27.23739
  0
ARC
  5
396
100
AcDbEntity
  8
0
  6
CONTINUOUS
 62
     7
100
AcDbCircle
 10
19858.442294
 20
-19535.764865
 30
0.0
 40
8.736234
100
AcDbArc
 50
332.762616
 51
27.237384
  0
ARC
  5
397
100
AcDbEntity
  8
0
  6
CONTINUOUS
 62
     7
100
AcDbCircle
 10
19858.442294
 20
-19656.604866
 30
0.0
 40
8.736234
100
AcDbArc
 50
332.762616
 51
27.237384
  0
ARC
  5
398
100
AcDbEntity
  8
0
  6
CONTINUOUS
 62
     7
100
AcDbCircle
 10
19858.442299
 20
-19550.869866
 30
0.0
 40
8.736228
100
AcDbArc
 50
332.76261
 51
27.23739
  0
ARC
  5
399
100
AcDbEntity
  8
0
  6
CONTINUOUS
 62
     7
100
AcDbCircle
 10
19858.442299
 20
-19641.499866
 30
0.0
 40
8.736228
100
AcDbArc
 50
332.76261
 51
27.23739
  0
ARC
  5
39A
100
AcDbEntity
  8
0
  6
CONTINUOUS
 62
     7
100
AcDbCircle
 10
19858.442294
 20
-19565.974866
 30
0.0
 40
8.736233
100
AcDbArc
 50
332.762619
 51
27.237381
  0
ARC
  5
39B
100
AcDbEntity
  8
0
  6
CONTINUOUS
 62
     7
100
AcDbCircle
 10
19858.442294
 20
-19626.394866
 30
0.0
 40
8.736233
100
AcDbArc
 50
332.762619
 51
27.237381
  0
ARC
  5
39C
100
AcDbEntity
  8
0
  6
CONTINUOUS
 62
     7
100
AcDbCircle
 10
19858.442297
 20
-19581.079866
 30
0.0
 40
8.736231
100
AcDbArc
 50
332.762615
 51
27.237385
  0
ARC
  5
39D
100
AcDbEntity
  8
0
  6
CONTINUOUS
 62
     7
100
AcDbCircle
 10
19858.442297
 20
-19611.289866
 30
0.0
 40
8.736231
100
AcDbArc
 50
332.762615
 51
27.237385
  0
ARC
  5
39E
100
AcDbEntity
  8
0
  6
CONTINUOUS
 62
     7
100
AcDbCircle
 10
19858.442293
 20
-19596.184866
 30
0.0
 40
8.736234
100
AcDbArc
 50
332.762623
 51
27.237377
  0
DIMENSION
  5
3A8
100
AcDbEntity
  8
0
  6
CONTINUOUS
 62
     5
100
AcDbDimension
  2
*D4
 10
18808.349802
 20
-19168.684866
 30
0.0
 11
18795.849802
 21
-19596.184866
 31
0.0
 70
    32
  3
DIMSTYLE001
100
AcDbAlignedDimension
 13
18879.755611
 23
-20023.684866
 33
0.0
 14
18879.880611
 24
-19168.684866
 34
0.0
 50
90.0
100
AcDbRotatedDimension
1001
ACAD
1000
DSTYLE
1002
{
1070
    43
1040
1000.0
1070
    73
1070
     0
1070
    74
1070
     0
1070
    77
1070
     1
1070
   277
1070
     2
1070
   172
1070
     1
1070
   174
1070
     1
1070
   179
1070
     0
1070
   287
1070
     3
1070
   289
1070
     3
1070
     5
1000
_ORIGIN
1002
}
  0
DIMENSION
  5
3B2
100
AcDbEntity
  8
0
  6
CONTINUOUS
 62
     5
100
AcDbDimension
  2
*D5
 10
19002.178526
 20
-19014.049436
 30
0.0
 11
19434.678526
 21
-19001.549436
 31
0.0
 70
   160
  3
DIMSTYLE001
100
AcDbAlignedDimension
 13
19867.178526
 23
-19071.95142
 33
0.0
 14
19002.178526
 24
-19071.95142
 34
0.0
100
AcDbRotatedDimension
1001
ACAD
1000
DSTYLE
1002
{
1070
    43
1040
1000.0
1070
    73
1070
     0
1070
    74
1070
     0
1070
    77
1070
     1
1070
   277
1070
     2
1070
   172
1070
     1
1070
   174
1070
     1
1070
   179
1070
     0
1070
   279
1070
     2
1070
   287
1070
     5
1070
   289
1070
     3
1070
     5
1000
_ORIGIN
1002
}
  0
DIMENSION
  5
3BC
100
AcDbEntity
  8
0
  6
CONTINUOUS
 62
     5
100
AcDbDimension
  2
*D6
 10
19867.178526
 20
-20234.475885
 30
0.0
 11
19650.928526
 21
-20221.975885
 31
0.0
 70
    32
  3
DIMSTYLE002
100
AcDbAlignedDimension
 13
19434.678526
 23
-20130.429081
 33
0.0
 14
19867.178526
 24
-20130.429081
 34
0.0
100
AcDbRotatedDimension
1001
ACAD
1000
DSTYLE
1002
{
1070
    43
1040
1000.0
1070
    73
1070
     0
1070
    74
1070
     0
1070
    77
1070
     1
1070
   277
1070
     2
1070
   172
1070
     1
1070
   174
1070
     1
1070
   179
1070
     1
1070
   287
1070
     3
1070
   289
1070
     3
1070
     5
1000
_ORIGIN
1002
}
  0
DIMENSION
  5
3C6
100
AcDbEntity
  8
0
  6
CONTINUOUS
 62
     5
100
AcDbDimension
  2
*D7
 10
19434.678526
 20
-20234.475885
 30
0.0
 11
19218.428526
 21
-20221.975885
 31
0.0
 70
    32
  3
DIMSTYLE002
100
AcDbAlignedDimension
 13
19002.178526
 23
-20130.429081
 33
0.0
 14
19434.678526
 24
-20130.429081
 34
0.0
100
AcDbRotatedDimension
1001
ACAD
1000
DSTYLE
1002
{
1070
    43
1040
1000.0
1070
    73
1070
     0
1070
    74
1070
     0
1070
    77
1070
     1
1070
   277
1070
     2
1070
   172
1070
     1
1070
   174
1070
     1
1070
   179
1070
     1
1070
   287
1070
     3
1070
   289
1070
     3
1070
     5
1000
_ORIGIN
1002
}
  0
LINE
  5
3C7
100
AcDbEntity
  8
0
  6
CONTINUOUS
 62
     7
100
AcDbLine
 10
19304.678526
 20
-20518.57536
 30
0.0
 11
19279.640736
 21
-20592.57536
 31
0.0
  0
LINE
  5
3C8
100
AcDbEntity
  8
0
  6
CONTINUOUS
 62
     7
100
AcDbLine
 10
19564.678526
 20
-20518.57536
 30
0.0
 11
19590.02851
 21
-20592.57536
 31
0.0
  0
LINE
  5
3C9
100
AcDbEntity
  8
0
  6
CONTINUOUS
 62
     7
100
AcDbLine
 10
19304.678526
 20
-20518.57536
 30
0.0
 11
19304.678526
 21
-20488.57536
 31
0.0
  0
LINE
  5
3CA
100
AcDbEntity
  8
0
  6
CONTINUOUS
 62
     7
100
AcDbLine
 10
19564.678526
 20
-20518.57536
 30
0.0
 11
19564.678526
 21
-20488.57536
 31
0.0
  0
LINE
  5
3CB
100
AcDbEntity
  8
0
  6
CONTINUOUS
 62
     7
100
AcDbLine
 10
19305.678526
 20
-20518.133981
 30
0.0
 11
19305.678526
 21
-20488.57536
 31
0.0
  0
LINE
  5
3CC
100
AcDbEntity
  8
0
  6
CONTINUOUS
 62
     7
100
AcDbLine
 10
19563.678526
 20
-20518.133981
 30
0.0
 11
19563.678526
 21
-20488.57536
 31
0.0
  0
LINE
  5
3CD
100
AcDbEntity
  8
0
  6
CONTINUOUS
 62
     7
100
AcDbLine
 10
19305.620105
 20
-20519.130556
 30
0.0
 11
19305.678526
 21
-20518.133981
 31
0.0
  0
LINE
  5
3CE
100
AcDbEntity
  8
0
  6
CONTINUOUS
 62
     7
100
AcDbLine
 10
19563.736946
 20
-20519.130556
 30
0.0
 11
19563.678526
 21
-20518.133981
 31
0.0
  0
LINE
  5
3CF
100
AcDbEntity
  8
0
  6
CONTINUOUS
 62
     7
100
AcDbLine
 10
19304.678526
 20
-20488.57536
 30
0.0
 11
19305.678526
 21
-20488.57536
 31
0.0
  0
LINE
  5
3D0
100
AcDbEntity
  8
0
  6
CONTINUOUS
 62
     7
100
AcDbLine
 10
19563.678526
 20
-20488.57536
 30
0.0
 11
19564.678526
 21
-20488.57536
 31
0.0
  0
LINE
  5
3D1
100
AcDbEntity
  8
0
  6
CONTINUOUS
 62
     7
100
AcDbLine
 10
19002.528359
 20
-20593.57536
 30
0.0
 11
19867.178526
 21
-20593.57536
 31
0.0
  0
LINE
  5
3D2
100
AcDbEntity
  8
0
  6
CONTINUOUS
 62
     7
100
AcDbLine
 10
19305.678526
 20
-20488.57536
 30
0.0
 11
19563.678526
 21
-20488.57536
 31
0.0
  0
LINE
  5
3D3
100
AcDbEntity
  8
0
  6
CONTINUOUS
 62
     7
100
AcDbLine
 10
19563.736946
 20
-20519.130556
 30
0.0
 11
19305.620105
 21
-20519.130556
 31
0.0
  0
DIMENSION
  5
3DD
100
AcDbEntity
  8
0
  6
CONTINUOUS
 62
     5
100
AcDbDimension
  2
*D8
 10
18796.387506
 20
-20518.57536
 30
0.0
 11
18783.887506
 21
-20556.07536
 31
0.0
 70
    32
  3
DIMSTYLE001
100
AcDbAlignedDimension
 13
18900.434311
 23
-20593.57536
 33
0.0
 14
18900.434311
 24
-20518.57536
 34
0.0
 50
90.0
100
AcDbRotatedDimension
1001
ACAD
1000
DSTYLE
1002
{
1070
    43
1040
1000.0
1070
    73
1070
     0
1070
    74
1070
     0
1070
    77
1070
     1
1070
   277
1070
     2
1070
   172
1070
     1
1070
   174
1070
     1
1070
   179
1070
     0
1070
   287
1070
     3
1070
   289
1070
     3
1070
     5
1000
_ORIGIN
1002
}
  0
DIMENSION
  5
3E7
100
AcDbEntity
  8
0
  6
CONTINUOUS
 62
     5
100
AcDbDimension
  2
*D9
 10
18796.387506
 20
-20488.57536
 30
0.0
 11
18783.887506
 21
-20503.57536
 31
0.0
 70
    32
  3
DIMSTYLE001
100
AcDbAlignedDimension
 13
18900.434311
 23
-20518.57536
 33
0.0
 14
18900.434311
 24
-20488.57536
 34
0.0
 50
90.0
100
AcDbRotatedDimension
1001
ACAD
1000
DSTYLE
1002
{
1070
    43
1040
1000.0
1070
    73
1070
     0
1070
    74
1070
     0
1070
    77
1070
     1
1070
   277
1070
     2
1070
   172
1070
     1
1070
   174
1070
     1
1070
   179
1070
     0
1070
   287
1070
     3
1070
   289
1070
     3
1070
     5
1000
_ORIGIN
1002
}
  0
DIMENSION
  5
3F1
100
AcDbEntity
  8
0
  6
CONTINUOUS
 62
     5
100
AcDbDimension
  2
*D10
 10
18736.387506
 20
-20488.57536
 30
0.0
 11
18723.887506
 21
-20541.07536
 31
0.0
 70
    32
  3
DIMSTYLE001
100
AcDbAlignedDimension
 13
18840.434311
 23
-20593.57536
 33
0.0
 14
18840.434311
 24
-20488.57536
 34
0.0
 50
90.0
100
AcDbRotatedDimension
1001
ACAD
1000
DSTYLE
1002
{
1070
    43
1040
1000.0
1070
    73
1070
     0
1070
    74
1070
     0
1070
    77
1070
     1
1070
   277
1070
     2
1070
   172
1070
     1
1070
   174
1070
     1
1070
   179
1070
     0
1070
   287
1070
     3
1070
   289
1070
     3
1070
     5
1000
_ORIGIN
1002
}
  0
DIMENSION
  5
3FB
100
AcDbEntity
  8
0
  6
CONTINUOUS
 62
     5
100
AcDbDimension
  2
*D11
 10
19564.678526
 20
-20312.85376
 30
0.0
 11
19434.678526
 21
-20300.35376
 31
0.0
 70
    32
  3
DIMSTYLE001
100
AcDbAlignedDimension
 13
19304.678526
 23
-20394.9238
 33
0.0
 14
19564.678526
 24
-20394.9238
 34
0.0
100
AcDbRotatedDimension
1001
ACAD
1000
DSTYLE
1002
{
1070
    43
1040
1000.0
1070
    73
1070
     0
1070
    74
1070
     0
1070
    77
1070
     1
1070
   277
1070
     2
1070
   172
1070
     1
1070
   174
1070
     1
1070
   179
1070
     0
1070
   287
1070
     3
1070
   289
1070
     3
1070
     5
1000
_ORIGIN
1002
}
  0
DIMENSION
  5
405
100
AcDbEntity
  8
0
  6
CONTINUOUS
 62
     5
100
AcDbDimension
  2
*D12
 10
19867.178526
 20
-20755.98477
 30
0.0
 11
19434.678526
 21
-20743.48477
 31
0.0
 70
    32
  3
DIMSTYLE001
100
AcDbAlignedDimension
 13
19002.178526
 23
-20673.914729
 33
0.0
 14
19867.178526
 24
-20673.914729
 34
0.0
100
AcDbRotatedDimension
1001
ACAD
1000
DSTYLE
1002
{
1070
    43
1040
1000.0
1070
    73
1070
     0
1070
    74
1070
     0
1070
    77
1070
     1
1070
   277
1070
     2
1070
   172
1070
     1
1070
   174
1070
     1
1070
   179
1070
     0
1070
   287
1070
     3
1070
   289
1070
     3
1070
     5
1000
_ORIGIN
1002
}
  0
LINE
  5
406
100
AcDbEntity
  8
0
  6
CONTINUOUS
 62
     1
100
AcDbLine
 10
19866.209844
 20
-19342.509719
 30
0.0
 11
19003.237868
 21
-19342.509719
 31
0.0
  0
LINE
  5
407
100
AcDbEntity
  8
0
  6
CONTINUOUS
 62
     1
100
AcDbLine
 10
19866.209844
 20
-19350.506483
 30
0.0
 11
19003.237868
 21
-19350.506483
 31
0.0
  0
LINE
  5
408
100
AcDbEntity
  8
0
  6
CONTINUOUS
 62
     1
100
AcDbLine
 10
19866.209844
 20
-19357.614719
 30
0.0
 11
19003.237868
 21
-19357.614719
 31
0.0
  0
LINE
  5
409
100
AcDbEntity
  8
0
  6
CONTINUOUS
 62
     1
100
AcDbLine
 10
19866.209844
 20
-19365.611483
 30
0.0
 11
19003.237868
 21
-19365.611483
 31
0.0
  0
LINE
  5
40A
100
AcDbEntity
  8
0
  6
CONTINUOUS
 62
     1
100
AcDbLine
 10
19866.209844
 20
-19372.719719
 30
0.0
 11
19003.237868
 21
-19372.719719
 31
0.0
  0
LINE
  5
40B
100
AcDbEntity
  8
0
  6
CONTINUOUS
 62
     1
100
AcDbLine
 10
19866.255175
 20
-19379.827954
 30
0.0
 11
19003.283199
 21
-19379.827954
 31
0.0
  0
LINE
  5
40C
100
AcDbEntity
  8
0
  6
CONTINUOUS
 62
     1
100
AcDbLine
 10
19866.255175
 20
-19387.824719
 30
0.0
 11
19003.283199
 21
-19387.824719
 31
0.0
  0
LINE
  5
40D
100
AcDbEntity
  8
0
  6
CONTINUOUS
 62
     1
100
AcDbLine
 10
19866.255175
 20
-19394.932954
 30
0.0
 11
19003.283199
 21
-19394.932954
 31
0.0
  0
LINE
  5
40E
100
AcDbEntity
  8
0
  6
CONTINUOUS
 62
     1
100
AcDbLine
 10
19866.255175
 20
-19402.929719
 30
0.0
 11
19003.283199
 21
-19402.929719
 31
0.0
  0
DIMENSION
  5
418
100
AcDbEntity
  8
0
  6
CONTINUOUS
 62
     5
100
AcDbDimension
  2
*D13
 10
20078.947136
 20
-19596.184866
 30
0.0
 11
20066.447136
 21
-19809.934864
 31
0.0
 70
    32
  3
DIMSTYLE002
100
AcDbAlignedDimension
 13
20016.79835
 23
-20023.684862
 33
0.0
 14
20016.79835
 24
-19596.184866
 34
0.0
 50
90.0
100
AcDbRotatedDimension
1001
ACAD
1000
DSTYLE
1002
{
1070
    43
1040
1000.0
1070
    73
1070
     0
1070
    74
1070
     0
1070
    77
1070
     1
1070
   277
1070
     2
1070
   172
1070
     1
1070
   174
1070
     1
1070
   179
1070
     1
1070
   287
1070
     3
1070
   289
1070
     3
1070
     5
1000
_ORIGIN
1002
}
  0
DIMENSION
  5
422
100
AcDbEntity
  8
0
  6
CONTINUOUS
 62
     5
100
AcDbDimension
  2
*D14
 10
20078.947136
 20
-19168.684866
 30
0.0
 11
20066.447136
 21
-19382.434866
 31
0.0
 70
    32
  3
DIMSTYLE002
100
AcDbAlignedDimension
 13
20016.79835
 23
-19596.184866
 33
0.0
 14
20016.79835
 24
-19168.684866
 34
0.0
 50
90.0
100
AcDbRotatedDimension
1001
ACAD
1000
DSTYLE
1002
{
1070
    43
1040
1000.0
1070
    73
1070
     0
1070
    74
1070
     0
1070
    77
1070
     1
1070
   277
1070
     2
1070
   172
1070
     1
1070
   174
1070
     1
1070
   179
1070
     1
1070
   287
1070
     3
1070
   289
1070
     3
1070
     5
1000
_ORIGIN
1002
}
  0
LINE
  5
423
100
AcDbEntity
  8
0
  6
CONTINUOUS
 62
     7
100
AcDbLine
 10
19865.948543
 20
-20023.684862
 30
0.0
 11
19002.528359
 21
-20023.684862
 31
0.0
  0
LINE
  5
424
100
AcDbEntity
  8
0
  6
CONTINUOUS
 62
     7
100
AcDbLine
 10
19002.707013
 20
-19168.684866
 30
0.0
 11
19865.894022
 21
-19168.684866
 31
0.0
  0
CIRCLE
  5
425
100
AcDbEntity
  8
0
  6
CONTINUOUS
 62
     7
100
AcDbCircle
 10
19434.678526
 20
-19596.184866
 30
0.0
 40
130.0
  0
CIRCLE
  5
426
100
AcDbEntity
  8
0
  6
CONTINUOUS
 62
     7
100
AcDbCircle
 10
19434.678526
 20
-19596.184866
 30
0.0
 40
155.0
  0
LINE
  5
427
100
AcDbEntity
  8
0
  6
CONTINUOUS
 62
     7
100
AcDbLine
 10
19305.636856
 20
-20518.861022
 30
0.0
 11
19280.400659
 21
-20593.57536
 31
0.0
  0
LINE
  5
428
100
AcDbEntity
  8
0
  6
CONTINUOUS
 62
     7
100
AcDbLine
 10
19563.721158
 20
-20518.864233
 30
0.0
 11
19589.2721
 21
-20593.57536
 31
0.0
  0
CIRCLE
  5
429
100
AcDbEntity
  8
0
  6
CONTINUOUS
 62
     7
100
AcDbCircle
 10
19434.678526
 20
-19596.184866
 30
0.0
 40
129.0
  0
DIMENSION
  5
431
100
AcDbEntity
  8
0
  6
CONTINUOUS
 62
     5
100
AcDbDimension
  2
*D15
 10
19504.013107
 20
-19706.151751
 30
0.0
 11
19413.476673
 21
-19539.120965
 31
0.0
 70
   163
  3
DIMSTYLE001
100
AcDbDiametricDimension
 15
19365.343944
 25
-19486.217981
 35
0.0
 40
0.0
1001
ACAD
1000
DSTYLE
1002
{
1070
    43
1040
1000.0
1070
    73
1070
     0
1070
    74
1070
     0
1070
    77
1070
     1
1070
   277
1070
     2
1070
   172
1070
     1
1070
   174
1070
     1
1070
   179
1070
     0
1070
   279
1070
     2
1070
   287
1070
     5
1070
   289
1070
     0
1070
     5
1000
_ORIGIN
1002
}
  0
LINE
  5
432
100
AcDbEntity
  8
0
  6
CONTINUOUS
 62
     7
100
AcDbLine
 10
19002.528359
 20
-20592.57536
 30
0.0
 11
19279.640736
 21
-20592.57536
 31
0.0
  0
LINE
  5
433
100
AcDbEntity
  8
0
  6
CONTINUOUS
 62
     7
100
AcDbLine
 10
19590.02851
 20
-20592.57536
 30
0.0
 11
19867.178526
 21
-20592.57536
 31
0.0
  0
LINE
  5
434
100
AcDbEntity
  8
0
  6
CONTINUOUS
 62
     7
100
AcDbLine
 10
19002.528359
 20
-20593.57536
 30
0.0
 11
19002.528359
 21
-20592.57536
 31
0.0
  0
LINE
  5
435
100
AcDbEntity
  8
0
  6
CONTINUOUS
 62
     7
100
AcDbLine
 10
19867.178526
 20
-20592.57536
 30
0.0
 11
19867.178526
 21
-20593.57536
 31
0.0
  0
ENDSEC
  0
SECTION
  2
OBJECTS
  0
DICTIONARY
  5
19
100
AcDbDictionary
  3
ACAD_GROUP
350
1A
  3
ACAD_MLINESTYLE
350
1B
  0
DICTIONARY
  5
1A
102
{ACAD_REACTORS
330
19
102
}
100
AcDbDictionary
  0
DICTIONARY
  5
1B
102
{ACAD_REACTORS
330
19
102
}
100
AcDbDictionary
  3
STANDARD
350
1C
  0
MLINESTYLE
  5
1C
102
{ACAD_REACTORS
330
1B
102
}
100
AcDbMlineStyle
  2
STANDARD
 70
     0
  3

 62
     0
 51
90.0
 52
90.0
 71
     2
 49
0.5
 62
   256
  6
ByLayer
 49
-0.5
 62
   256
  6
ByLayer
  0
ENDSEC
  0
EOF
