  0
SECTION
  2
HEADER
  9
$ACADVER
  1
AC1015
  9
$ACADMAINTVER
 70
    20
  9
$DWGCODEPAGE
  3
ANSI_932
  9
$INSBASE
 10
0.0
 20
0.0
 30
0.0
  9
$EXTMIN
 10
39598.60533234916
 20
-7038.60882155228
 30
-0.0000000000000058
  9
$EXTMAX
 10
40516.65641125758
 20
-5623.003492098993
 30
0.0000000000000104
  9
$LIMMIN
 10
0.0
 20
0.0
  9
$LIMMAX
 10
0.0
 20
0.0
  9
$ORTHOMODE
 70
     0
  9
$REGENMODE
 70
     1
  9
$FILLMODE
 70
     1
  9
$QTEXTMODE
 70
     0
  9
$MIRRTEXT
 70
     0
  9
$LTSCALE
 40
12.7
  9
$ATTMODE
 70
     1
  9
$TEXTSIZE
 40
0.0
  9
$TRACEWID
 40
1.0
  9
$TEXTSTYLE
  7
STANDARD
  9
$CLAYER
  8
0
  9
$CELTYPE
  6
CONTINUOUS
  9
$CECOLOR
 62
     4
  9
$CELTSCALE
 40
1.0
  9
$DISPSILH
 70
     0
  9
$DIMSCALE
 40
1.0
  9
$DIMASZ
 40
5.0
  9
$DIMEXO
 40
0.0625
  9
$DIMDLI
 40
0.38
  9
$DIMRND
 40
0.0
  9
$DIMDLE
 40
0.0
  9
$DIMEXE
 40
0.18
  9
$DIMTP
 40
0.0
  9
$DIMTM
 40
0.0
  9
$DIMTXT
 40
12.5
  9
$DIMCEN
 40
0.09
  9
$DIMTSZ
 40
0.0
  9
$DIMTOL
 70
     0
  9
$DIMLIM
 70
     0
  9
$DIMTIH
 70
     0
  9
$DIMTOH
 70
     0
  9
$DIMSE1
 70
     0
  9
$DIMSE2
 70
     0
  9
$DIMTAD
 70
     1
  9
$DIMZIN
 70
     0
  9
$DIMBLK
  1
Origin
  9
$DIMASO
 70
     0
  9
$DIMSHO
 70
     1
  9
$DIMPOST
  1

  9
$DIMAPOST
  1

  9
$DIMALT
 70
     0
  9
$DIMALTD
 70
     2
  9
$DIMALTF
 40
25.4
  9
$DIMLFAC
 40
1.0
  9
$DIMTOFL
 70
     1
  9
$DIMTVP
 40
0.0
  9
$DIMTIX
 70
     1
  9
$DIMSOXD
 70
     1
  9
$DIMSAH
 70
     0
  9
$DIMBLK1
  1

  9
$DIMBLK2
  1

  9
$DIMSTYLE
  2
5.0
  9
$DIMCLRD
 70
     0
  9
$DIMCLRE
 70
     0
  9
$DIMCLRT
 70
     0
  9
$DIMTFAC
 40
1.0
  9
$DIMGAP
 40
0.09
  9
$DIMJUST
 70
     0
  9
$DIMSD1
 70
     0
  9
$DIMSD2
 70
     0
  9
$DIMTOLJ
 70
     1
  9
$DIMTZIN
 70
     0
  9
$DIMALTZ
 70
     0
  9
$DIMALTTZ
 70
     0
  9
$DIMUPT
 70
     0
  9
$DIMDEC
 70
     0
  9
$DIMTDEC
 70
     0
  9
$DIMALTU
 70
     2
  9
$DIMALTTD
 70
     2
  9
$DIMTXSTY
  7
STANDARD
  9
$DIMAUNIT
 70
     0
  9
$DIMADEC
 70
     0
  9
$DIMALTRND
 40
0.0
  9
$DIMAZIN
 70
     0
  9
$DIMDSEP
 70
    46
  9
$DIMATFIT
 70
     0
  9
$DIMFRAC
 70
     0
  9
$DIMLDRBLK
  1

  9
$DIMLUNIT
 70
     2
  9
$DIMLWD
 70
    -2
  9
$DIMLWE
 70
    -2
  9
$DIMTMOVE
 70
     2
  9
$LUNITS
 70
     2
  9
$LUPREC
 70
     4
  9
$SKETCHINC
 40
0.1
  9
$FILLETRAD
 40
1.0
  9
$AUNITS
 70
     0
  9
$AUPREC
 70
     0
  9
$MENU
  1
acad
  9
$ELEVATION
 40
0.0
  9
$PELEVATION
 40
0.0
  9
$THICKNESS
 40
0.0
  9
$LIMCHECK
 70
     0
  9
$CHAMFERA
 40
0.0
  9
$CHAMFERB
 40
0.0
  9
$CHAMFERC
 40
0.0
  9
$CHAMFERD
 40
0.0
  9
$SKPOLY
 70
     0
  9
$TDCREATE
 40
2455027.645046296
  9
$TDUCREATE
 40
2455027.270046296
  9
$TDUPDATE
 40
2455703.006048299
  9
$TDUUPDATE
 40
2455702.631048299
  9
$TDINDWG
 40
0.4900688889
  9
$TDUSRTIMER
 40
0.4900688889
  9
$USRTIMER
 70
     1
  9
$ANGBASE
 50
0.0
  9
$ANGDIR
 70
     0
  9
$PDMODE
 70
     1
  9
$PDSIZE
 40
-2.0
  9
$PLINEWID
 40
0.0
  9
$SPLFRAME
 70
     0
  9
$SPLINETYPE
 70
     6
  9
$SPLINESEGS
 70
     8
  9
$HANDSEED
  5
3B61
  9
$SURFTAB1
 70
     6
  9
$SURFTAB2
 70
     6
  9
$SURFTYPE
 70
     6
  9
$SURFU
 70
     6
  9
$SURFV
 70
     6
  9
$UCSBASE
  2

  9
$UCSNAME
  2

  9
$UCSORG
 10
0.0
 20
0.0
 30
0.0
  9
$UCSXDIR
 10
1.0
 20
0.0
 30
0.0
  9
$UCSYDIR
 10
0.0
 20
1.0
 30
0.0
  9
$UCSORTHOREF
  2

  9
$UCSORTHOVIEW
 70
     0
  9
$UCSORGTOP
 10
0.0
 20
0.0
 30
0.0
  9
$UCSORGBOTTOM
 10
0.0
 20
0.0
 30
0.0
  9
$UCSORGLEFT
 10
0.0
 20
0.0
 30
0.0
  9
$UCSORGRIGHT
 10
0.0
 20
0.0
 30
0.0
  9
$UCSORGFRONT
 10
0.0
 20
0.0
 30
0.0
  9
$UCSORGBACK
 10
0.0
 20
0.0
 30
0.0
  9
$PUCSBASE
  2

  9
$PUCSNAME
  2

  9
$PUCSORG
 10
0.0
 20
0.0
 30
0.0
  9
$PUCSXDIR
 10
1.0
 20
0.0
 30
0.0
  9
$PUCSYDIR
 10
0.0
 20
1.0
 30
0.0
  9
$PUCSORTHOREF
  2

  9
$PUCSORTHOVIEW
 70
     0
  9
$PUCSORGTOP
 10
0.0
 20
0.0
 30
0.0
  9
$PUCSORGBOTTOM
 10
0.0
 20
0.0
 30
0.0
  9
$PUCSORGLEFT
 10
0.0
 20
0.0
 30
0.0
  9
$PUCSORGRIGHT
 10
0.0
 20
0.0
 30
0.0
  9
$PUCSORGFRONT
 10
0.0
 20
0.0
 30
0.0
  9
$PUCSORGBACK
 10
0.0
 20
0.0
 30
0.0
  9
$USERI1
 70
     0
  9
$USERI2
 70
     0
  9
$USERI3
 70
     0
  9
$USERI4
 70
     0
  9
$USERI5
 70
     0
  9
$USERR1
 40
0.0
  9
$USERR2
 40
0.0
  9
$USERR3
 40
0.0
  9
$USERR4
 40
0.0
  9
$USERR5
 40
0.0
  9
$WORLDVIEW
 70
     1
  9
$SHADEDGE
 70
     3
  9
$SHADEDIF
 70
    70
  9
$TILEMODE
 70
     1
  9
$MAXACTVP
 70
    64
  9
$PINSBASE
 10
0.0
 20
0.0
 30
0.0
  9
$PLIMCHECK
 70
     0
  9
$PEXTMIN
 10
1.000000000000000E+20
 20
1.000000000000000E+20
 30
1.000000000000000E+20
  9
$PEXTMAX
 10
-1.000000000000000E+20
 20
-1.000000000000000E+20
 30
-1.000000000000000E+20
  9
$PLIMMIN
 10
0.0
 20
0.0
  9
$PLIMMAX
 10
12.0
 20
9.0
  9
$UNITMODE
 70
     0
  9
$VISRETAIN
 70
     1
  9
$PLINEGEN
 70
     0
  9
$PSLTSCALE
 70
     0
  9
$TREEDEPTH
 70
  3020
  9
$CMLSTYLE
  2
Standard
  9
$CMLJUST
 70
     0
  9
$CMLSCALE
 40
1.0
  9
$PROXYGRAPHICS
 70
     1
  9
$MEASUREMENT
 70
     0
  9
$CELWEIGHT
370
    -1
  9
$ENDCAPS
280
     0
  9
$JOINSTYLE
280
     0
  9
$LWDISPLAY
290
     0
  9
$INSUNITS
 70
     0
  9
$HYPERLINKBASE
  1

  9
$STYLESHEET
  1
hiroya.ctb
  9
$XEDIT
290
     1
  9
$CEPSNTYPE
380
     0
  9
$PSTYLEMODE
290
     1
  9
$FINGERPRINTGUID
  2
{27B06043-753D-4809-A7AC-1C9058A71DBE}
  9
$VERSIONGUID
  2
{E36DFF70-6540-4FF5-B667-2AE2F88DA2C2}
  9
$EXTNAMES
290
     1
  9
$PSVPSCALE
 40
0.0
  9
$OLESTARTUP
290
     0
  0
ENDSEC
  0
SECTION
  2
CLASSES
  0
CLASS
  1
ACDBDICTIONARYWDFLT
  2
AcDbDictionaryWithDefault
  3
ObjectDBX Classes
 90
        0
280
     0
281
     0
  0
CLASS
  1
TABLESTYLE
  2
AcDbTableStyle
  3
ObjectDBX Classes
 90
     4095
280
     0
281
     0
  0
CLASS
  1
DICTIONARYVAR
  2
AcDbDictionaryVar
  3
ObjectDBX Classes
 90
        0
280
     0
281
     0
  0
CLASS
  1
DIMASSOC
  2
AcDbDimAssoc
  3
"AcDbDimAssoc|Product Desc:     AcDim ARX App For Dimension|Company:          Autodesk, Inc.|WEB Address:      www.autodesk.com"
 90
        0
280
     0
281
     0
  0
CLASS
  1
MATERIAL
  2
AcDbMaterial
  3
ObjectDBX Classes
 90
     1153
280
     0
281
     0
  0
CLASS
  1
VISUALSTYLE
  2
AcDbVisualStyle
  3
ObjectDBX Classes
 90
     4095
280
     0
281
     0
  0
CLASS
  1
SCALE
  2
AcDbScale
  3
ObjectDBX Classes
 90
     1153
280
     0
281
     0
  0
CLASS
  1
MLEADERSTYLE
  2
AcDbMLeaderStyle
  3
ACDB_MLEADERSTYLE_CLASS
 90
     4095
280
     0
281
     0
  0
CLASS
  1
CELLSTYLEMAP
  2
AcDbCellStyleMap
  3
ObjectDBX Classes
 90
     1152
280
     0
281
     0
  0
CLASS
  1
ACDBPLACEHOLDER
  2
AcDbPlaceHolder
  3
ObjectDBX Classes
 90
        0
280
     0
281
     0
  0
CLASS
  1
LAYOUT
  2
AcDbLayout
  3
ObjectDBX Classes
 90
        0
280
     0
281
     0
  0
CLASS
  1
SORTENTSTABLE
  2
AcDbSortentsTable
  3
ObjectDBX Classes
 90
        0
280
     0
281
     0
  0
CLASS
  1
ACAD_EVALUATION_GRAPH
  2
AcDbEvalGraph
  3
ObjectDBX Classes
 90
    33921
280
     0
281
     0
  0
CLASS
  1
ACAECUSTOBJ
  2
AcAeEditorObj
  3
AcAeEditorObj
 90
    33792
280
     0
281
     0
  0
CLASS
  1
ACDB_DYNAMICBLOCKPURGEPREVENTER_VERSION
  2
AcDbDynamicBlockPurgePreventer
  3
ObjectDBX Classes
 90
    33921
280
     0
281
     0
  0
CLASS
  1
SOLID_BACKGROUND
  2
AcDbSolidBackground
  3
SCENEOE
 90
    36863
280
     0
281
     0
  0
CLASS
  1
NPOCOLLECTION
  2
AcDbImpNonPersistentObjectsCollection
  3
ObjectDBX Classes
 90
    33921
280
     0
281
     0
  0
ENDSEC
  0
SECTION
  2
TABLES
  0
TABLE
  2
VPORT
  5
8
102
{ACAD_XDICTIONARY
360
2D62
102
}
330
0
100
AcDbSymbolTable
 70
     1
  0
VPORT
  5
2C66
330
8
100
AcDbSymbolTableRecord
100
AcDbViewportTableRecord
  2
*Active
 70
     0
 10
0.0
 20
0.0
 11
1.0
 21
1.0
 12
40105.23445056088
 22
-6316.351623332139
 13
0.0
 23
0.0
 14
1.0
 24
1.0
 15
0.0
 25
0.0
 16
0.0
 26
0.0
 36
1.0
 17
0.0
 27
0.0
 37
0.0
 40
1462.387896648059
 41
1.682957393483708
 42
50.0
 43
0.0
 44
0.0
 50
0.0
 51
0.0
 71
     0
 72
   100
 73
     1
 74
     3
 75
     0
 76
     0
 77
     0
 78
     0
281
     0
 65
     1
110
0.0
120
0.0
130
0.0
111
1.0
121
0.0
131
0.0
112
0.0
122
1.0
132
0.0
 79
     0
146
0.0
  0
ENDTAB
  0
TABLE
  2
LTYPE
  5
5
330
0
100
AcDbSymbolTable
 70
     6
  0
LTYPE
  5
13
330
5
100
AcDbSymbolTableRecord
100
AcDbLinetypeTableRecord
  2
ByBlock
 70
     0
  3

 72
    65
 73
     0
 40
0.0
  0
LTYPE
  5
14
330
5
100
AcDbSymbolTableRecord
100
AcDbLinetypeTableRecord
  2
ByLayer
 70
     0
  3

 72
    65
 73
     0
 40
0.0
  0
LTYPE
  5
15
330
5
100
AcDbSymbolTableRecord
100
AcDbLinetypeTableRecord
  2
CONTINUOUS
 70
     0
  3
Solid line
 72
    65
 73
     0
 40
0.0
  0
LTYPE
  5
30
330
5
100
AcDbSymbolTableRecord
100
AcDbLinetypeTableRecord
  2
STYLE_06
 70
     0
  3

 72
    65
 73
     4
 40
4.16656
 49
2.5
 74
     0
 49
-0.8331199999999999
 74
     0
 49
0.2777200000000002
 74
     0
 49
-0.5557200000000001
 74
     0
  0
LTYPE
  5
3D
330
5
100
AcDbSymbolTableRecord
100
AcDbLinetypeTableRecord
  2
STYLE_19
 70
     0
  3

 72
    65
 73
     2
 40
0.3937007874015748
 49
0.1574803149606299
 74
     0
 49
-0.2362204724409449
 74
     0
  0
LTYPE
  5
31C7
330
5
100
AcDbSymbolTableRecord
100
AcDbLinetypeTableRecord
  2
HIDDEN
 70
     0
  3
------     -----------     -----
 72
    65
 73
     2
 40
3.75
 49
2.5
 74
     0
 49
-1.25
 74
     0
  0
ENDTAB
  0
TABLE
  2
LAYER
  5
2
330
0
100
AcDbSymbolTable
 70
     7
  0
LAYER
  5
10
102
{ACAD_XDICTIONARY
360
2CC0
102
}
330
2
100
AcDbSymbolTableRecord
100
AcDbLayerTableRecord
  2
0
 70
     0
 62
     7
  6
CONTINUOUS
370
    -3
390
F
  0
LAYER
  5
43
330
2
100
AcDbSymbolTableRecord
100
AcDbLayerTableRecord
  2
DEFPOINTS
 70
     0
 62
     7
  6
CONTINUOUS
290
     0
370
    -3
390
F
  0
LAYER
  5
44
102
{ACAD_XDICTIONARY
360
2CC2
102
}
330
2
100
AcDbSymbolTableRecord
100
AcDbLayerTableRecord
  2
__
 70
     0
 62
     7
  6
CONTINUOUS
370
    -3
390
F
  0
LAYER
  5
45
102
{ACAD_XDICTIONARY
360
2CC4
102
}
330
2
100
AcDbSymbolTableRecord
100
AcDbLayerTableRecord
  2
__-1
 70
     0
 62
     7
  6
CONTINUOUS
370
    -3
390
F
  0
LAYER
  5
5B5
102
{ACAD_XDICTIONARY
360
2D1C
102
}
330
2
100
AcDbSymbolTableRecord
100
AcDbLayerTableRecord
  2
_0-2_用紙フォ__マット_1_1_
 70
     0
 62
     7
  6
CONTINUOUS
370
    -3
390
F
  0
LAYER
  5
31C8
330
2
100
AcDbSymbolTableRecord
100
AcDbLayerTableRecord
  2
_0-D_13
 70
     0
 62
     7
  6
CONTINUOUS
370
    -3
390
F
  0
LAYER
  5
31C9
330
2
100
AcDbSymbolTableRecord
100
AcDbLayerTableRecord
  2
_0-E_14
 70
     0
 62
     7
  6
CONTINUOUS
370
    -3
390
F
  0
ENDTAB
  0
TABLE
  2
STYLE
  5
3
330
0
100
AcDbSymbolTable
 70
     3
  0
STYLE
  5
11
330
3
100
AcDbSymbolTableRecord
100
AcDbTextStyleTableRecord
  2
STANDARD
 70
     0
 40
0.0
 41
1.0
 50
0.0
 71
     0
 42
0.0
  3

  4

1001
ACAD
1000
MS Gothic
1071
    32817
  0
STYLE
  5
28
330
3
100
AcDbSymbolTableRecord
100
AcDbTextStyleTableRecord
  2
________
 70
     0
 40
0.0
 41
1.0
 50
0.0
 71
     0
 42
0.0
  3
ＭＳ Ｐゴシック
  4

  0
ENDTAB
  0
TABLE
  2
VIEW
  5
6
330
0
100
AcDbSymbolTable
 70
     0
  0
ENDTAB
  0
TABLE
  2
UCS
  5
7
330
0
100
AcDbSymbolTable
 70
     0
  0
ENDTAB
  0
TABLE
  2
APPID
  5
9
330
0
100
AcDbSymbolTable
 70
    21
  0
APPID
  5
12
330
9
100
AcDbSymbolTableRecord
100
AcDbRegAppTableRecord
  2
ACAD
 70
     0
  0
APPID
  5
564
330
9
100
AcDbSymbolTableRecord
100
AcDbRegAppTableRecord
  2
ACAD_PSEXT
 70
     0
  0
APPID
  5
5C4
330
9
100
AcDbSymbolTableRecord
100
AcDbRegAppTableRecord
  2
ACAD_DSTYLE_DIMTEXT_FILL
 70
     0
  0
APPID
  5
5C5
330
9
100
AcDbSymbolTableRecord
100
AcDbRegAppTableRecord
  2
ACAD_DSTYLE_DIMEXT_LENGTH
 70
     0
  0
APPID
  5
5C6
330
9
100
AcDbSymbolTableRecord
100
AcDbRegAppTableRecord
  2
ACAD_DSTYLE_DIMEXT_ENABLED
 70
     0
  0
APPID
  5
5C7
330
9
100
AcDbSymbolTableRecord
100
AcDbRegAppTableRecord
  2
ACAD_DSTYLE_DIM_LINETYPE
 70
     0
  0
APPID
  5
5C8
330
9
100
AcDbSymbolTableRecord
100
AcDbRegAppTableRecord
  2
ACAD_DSTYLE_DIM_EXT1_LINETYPE
 70
     0
  0
APPID
  5
5C9
330
9
100
AcDbSymbolTableRecord
100
AcDbRegAppTableRecord
  2
ACAD_DSTYLE_DIM_EXT2_LINETYPE
 70
     0
  0
APPID
  5
685
330
9
100
AcDbSymbolTableRecord
100
AcDbRegAppTableRecord
  2
ACAD_DSTYLE_DIMJOGGED_JOGANGLE_SYMBOL
 70
     0
  0
APPID
  5
F8E
330
9
100
AcDbSymbolTableRecord
100
AcDbRegAppTableRecord
  2
ACAD_DSTYLE_DIMARC_LENGTH_SYMBOL
 70
     0
  0
APPID
  5
2416
330
9
100
AcDbSymbolTableRecord
100
AcDbRegAppTableRecord
  2
ACAD_EXEMPT_FROM_CAD_STANDARDS
 70
     0
  0
APPID
  5
2422
330
9
100
AcDbSymbolTableRecord
100
AcDbRegAppTableRecord
  2
DCO15
 70
     0
  0
APPID
  5
2CB5
330
9
100
AcDbSymbolTableRecord
100
AcDbRegAppTableRecord
  2
ACAD_MLEADERVER
 70
     0
  0
APPID
  5
2F13
330
9
100
AcDbSymbolTableRecord
100
AcDbRegAppTableRecord
  2
ACAUTHENVIRON
 70
     0
  0
APPID
  5
2F16
330
9
100
AcDbSymbolTableRecord
100
AcDbRegAppTableRecord
  2
AcDbDynamicBlockTrueName
 70
     0
  0
APPID
  5
2F17
330
9
100
AcDbSymbolTableRecord
100
AcDbRegAppTableRecord
  2
AcDbDynamicBlockGUID
 70
     0
  0
APPID
  5
2F19
330
9
100
AcDbSymbolTableRecord
100
AcDbRegAppTableRecord
  2
AcDbBlockRepETag
 70
     0
  0
APPID
  5
3035
330
9
100
AcDbSymbolTableRecord
100
AcDbRegAppTableRecord
  2
ACAD_DSTYLE_DIMRADIAL_EXTENSION
 70
     0
  0
APPID
  5
34CF
330
9
100
AcDbSymbolTableRecord
100
AcDbRegAppTableRecord
  2
ACAD_DSTYLE_DIMJAG
 70
     0
  0
APPID
  5
34D0
330
9
100
AcDbSymbolTableRecord
100
AcDbRegAppTableRecord
  2
ACAD_DSTYLE_DIMBREAK
 70
     0
  0
APPID
  5
34D1
330
9
100
AcDbSymbolTableRecord
100
AcDbRegAppTableRecord
  2
ACAD_DSTYLE_DIMTALN
 70
     0
  0
ENDTAB
  0
TABLE
  2
DIMSTYLE
  5
A
330
0
100
AcDbSymbolTable
 70
     4
100
AcDbDimStyleTable
 71
     2
340
34D2
340
55E
  0
DIMSTYLE
105
55E
330
A
100
AcDbSymbolTableRecord
100
AcDbDimStyleTableRecord
  2
Standard
 70
     0
340
11
  0
DIMSTYLE
105
34D2
102
{ACAD_REACTORS
330
3072
330
3054
330
3036
330
3095
330
30AD
330
3548
330
35BB
330
3716
102
}
330
A
100
AcDbSymbolTableRecord
100
AcDbDimStyleTableRecord
  2
5.0
 70
     0
 41
5.0
 73
     0
 74
     0
 77
     1
140
12.5
172
     1
174
     1
175
     1
271
     0
272
     0
279
     2
289
     0
340
11
342
716
1001
ACAD_DSTYLE_DIMBREAK
1070
   391
1040
0.125
1001
ACAD_DSTYLE_DIMJAG
1070
   388
1040
1.5
1001
ACAD_DSTYLE_DIMTALN
1070
   392
1070
     0
1001
ACAD_DSTYLE_DIMEXT_LENGTH
1070
   378
1040
0.18
  0
ENDTAB
  0
TABLE
  2
BLOCK_RECORD
  5
1
330
0
100
AcDbSymbolTable
 70
    13
  0
BLOCK_RECORD
  5
22
102
{ACAD_XDICTIONARY
360
2EB9
102
}
330
1
100
AcDbSymbolTableRecord
100
AcDbBlockTableRecord
  2
*Model_Space
340
25
  0
BLOCK_RECORD
  5
1E
330
1
100
AcDbSymbolTableRecord
100
AcDbBlockTableRecord
  2
*Paper_Space
340
21
  0
BLOCK_RECORD
  5
576
330
1
100
AcDbSymbolTableRecord
100
AcDbBlockTableRecord
  2
-000-スカイマ__ク
340
0
102
{BLKREFS
331
5B7
102
}
  0
BLOCK_RECORD
  5
5B6
330
1
100
AcDbSymbolTableRecord
100
AcDbBlockTableRecord
  2
A$C19575CB4
340
0
102
{BLKREFS
331
38C7
102
}
  0
BLOCK_RECORD
  5
716
330
1
100
AcDbSymbolTableRecord
100
AcDbBlockTableRecord
  2
_Origin
340
0
102
{BLKREFS
331
36E5
331
36EB
331
36F1
331
36F8
331
36F9
331
36FE
331
36FF
331
3705
331
384D
331
3A3E
331
3A3F
331
3A47
331
3A48
331
3A50
331
3A51
331
3A59
331
3A5A
331
3A63
331
3A64
331
3A6B
331
3A6C
331
3A72
331
3A73
331
3A79
331
3A7A
102
}
  0
BLOCK_RECORD
  5
3037
330
1
100
AcDbSymbolTableRecord
100
AcDbBlockTableRecord
  2
*D3
340
0
  0
BLOCK_RECORD
  5
3055
330
1
100
AcDbSymbolTableRecord
100
AcDbBlockTableRecord
  2
*D4
340
0
  0
BLOCK_RECORD
  5
3073
330
1
100
AcDbSymbolTableRecord
100
AcDbBlockTableRecord
  2
*D5
340
0
  0
BLOCK_RECORD
  5
3096
330
1
100
AcDbSymbolTableRecord
100
AcDbBlockTableRecord
  2
*D6
340
0
  0
BLOCK_RECORD
  5
30AE
330
1
100
AcDbSymbolTableRecord
100
AcDbBlockTableRecord
  2
*D7
340
0
  0
BLOCK_RECORD
  5
3549
330
1
100
AcDbSymbolTableRecord
100
AcDbBlockTableRecord
  2
*D8
340
0
  0
BLOCK_RECORD
  5
35BC
330
1
100
AcDbSymbolTableRecord
100
AcDbBlockTableRecord
  2
*D9
340
0
  0
BLOCK_RECORD
  5
3717
330
1
100
AcDbSymbolTableRecord
100
AcDbBlockTableRecord
  2
*D10
340
0
  0
ENDTAB
  0
ENDSEC
  0
SECTION
  2
BLOCKS
  0
BLOCK
  5
73
330
22
100
AcDbEntity
  8
0
100
AcDbBlockBegin
  2
*Model_Space
 70
     0
 10
0.0
 20
0.0
 30
0.0
  3
*Model_Space
  1

  0
ENDBLK
  5
74
330
22
100
AcDbEntity
  8
0
100
AcDbBlockEnd
  0
BLOCK
  5
71
330
1E
100
AcDbEntity
 67
     1
  8
0
100
AcDbBlockBegin
  2
*Paper_Space
 70
     0
 10
0.0
 20
0.0
 30
0.0
  3
*Paper_Space
  1

  0
ENDBLK
  5
72
330
1E
100
AcDbEntity
 67
     1
  8
0
100
AcDbBlockEnd
  0
BLOCK
  5
577
330
576
100
AcDbEntity
  8
0
100
AcDbBlockBegin
  2
-000-スカイマ__ク
 70
     0
 10
0.0
 20
0.0
 30
0.0
  3
-000-スカイマ__ク
  1

  0
ARC
  5
578
330
576
100
AcDbEntity
  8
_0-2_用紙フォ__マット_1_1_
  6
Continuous
 62
     7
100
AcDbCircle
 10
133.0680179709315
 20
-9.50051108164871
 30
0.0
 40
134.9691882094957
100
AcDbArc
 50
45.66362800001292
 51
224.512358045018
  0
LINE
  5
579
330
576
100
AcDbEntity
  8
_0-2_用紙フォ__マット_1_1_
  6
Continuous
 62
     7
100
AcDbLine
 10
-120.0898831957659
 20
249.5907783936423
 30
0.0
 11
386.2259191376289
 21
249.5907783936423
 31
0.0
  0
LINE
  5
57A
330
576
100
AcDbEntity
  8
_0-2_用紙フォ__マット_1_1_
  6
Continuous
 62
     7
100
AcDbLine
 10
-120.0898831957659
 20
-268.5918005569408
 30
0.0
 11
-120.0898831957659
 21
249.5907783936423
 31
0.0
  0
ARC
  5
57B
330
576
100
AcDbEntity
  8
_0-2_用紙フォ__マット_1_1_
  6
Continuous
 62
     7
100
AcDbCircle
 10
133.0680179709315
 20
-9.50051108164871
 30
0.0
 40
134.9691882094957
100
AcDbArc
 50
224.512358045018
 51
225.6636280000132
  0
LINE
  5
57C
330
576
100
AcDbEntity
  8
_0-2_用紙フォ__マット_1_1_
  6
Continuous
 62
     7
100
AcDbLine
 10
-120.0898831957659
 20
239.5907783936423
 30
0.0
 11
376.4549267712164
 21
239.5907783936423
 31
0.0
  0
LINE
  5
57D
330
576
100
AcDbEntity
  8
_0-2_用紙フォ__マット_1_1_
  6
Continuous
 62
     7
100
AcDbLine
 10
-120.0898831957659
 20
229.5907783936423
 30
0.0
 11
366.6839344048049
 21
229.5907783936423
 31
0.0
  0
LINE
  5
57E
330
576
100
AcDbEntity
  8
_0-2_用紙フォ__マット_1_1_
  6
Continuous
 62
     7
100
AcDbLine
 10
-120.0898831957659
 20
219.5907783936423
 30
0.0
 11
356.9129420383922
 21
219.5907783936423
 31
0.0
  0
LINE
  5
57F
330
576
100
AcDbEntity
  8
_0-2_用紙フォ__マット_1_1_
  6
Continuous
 62
     7
100
AcDbLine
 10
-120.0898831957659
 20
209.5907783936423
 30
0.0
 11
347.1419496719807
 21
209.5907783936423
 31
0.0
  0
LINE
  5
580
330
576
100
AcDbEntity
  8
_0-2_用紙フォ__マット_1_1_
  6
Continuous
 62
     7
100
AcDbLine
 10
-120.0898831957659
 20
199.5907783936423
 30
0.0
 11
337.370957305568
 21
199.5907783936423
 31
0.0
  0
LINE
  5
581
330
576
100
AcDbEntity
  8
_0-2_用紙フォ__マット_1_1_
  6
Continuous
 62
     7
100
AcDbLine
 10
-120.0898831957659
 20
189.5907783936422
 30
0.0
 11
327.5999649391554
 21
189.5907783936422
 31
0.0
  0
LINE
  5
582
330
576
100
AcDbEntity
  8
_0-2_用紙フォ__マット_1_1_
  6
Continuous
 62
     7
100
AcDbLine
 10
-120.0898831957659
 20
179.5907783936423
 30
0.0
 11
317.8289725727438
 21
179.5907783936423
 31
0.0
  0
LINE
  5
583
330
576
100
AcDbEntity
  8
_0-2_用紙フォ__マット_1_1_
  6
Continuous
 62
     7
100
AcDbLine
 10
-120.0898831957659
 20
169.5907783936422
 30
0.0
 11
308.0579802063312
 21
169.5907783936422
 31
0.0
  0
LINE
  5
584
330
576
100
AcDbEntity
  8
_0-2_用紙フォ__マット_1_1_
  6
Continuous
 62
     7
100
AcDbLine
 10
-120.0898831957659
 20
159.5907783936422
 30
0.0
 11
298.2869878399197
 21
159.5907783936422
 31
0.0
  0
LINE
  5
585
330
576
100
AcDbEntity
  8
_0-2_用紙フォ__マット_1_1_
  6
Continuous
 62
     7
100
AcDbLine
 10
-120.0898831957659
 20
149.5907783936423
 30
0.0
 11
288.5159954735071
 21
149.5907783936423
 31
0.0
  0
LINE
  5
586
330
576
100
AcDbEntity
  8
_0-2_用紙フォ__マット_1_1_
  6
Continuous
 62
     7
100
AcDbLine
 10
-120.0898831957659
 20
139.5907783936422
 30
0.0
 11
278.7450031070944
 21
139.5907783936422
 31
0.0
  0
LINE
  5
587
330
576
100
AcDbEntity
  8
_0-2_用紙フォ__マット_1_1_
  6
Continuous
 62
     7
100
AcDbLine
 10
-120.0898831957659
 20
129.5907783936423
 30
0.0
 11
268.9740107406828
 21
129.5907783936423
 31
0.0
  0
LINE
  5
588
330
576
100
AcDbEntity
  8
_0-2_用紙フォ__マット_1_1_
  6
Continuous
 62
     7
100
AcDbLine
 10
386.2259191376289
 20
249.5907783936423
 30
0.0
 11
227.3938635959212
 21
87.03609655017544
 31
0.0
  0
LINE
  5
589
330
576
100
AcDbEntity
  8
_0-2_用紙フォ__マット_1_1_
  6
Continuous
 62
     7
100
AcDbLine
 10
-120.0898831957659
 20
-110.4092216063577
 30
0.0
 11
34.47019394678705
 21
-110.4092216063577
 31
0.0
  0
LINE
  5
58A
330
576
100
AcDbEntity
  8
_0-2_用紙フォ__マット_1_1_
  6
Continuous
 62
     7
100
AcDbLine
 10
-120.0898831957659
 20
-120.4092216063577
 30
0.0
 11
24.69920158037553
 21
-120.4092216063577
 31
0.0
  0
LINE
  5
58B
330
576
100
AcDbEntity
  8
_0-2_用紙フォ__マット_1_1_
  6
Continuous
 62
     7
100
AcDbLine
 10
-120.0898831957659
 20
-130.4092216063577
 30
0.0
 11
14.92820921396287
 21
-130.4092216063577
 31
0.0
  0
LINE
  5
58C
330
576
100
AcDbEntity
  8
_0-2_用紙フォ__マット_1_1_
  6
Continuous
 62
     7
100
AcDbLine
 10
-120.0898831957659
 20
-140.4092216063577
 30
0.0
 11
5.157216847551353
 21
-140.4092216063577
 31
0.0
  0
LINE
  5
58D
330
576
100
AcDbEntity
  8
_0-2_用紙フォ__マット_1_1_
  6
Continuous
 62
     7
100
AcDbLine
 10
-120.0898831957659
 20
-150.4092216063577
 30
0.0
 11
-4.613775518861302
 21
-150.4092216063577
 31
0.0
  0
LINE
  5
58E
330
576
100
AcDbEntity
  8
_0-2_用紙フォ__マット_1_1_
  6
Continuous
 62
     7
100
AcDbLine
 10
-120.0898831957659
 20
-160.4092216063577
 30
0.0
 11
-14.38476788527282
 21
-160.4092216063577
 31
0.0
  0
LINE
  5
58F
330
576
100
AcDbEntity
  8
_0-2_用紙フォ__マット_1_1_
  6
Continuous
 62
     7
100
AcDbLine
 10
-120.0898831957659
 20
-170.4092216063577
 30
0.0
 11
-24.15576025168548
 21
-170.4092216063577
 31
0.0
  0
LINE
  5
590
330
576
100
AcDbEntity
  8
_0-2_用紙フォ__マット_1_1_
  6
Continuous
 62
     7
100
AcDbLine
 10
-120.0898831957659
 20
-180.4092216063577
 30
0.0
 11
-33.926752618097
 21
-180.4092216063577
 31
0.0
  0
LINE
  5
591
330
576
100
AcDbEntity
  8
_0-2_用紙フォ__マット_1_1_
  6
Continuous
 62
     7
100
AcDbLine
 10
-120.0898831957659
 20
-190.4092216063577
 30
0.0
 11
-43.69774498450964
 21
-190.4092216063577
 31
0.0
  0
LINE
  5
592
330
576
100
AcDbEntity
  8
_0-2_用紙フォ__マット_1_1_
  6
Continuous
 62
     7
100
AcDbLine
 10
-120.0898831957659
 20
-200.4092216063577
 30
0.0
 11
-53.46873735092231
 21
-200.4092216063577
 31
0.0
  0
LINE
  5
593
330
576
100
AcDbEntity
  8
_0-2_用紙フォ__マット_1_1_
  6
Continuous
 62
     7
100
AcDbLine
 10
-120.0898831957659
 20
-210.4092216063577
 30
0.0
 11
-63.23972971733383
 21
-210.4092216063577
 31
0.0
  0
LINE
  5
594
330
576
100
AcDbEntity
  8
_0-2_用紙フォ__マット_1_1_
  6
Continuous
 62
     7
100
AcDbLine
 10
-120.0898831957659
 20
-220.4092216063577
 30
0.0
 11
-73.01072208374648
 21
-220.4092216063577
 31
0.0
  0
LINE
  5
595
330
576
100
AcDbEntity
  8
_0-2_用紙フォ__マット_1_1_
  6
Continuous
 62
     7
100
AcDbLine
 10
-120.0898831957659
 20
-230.4092216063577
 30
0.0
 11
-82.781714450158
 21
-230.4092216063577
 31
0.0
  0
LINE
  5
596
330
576
100
AcDbEntity
  8
_0-2_用紙フォ__マット_1_1_
  6
Continuous
 62
     7
100
AcDbLine
 10
-120.0898831957659
 20
-240.4092216063578
 30
0.0
 11
-92.55270681657066
 21
-240.4092216063578
 31
0.0
  0
LINE
  5
597
330
576
100
AcDbEntity
  8
_0-2_用紙フォ__マット_1_1_
  6
Continuous
 62
     7
100
AcDbLine
 10
-120.0898831957659
 20
-250.4092216063577
 30
0.0
 11
-102.3236991829822
 21
-250.4092216063577
 31
0.0
  0
LINE
  5
598
330
576
100
AcDbEntity
  8
_0-2_用紙フォ__マット_1_1_
  6
Continuous
 62
     7
100
AcDbLine
 10
-120.0898831957659
 20
-260.4092216063577
 30
0.0
 11
-112.0946915493948
 21
-260.4092216063577
 31
0.0
  0
LINE
  5
599
330
576
100
AcDbEntity
  8
_0-2_用紙フォ__マット_1_1_
  6
Continuous
 62
     7
100
AcDbLine
 10
38.76121358372757
 20
-106.0176311966768
 30
0.0
 11
-120.0898831957659
 21
-268.5918005569408
 31
0.0
  0
LINE
  5
59A
330
576
100
AcDbEntity
  8
_0-2_用紙フォ__マット_1_1_
  6
Continuous
 62
     7
100
AcDbLine
 10
-120.0898831957659
 20
-100.4092216063577
 30
0.0
 11
33.30686262144241
 21
-100.4092216063577
 31
0.0
  0
LINE
  5
59B
330
576
100
AcDbEntity
  8
_0-2_用紙フォ__マット_1_1_
  6
Continuous
 62
     7
100
AcDbLine
 10
-120.0898831957659
 20
-90.40922160635773
 30
0.0
 11
25.03810393246227
 21
-90.40922160635773
 31
0.0
  0
LINE
  5
59C
330
576
100
AcDbEntity
  8
_0-2_用紙フォ__マット_1_1_
  6
Continuous
 62
     7
100
AcDbLine
 10
-120.0898831957659
 20
-80.40922160635773
 30
0.0
 11
18.22622881013331
 21
-80.40922160635773
 31
0.0
  0
LINE
  5
59D
330
576
100
AcDbEntity
  8
_0-2_用紙フォ__マット_1_1_
  6
Continuous
 62
     7
100
AcDbLine
 10
-120.0898831957659
 20
-70.40922160635773
 30
0.0
 11
12.62379541066252
 21
-70.40922160635773
 31
0.0
  0
LINE
  5
59E
330
576
100
AcDbEntity
  8
_0-2_用紙フォ__マット_1_1_
  6
Continuous
 62
     7
100
AcDbLine
 10
-120.0898831957659
 20
-60.40922160635773
 30
0.0
 11
8.068078136379881
 21
-60.40922160635773
 31
0.0
  0
LINE
  5
59F
330
576
100
AcDbEntity
  8
_0-2_用紙フォ__マット_1_1_
  6
Continuous
 62
     7
100
AcDbLine
 10
-120.0898831957659
 20
-50.40922160635773
 30
0.0
 11
4.447805060457312
 21
-50.40922160635773
 31
0.0
  0
LINE
  5
5A0
330
576
100
AcDbEntity
  8
_0-2_用紙フォ__マット_1_1_
  6
Continuous
 62
     7
100
AcDbLine
 10
-120.0898831957659
 20
-40.40922160635772
 30
0.0
 11
1.685624250806085
 21
-40.40922160635772
 31
0.0
  0
LINE
  5
5A1
330
576
100
AcDbEntity
  8
_0-2_用紙フォ__マット_1_1_
  6
Continuous
 62
     7
100
AcDbLine
 10
-120.0898831957659
 20
-30.40922160635773
 30
0.0
 11
-0.2718020009137944
 21
-30.40922160635773
 31
0.0
  0
LINE
  5
5A2
330
576
100
AcDbEntity
  8
_0-2_用紙フォ__マット_1_1_
  6
Continuous
 62
     7
100
AcDbLine
 10
-120.0898831957659
 20
-20.40922160635773
 30
0.0
 11
-1.459606703773488
 21
-20.40922160635773
 31
0.0
  0
LINE
  5
5A3
330
576
100
AcDbEntity
  8
_0-2_用紙フォ__マット_1_1_
  6
Continuous
 62
     7
100
AcDbLine
 10
-120.0898831957659
 20
-10.40922160635773
 30
0.0
 11
-1.898111154537218
 21
-10.40922160635773
 31
0.0
  0
LINE
  5
5A4
330
576
100
AcDbEntity
  8
_0-2_用紙フォ__マット_1_1_
  6
Continuous
 62
     7
100
AcDbLine
 10
-120.0898831957659
 20
-0.4092216063577326
 30
0.0
 11
-1.594635432329596
 21
-0.4092216063577326
 31
0.0
  0
LINE
  5
5A5
330
576
100
AcDbEntity
  8
_0-2_用紙フォ__マット_1_1_
  6
Continuous
 62
     7
100
AcDbLine
 10
-120.0898831957659
 20
9.590778393642269
 30
0.0
 11
-0.5441238130435976
 21
9.590778393642269
 31
0.0
  0
LINE
  5
5A6
330
576
100
AcDbEntity
  8
_0-2_用紙フォ__マット_1_1_
  6
Continuous
 62
     7
100
AcDbLine
 10
-120.0898831957659
 20
19.59077839364226
 30
0.0
 11
1.271285679895299
 21
19.59077839364226
 31
0.0
  0
LINE
  5
5A7
330
576
100
AcDbEntity
  8
_0-2_用紙フォ__マット_1_1_
  6
Continuous
 62
     7
100
AcDbLine
 10
-120.0898831957659
 20
29.59077839364227
 30
0.0
 11
3.883836071253199
 21
29.59077839364227
 31
0.0
  0
LINE
  5
5A8
330
576
100
AcDbEntity
  8
_0-2_用紙フォ__マット_1_1_
  6
Continuous
 62
     7
100
AcDbLine
 10
-120.0898831957659
 20
39.59077839364226
 30
0.0
 11
7.343211096617778
 21
39.59077839364226
 31
0.0
  0
LINE
  5
5A9
330
576
100
AcDbEntity
  8
_0-2_用紙フォ__マット_1_1_
  6
Continuous
 62
     7
100
AcDbLine
 10
-120.0898831957659
 20
49.59077839364225
 30
0.0
 11
11.72181376957383
 21
49.59077839364225
 31
0.0
  0
LINE
  5
5AA
330
576
100
AcDbEntity
  8
_0-2_用紙フォ__マット_1_1_
  6
Continuous
 62
     7
100
AcDbLine
 10
-120.0898831957659
 20
59.59077839364225
 30
0.0
 11
17.12374047276512
 21
59.59077839364225
 31
0.0
  0
LINE
  5
5AB
330
576
100
AcDbEntity
  8
_0-2_用紙フォ__マット_1_1_
  6
Continuous
 62
     7
100
AcDbLine
 10
-120.0898831957659
 20
69.59077839364225
 30
0.0
 11
23.70051962217189
 21
69.59077839364225
 31
0.0
  0
LINE
  5
5AC
330
576
100
AcDbEntity
  8
_0-2_用紙フォ__マット_1_1_
  6
Continuous
 62
     7
100
AcDbLine
 10
-120.0898831957659
 20
79.59077839364226
 30
0.0
 11
31.68052413880105
 21
79.59077839364226
 31
0.0
  0
LINE
  5
5AD
330
576
100
AcDbEntity
  8
_0-2_用紙フォ__マット_1_1_
  6
Continuous
 62
     7
100
AcDbLine
 10
-120.0898831957659
 20
89.59077839364226
 30
0.0
 11
41.42960835981739
 21
89.59077839364226
 31
0.0
  0
LINE
  5
5AE
330
576
100
AcDbEntity
  8
_0-2_用紙フォ__マット_1_1_
  6
Continuous
 62
     7
100
AcDbLine
 10
-120.0898831957659
 20
99.59077839364226
 30
0.0
 11
53.59618442879877
 21
99.59077839364226
 31
0.0
  0
LINE
  5
5AF
330
576
100
AcDbEntity
  8
_0-2_用紙フォ__マット_1_1_
  6
Continuous
 62
     7
100
AcDbLine
 10
-120.0898831957659
 20
109.5907783936422
 30
0.0
 11
69.55466081637155
 21
109.5907783936422
 31
0.0
  0
LINE
  5
5B0
330
576
100
AcDbEntity
  8
_0-2_用紙フォ__マット_1_1_
  6
Continuous
 62
     7
100
AcDbLine
 10
-120.0898831957659
 20
119.5907783936422
 30
0.0
 11
93.67105428669674
 21
119.5907783936422
 31
0.0
  0
LINE
  5
5B1
330
576
100
AcDbEntity
  8
_0-2_用紙フォ__マット_1_1_
  6
Continuous
 62
     7
100
AcDbLine
 10
172.4649816551664
 20
119.5907783936422
 30
0.0
 11
259.2030183742702
 21
119.5907783936422
 31
0.0
  0
LINE
  5
5B2
330
576
100
AcDbEntity
  8
_0-2_用紙フォ__マット_1_1_
  6
Continuous
 62
     7
100
AcDbLine
 10
196.5813751254916
 20
109.5907783936422
 30
0.0
 11
249.4320260078587
 21
109.5907783936422
 31
0.0
  0
LINE
  5
5B3
330
576
100
AcDbEntity
  8
_0-2_用紙フォ__マット_1_1_
  6
Continuous
 62
     7
100
AcDbLine
 10
212.5398515130656
 20
99.59077839364226
 30
0.0
 11
239.661033641446
 21
99.59077839364226
 31
0.0
  0
ENDBLK
  5
5B4
330
576
100
AcDbEntity
  8
0
100
AcDbBlockEnd
  0
BLOCK
  5
5B8
330
5B6
100
AcDbEntity
  8
0
100
AcDbBlockBegin
  2
A$C19575CB4
 70
     0
 10
0.0
 20
0.0
 30
0.0
  3
A$C19575CB4
  1

  0
INSERT
  5
5B7
330
5B6
100
AcDbEntity
  8
_0-2_用紙フォ__マット_1_1_
100
AcDbBlockReference
  2
-000-スカイマ__ク
 10
-26.61360359418632
 20
1.900102216329742
 30
0.0
 41
0.2000000000000455
 42
0.2000000000000455
  0
ENDBLK
  5
5B9
330
5B6
100
AcDbEntity
  8
0
100
AcDbBlockEnd
  0
BLOCK
  5
719
330
716
100
AcDbEntity
  8
0
100
AcDbBlockBegin
  2
_Origin
 70
     0
 10
0.0
 20
0.0
 30
0.0
  3
_Origin
  1

  0
CIRCLE
  5
717
330
716
100
AcDbEntity
  8
0
  6
ByBlock
 62
     0
370
    -2
100
AcDbCircle
 10
0.0
 20
0.0
 30
0.0
 40
0.5
  0
LINE
  5
718
330
716
100
AcDbEntity
  8
0
  6
ByBlock
 62
     0
370
    -2
100
AcDbLine
 10
0.0
 20
0.0
 30
0.0
 11
-1.0
 21
0.0
 31
0.0
  0
ENDBLK
  5
71A
330
716
100
AcDbEntity
  8
0
100
AcDbBlockEnd
  0
BLOCK
  5
3038
330
3037
100
AcDbEntity
  8
0
 62
     4
100
AcDbBlockBegin
  2
*D3
 70
     1
 10
0.0
 20
0.0
 30
0.0
  3
*D3
  1

  0
LINE
  5
3A76
330
3037
100
AcDbEntity
  8
0
  6
Continuous
 62
     0
370
    -2
100
AcDbLine
 10
39912.18695346891
 20
-6207.170617203129
 30
0.0
 11
40107.59618009216
 21
-5901.732513403709
 31
0.0
  0
LINE
  5
3A77
330
3037
100
AcDbEntity
  8
0
  6
Continuous
 62
     0
370
    -2
100
AcDbLine
 10
40183.799843932
 20
-5782.620929022478
 30
0.0
 11
40124.72233467508
 21
-5874.963152142854
 31
0.0
  0
MTEXT
  5
3A78
102
{ACAD_XDICTIONARY
360
3B5F
102
}
330
3037
100
AcDbEntity
  8
0
  6
Continuous
 62
     0
100
AcDbMText
 10
40116.15925738361
 20
-5888.347832773266
 30
0.0
 40
12.5
 41
0.0
 71
     5
 72
     1
  1
\A1;\U+2205514
 11
0.5389144652045396
 21
0.8423604924219233
 31
0.0
 73
     1
 44
1.0
1001
ACAD
1000
MTEXTBEGIN
1070
    73
1070
     1
1070
    44
1040
1.0
1070
    74
1070
     0
1000
MTEXTEND
  0
INSERT
  5
3A79
330
3037
100
AcDbEntity
  8
0
  6
Continuous
 62
     0
370
    -2
100
AcDbBlockReference
  2
_Origin
 10
39909.49238114289
 20
-6211.382419665237
 30
0.0
 41
5.0
 42
5.0
 43
5.0
 50
237.3902276757756
  0
INSERT
  5
3A7A
330
3037
100
AcDbEntity
  8
0
  6
Continuous
 62
     0
370
    -2
100
AcDbBlockReference
  2
_Origin
 10
40186.49441625802
 20
-5778.409126560369
 30
0.0
 41
5.0
 42
5.0
 43
5.0
 50
57.39022767577555
  0
POINT
  5
3A7B
330
3037
100
AcDbEntity
  8
DEFPOINTS
  6
Continuous
 62
     0
100
AcDbPoint
 10
40186.49441625802
 20
-5778.409126560369
 30
0.0
  0
POINT
  5
3A7C
330
3037
100
AcDbEntity
  8
DEFPOINTS
  6
Continuous
 62
     0
100
AcDbPoint
 10
39909.49238114289
 20
-6211.382419665237
 30
0.0
  0
ENDBLK
  5
3039
330
3037
100
AcDbEntity
  8
0
 62
     4
100
AcDbBlockEnd
  0
BLOCK
  5
3056
330
3055
100
AcDbEntity
  8
0
 62
     4
100
AcDbBlockBegin
  2
*D4
 70
     1
 10
0.0
 20
0.0
 30
0.0
  3
*D4
  1

  0
LINE
  5
3A68
330
3055
100
AcDbEntity
  8
0
  6
Continuous
 62
     0
370
    -2
100
AcDbLine
 10
39833.19812284608
 20
-6141.398296881576
 30
0.0
 11
40141.39313911161
 21
-5931.191868847891
 31
0.0
  0
LINE
  5
3A69
330
3055
100
AcDbEntity
  8
0
  6
Continuous
 62
     0
370
    -2
100
AcDbLine
 10
40262.78867455486
 20
-5848.393249344004
 30
0.0
 11
40167.59447241359
 21
-5913.321077977009
 31
0.0
  0
MTEXT
  5
3A6A
102
{ACAD_XDICTIONARY
360
3B5B
102
}
330
3055
100
AcDbEntity
  8
0
  6
Continuous
 62
     0
100
AcDbMText
 10
40154.49380576259
 20
-5922.256473412454
 30
0.0
 40
12.5
 41
0.0
 71
     5
 72
     1
  1
\A1;\U+2205530
 11
0.8261356763631159
 21
0.5634712452646158
 31
0.0
 73
     1
 44
1.0
1001
ACAD
1000
MTEXTBEGIN
1070
    73
1070
     1
1070
    44
1040
1.0
1070
    74
1070
     0
1000
MTEXTEND
  0
INSERT
  5
3A6B
330
3055
100
AcDbEntity
  8
0
  6
Continuous
 62
     0
370
    -2
100
AcDbBlockReference
  2
_Origin
 10
39829.06744446427
 20
-6144.215653107899
 30
0.0
 41
5.0
 42
5.0
 43
5.0
 50
214.2961990623406
  0
INSERT
  5
3A6C
330
3055
100
AcDbEntity
  8
0
  6
Continuous
 62
     0
370
    -2
100
AcDbBlockReference
  2
_Origin
 10
40266.91935293667
 20
-5845.575893117679
 30
0.0
 41
5.0
 42
5.0
 43
5.0
 50
34.29619906234056
  0
POINT
  5
3A6D
330
3055
100
AcDbEntity
  8
DEFPOINTS
  6
Continuous
 62
     0
100
AcDbPoint
 10
40266.91935293667
 20
-5845.575893117679
 30
0.0
  0
POINT
  5
3A6E
330
3055
100
AcDbEntity
  8
DEFPOINTS
  6
Continuous
 62
     0
100
AcDbPoint
 10
39829.06744446427
 20
-6144.215653107899
 30
0.0
  0
ENDBLK
  5
3057
330
3055
100
AcDbEntity
  8
0
 62
     4
100
AcDbBlockEnd
  0
BLOCK
  5
3074
330
3073
100
AcDbEntity
  8
0
 62
     4
100
AcDbBlockBegin
  2
*D5
 70
     1
 10
0.0
 20
0.0
 30
0.0
  3
*D5
  1

  0
LINE
  5
3A6F
330
3073
100
AcDbEntity
  8
0
  6
Continuous
 62
     0
370
    -2
100
AcDbLine
 10
39782.23460015515
 20
-6063.616301310469
 30
0.0
 11
40170.17465017602
 21
-5963.3018609518
 31
0.0
  0
LINE
  5
3A70
330
3073
100
AcDbEntity
  8
0
  6
Continuous
 62
     0
370
    -2
100
AcDbLine
 10
40313.75219724573
 20
-5926.175244915139
 30
0.0
 11
40200.57307496406
 21
-5955.441365573113
 31
0.0
  0
MTEXT
  5
3A71
102
{ACAD_XDICTIONARY
360
3B5D
102
}
330
3073
100
AcDbEntity
  8
0
  6
Continuous
 62
     0
100
AcDbMText
 10
40185.37386257004
 20
-5959.371613262455
 30
0.0
 40
12.5
 41
0.0
 71
     5
 72
     1
  1
\A1;\U+2205559
 11
0.9681559145547788
 21
0.2503480080060548
 31
0.0
 73
     1
 44
1.0
1001
ACAD
1000
MTEXTBEGIN
1070
    73
1070
     1
1070
    44
1040
1.0
1070
    74
1070
     0
1000
MTEXTEND
  0
INSERT
  5
3A72
330
3073
100
AcDbEntity
  8
0
  6
Continuous
 62
     0
370
    -2
100
AcDbBlockReference
  2
_Origin
 10
39777.39382058237
 20
-6064.868041350499
 30
0.0
 41
5.0
 42
5.0
 43
5.0
 50
194.4981064554379
  0
INSERT
  5
3A73
330
3073
100
AcDbEntity
  8
0
  6
Continuous
 62
     0
370
    -2
100
AcDbBlockReference
  2
_Origin
 10
40318.59297681851
 20
-5924.923504875109
 30
0.0
 41
5.0
 42
5.0
 43
5.0
 50
14.49810645543793
  0
POINT
  5
3A74
330
3073
100
AcDbEntity
  8
DEFPOINTS
  6
Continuous
 62
     0
100
AcDbPoint
 10
40318.59297681851
 20
-5924.923504875109
 30
0.0
  0
POINT
  5
3A75
330
3073
100
AcDbEntity
  8
DEFPOINTS
  6
Continuous
 62
     0
100
AcDbPoint
 10
39777.39382058237
 20
-6064.868041350499
 30
0.0
  0
ENDBLK
  5
3075
330
3073
100
AcDbEntity
  8
0
 62
     4
100
AcDbBlockEnd
  0
BLOCK
  5
3097
330
3096
100
AcDbEntity
  8
0
 62
     4
100
AcDbBlockBegin
  2
*D6
 70
     1
 10
0.0
 20
0.0
 30
0.0
  3
*D6
  1

  0
LINE
  5
3A3B
330
3096
100
AcDbEntity
  8
0
  6
Continuous
 62
     0
370
    -2
100
AcDbLine
 10
39768.49339870045
 20
-6498.134445646357
 30
0.0
 11
39768.49339870045
 21
-6397.543267812707
 31
0.0
  0
LINE
  5
3A3C
330
3096
100
AcDbEntity
  8
0
  6
Continuous
 62
     0
370
    -2
100
AcDbLine
 10
40327.49339870044
 20
-6498.134445646359
 30
0.0
 11
40327.49339870044
 21
-6397.543267812707
 31
0.0
  0
LINE
  5
3A3D
330
3096
100
AcDbEntity
  8
0
  6
Continuous
 62
     0
370
    -2
100
AcDbLine
 10
39773.49339870045
 20
-6397.723267812708
 30
0.0
 11
40322.49339870045
 21
-6397.723267812708
 31
0.0
  0
INSERT
  5
3A3E
330
3096
100
AcDbEntity
  8
0
  6
Continuous
 62
     0
370
    -2
100
AcDbBlockReference
  2
_Origin
 10
39768.49339870045
 20
-6397.723267812708
 30
0.0
 41
5.0
 42
5.0
 43
5.0
 50
180.0
  0
INSERT
  5
3A3F
330
3096
100
AcDbEntity
  8
0
  6
Continuous
 62
     0
370
    -2
100
AcDbBlockReference
  2
_Origin
 10
40327.49339870044
 20
-6397.723267812708
 30
0.0
 41
5.0
 42
5.0
 43
5.0
  0
MTEXT
  5
3A40
330
3096
100
AcDbEntity
  8
0
  6
Continuous
 62
     0
100
AcDbMText
 10
40047.99339870045
 20
-6391.383267812707
 30
0.0
 40
12.5
 41
0.0
 71
     5
 72
     1
  1
\A1;559
 73
     1
 44
1.0
1001
ACAD
1000
MTEXTBEGIN
1070
    73
1070
     1
1070
    44
1040
1.0
1070
    74
1070
     0
1000
MTEXTEND
  0
POINT
  5
3A41
330
3096
100
AcDbEntity
  8
DEFPOINTS
  6
Continuous
 62
     0
100
AcDbPoint
 10
39768.49339870045
 20
-6498.196945646357
 30
0.0
  0
POINT
  5
3A42
330
3096
100
AcDbEntity
  8
DEFPOINTS
  6
Continuous
 62
     0
100
AcDbPoint
 10
40327.49339870044
 20
-6498.196945646359
 30
0.0
  0
POINT
  5
3A43
330
3096
100
AcDbEntity
  8
DEFPOINTS
  6
Continuous
 62
     0
100
AcDbPoint
 10
40327.49339870044
 20
-6397.723267812708
 30
0.0
  0
ENDBLK
  5
3098
330
3096
100
AcDbEntity
  8
0
 62
     4
100
AcDbBlockEnd
  0
BLOCK
  5
30AF
330
30AE
100
AcDbEntity
  8
0
 62
     4
100
AcDbBlockBegin
  2
*D7
 70
     1
 10
0.0
 20
0.0
 30
0.0
  3
*D7
  1

  0
LINE
  5
3A44
330
30AE
100
AcDbEntity
  8
0
  6
Continuous
 62
     0
370
    -2
100
AcDbLine
 10
39782.99339870044
 20
-6528.079182242675
 30
0.0
 11
39782.99339870044
 21
-6567.552884910927
 31
0.0
  0
LINE
  5
3A45
330
30AE
100
AcDbEntity
  8
0
  6
Continuous
 62
     0
370
    -2
100
AcDbLine
 10
40312.99339870044
 20
-6528.079182242709
 30
0.0
 11
40312.99339870044
 21
-6567.552884910927
 31
0.0
  0
LINE
  5
3A46
330
30AE
100
AcDbEntity
  8
0
  6
Continuous
 62
     0
370
    -2
100
AcDbLine
 10
39787.99339870044
 20
-6567.372884910927
 30
0.0
 11
40307.99339870045
 21
-6567.372884910927
 31
0.0
  0
INSERT
  5
3A47
330
30AE
100
AcDbEntity
  8
0
  6
Continuous
 62
     0
370
    -2
100
AcDbBlockReference
  2
_Origin
 10
39782.99339870044
 20
-6567.372884910927
 30
0.0
 41
5.0
 42
5.0
 43
5.0
 50
180.0
  0
INSERT
  5
3A48
330
30AE
100
AcDbEntity
  8
0
  6
Continuous
 62
     0
370
    -2
100
AcDbBlockReference
  2
_Origin
 10
40312.99339870044
 20
-6567.372884910927
 30
0.0
 41
5.0
 42
5.0
 43
5.0
  0
MTEXT
  5
3A49
330
30AE
100
AcDbEntity
  8
0
  6
Continuous
 62
     0
100
AcDbMText
 10
40047.99339870045
 20
-6561.032884910926
 30
0.0
 40
12.5
 41
0.0
 71
     5
 72
     1
  1
\A1;530
 73
     1
 44
1.0
1001
ACAD
1000
MTEXTBEGIN
1070
    73
1070
     1
1070
    44
1040
1.0
1070
    74
1070
     0
1000
MTEXTEND
  0
POINT
  5
3A4A
330
30AE
100
AcDbEntity
  8
DEFPOINTS
  6
Continuous
 62
     0
100
AcDbPoint
 10
39782.99339870044
 20
-6528.016682242675
 30
0.0
  0
POINT
  5
3A4B
330
30AE
100
AcDbEntity
  8
DEFPOINTS
  6
Continuous
 62
     0
100
AcDbPoint
 10
40312.99339870044
 20
-6528.016682242709
 30
0.0
  0
POINT
  5
3A4C
330
30AE
100
AcDbEntity
  8
DEFPOINTS
  6
Continuous
 62
     0
100
AcDbPoint
 10
40312.99339870044
 20
-6567.372884910927
 30
0.0
  0
ENDBLK
  5
30B0
330
30AE
100
AcDbEntity
  8
0
 62
     4
100
AcDbBlockEnd
  0
BLOCK
  5
354A
330
3549
100
AcDbEntity
  8
0
 62
     4
100
AcDbBlockBegin
  2
*D8
 70
     1
 10
0.0
 20
0.0
 30
0.0
  3
*D8
  1

  0
LINE
  5
3A4D
330
3549
100
AcDbEntity
  8
0
  6
Continuous
 62
     0
370
    -2
100
AcDbLine
 10
39790.99339870045
 20
-6497.494087165835
 30
0.0
 11
39790.99339870045
 21
-6447.722471870905
 31
0.0
  0
LINE
  5
3A4E
330
3549
100
AcDbEntity
  8
0
  6
Continuous
 62
     0
370
    -2
100
AcDbLine
 10
40304.99339870044
 20
-6497.494087165835
 30
0.0
 11
40304.99339870044
 21
-6447.722471870905
 31
0.0
  0
LINE
  5
3A4F
330
3549
100
AcDbEntity
  8
0
  6
Continuous
 62
     0
370
    -2
100
AcDbLine
 10
39795.99339870045
 20
-6447.902471870905
 30
0.0
 11
40299.99339870045
 21
-6447.902471870905
 31
0.0
  0
INSERT
  5
3A50
330
3549
100
AcDbEntity
  8
0
  6
Continuous
 62
     0
370
    -2
100
AcDbBlockReference
  2
_Origin
 10
39790.99339870045
 20
-6447.902471870905
 30
0.0
 41
5.0
 42
5.0
 43
5.0
 50
180.0
  0
INSERT
  5
3A51
330
3549
100
AcDbEntity
  8
0
  6
Continuous
 62
     0
370
    -2
100
AcDbBlockReference
  2
_Origin
 10
40304.99339870044
 20
-6447.902471870905
 30
0.0
 41
5.0
 42
5.0
 43
5.0
  0
MTEXT
  5
3A52
330
3549
100
AcDbEntity
  8
0
  6
Continuous
 62
     0
100
AcDbMText
 10
40047.99339870045
 20
-6441.562471870906
 30
0.0
 40
12.5
 41
0.0
 71
     5
 72
     1
  1
\A1;514
 73
     1
 44
1.0
1001
ACAD
1000
MTEXTBEGIN
1070
    73
1070
     1
1070
    44
1040
1.0
1070
    74
1070
     0
1000
MTEXTEND
  0
POINT
  5
3A53
330
3549
100
AcDbEntity
  8
DEFPOINTS
  6
Continuous
 62
     0
100
AcDbPoint
 10
39790.99339870045
 20
-6497.556587165835
 30
0.0
  0
POINT
  5
3A54
330
3549
100
AcDbEntity
  8
DEFPOINTS
  6
Continuous
 62
     0
100
AcDbPoint
 10
40304.99339870044
 20
-6497.556587165835
 30
0.0
  0
POINT
  5
3A55
330
3549
100
AcDbEntity
  8
DEFPOINTS
  6
Continuous
 62
     0
100
AcDbPoint
 10
40304.99339870044
 20
-6447.902471870905
 30
0.0
  0
ENDBLK
  5
354B
330
3549
100
AcDbEntity
  8
0
 62
     4
100
AcDbBlockEnd
  0
BLOCK
  5
35BD
330
35BC
100
AcDbEntity
  8
0
 62
     4
100
AcDbBlockBegin
  2
*D9
 70
     1
 10
0.0
 20
0.0
 30
0.0
  3
*D9
  1

  0
LINE
  5
3A56
330
35BC
100
AcDbEntity
  8
0
  6
Continuous
 62
     0
370
    -2
100
AcDbLine
 10
39783.99339870045
 20
-6498.071945646358
 30
0.0
 11
39783.99339870045
 21
-6422.531969661701
 31
0.0
  0
LINE
  5
3A57
330
35BC
100
AcDbEntity
  8
0
  6
Continuous
 62
     0
370
    -2
100
AcDbLine
 10
40311.99339870045
 20
-6498.071945646391
 30
0.0
 11
40311.99339870045
 21
-6422.531969661701
 31
0.0
  0
LINE
  5
3A58
330
35BC
100
AcDbEntity
  8
0
  6
Continuous
 62
     0
370
    -2
100
AcDbLine
 10
39788.99339870045
 20
-6422.711969661701
 30
0.0
 11
40306.99339870046
 21
-6422.711969661701
 31
0.0
  0
INSERT
  5
3A59
330
35BC
100
AcDbEntity
  8
0
  6
Continuous
 62
     0
370
    -2
100
AcDbBlockReference
  2
_Origin
 10
39783.99339870045
 20
-6422.711969661701
 30
0.0
 41
5.0
 42
5.0
 43
5.0
 50
180.0
  0
INSERT
  5
3A5A
330
35BC
100
AcDbEntity
  8
0
  6
Continuous
 62
     0
370
    -2
100
AcDbBlockReference
  2
_Origin
 10
40311.99339870045
 20
-6422.711969661701
 30
0.0
 41
5.0
 42
5.0
 43
5.0
  0
MTEXT
  5
3A5B
330
35BC
100
AcDbEntity
  8
0
  6
Continuous
 62
     0
100
AcDbMText
 10
40047.99339870045
 20
-6416.3719696617
 30
0.0
 40
12.5
 41
0.0
 71
     5
 72
     1
  1
\A1;528
 73
     1
 44
1.0
1001
ACAD
1000
MTEXTBEGIN
1070
    73
1070
     1
1070
    44
1040
1.0
1070
    74
1070
     0
1000
MTEXTEND
  0
POINT
  5
3A5C
330
35BC
100
AcDbEntity
  8
DEFPOINTS
  6
Continuous
 62
     0
100
AcDbPoint
 10
39783.99339870045
 20
-6498.134445646357
 30
0.0
  0
POINT
  5
3A5D
330
35BC
100
AcDbEntity
  8
DEFPOINTS
  6
Continuous
 62
     0
100
AcDbPoint
 10
40311.99339870045
 20
-6498.134445646392
 30
0.0
  0
POINT
  5
3A5E
330
35BC
100
AcDbEntity
  8
DEFPOINTS
  6
Continuous
 62
     0
100
AcDbPoint
 10
40311.99339870045
 20
-6422.711969661701
 30
0.0
  0
ENDBLK
  5
35BE
330
35BC
100
AcDbEntity
  8
0
 62
     4
100
AcDbBlockEnd
  0
BLOCK
  5
3718
330
3717
100
AcDbEntity
  8
0
 62
     4
100
AcDbBlockBegin
  2
*D10
 70
     1
 10
0.0
 20
0.0
 30
0.0
  3
*D10
  1

  0
LINE
  5
3A5F
330
3717
100
AcDbEntity
  8
0
  6
Continuous
 62
     0
370
    -2
100
AcDbLine
 10
40331.02267477344
 20
-6509.134445646356
 30
0.0
 11
40370.27495056062
 21
-6509.134445646356
 31
0.0
  0
LINE
  5
3A60
330
3717
100
AcDbEntity
  8
0
  6
Continuous
 62
     0
370
    -2
100
AcDbLine
 10
40331.02267477344
 20
-6520.134445646355
 30
0.0
 11
40370.27495056062
 21
-6520.134445646355
 31
0.0
  0
LINE
  5
3A61
330
3717
100
AcDbEntity
  8
0
  6
Continuous
 62
     0
370
    -2
100
AcDbLine
 10
40370.09495056063
 20
-6514.134445646355
 30
0.0
 11
40370.09495056063
 21
-6515.134445646356
 31
0.0
  0
MTEXT
  5
3A62
330
3717
100
AcDbEntity
  8
0
  6
Continuous
 62
     0
100
AcDbMText
 10
40380.66854234948
 20
-6515.17221730633
 30
0.0
 40
12.5
 41
0.0
 71
     5
 72
     1
  1
\A1;11
 11
0.0000000000000001
 21
1.0
 31
0.0
 73
     1
 44
1.0
1001
ACAD
1000
MTEXTBEGIN
1070
    73
1070
     1
1070
    44
1040
1.0
1070
    74
1070
     0
1000
MTEXTEND
  0
INSERT
  5
3A63
330
3717
100
AcDbEntity
  8
0
  6
Continuous
 62
     0
370
    -2
100
AcDbBlockReference
  2
_Origin
 10
40370.09495056063
 20
-6509.134445646356
 30
0.0
 41
5.0
 42
5.0
 43
5.0
 50
90.0
  0
INSERT
  5
3A64
330
3717
100
AcDbEntity
  8
0
  6
Continuous
 62
     0
370
    -2
100
AcDbBlockReference
  2
_Origin
 10
40370.09495056063
 20
-6520.134445646355
 30
0.0
 41
5.0
 42
5.0
 43
5.0
 50
270.0
  0
POINT
  5
3A65
330
3717
100
AcDbEntity
  8
DEFPOINTS
  6
Continuous
 62
     0
100
AcDbPoint
 10
40330.96017477345
 20
-6509.134445646356
 30
0.0
  0
POINT
  5
3A66
330
3717
100
AcDbEntity
  8
DEFPOINTS
  6
Continuous
 62
     0
100
AcDbPoint
 10
40330.96017477345
 20
-6520.134445646355
 30
0.0
  0
POINT
  5
3A67
330
3717
100
AcDbEntity
  8
DEFPOINTS
  6
Continuous
 62
     0
100
AcDbPoint
 10
40370.09495056063
 20
-6520.134445646355
 30
0.0
  0
ENDBLK
  5
3719
330
3717
100
AcDbEntity
  8
0
 62
     4
100
AcDbBlockEnd
  0
ENDSEC
  0
SECTION
  2
ENTITIES
  0
POINT
  5
B5
330
22
100
AcDbEntity
  8
__
  6
Continuous
 62
     4
100
AcDbPoint
 10
40029.83039820239
 20
-2797.99997910019
 30
0.0
  0
POINT
  5
B6
330
22
100
AcDbEntity
  8
__
  6
Continuous
 62
     4
100
AcDbPoint
 10
40029.83039820239
 20
-3147.99997910019
 30
0.0
  0
POINT
  5
B7
330
22
100
AcDbEntity
  8
__
  6
Continuous
 62
     4
100
AcDbPoint
 10
40029.83039820239
 20
-2797.99997910019
 30
0.0
  0
POINT
  5
BD
330
22
100
AcDbEntity
  8
__
  6
Continuous
 62
     4
100
AcDbPoint
 10
40525.0
 20
-2610.0
 30
0.0
  0
POINT
  5
BE
330
22
100
AcDbEntity
  8
__
  6
Continuous
 62
     4
100
AcDbPoint
 10
40525.0
 20
-3160.0
 30
0.0
  0
POINT
  5
E8
330
22
100
AcDbEntity
  8
__
  6
Continuous
 62
     4
100
AcDbPoint
 10
40911.71128147455
 20
-1711.746
 30
0.0
  0
POINT
  5
136
330
22
100
AcDbEntity
  8
__
  6
Continuous
 62
     4
100
AcDbPoint
 10
39473.18508933666
 20
-3544.999999924916
 30
0.0
  0
POINT
  5
137
330
22
100
AcDbEntity
  8
__
  6
Continuous
 62
     4
100
AcDbPoint
 10
39482.39315651194
 20
-3547.540025160468
 30
0.0
  0
POINT
  5
138
330
22
100
AcDbEntity
  8
__
  6
Continuous
 62
     4
100
AcDbPoint
 10
39489.10122368721
 20
-3795.0
 30
0.0
  0
POINT
  5
166
330
22
100
AcDbEntity
  8
__
  6
Continuous
 62
     4
100
AcDbPoint
 10
40060.79193282526
 20
-2172.769914950393
 30
0.0
  0
POINT
  5
174
330
22
100
AcDbEntity
  8
__
  6
Continuous
 62
     4
100
AcDbPoint
 10
40329.61504816681
 20
-3519.281308140437
 30
0.0
  0
POINT
  5
193
330
22
100
AcDbEntity
  8
__
  6
Continuous
 62
     4
100
AcDbPoint
 10
40077.58941549866
 20
-3586.811372833299
 30
0.0
  0
POINT
  5
194
330
22
100
AcDbEntity
  8
__
  6
Continuous
 62
     4
100
AcDbPoint
 10
40087.14113229943
 20
-3586.881625656488
 30
0.0
  0
POINT
  5
195
330
22
100
AcDbEntity
  8
__
  6
Continuous
 62
     4
100
AcDbPoint
 10
40138.98694790644
 20
-3785.000000145468
 30
0.0
  0
POINT
  5
198
330
22
100
AcDbEntity
  8
__
  6
Continuous
 62
     4
100
AcDbPoint
 10
40977.92090908586
 20
-3507.491551471448
 30
0.0
  0
POINT
  5
1C2
330
22
100
AcDbEntity
  8
__
  6
Continuous
 62
     4
100
AcDbPoint
 10
40751.99049610998
 20
-3637.99985154397
 30
0.0
  0
POINT
  5
1C3
330
22
100
AcDbEntity
  8
__
  6
Continuous
 62
     4
100
AcDbPoint
 10
40761.23439139255
 20
-3635.593478899031
 30
0.0
  0
POINT
  5
1C4
330
22
100
AcDbEntity
  8
__
  6
Continuous
 62
     4
100
AcDbPoint
 10
40838.0
 20
-3785.000000145468
 30
0.0
  0
POINT
  5
1E5
330
22
100
AcDbEntity
  8
__
  6
Continuous
 62
     4
100
AcDbPoint
 10
41576.49399884681
 20
-3837.895598295035
 30
0.0
  0
POINT
  5
1E7
330
22
100
AcDbEntity
  8
__
  6
Continuous
 62
     4
100
AcDbPoint
 10
41612.20244737441
 20
-3540.000000075084
 30
0.0
  0
POINT
  5
20A
330
22
100
AcDbEntity
  8
__
  6
Continuous
 62
     4
100
AcDbPoint
 10
42249.76407461988
 20
-3837.79699009014
 30
0.0
  0
POINT
  5
20D
330
22
100
AcDbEntity
  8
__
  6
Continuous
 62
     4
100
AcDbPoint
 10
42264.61292550593
 20
-3579.377344604294
 30
0.0
  0
POINT
  5
230
330
22
100
AcDbEntity
  8
__
  6
Continuous
 62
     4
100
AcDbPoint
 10
42894.2915514724
 20
-3837.89559836542
 30
0.0
  0
POINT
  5
233
330
22
100
AcDbEntity
  8
__
  6
Continuous
 62
     4
100
AcDbPoint
 10
42890.0229803298
 20
-3621.393485703219
 30
0.0
  0
POINT
  5
28F
330
22
100
AcDbEntity
  8
__
  6
Continuous
 62
     4
100
AcDbPoint
 10
42269.39442353418
 20
-1780.90203240078
 30
0.0
  0
POINT
  5
2AF
330
22
100
AcDbEntity
  8
__
  6
Continuous
 62
     4
100
AcDbPoint
 10
42278.80766298831
 20
-1782.524115099259
 30
0.0
  0
POINT
  5
2B4
330
22
100
AcDbEntity
  8
__
  6
Continuous
 62
     4
100
AcDbPoint
 10
42349.76020299859
 20
-2090.442776659401
 30
0.0
  0
POINT
  5
2B5
330
22
100
AcDbEntity
  8
__
  6
Continuous
 62
     4
100
AcDbPoint
 10
42480.42380333962
 20
-2415.138054644652
 30
0.0
  0
POINT
  5
2D7
330
22
100
AcDbEntity
  8
__
  6
Continuous
 62
     4
100
AcDbPoint
 10
42587.76738391198
 20
-2931.738802272537
 30
0.0
  0
POINT
  5
2F6
330
22
100
AcDbEntity
  8
__
  6
Continuous
 62
     4
100
AcDbPoint
 10
42587.76738391198
 20
-2931.738802272537
 30
0.0
  0
POINT
  5
2FB
330
22
100
AcDbEntity
  8
__
  6
Continuous
 62
     4
100
AcDbPoint
 10
42480.42380333962
 20
-2415.138054644652
 30
0.0
  0
POINT
  5
2FC
330
22
100
AcDbEntity
  8
__
  6
Continuous
 62
     4
100
AcDbPoint
 10
42592.4211750605
 20
-2693.448292917724
 30
0.0
  0
POINT
  5
39A
330
22
100
AcDbEntity
  8
__
  6
Continuous
 62
     4
100
AcDbPoint
 10
42269.39442353418
 20
-1780.90203240078
 30
0.0
  0
POINT
  5
39C
330
22
100
AcDbEntity
  8
__
  6
Continuous
 62
     4
100
AcDbPoint
 10
42278.80953478088
 20
-1782.513215045293
 30
0.0
  0
POINT
  5
43F
330
22
100
AcDbEntity
  8
__
  6
Continuous
 62
     4
100
AcDbPoint
 10
42269.44633771823
 20
-1780.929292869418
 30
0.0
  0
POINT
  5
4F8
330
22
100
AcDbEntity
  8
__
  6
Continuous
 62
     4
100
AcDbPoint
 10
40191.2080671758
 20
-1749.0
 30
0.0
  0
POINT
  5
521
330
22
100
AcDbEntity
  8
__
  6
Continuous
 62
     4
100
AcDbPoint
 10
40870.99993139363
 20
-2144.458714950393
 30
0.0
  0
CIRCLE
  5
3029
102
{ACAD_REACTORS
330
3065
102
}
330
22
100
AcDbEntity
  8
0
  6
Continuous
 62
     4
100
AcDbCircle
 10
40047.99339870045
 20
-5994.895773112801
 30
0.0
 40
265.0
  0
CIRCLE
  5
302B
102
{ACAD_REACTORS
330
3083
102
}
330
22
100
AcDbEntity
  8
0
  6
Continuous
 62
     4
100
AcDbCircle
 10
40047.99339870045
 20
-5994.895773112801
 30
0.0
 40
279.5
  0
CIRCLE
  5
302C
102
{ACAD_REACTORS
330
3047
102
}
330
22
100
AcDbEntity
  8
0
  6
Continuous
 62
     4
100
AcDbCircle
 10
40047.99339870045
 20
-5994.895773112801
 30
0.0
 40
257.0
  0
LINE
  5
302D
330
22
100
AcDbEntity
  8
0
  6
STYLE_06
 62
     1
100
AcDbLine
 10
40391.53613017249
 20
-5994.895773112811
 30
0.0
 11
39704.45066722833
 21
-5994.895773112811
 31
0.0
  0
LINE
  5
3034
330
22
100
AcDbEntity
  8
0
  6
STYLE_06
 62
     1
100
AcDbLine
 10
40047.9933987004
 20
-6308.326169612563
 30
0.0
 11
40047.9933987004
 21
-5681.46537661306
 31
0.0
  0
DIMENSION
  5
3036
102
{ACAD_XDICTIONARY
360
3040
102
}
102
{ACAD_REACTORS
330
3047
102
}
330
22
100
AcDbEntity
  8
0
  6
Continuous
 62
     4
100
AcDbDimension
  2
*D3
 10
39909.49238114289
 20
-6211.382419665237
 30
0.0
 11
40116.15925738361
 21
-5888.347832773266
 31
0.0
 70
   163
 71
     5
 42
514.0
  3
5.0
100
AcDbDiametricDimension
 15
40186.49441625802
 25
-5778.409126560369
 35
0.0
 40
0.0
1001
ACAD_DSTYLE_DIMRADIAL_EXTENSION
1070
   387
1070
     1
1070
   388
1040
0.0
1070
   390
1040
0.0
  0
DIMENSION
  5
3054
102
{ACAD_XDICTIONARY
360
305E
102
}
102
{ACAD_REACTORS
330
3065
102
}
330
22
100
AcDbEntity
  8
0
  6
Continuous
 62
     4
100
AcDbDimension
  2
*D4
 10
39829.06744446427
 20
-6144.215653107899
 30
0.0
 11
40154.49380576259
 21
-5922.256473412454
 31
0.0
 70
   163
 71
     5
 42
529.9999999999527
  3
5.0
100
AcDbDiametricDimension
 15
40266.91935293667
 25
-5845.575893117679
 35
0.0
 40
0.0
1001
ACAD_DSTYLE_DIMRADIAL_EXTENSION
1070
   387
1070
     1
1070
   388
1040
0.0
1070
   390
1040
0.0
  0
DIMENSION
  5
3072
102
{ACAD_XDICTIONARY
360
307C
102
}
102
{ACAD_REACTORS
330
3083
102
}
330
22
100
AcDbEntity
  8
0
  6
Continuous
 62
     4
100
AcDbDimension
  2
*D5
 10
39777.39382058237
 20
-6064.868041350499
 30
0.0
 11
40185.37386257004
 21
-5959.371613262455
 31
0.0
 70
   163
 71
     5
 42
559.0000000000218
  3
5.0
100
AcDbDiametricDimension
 15
40318.59297681851
 25
-5924.923504875109
 35
0.0
 40
0.0
1001
ACAD_DSTYLE_DIMRADIAL_EXTENSION
1070
   387
1070
     1
1070
   388
1040
0.0
1070
   390
1040
0.0
  0
LINE
  5
308C
330
22
100
AcDbEntity
  8
0
  6
Continuous
 62
     4
100
AcDbLine
 10
39768.49339870045
 20
-6509.134445646357
 30
0.0
 11
40327.49339870044
 21
-6509.134445646356
 31
0.0
  0
LINE
  5
308E
330
22
100
AcDbEntity
  8
0
  6
Continuous
 62
     4
100
AcDbLine
 10
39782.99339870044
 20
-6520.134445646355
 30
0.0
 11
39782.99339870044
 21
-6509.134445646356
 31
0.0
  0
LINE
  5
3091
330
22
100
AcDbEntity
  8
0
  6
Continuous
 62
     4
100
AcDbLine
 10
40312.99339870044
 20
-6520.134445646355
 30
0.0
 11
40312.99339870044
 21
-6509.134445646356
 31
0.0
  0
LINE
  5
3092
330
22
100
AcDbEntity
  8
0
  6
Continuous
 62
     4
100
AcDbLine
 10
39782.99339870044
 20
-6520.134445646355
 30
0.0
 11
39790.99339870045
 21
-6520.134445646355
 31
0.0
  0
LINE
  5
3093
330
22
100
AcDbEntity
  8
0
  6
Continuous
 62
     4
100
AcDbLine
 10
40304.99339870044
 20
-6520.134445646355
 30
0.0
 11
40312.99339870044
 21
-6520.134445646355
 31
0.0
  0
LINE
  5
3094
330
22
100
AcDbEntity
  8
0
  6
Continuous
 62
     5
100
AcDbLine
 10
39790.99339870045
 20
-6520.134445646355
 30
0.0
 11
40304.99339870044
 21
-6520.134445646355
 31
0.0
  0
DIMENSION
  5
3095
330
22
100
AcDbEntity
  8
0
  6
Continuous
 62
     4
100
AcDbDimension
  2
*D6
 10
40327.49339870044
 20
-6397.723267812708
 30
0.0
 11
40047.99339870045
 21
-6391.383267812707
 31
0.0
 70
    32
 71
     5
 42
559.0
  3
5.0
100
AcDbAlignedDimension
 13
39768.49339870045
 23
-6498.196945646357
 33
0.0
 14
40327.49339870044
 24
-6498.196945646359
 34
0.0
100
AcDbRotatedDimension
  0
DIMENSION
  5
30AD
330
22
100
AcDbEntity
  8
0
  6
Continuous
 62
     4
100
AcDbDimension
  2
*D7
 10
40312.99339870044
 20
-6567.372884910927
 30
0.0
 11
40047.99339870045
 21
-6561.032884910926
 31
0.0
 70
    32
 71
     5
 42
530.0000000000072
  3
5.0
100
AcDbAlignedDimension
 13
39782.99339870044
 23
-6528.016682242675
 33
0.0
 14
40312.99339870044
 24
-6528.016682242709
 34
0.0
100
AcDbRotatedDimension
  0
POINT
  5
3388
330
22
100
AcDbEntity
  8
_0-D_13
 62
     7
100
AcDbPoint
 10
38529.13734734421
 20
-5494.925515927469
 30
0.0
  0
POINT
  5
33A7
330
22
100
AcDbEntity
  8
_0-D_13
 62
     7
100
AcDbPoint
 10
38877.13734734423
 20
-5494.925515927314
 30
0.0
  0
POINT
  5
33B9
330
22
100
AcDbEntity
  8
_0-D_13
 62
     7
100
AcDbPoint
 10
38970.13734734423
 20
-5464.925515927315
 30
0.0
  0
LINE
  5
341F
330
22
100
AcDbEntity
  8
_0-D_13
  6
Continuous
 62
     7
100
AcDbLine
 10
39599.7726482984
 20
-7038.420860158087
 30
0.0
 11
40514.77264463775
 21
-7038.420860158087
 31
0.0
  0
TEXT
  5
3420
330
22
100
AcDbEntity
  8
_0-D_13
 62
     7
100
AcDbText
 10
40384.7726451584
 20
-6860.177243999164
 30
0.0
 40
15.0
  1
品目コ－ド
 41
0.8333333333333332
100
AcDbText
  0
LINE
  5
3421
330
22
100
AcDbEntity
  8
_0-D_13
  6
HIDDEN
 62
     7
100
AcDbLine
 10
39619.7726482184
 20
-6963.420860458085
 30
0.0
 11
39804.77264747872
 21
-6963.420860458085
 31
0.0
  0
LINE
  5
3422
330
22
100
AcDbEntity
  8
_0-D_13
  6
Continuous
 62
     7
100
AcDbLine
 10
39599.7726482984
 20
-7038.420860158087
 30
0.0
 11
39599.77264829872
 21
-5623.420865818084
 31
0.0
  0
LINE
  5
3423
330
22
100
AcDbEntity
  8
_0-D_13
  6
Continuous
 62
     7
100
AcDbLine
 10
39604.77264827839
 20
-7033.420860178086
 30
0.0
 11
39604.77264827871
 21
-5628.420865798084
 31
0.0
  0
LINE
  5
3424
330
22
100
AcDbEntity
  8
_0-D_13
  6
Continuous
 62
     7
100
AcDbLine
 10
39829.7726473784
 20
-6868.420860838084
 30
0.0
 11
40509.77264465774
 21
-6868.420860838084
 31
0.0
  0
LINE
  5
3425
330
22
100
AcDbEntity
  8
_0-D_13
  6
Continuous
 62
     7
100
AcDbLine
 10
40509.77264465839
 20
-7033.420860178086
 30
0.0
 11
40509.77264465774
 21
-5628.420865798084
 31
0.0
  0
LINE
  5
3426
330
22
100
AcDbEntity
  8
_0-D_13
  6
Continuous
 62
     7
100
AcDbLine
 10
39604.77264827839
 20
-5628.420865798084
 30
0.0
 11
40509.77264465774
 21
-5628.420865798084
 31
0.0
  0
LINE
  5
3427
330
22
100
AcDbEntity
  8
_0-D_13
  6
Continuous
 62
     7
100
AcDbLine
 10
39599.7726482984
 20
-5623.420865818084
 30
0.0
 11
40514.77264463735
 21
-5623.420865818084
 31
0.0
  0
LINE
  5
3428
330
22
100
AcDbEntity
  8
_0-D_13
  6
Continuous
 62
     7
100
AcDbLine
 10
40347.2726453084
 20
-6963.420860458085
 30
0.0
 11
40347.27264530793
 21
-6833.420860978084
 31
0.0
  0
TEXT
  5
3429
330
22
100
AcDbEntity
  8
_0-D_13
 62
     7
100
AcDbText
 10
40324.77264539839
 20
-6922.170860623085
 30
0.0
 40
15.0
  1
図
 41
0.6666666666666666
100
AcDbText
  0
TEXT
  5
342A
330
22
100
AcDbEntity
  8
_0-D_13
 62
     7
100
AcDbText
 10
40324.77264539839
 20
-6957.170860483085
 30
0.0
 40
15.0
  1
番
 41
0.6666666666666666
100
AcDbText
  0
LINE
  5
342B
330
22
100
AcDbEntity
  8
_0-D_13
  6
Continuous
 62
     7
100
AcDbLine
 10
40094.77264631839
 20
-7033.420860178086
 30
0.0
 11
40094.77264631823
 21
-6963.420860458085
 31
0.0
  0
TEXT
  5
342C
330
22
100
AcDbEntity
  8
_0-D_13
 62
     7
100
AcDbText
 10
39999.77264669841
 20
-6954.920860492085
 30
0.0
 40
17.999999928
  1
名
 41
0.8333333333333332
100
AcDbText
  0
TEXT
  5
342D
330
22
100
AcDbEntity
  8
_0-D_13
 62
     7
100
AcDbText
 10
39999.77264669841
 20
-6919.920860632084
 30
0.0
 40
17.999999928
  1
品
 41
0.8333333333333332
100
AcDbText
  0
TEXT
  5
342E
330
22
100
AcDbEntity
  8
_0-D_13
 62
     7
100
AcDbText
 10
39692.89764792618
 20
-6988.420860358086
 30
0.0
 40
14.99999994
  1
2007年 6月25日
 41
0.8333333333333332
100
AcDbText
  0
TEXT
  5
342F
330
22
100
AcDbEntity
  8
_0-D_13
 62
     7
100
AcDbText
 10
39614.27264824056
 20
-6954.920860492085
 30
0.0
 40
17.999999928
  1
発行日
 41
0.8333333333333332
100
AcDbText
  0
TEXT
  5
3430
330
22
100
AcDbEntity
  8
_0-D_13
 62
     7
100
AcDbText
 10
39901.0226470934
 20
-6859.194077416336
 30
0.0
 40
15.0
  1
材　　　  質
 41
0.6666666666666666
100
AcDbText
  0
TEXT
  5
3431
330
22
100
AcDbEntity
  8
_0-D_13
 62
     7
100
AcDbText
 10
39873.5226472034
 20
-6920.295860630584
 30
0.0
 40
15.0
  1
第　３　角　法
 41
0.6666666666666666
100
AcDbText
  0
LINE
  5
3434
330
22
100
AcDbEntity
  8
_0-D_13
  6
Continuous
 62
     7
100
AcDbLine
 10
40019.7726466184
 20
-7033.420860178086
 30
0.0
 11
40019.77264661836
 21
-6963.420860458085
 31
0.0
  0
TEXT
  5
3435
330
22
100
AcDbEntity
  8
_0-D_13
 62
     7
100
AcDbText
 10
39692.89764792613
 20
-6953.420860498086
 30
0.0
 40
14.99999994
  1
2011年 5月20日
 41
0.8333333333333332
100
AcDbText
  0
TEXT
  5
3437
330
22
100
AcDbEntity
  8
_0-D_13
 62
     7
100
AcDbText
 10
39692.89764792622
 20
-7023.420860218085
 30
0.0
 40
14.99999994
  1
2007年 3月23日
 41
0.8333333333333332
100
AcDbText
  0
TEXT
  5
3438
330
22
100
AcDbEntity
  8
_0-D_13
 62
     7
100
AcDbText
 10
40001.27264669159
 20
-6979.370860394286
 30
0.0
 40
14.3999999424
  1
顧
 41
0.8333333333333332
100
AcDbText
  0
LINE
  5
3439
330
22
100
AcDbEntity
  8
_0-D_13
  6
Continuous
 62
     7
100
AcDbLine
 10
39604.77264827839
 20
-6893.420860738086
 30
0.0
 11
40509.77264465774
 21
-6893.420860738086
 31
0.0
  0
TEXT
  5
343A
330
22
100
AcDbEntity
  8
_0-D_13
 62
     7
100
AcDbText
 10
40001.27264669159
 20
-7031.870860184286
 30
0.0
 40
14.3999999424
  1
認
 41
0.8333333333333332
100
AcDbText
  0
TEXT
  5
343B
330
22
100
AcDbEntity
  8
_0-D_13
 62
     7
100
AcDbText
 10
40001.27264669159
 20
-7014.370860254286
 30
0.0
 40
14.3999999424
  1
承
 41
0.8333333333333332
100
AcDbText
  0
LINE
  5
343C
330
22
100
AcDbEntity
  8
_0-D_13
  6
Continuous
 62
     7
100
AcDbLine
 10
39829.7726473784
 20
-7033.420860178086
 30
0.0
 11
39829.77264737862
 21
-6833.420860978084
 31
0.0
  0
TEXT
  5
343D
330
22
100
AcDbEntity
  8
_0-D_13
 62
     7
100
AcDbText
 10
39614.27264824041
 20
-6919.920860632084
 30
0.0
 40
17.999999928
  1
発行日
 41
0.8333333333333332
100
AcDbText
  0
TEXT
  5
343E
330
22
100
AcDbEntity
  8
_0-D_13
 62
     7
100
AcDbText
 10
39614.27264824063
 20
-7024.920860212084
 30
0.0
 40
17.999999928
  1
発行日
 41
0.8333333333333332
100
AcDbText
  0
LINE
  5
3440
330
22
100
AcDbEntity
  8
_0-D_13
  6
Continuous
 62
     7
100
AcDbLine
 10
40129.7726461784
 20
-6893.420860738086
 30
0.0
 11
40129.77264617823
 21
-6833.420860978084
 31
0.0
  0
TEXT
  5
3441
330
22
100
AcDbEntity
  8
_0-D_13
 62
     7
100
AcDbText
 10
40099.77264629839
 20
-6989.920860352083
 30
0.0
 40
17.999999928
  1
製
 41
0.8333333333333332
100
AcDbText
  0
LINE
  5
3442
330
22
100
AcDbEntity
  8
_0-D_13
  6
Continuous
 62
     7
100
AcDbLine
 10
39604.77264827839
 20
-6928.420860598085
 30
0.0
 11
39994.7726467184
 21
-6928.420860598085
 31
0.0
  0
TEXT
  5
3443
330
22
100
AcDbEntity
  8
_0-D_13
 62
     7
100
AcDbText
 10
40060.18931312323
 20
-6938.420860558085
 30
0.0
 40
19.99999992
  1
600タイプ　ガラス固定枠
 41
0.8333333333333332
100
AcDbText
  0
TEXT
  5
3444
330
22
100
AcDbEntity
  8
_0-D_13
 62
     7
100
AcDbText
 10
39927.27264698841
 20
-6954.920860492085
 30
0.0
 40
17.999999928
  1
1/5
 41
0.8333333333333332
100
AcDbText
  0
TEXT
  5
3445
330
22
100
AcDbEntity
  8
_0-D_13
 62
     7
100
AcDbText
 10
40081.56366428463
 20
-6889.680979590358
 30
0.0
 40
15.0
  1
1.0
 41
0.8333333333333332
100
AcDbText
  0
LINE
  5
3446
330
22
100
AcDbEntity
  8
_0-D_13
  6
Continuous
 62
     7
100
AcDbLine
 10
39604.77264827839
 20
-6833.420860978084
 30
0.0
 11
40509.77264465774
 21
-6833.420860978084
 31
0.0
  0
TEXT
  5
3447
330
22
100
AcDbEntity
  8
_0-D_13
 62
     7
100
AcDbText
 10
39614.27264824041
 20
-6884.920860772085
 30
0.0
 40
17.999999928
  1
発行日
 41
0.8333333333333332
100
AcDbText
  0
LINE
  5
3448
330
22
100
AcDbEntity
  8
_0-D_13
  6
Continuous
 62
     7
100
AcDbLine
 10
39829.7726473784
 20
-6998.420860318084
 30
0.0
 11
39604.77264827871
 21
-6998.420860318084
 31
0.0
  0
LINE
  5
3449
330
22
100
AcDbEntity
  8
_0-D_13
  6
Continuous
 62
     7
100
AcDbLine
 10
40119.77264621839
 20
-7033.420860178086
 30
0.0
 11
40119.77264621823
 21
-6963.420860458085
 31
0.0
  0
TEXT
  5
344A
330
22
100
AcDbEntity
  8
_0-D_13
 62
     7
100
AcDbText
 10
39714.7726478384
 20
-6854.920860892085
 30
0.0
 40
17.999999928
  1
年月日
 41
0.8333333333333332
100
AcDbText
  0
LINE
  5
344B
330
22
100
AcDbEntity
  8
_0-D_13
  6
Continuous
 62
     7
100
AcDbLine
 10
39674.7726479984
 20
-6833.420860978084
 30
0.0
 11
39674.7726479993
 21
-7033.420860178086
 31
0.0
  0
TEXT
  5
344C
330
22
100
AcDbEntity
  8
_0-D_13
 62
     7
100
AcDbText
 10
39914.77264703835
 20
-6888.610849788553
 30
0.0
 40
15.0
  1
ＺＡＭ90
 41
0.8333333333333332
100
AcDbText
  0
TEXT
  5
344D
330
22
100
AcDbEntity
  8
_0-D_13
 62
     7
100
AcDbText
 10
40001.27264669159
 20
-6996.870860324285
 30
0.0
 40
14.3999999424
  1
客
 41
0.8333333333333332
100
AcDbText
  0
TEXT
  5
344E
330
22
100
AcDbEntity
  8
_0-D_13
 62
     7
100
AcDbText
 10
40326.27264539231
 20
-6889.497240531648
 30
0.0
 40
15.0
  1
1
 41
0.8333333333333332
100
AcDbText
  0
TEXT
  5
344F
330
22
100
AcDbEntity
  8
_0-D_13
 62
     7
100
AcDbText
 10
40099.77264629839
 20
-7024.920860212084
 30
0.0
 40
17.999999928
  1
図
 41
0.8333333333333332
100
AcDbText
  0
LINE
  5
3450
330
22
100
AcDbEntity
  8
_0-D_13
  6
Continuous
 62
     7
100
AcDbLine
 10
39994.7726467184
 20
-7033.420860178086
 30
0.0
 11
39994.7726467184
 21
-6893.420860738086
 31
0.0
  0
TEXT
  5
3451
330
22
100
AcDbEntity
  8
_0-D_13
 62
     7
100
AcDbText
 10
39614.27264824059
 20
-6989.920860352085
 30
0.0
 40
17.999999928
  1
発行日
 41
0.8333333333333332
100
AcDbText
  0
LINE
  5
3452
330
22
100
AcDbEntity
  8
_0-D_13
  6
HIDDEN
 62
     7
100
AcDbLine
 10
39904.7726470784
 20
-6963.420860458085
 30
0.0
 11
39904.77264707847
 21
-6928.420860598085
 31
0.0
  0
LINE
  5
3453
330
22
100
AcDbEntity
  8
_0-D_13
  6
Continuous
 62
     7
100
AcDbLine
 10
39604.77264827839
 20
-6858.420860878085
 30
0.0
 11
39829.77264737862
 21
-6858.420860878085
 31
0.0
  0
LINE
  5
3454
330
22
100
AcDbEntity
  8
_0-D_13
  6
Continuous
 62
     7
100
AcDbLine
 10
40317.2726454284
 20
-6963.420860458085
 30
0.0
 11
40317.27264542793
 21
-6833.420860978084
 31
0.0
  0
LINE
  5
3455
330
22
100
AcDbEntity
  8
_0-D_13
  6
Continuous
 62
     7
100
AcDbLine
 10
40194.77264591841
 20
-7033.420860178086
 30
0.0
 11
40194.77264591793
 21
-6963.420860458085
 31
0.0
  0
TEXT
  5
3456
330
22
100
AcDbEntity
  8
_0-D_13
 62
     7
100
AcDbText
 10
40076.02264639339
 20
-6860.386198707823
 30
0.0
 40
15.0
  1
板厚
 41
0.8333333333333332
100
AcDbText
  0
LINE
  5
3457
330
22
100
AcDbEntity
  8
_0-D_13
  6
Continuous
 62
     7
100
AcDbLine
 10
39604.77264827839
 20
-6833.420860978084
 30
0.0
 11
39674.77264799872
 21
-6858.420860878085
 31
0.0
  0
TEXT
  5
3458
330
22
100
AcDbEntity
  8
_0-D_13
 62
     7
100
AcDbText
 10
39848.5226473034
 20
-6954.920860492085
 30
0.0
 40
15.0
  1
尺度
 41
0.8333333333333332
100
AcDbText
  0
LINE
  5
3459
330
22
100
AcDbEntity
  8
_0-D_13
  6
Continuous
 62
     7
100
AcDbLine
 10
40514.7726446384
 20
-7038.420860158087
 30
0.0
 11
40514.77264463775
 21
-5623.420865818084
 31
0.0
  0
LINE
  5
345A
330
22
100
AcDbEntity
  8
_0-D_13
  6
Continuous
 62
     7
100
AcDbLine
 10
40019.7726466184
 20
-6963.420860458085
 30
0.0
 11
40019.77264661836
 21
-6893.420860738086
 31
0.0
  0
LINE
  5
345B
330
22
100
AcDbEntity
  8
_0-D_13
  6
Continuous
 62
     7
100
AcDbLine
 10
39604.77264827839
 20
-6963.420860458085
 30
0.0
 11
40509.77264465774
 21
-6963.420860458085
 31
0.0
  0
LINE
  5
345C
330
22
100
AcDbEntity
  8
_0-D_13
  6
Continuous
 62
     7
100
AcDbLine
 10
40059.7726464584
 20
-6893.420860738086
 30
0.0
 11
40059.77264645828
 21
-6833.420860978084
 31
0.0
  0
LINE
  5
345D
330
22
100
AcDbEntity
  8
_0-D_13
  6
Continuous
 62
     7
100
AcDbLine
 10
39829.7726473784
 20
-6988.420860358086
 30
0.0
 11
39994.7726467184
 21
-6988.420860358086
 31
0.0
  0
TEXT
  5
345E
330
22
100
AcDbEntity
  8
_0-D_13
 62
     7
100
AcDbText
 10
40324.77264539839
 20
-6858.371437476034
 30
0.0
 40
15.0
  1
数
 41
0.6666666666666666
100
AcDbText
  0
LINE
  5
345F
330
22
100
AcDbEntity
  8
_0-D_13
  6
Continuous
 62
     7
100
AcDbLine
 10
40509.77264465839
 20
-7033.420860178086
 30
0.0
 11
39604.77264827871
 21
-7033.420860178086
 31
0.0
  0
TEXT
  5
3460
330
22
100
AcDbEntity
  8
_0-D_13
 62
     7
100
AcDbText
 10
39865.7726472344
 20
-6984.920860372084
 30
0.0
 40
15.0
  1
ファイル名
 41
0.8333333333333332
100
AcDbText
  0
TEXT
  5
3462
330
22
100
AcDbEntity
  8
_0-E_14
 62
     7
100
AcDbText
 10
40269.66381867405
 20
-7009.910010606486
 30
0.0
 40
19.99999992
  1
スカイライトチューブ
 41
0.8333333333333332
100
AcDbText
  0
DIMENSION
  5
3548
330
22
100
AcDbEntity
  8
0
  6
Continuous
 62
     4
100
AcDbDimension
  2
*D8
 10
40304.99339870044
 20
-6447.902471870905
 30
0.0
 11
40047.99339870045
 21
-6441.562471870906
 31
0.0
 70
    32
 71
     5
 42
514.0
  3
5.0
100
AcDbAlignedDimension
 13
39790.99339870045
 23
-6497.556587165835
 33
0.0
 14
40304.99339870044
 24
-6497.556587165835
 34
0.0
100
AcDbRotatedDimension
  0
DIMENSION
  5
35BB
330
22
100
AcDbEntity
  8
0
  6
Continuous
 62
     4
100
AcDbDimension
  2
*D9
 10
40311.99339870045
 20
-6422.711969661701
 30
0.0
 11
40047.99339870045
 21
-6416.3719696617
 31
0.0
 70
    32
 71
     5
 42
528.0000000000073
  3
5.0
100
AcDbAlignedDimension
 13
39783.99339870045
 23
-6498.134445646357
 33
0.0
 14
40311.99339870045
 24
-6498.134445646392
 34
0.0
100
AcDbRotatedDimension
  0
LINE
  5
35EE
330
22
100
AcDbEntity
  8
0
  6
Continuous
 62
     5
100
AcDbLine
 10
40234.86931936784
 20
-6744.36768509133
 30
0.0
 11
40285.79181620503
 21
-6744.36768509133
 31
0.0
  0
LINE
  5
35F0
330
22
100
AcDbEntity
  8
0
  6
Continuous
 62
     4
100
AcDbLine
 10
40320.79181620503
 20
-6734.367685091338
 30
0.0
 11
40320.79181620503
 21
-6704.367685091338
 31
0.0
  0
LINE
  5
35F3
330
22
100
AcDbEntity
  8
0
  6
Continuous
 62
     4
100
AcDbLine
 10
40335.79181620503
 20
-6694.367685091338
 30
0.0
 11
40398.29181620502
 21
-6694.367685091338
 31
0.0
  0
LINE
  5
35F4
330
22
100
AcDbEntity
  8
0
  6
Continuous
 62
     4
100
AcDbLine
 10
40398.29181620502
 20
-6694.367685091338
 30
0.0
 11
40398.29181620505
 21
-6689.367685091338
 31
0.0
  0
ARC
  5
35F5
330
22
100
AcDbEntity
  8
0
  6
Continuous
 62
     4
100
AcDbCircle
 10
40335.79181620503
 20
-6704.367685091338
 30
0.0
 40
10.0
100
AcDbArc
 50
90.00000000000003
 51
180.0
  0
ARC
  5
35F6
330
22
100
AcDbEntity
  8
0
  6
Continuous
 62
     4
100
AcDbCircle
 10
40315.79181620502
 20
-6734.367685091338
 30
0.0
 40
5.0
100
AcDbArc
 50
270.0
 51
0.0
  0
ARC
  5
35F7
330
22
100
AcDbEntity
  8
0
  6
Continuous
 62
     4
100
AcDbCircle
 10
40315.79181620502
 20
-6734.367685091338
 30
0.0
 40
10.0
100
AcDbArc
 50
270.0
 51
0.0
  0
ARC
  5
35F8
330
22
100
AcDbEntity
  8
0
  6
Continuous
 62
     4
100
AcDbCircle
 10
40335.79181620503
 20
-6704.367685091338
 30
0.0
 40
15.0
100
AcDbArc
 50
90.00000000000003
 51
180.0
  0
LINE
  5
35FA
330
22
100
AcDbEntity
  8
0
  6
Continuous
 62
     4
100
AcDbLine
 10
40335.79181620503
 20
-6689.367685091338
 30
0.0
 11
40398.29181620505
 21
-6689.367685091338
 31
0.0
  0
LINE
  5
35FB
330
22
100
AcDbEntity
  8
0
  6
Continuous
 62
     4
100
AcDbLine
 10
40325.79181620502
 20
-6734.367685091338
 30
0.0
 11
40325.79181620502
 21
-6704.367685091338
 31
0.0
  0
LINE
  5
35FD
330
22
100
AcDbEntity
  8
0
  6
Continuous
 62
     4
100
AcDbLine
 10
40285.79181620499
 20
-6744.36768509133
 30
0.0
 11
40285.79181620499
 21
-6739.367685091337
 31
0.0
  0
LINE
  5
35FF
330
22
100
AcDbEntity
  8
0
  6
Continuous
 62
     4
100
AcDbLine
 10
40285.79181620503
 20
-6739.367685091337
 30
0.0
 11
40315.79181620502
 21
-6739.367685091337
 31
0.0
  0
LINE
  5
3600
330
22
100
AcDbEntity
  8
0
  6
Continuous
 62
     4
100
AcDbLine
 10
40285.79181620503
 20
-6744.36768509133
 30
0.0
 11
40315.79181620502
 21
-6744.367685091337
 31
0.0
  0
LINE
  5
36E2
330
22
100
AcDbEntity
  8
0
  6
Continuous
 62
     4
100
AcDbLine
 10
40320.79181620503
 20
-6683.015770371453
 30
0.0
 11
40320.79181620503
 21
-6632.852354382734
 31
0.0
  0
LINE
  5
36E3
330
22
100
AcDbEntity
  8
0
  6
Continuous
 62
     4
100
AcDbLine
 10
40205.46815698688
 20
-6633.032354382734
 30
0.0
 11
40315.79181620502
 21
-6633.032354382734
 31
0.0
  0
INSERT
  5
36E5
330
22
100
AcDbEntity
  8
0
  6
Continuous
 62
     4
100
AcDbBlockReference
  2
_Origin
 10
40320.79181620503
 20
-6633.032354382734
 30
0.0
 41
5.0
 42
5.0
 43
5.0
  0
MTEXT
  5
36E6
330
22
100
AcDbEntity
  8
0
  6
Continuous
 62
     4
100
AcDbMText
 10
40270.89966955173
 20
-6626.692354382734
 30
0.0
 40
12.5
 41
0.0
 71
     5
 72
     1
  1
\A1;\U+03C6528
 73
     1
 44
1.0
1001
ACAD
1000
MTEXTBEGIN
1070
    73
1070
     1
1070
    44
1040
1.0
1070
    74
1070
     0
1000
MTEXTEND
  0
LINE
  5
36E8
330
22
100
AcDbEntity
  8
0
  6
Continuous
 62
     4
100
AcDbLine
 10
40285.79181620499
 20
-6683.01577037146
 30
0.0
 11
40285.79181620499
 21
-6656.14323143342
 31
0.0
  0
LINE
  5
36E9
330
22
100
AcDbEntity
  8
0
  6
Continuous
 62
     4
100
AcDbLine
 10
40205.46815698688
 20
-6656.32323143342
 30
0.0
 11
40280.79181620499
 21
-6656.32323143342
 31
0.0
  0
INSERT
  5
36EB
330
22
100
AcDbEntity
  8
0
  6
Continuous
 62
     4
100
AcDbBlockReference
  2
_Origin
 10
40285.79181620499
 20
-6656.32323143342
 30
0.0
 41
5.0
 42
5.0
 43
5.0
  0
MTEXT
  5
36EC
330
22
100
AcDbEntity
  8
0
  6
Continuous
 62
     4
100
AcDbMText
 10
40246.83925315022
 20
-6649.98323143342
 30
0.0
 40
12.5
 41
0.0
 71
     5
 72
     1
  1
\A1;\U+03C6514
 73
     1
 44
1.0
1001
ACAD
1000
MTEXTBEGIN
1070
    73
1070
     1
1070
    44
1040
1.0
1070
    74
1070
     0
1000
MTEXTEND
  0
LINE
  5
36EE
330
22
100
AcDbEntity
  8
0
  6
Continuous
 62
     4
100
AcDbLine
 10
40325.79181620502
 20
-6739.223598107255
 30
0.0
 11
40325.79181620502
 21
-6781.327728983399
 31
0.0
  0
LINE
  5
36EF
330
22
100
AcDbEntity
  8
0
  6
Continuous
 62
     4
100
AcDbLine
 10
40205.46815698688
 20
-6781.147728983398
 30
0.0
 11
40320.79181620503
 21
-6781.147728983398
 31
0.0
  0
INSERT
  5
36F1
330
22
100
AcDbEntity
  8
0
  6
Continuous
 62
     4
100
AcDbBlockReference
  2
_Origin
 10
40325.79181620502
 20
-6781.147728983398
 30
0.0
 41
5.0
 42
5.0
 43
5.0
  0
MTEXT
  5
36F2
330
22
100
AcDbEntity
  8
0
  6
Continuous
 62
     4
100
AcDbMText
 10
40270.1616304028
 20
-6774.807728983399
 30
0.0
 40
12.5
 41
0.0
 71
     5
 72
     1
  1
\A1;\U+03C6530
 73
     1
 44
1.0
1001
ACAD
1000
MTEXTBEGIN
1070
    73
1070
     1
1070
    44
1040
1.0
1070
    74
1070
     0
1000
MTEXTEND
  0
LINE
  5
36F3
330
22
100
AcDbEntity
  8
0
  6
Continuous
 62
     4
100
AcDbLine
 10
40406.20072345336
 20
-6689.367685091338
 30
0.0
 11
40422.41016606475
 21
-6689.367685091338
 31
0.0
  0
LINE
  5
36F4
330
22
100
AcDbEntity
  8
0
  6
Continuous
 62
     4
100
AcDbLine
 10
40406.20072345336
 20
-6694.367685091338
 30
0.0
 11
40422.41016606475
 21
-6694.367685091338
 31
0.0
  0
LINE
  5
36F5
330
22
100
AcDbEntity
  8
0
  6
Continuous
 62
     4
100
AcDbLine
 10
40422.23016606475
 20
-6699.367685091337
 30
0.0
 11
40422.23016606475
 21
-6704.367685091338
 31
0.0
  0
LINE
  5
36F7
330
22
100
AcDbEntity
  8
0
  6
Continuous
 62
     4
100
AcDbLine
 10
40422.23016606475
 20
-6694.367685091338
 30
0.0
 11
40422.23016606475
 21
-6689.367685091338
 31
0.0
  0
INSERT
  5
36F8
330
22
100
AcDbEntity
  8
0
  6
Continuous
 62
     4
100
AcDbBlockReference
  2
_Origin
 10
40422.23016606475
 20
-6694.367685091338
 30
0.0
 41
-5.0
 42
5.0
 43
5.0
 50
270.0
  0
INSERT
  5
36F9
330
22
100
AcDbEntity
  8
0
  6
Continuous
 62
     4
100
AcDbBlockReference
  2
_Origin
 10
40422.23016606475
 20
-6689.367685091338
 30
0.0
 41
-5.0
 42
5.0
 43
5.0
 50
90.0
  0
LINE
  5
36FB
330
22
100
AcDbEntity
  8
0
  6
Continuous
 62
     4
100
AcDbLine
 10
40406.20072345336
 20
-6689.367685091338
 30
0.0
 11
40448.81726479545
 21
-6689.367685091338
 31
0.0
  0
LINE
  5
36FC
330
22
100
AcDbEntity
  8
0
  6
Continuous
 62
     4
100
AcDbLine
 10
40406.20072345333
 20
-6744.367685091337
 30
0.0
 11
40448.81726479545
 21
-6744.367685091337
 31
0.0
  0
LINE
  5
36FD
330
22
100
AcDbEntity
  8
0
  6
Continuous
 62
     4
100
AcDbLine
 10
40448.63726479545
 20
-6694.367685091338
 30
0.0
 11
40448.63726479545
 21
-6739.367685091337
 31
0.0
  0
INSERT
  5
36FE
330
22
100
AcDbEntity
  8
0
  6
Continuous
 62
     4
100
AcDbBlockReference
  2
_Origin
 10
40448.63726479545
 20
-6689.367685091338
 30
0.0
 41
-5.0
 42
5.0
 43
5.0
 50
270.0
  0
INSERT
  5
36FF
330
22
100
AcDbEntity
  8
0
  6
Continuous
 62
     4
100
AcDbBlockReference
  2
_Origin
 10
40448.63726479545
 20
-6744.367685091337
 30
0.0
 41
-5.0
 42
5.0
 43
5.0
 50
90.0
  0
MTEXT
  5
3700
330
22
100
AcDbEntity
  8
0
  6
Continuous
 62
     4
100
AcDbMText
 10
40442.29726479545
 20
-6716.867685091344
 30
0.0
 40
12.5
 41
0.0
 71
     5
 72
     1
  1
\A1;11
 11
-0.0000000000000001
 21
1.0
 31
0.0
 73
     1
 44
1.0
1001
ACAD
1000
MTEXTBEGIN
1070
    73
1070
     1
1070
    44
1040
1.0
1070
    74
1070
     0
1000
MTEXTEND
  0
LINE
  5
3702
330
22
100
AcDbEntity
  8
0
  6
Continuous
 62
     4
100
AcDbLine
 10
40398.29181620502
 20
-6668.743475361477
 30
0.0
 11
40398.29181620502
 21
-6607.082279978212
 31
0.0
  0
LINE
  5
3703
330
22
100
AcDbEntity
  8
0
  6
Continuous
 62
     4
100
AcDbLine
 10
40205.46815698688
 20
-6607.262279978212
 30
0.0
 11
40393.29181620503
 21
-6607.262279978212
 31
0.0
  0
INSERT
  5
3705
330
22
100
AcDbEntity
  8
0
  6
Continuous
 62
     4
100
AcDbBlockReference
  2
_Origin
 10
40398.29181620502
 20
-6607.262279978212
 30
0.0
 41
5.0
 42
5.0
 43
5.0
  0
MTEXT
  5
3706
330
22
100
AcDbEntity
  8
0
  6
Continuous
 62
     4
100
AcDbMText
 10
40307.14966955173
 20
-6600.922279978212
 30
0.0
 40
12.5
 41
0.0
 71
     5
 72
     1
  1
\A1;\U+03C6559
 73
     1
 44
1.0
1001
ACAD
1000
MTEXTBEGIN
1070
    73
1070
     1
1070
    44
1040
1.0
1070
    74
1070
     0
1000
MTEXTEND
  0
TEXT
  5
3707
330
22
100
AcDbEntity
  8
0
  6
Continuous
 62
     4
100
AcDbText
 10
40422.14016606475
 20
-6703.401597561041
 30
0.0
 40
12.5
  1
1
 50
90.0
100
AcDbText
  0
LINE
  5
370E
330
22
100
AcDbEntity
  8
0
  6
Continuous
 62
     4
100
AcDbLine
 10
40328.72074839316
 20
-6697.296617279473
 30
0.0
 11
40352.4360100567
 21
-6721.01187894302
 31
0.0
  0
LINE
  5
370F
330
22
100
AcDbEntity
  8
0
  6
Continuous
 62
     4
100
AcDbLine
 10
40319.32735011095
 20
-6737.903218997271
 30
0.0
 11
40294.31572728954
 21
-6712.891596175861
 31
0.0
  0
LINE
  5
3710
330
22
100
AcDbEntity
  8
0
  6
Continuous
 62
     4
100
AcDbLine
 10
40328.72074839316
 20
-6697.296617279473
 30
0.0
 11
40328.72074839316
 21
-6700.52055401393
 31
0.0
  0
LINE
  5
3711
330
22
100
AcDbEntity
  8
0
  6
Continuous
 62
     4
100
AcDbLine
 10
40328.72074839316
 20
-6697.296617279473
 30
0.0
 11
40331.94468512762
 21
-6697.296617279473
 31
0.0
  0
LINE
  5
3712
330
22
100
AcDbEntity
  8
0
  6
Continuous
 62
     4
100
AcDbLine
 10
40319.32735011095
 20
-6737.903218997272
 30
0.0
 11
40319.32735011095
 21
-6734.679282262813
 31
0.0
  0
LINE
  5
3713
330
22
100
AcDbEntity
  8
0
  6
Continuous
 62
     4
100
AcDbLine
 10
40319.32735011095
 20
-6737.903218997271
 30
0.0
 11
40316.1034133765
 21
-6737.903218997271
 31
0.0
  0
TEXT
  5
3714
330
22
100
AcDbEntity
  8
__
 62
     4
100
AcDbText
 10
40326.33776284547
 20
-6714.842260661903
 30
0.0
 40
12.5
  1
R2
 50
315.0000000001057
  7
________
100
AcDbText
  0
TEXT
  5
3715
330
22
100
AcDbEntity
  8
__
 62
     4
100
AcDbText
 10
40286.12832014544
 20
-6725.60041040936
 30
0.0
 40
12.5
  1
R1
 50
315.0000000001057
  7
________
100
AcDbText
  0
DIMENSION
  5
3716
330
22
100
AcDbEntity
  8
0
  6
Continuous
 62
     4
100
AcDbDimension
  2
*D10
 10
40370.09495056063
 20
-6520.134445646355
 30
0.0
 11
40380.66854234948
 21
-6515.17221730633
 31
0.0
 70
   160
 71
     5
 42
11.0
  3
5.0
100
AcDbAlignedDimension
 13
40330.96017477345
 23
-6509.134445646356
 33
0.0
 14
40330.96017477345
 24
-6520.134445646355
 34
0.0
 50
90.0
100
AcDbRotatedDimension
  0
LINE
  5
37B1
330
22
100
AcDbEntity
  8
0
  6
Continuous
 62
     4
100
AcDbLine
 10
40234.86931936784
 20
-6705.367685091338
 30
0.0
 11
40311.90766778696
 21
-6705.367685091338
 31
0.0
  0
LINE
  5
37B2
330
22
100
AcDbEntity
  8
0
  6
Continuous
 62
     4
100
AcDbLine
 10
40311.90766778696
 20
-6705.367685091338
 30
0.0
 11
40311.90766778696
 21
-6739.367685091337
 31
0.0
  0
LINE
  5
37B3
330
22
100
AcDbEntity
  8
0
  6
Continuous
 62
     4
100
AcDbLine
 10
40234.86931936784
 20
-6739.367685091337
 30
0.0
 11
40311.90766778696
 21
-6739.367685091337
 31
0.0
  0
LINE
  5
37DE
330
22
100
AcDbEntity
  8
0
  6
STYLE_19
 62
     5
100
AcDbLine
 10
39934.84953000614
 20
-5893.257623678828
 30
0.0
 11
39811.94533880663
 21
-5893.257623678829
 31
0.0
  0
LINE
  5
37DF
330
22
100
AcDbEntity
  8
0
  6
STYLE_19
 62
     5
100
AcDbLine
 10
39947.34953000613
 20
-5880.757623678828
 30
0.0
 11
39817.7294570079
 21
-5880.757623678828
 31
0.0
  0
LINE
  5
37E0
330
22
100
AcDbEntity
  8
0
  6
STYLE_19
 62
     5
100
AcDbLine
 10
39959.84953000614
 20
-5868.257623678829
 30
0.0
 11
39824.36026361546
 21
-5868.257623678829
 31
0.0
  0
LINE
  5
37E1
330
22
100
AcDbEntity
  8
0
  6
STYLE_19
 62
     5
100
AcDbLine
 10
39972.34953000614
 20
-5855.757623678829
 30
0.0
 11
39831.91569190937
 21
-5855.75762367883
 31
0.0
  0
LINE
  5
37E2
330
22
100
AcDbEntity
  8
0
  6
STYLE_19
 62
     5
100
AcDbLine
 10
39984.84953000614
 20
-5843.257623678828
 30
0.0
 11
39840.49672008549
 21
-5843.257623678828
 31
0.0
  0
LINE
  5
37E3
330
22
100
AcDbEntity
  8
0
  6
STYLE_19
 62
     5
100
AcDbLine
 10
39997.34953000614
 20
-5830.757623678828
 30
0.0
 11
39850.23681119857
 21
-5830.757623678829
 31
0.0
  0
LINE
  5
37E4
330
22
100
AcDbEntity
  8
0
  6
STYLE_19
 62
     5
100
AcDbLine
 10
40009.84953000614
 20
-5818.257623678828
 30
0.0
 11
39861.31730445016
 21
-5818.257623678828
 31
0.0
  0
LINE
  5
37E5
330
22
100
AcDbEntity
  8
0
  6
STYLE_19
 62
     5
100
AcDbLine
 10
40022.34953000613
 20
-5805.757623678829
 30
0.0
 11
39873.99408712511
 21
-5805.757623678829
 31
0.0
  0
LINE
  5
37E6
330
22
100
AcDbEntity
  8
0
  6
STYLE_19
 62
     5
100
AcDbLine
 10
40034.84953000613
 20
-5793.257623678829
 30
0.0
 11
39888.64768431552
 21
-5793.25762367883
 31
0.0
  0
LINE
  5
37E7
330
22
100
AcDbEntity
  8
0
  6
STYLE_19
 62
     5
100
AcDbLine
 10
40047.34953000613
 20
-5780.757623678828
 30
0.0
 11
39905.8883215322
 21
-5780.757623678829
 31
0.0
  0
LINE
  5
37E8
330
22
100
AcDbEntity
  8
0
  6
STYLE_19
 62
     5
100
AcDbLine
 10
40059.84953000614
 20
-5768.257623678828
 30
0.0
 11
39926.81522731161
 21
-5768.257623678828
 31
0.0
  0
LINE
  5
37E9
330
22
100
AcDbEntity
  8
0
  6
STYLE_19
 62
     5
100
AcDbLine
 10
40072.34953000613
 20
-5755.757623678828
 30
0.0
 11
39953.85549196095
 21
-5755.75762367883
 31
0.0
  0
LINE
  5
37EA
330
22
100
AcDbEntity
  8
0
  6
STYLE_19
 62
     5
100
AcDbLine
 10
40084.84953000614
 20
-5743.257623678829
 30
0.0
 11
39995.77039850469
 21
-5743.257623678829
 31
0.0
  0
LINE
  5
37EB
330
22
100
AcDbEntity
  8
0
  6
STYLE_19
 62
     5
100
AcDbLine
 10
39922.34953000613
 20
-5905.757623678829
 30
0.0
 11
39806.94695023982
 21
-5905.757623678829
 31
0.0
  0
LINE
  5
37EC
330
22
100
AcDbEntity
  8
0
  6
STYLE_19
 62
     5
100
AcDbLine
 10
39859.84953000613
 20
-5968.25762367883
 30
0.0
 11
39792.37765389052
 21
-5968.25762367883
 31
0.0
  0
LINE
  5
37ED
330
22
100
AcDbEntity
  8
0
  6
STYLE_19
 62
     5
100
AcDbLine
 10
39872.34953000614
 20
-5955.757623678829
 30
0.0
 11
39793.99102615467
 21
-5955.75762367883
 31
0.0
  0
LINE
  5
37EE
330
22
100
AcDbEntity
  8
0
  6
STYLE_19
 62
     5
100
AcDbLine
 10
39884.84953000613
 20
-5943.257623678829
 30
0.0
 11
39796.23458252307
 21
-5943.25762367883
 31
0.0
  0
LINE
  5
37EF
330
22
100
AcDbEntity
  8
0
  6
STYLE_19
 62
     5
100
AcDbLine
 10
39897.34953000613
 20
-5930.757623678829
 30
0.0
 11
39799.12536582522
 21
-5930.75762367883
 31
0.0
  0
LINE
  5
37F0
330
22
100
AcDbEntity
  8
0
  6
STYLE_19
 62
     5
100
AcDbLine
 10
39909.84953000613
 20
-5918.25762367883
 30
0.0
 11
39802.68625642502
 21
-5918.25762367883
 31
0.0
  0
LINE
  5
37F1
330
22
100
AcDbEntity
  8
0
  6
STYLE_19
 62
     5
100
AcDbLine
 10
39797.34953000614
 20
-6030.75762367883
 30
0.0
 11
39793.50778481632
 21
-6030.75762367883
 31
0.0
  0
LINE
  5
37F2
330
22
100
AcDbEntity
  8
0
  6
STYLE_19
 62
     5
100
AcDbLine
 10
39809.84953000614
 20
-6018.25762367883
 30
0.0
 11
39792.05742245223
 21
-6018.25762367883
 31
0.0
  0
LINE
  5
37F3
330
22
100
AcDbEntity
  8
0
  6
STYLE_19
 62
     5
100
AcDbLine
 10
39822.34953000613
 20
-6005.75762367883
 30
0.0
 11
39791.22303397297
 21
-6005.757623678831
 31
0.0
  0
LINE
  5
37F4
330
22
100
AcDbEntity
  8
0
  6
STYLE_19
 62
     5
100
AcDbLine
 10
39834.84953000614
 20
-5993.25762367883
 30
0.0
 11
39790.99861963591
 21
-5993.25762367883
 31
0.0
  0
LINE
  5
37F5
330
22
100
AcDbEntity
  8
0
  6
STYLE_19
 62
     5
100
AcDbLine
 10
39847.34953000613
 20
-5980.75762367883
 30
0.0
 11
39791.38257911058
 21
-5980.75762367883
 31
0.0
  0
LINE
  5
37FA
330
22
100
AcDbEntity
  8
0
  6
STYLE_19
 62
     5
100
AcDbLine
 10
40028.44937137949
 20
-5738.639980990793
 30
0.0
 11
40028.44937137949
 21
-5799.657782305484
 31
0.0
  0
LINE
  5
37FB
330
22
100
AcDbEntity
  8
0
  6
STYLE_19
 62
     5
100
AcDbLine
 10
40015.94937137949
 20
-5739.901301970673
 30
0.0
 11
40015.94937137949
 21
-5812.15778230549
 31
0.0
  0
LINE
  5
37FC
330
22
100
AcDbEntity
  8
0
  6
STYLE_19
 62
     5
100
AcDbLine
 10
40003.44937137948
 20
-5741.785461924123
 30
0.0
 11
40003.44937137948
 21
-5824.657782305488
 31
0.0
  0
LINE
  5
37FD
330
22
100
AcDbEntity
  8
0
  6
STYLE_19
 62
     5
100
AcDbLine
 10
39990.94937137949
 20
-5744.306509681574
 30
0.0
 11
39990.94937137949
 21
-5837.157782305494
 31
0.0
  0
LINE
  5
37FE
330
22
100
AcDbEntity
  8
0
  6
STYLE_19
 62
     5
100
AcDbLine
 10
39978.44937137949
 20
-5747.483913526441
 30
0.0
 11
39978.44937137949
 21
-5849.657782305487
 31
0.0
  0
LINE
  5
37FF
330
22
100
AcDbEntity
  8
0
  6
STYLE_19
 62
     5
100
AcDbLine
 10
39965.94937137949
 20
-5751.343360722863
 30
0.0
 11
39965.94937137949
 21
-5862.157782305485
 31
0.0
  0
LINE
  5
3800
330
22
100
AcDbEntity
  8
0
  6
STYLE_19
 62
     5
100
AcDbLine
 10
39953.44937137949
 20
-5755.917893596863
 30
0.0
 11
39953.44937137949
 21
-5874.657782305491
 31
0.0
  0
LINE
  5
3801
330
22
100
AcDbEntity
  8
0
  6
STYLE_19
 62
     5
100
AcDbLine
 10
39940.94937137949
 20
-5761.249510110565
 30
0.0
 11
39940.94937137949
 21
-5887.157782305497
 31
0.0
  0
LINE
  5
3802
330
22
100
AcDbEntity
  8
0
  6
STYLE_19
 62
     5
100
AcDbLine
 10
39928.44937137949
 20
-5767.391431325911
 30
0.0
 11
39928.44937137949
 21
-5899.657782305495
 31
0.0
  0
LINE
  5
3803
330
22
100
AcDbEntity
  8
0
  6
STYLE_19
 62
     5
100
AcDbLine
 10
39915.94937137949
 20
-5774.411363575842
 30
0.0
 11
39915.94937137949
 21
-5912.157782305501
 31
0.0
  0
LINE
  5
3804
330
22
100
AcDbEntity
  8
0
  6
STYLE_19
 62
     5
100
AcDbLine
 10
39903.44937137949
 20
-5782.396304487967
 30
0.0
 11
39903.44937137949
 21
-5924.657782305507
 31
0.0
  0
LINE
  5
3805
330
22
100
AcDbEntity
  8
0
  6
STYLE_19
 62
     5
100
AcDbLine
 10
39890.94937137949
 20
-5791.459853268708
 30
0.0
 11
39890.94937137949
 21
-5937.157782305504
 31
0.0
  0
LINE
  5
3806
330
22
100
AcDbEntity
  8
0
  6
STYLE_19
 62
     5
100
AcDbLine
 10
39878.4493713795
 20
-5801.753797354577
 30
0.0
 11
39878.44937137949
 21
-5949.657782305511
 31
0.0
  0
LINE
  5
3807
330
22
100
AcDbEntity
  8
0
  6
STYLE_19
 62
     5
100
AcDbLine
 10
39865.94937137949
 20
-5813.487470886122
 30
0.0
 11
39865.94937137949
 21
-5962.157782305488
 31
0.0
  0
LINE
  5
3808
330
22
100
AcDbEntity
  8
0
  6
STYLE_19
 62
     5
100
AcDbLine
 10
39853.44937137949
 20
-5826.962389196017
 30
0.0
 11
39853.44937137949
 21
-5974.657782305485
 31
0.0
  0
LINE
  5
3809
330
22
100
AcDbEntity
  8
0
  6
STYLE_19
 62
     5
100
AcDbLine
 10
39840.94937137949
 20
-5842.640163197379
 30
0.0
 11
39840.94937137949
 21
-5987.157782305492
 31
0.0
  0
LINE
  5
380A
330
22
100
AcDbEntity
  8
0
  6
STYLE_19
 62
     5
100
AcDbLine
 10
39828.44937137949
 20
-5861.294051313668
 30
0.0
 11
39828.44937137949
 21
-5999.657782305497
 31
0.0
  0
LINE
  5
380B
330
22
100
AcDbEntity
  8
0
  6
STYLE_19
 62
     5
100
AcDbLine
 10
39815.94937137949
 20
-5884.421480244875
 30
0.0
 11
39815.94937137949
 21
-6012.157782305497
 31
0.0
  0
LINE
  5
380C
330
22
100
AcDbEntity
  8
0
  6
STYLE_19
 62
     5
100
AcDbLine
 10
39803.4493713795
 20
-5915.856424041294
 30
0.0
 11
39803.44937137949
 21
-6024.657782305502
 31
0.0
  0
LINE
  5
380D
330
22
100
AcDbEntity
  8
0
  6
STYLE_19
 62
     5
100
AcDbLine
 10
40078.44937137948
 20
-5739.706757424089
 30
0.0
 11
40078.44937137948
 21
-5749.657782305481
 31
0.0
  0
LINE
  5
380E
330
22
100
AcDbEntity
  8
0
  6
STYLE_19
 62
     5
100
AcDbLine
 10
40065.94937137949
 20
-5738.52381082919
 30
0.0
 11
40065.94937137949
 21
-5762.157782305487
 31
0.0
  0
LINE
  5
380F
330
22
100
AcDbEntity
  8
0
  6
STYLE_19
 62
     5
100
AcDbLine
 10
40053.44937137948
 20
-5737.953693331919
 30
0.0
 11
40053.44937137948
 21
-5774.657782305485
 31
0.0
  0
LINE
  5
3810
330
22
100
AcDbEntity
  8
0
  6
STYLE_19
 62
     5
100
AcDbLine
 10
40040.94937137949
 20
-5737.992324947733
 30
0.0
 11
40040.94937137948
 21
-5787.157782305492
 31
0.0
  0
LINE
  5
3816
330
22
100
AcDbEntity
  8
0
  6
STYLE_19
 62
     5
100
AcDbLine
 10
40137.13154813441
 20
-6120.539641807096
 30
0.0
 11
40137.13154813441
 21
-6235.942221573416
 31
0.0
  0
LINE
  5
3817
330
22
100
AcDbEntity
  8
0
  6
STYLE_19
 62
     5
100
AcDbLine
 10
40149.63154813441
 20
-6108.039641807089
 30
0.0
 11
40149.63154813441
 21
-6230.943833006604
 31
0.0
  0
LINE
  5
3818
330
22
100
AcDbEntity
  8
0
  6
STYLE_19
 62
     5
100
AcDbLine
 10
40162.13154813441
 20
-6095.539641807096
 30
0.0
 11
40162.13154813441
 21
-6225.159714805326
 31
0.0
  0
LINE
  5
3819
330
22
100
AcDbEntity
  8
0
  6
STYLE_19
 62
     5
100
AcDbLine
 10
40174.63154813441
 20
-6083.039641807089
 30
0.0
 11
40174.63154813441
 21
-6218.528908197768
 31
0.0
  0
LINE
  5
381A
330
22
100
AcDbEntity
  8
0
  6
STYLE_19
 62
     5
100
AcDbLine
 10
40187.13154813441
 20
-6070.539641807096
 30
0.0
 11
40187.13154813441
 21
-6210.973479903856
 31
0.0
  0
LINE
  5
381B
330
22
100
AcDbEntity
  8
0
  6
STYLE_19
 62
     5
100
AcDbLine
 10
40199.63154813441
 20
-6058.039641807089
 30
0.0
 11
40199.63154813441
 21
-6202.392451727742
 31
0.0
  0
LINE
  5
381C
330
22
100
AcDbEntity
  8
0
  6
STYLE_19
 62
     5
100
AcDbLine
 10
40212.13154813441
 20
-6045.539641807096
 30
0.0
 11
40212.13154813441
 21
-6192.652360614665
 31
0.0
  0
LINE
  5
381D
330
22
100
AcDbEntity
  8
0
  6
STYLE_19
 62
     5
100
AcDbLine
 10
40224.63154813441
 20
-6033.039641807089
 30
0.0
 11
40224.63154813441
 21
-6181.571867363069
 31
0.0
  0
LINE
  5
381E
330
22
100
AcDbEntity
  8
0
  6
STYLE_19
 62
     5
100
AcDbLine
 10
40237.13154813441
 20
-6020.539641807096
 30
0.0
 11
40237.13154813441
 21
-6168.89508468812
 31
0.0
  0
LINE
  5
381F
330
22
100
AcDbEntity
  8
0
  6
STYLE_19
 62
     5
100
AcDbLine
 10
40249.63154813441
 20
-6008.039641807089
 30
0.0
 11
40249.63154813441
 21
-6154.241487497711
 31
0.0
  0
LINE
  5
3820
330
22
100
AcDbEntity
  8
0
  6
STYLE_19
 62
     5
100
AcDbLine
 10
40262.13154813441
 20
-5995.539641807096
 30
0.0
 11
40262.13154813441
 21
-6137.00085028103
 31
0.0
  0
LINE
  5
3821
330
22
100
AcDbEntity
  8
0
  6
STYLE_19
 62
     5
100
AcDbLine
 10
40274.63154813441
 20
-5983.039641807089
 30
0.0
 11
40274.63154813441
 21
-6116.073944501622
 31
0.0
  0
LINE
  5
3822
330
22
100
AcDbEntity
  8
0
  6
STYLE_19
 62
     5
100
AcDbLine
 10
40287.13154813441
 20
-5970.539641807096
 30
0.0
 11
40287.13154813441
 21
-6089.033679852284
 31
0.0
  0
LINE
  5
3823
330
22
100
AcDbEntity
  8
0
  6
STYLE_19
 62
     5
100
AcDbLine
 10
40299.63154813441
 20
-5958.039641807089
 30
0.0
 11
40299.63154813441
 21
-6047.11877330854
 31
0.0
  0
LINE
  5
3824
330
22
100
AcDbEntity
  8
0
  6
STYLE_19
 62
     5
100
AcDbLine
 10
40074.63154813441
 20
-6183.039641807103
 30
0.0
 11
40074.63154813441
 21
-6250.511517922706
 31
0.0
  0
LINE
  5
3825
330
22
100
AcDbEntity
  8
0
  6
STYLE_19
 62
     5
100
AcDbLine
 10
40087.13154813441
 20
-6170.539641807096
 30
0.0
 11
40087.13154813441
 21
-6248.898145658561
 31
0.0
  0
LINE
  5
3826
330
22
100
AcDbEntity
  8
0
  6
STYLE_19
 62
     5
100
AcDbLine
 10
40099.63154813441
 20
-6158.039641807103
 30
0.0
 11
40099.63154813441
 21
-6246.654589290155
 31
0.0
  0
LINE
  5
3827
330
22
100
AcDbEntity
  8
0
  6
STYLE_19
 62
     5
100
AcDbLine
 10
40112.13154813441
 20
-6145.539641807096
 30
0.0
 11
40112.13154813441
 21
-6243.763805988012
 31
0.0
  0
LINE
  5
3828
330
22
100
AcDbEntity
  8
0
  6
STYLE_19
 62
     5
100
AcDbLine
 10
40124.63154813441
 20
-6133.039641807103
 30
0.0
 11
40124.63154813441
 21
-6240.20291538821
 31
0.0
  0
LINE
  5
3829
330
22
100
AcDbEntity
  8
0
  6
STYLE_19
 62
     5
100
AcDbLine
 10
40012.13154813441
 20
-6245.539641807103
 30
0.0
 11
40012.13154813441
 21
-6249.381386996916
 31
0.0
  0
LINE
  5
382A
330
22
100
AcDbEntity
  8
0
  6
STYLE_19
 62
     5
100
AcDbLine
 10
40024.63154813441
 20
-6233.039641807096
 30
0.0
 11
40024.63154813441
 21
-6250.831749361008
 31
0.0
  0
LINE
  5
382B
330
22
100
AcDbEntity
  8
0
  6
STYLE_19
 62
     5
100
AcDbLine
 10
40037.13154813441
 20
-6220.539641807103
 30
0.0
 11
40037.13154813441
 21
-6251.666137840264
 31
0.0
  0
LINE
  5
382C
330
22
100
AcDbEntity
  8
0
  6
STYLE_19
 62
     5
100
AcDbLine
 10
40049.63154813441
 20
-6208.039641807096
 30
0.0
 11
40049.63154813441
 21
-6251.890552177327
 31
0.0
  0
LINE
  5
382D
330
22
100
AcDbEntity
  8
0
  6
STYLE_19
 62
     5
100
AcDbLine
 10
40062.13154813441
 20
-6195.539641807096
 30
0.0
 11
40062.13154813441
 21
-6251.506592702645
 31
0.0
  0
LINE
  5
382E
330
22
100
AcDbEntity
  8
0
  6
STYLE_19
 62
     5
100
AcDbLine
 10
40304.24919082244
 20
-6014.439800433741
 30
0.0
 11
40243.23138950775
 21
-6014.439800433741
 31
0.0
  0
LINE
  5
382F
330
22
100
AcDbEntity
  8
0
  6
STYLE_19
 62
     5
100
AcDbLine
 10
40302.98786984256
 20
-6026.939800433742
 30
0.0
 11
40230.73138950775
 21
-6026.939800433742
 31
0.0
  0
LINE
  5
3830
330
22
100
AcDbEntity
  8
0
  6
STYLE_19
 62
     5
100
AcDbLine
 10
40301.10370988912
 20
-6039.439800433742
 30
0.0
 11
40218.23138950775
 21
-6039.439800433742
 31
0.0
  0
LINE
  5
3831
330
22
100
AcDbEntity
  8
0
  6
STYLE_19
 62
     5
100
AcDbLine
 10
40298.58266213167
 20
-6051.939800433742
 30
0.0
 11
40205.73138950775
 21
-6051.939800433742
 31
0.0
  0
LINE
  5
3832
330
22
100
AcDbEntity
  8
0
  6
STYLE_19
 62
     5
100
AcDbLine
 10
40295.4052582868
 20
-6064.439800433742
 30
0.0
 11
40193.23138950775
 21
-6064.439800433742
 31
0.0
  0
LINE
  5
3833
330
22
100
AcDbEntity
  8
0
  6
STYLE_19
 62
     5
100
AcDbLine
 10
40291.54581109038
 20
-6076.939800433734
 30
0.0
 11
40180.73138950775
 21
-6076.939800433741
 31
0.0
  0
LINE
  5
3834
330
22
100
AcDbEntity
  8
0
  6
STYLE_19
 62
     5
100
AcDbLine
 10
40286.97127821637
 20
-6089.439800433742
 30
0.0
 11
40168.23138950775
 21
-6089.439800433742
 31
0.0
  0
LINE
  5
3835
330
22
100
AcDbEntity
  8
0
  6
STYLE_19
 62
     5
100
AcDbLine
 10
40281.63966170267
 20
-6101.939800433742
 30
0.0
 11
40155.73138950775
 21
-6101.939800433742
 31
0.0
  0
LINE
  5
3836
330
22
100
AcDbEntity
  8
0
  6
STYLE_19
 62
     5
100
AcDbLine
 10
40275.49774048733
 20
-6114.439800433742
 30
0.0
 11
40143.23138950774
 21
-6114.439800433742
 31
0.0
  0
LINE
  5
3837
330
22
100
AcDbEntity
  8
0
  6
STYLE_19
 62
     5
100
AcDbLine
 10
40268.47780823739
 20
-6126.939800433742
 30
0.0
 11
40130.73138950773
 21
-6126.939800433742
 31
0.0
  0
LINE
  5
3838
330
22
100
AcDbEntity
  8
0
  6
STYLE_19
 62
     5
100
AcDbLine
 10
40260.49286732527
 20
-6139.439800433741
 30
0.0
 11
40118.23138950774
 21
-6139.439800433741
 31
0.0
  0
LINE
  5
3839
330
22
100
AcDbEntity
  8
0
  6
STYLE_19
 62
     5
100
AcDbLine
 10
40251.42931854453
 20
-6151.939800433742
 30
0.0
 11
40105.73138950774
 21
-6151.939800433742
 31
0.0
  0
LINE
  5
383A
330
22
100
AcDbEntity
  8
0
  6
STYLE_19
 62
     5
100
AcDbLine
 10
40241.13537445867
 20
-6164.439800433735
 30
0.0
 11
40093.23138950773
 21
-6164.439800433742
 31
0.0
  0
LINE
  5
383B
330
22
100
AcDbEntity
  8
0
  6
STYLE_19
 62
     5
100
AcDbLine
 10
40229.40170092712
 20
-6176.939800433742
 30
0.0
 11
40080.73138950775
 21
-6176.939800433742
 31
0.0
  0
LINE
  5
383C
330
22
100
AcDbEntity
  8
0
  6
STYLE_19
 62
     5
100
AcDbLine
 10
40215.92678261722
 20
-6189.439800433742
 30
0.0
 11
40068.23138950775
 21
-6189.439800433742
 31
0.0
  0
LINE
  5
383D
330
22
100
AcDbEntity
  8
0
  6
STYLE_19
 62
     5
100
AcDbLine
 10
40200.24900861586
 20
-6201.939800433741
 30
0.0
 11
40055.73138950775
 21
-6201.939800433748
 31
0.0
  0
LINE
  5
383E
330
22
100
AcDbEntity
  8
0
  6
STYLE_19
 62
     5
100
AcDbLine
 10
40181.59512049957
 20
-6214.439800433742
 30
0.0
 11
40043.23138950774
 21
-6214.439800433749
 31
0.0
  0
LINE
  5
383F
330
22
100
AcDbEntity
  8
0
  6
STYLE_19
 62
     5
100
AcDbLine
 10
40158.46769156836
 20
-6226.939800433742
 30
0.0
 11
40030.73138950774
 21
-6226.939800433749
 31
0.0
  0
LINE
  5
3840
330
22
100
AcDbEntity
  8
0
  6
STYLE_19
 62
     5
100
AcDbLine
 10
40127.03274777194
 20
-6239.439800433735
 30
0.0
 11
40018.23138950774
 21
-6239.439800433749
 31
0.0
  0
LINE
  5
3841
330
22
100
AcDbEntity
  8
0
  6
STYLE_19
 62
     5
100
AcDbLine
 10
40303.18241438915
 20
-5964.439800433742
 30
0.0
 11
40293.23138950775
 21
-5964.439800433742
 31
0.0
  0
LINE
  5
3842
330
22
100
AcDbEntity
  8
0
  6
STYLE_19
 62
     5
100
AcDbLine
 10
40304.36536098404
 20
-5976.939800433742
 30
0.0
 11
40280.73138950775
 21
-5976.939800433742
 31
0.0
  0
LINE
  5
3843
330
22
100
AcDbEntity
  8
0
  6
STYLE_19
 62
     5
100
AcDbLine
 10
40304.93547848132
 20
-5989.439800433742
 30
0.0
 11
40268.23138950775
 21
-5989.439800433742
 31
0.0
  0
LINE
  5
3844
330
22
100
AcDbEntity
  8
0
  6
STYLE_19
 62
     5
100
AcDbLine
 10
40304.89684686551
 20
-6001.939800433735
 30
0.0
 11
40255.73138950774
 21
-6001.939800433742
 31
0.0
  0
LINE
  5
3845
330
22
100
AcDbEntity
  8
0
  6
Continuous
 62
     4
100
AcDbLine
 10
40149.63154813441
 20
-6201.939800433745
 30
0.0
 11
40171.07035821859
 21
-6281.950528921701
 31
0.0
  0
LINE
  5
3846
330
22
100
AcDbEntity
  8
0
  6
Continuous
 62
     4
100
AcDbLine
 10
40171.07035821859
 20
-6281.950528921701
 30
0.0
 11
40201.66777001813
 21
-6281.950528921701
 31
0.0
  0
TEXT
  5
3848
330
22
100
AcDbEntity
  8
__
 62
     4
100
AcDbText
 10
40205.32476165261
 20
-6286.302694013921
 30
0.0
 40
12.5
  1
網入りガラスｔ6.8
  7
________
100
AcDbText
  0
TEXT
  5
3849
330
22
100
AcDbEntity
  8
__
 62
     4
100
AcDbText
 10
40041.6597919263
 20
-6726.776727568839
 30
0.0
 40
12.5
  1
網入りガラスｔ6.8
  7
________
100
AcDbText
  0
LINE
  5
384B
330
22
100
AcDbEntity
  8
0
  6
Continuous
 62
     5
100
AcDbLine
 10
39782.99339870044
 20
-6513.334445646356
 30
0.0
 11
40312.99339870044
 21
-6513.334445646354
 31
0.0
  0
LINE
  5
384C
330
22
100
AcDbEntity
  8
0
  6
Continuous
 62
     4
100
AcDbLine
 10
40180.44887229769
 20
-6720.728349064173
 30
0.0
 11
40271.64081846783
 21
-6720.728349064173
 31
0.0
  0
INSERT
  5
384D
330
22
100
AcDbEntity
  8
0
  6
Continuous
 62
     4
100
AcDbBlockReference
  2
_Origin
 10
40271.64081846783
 20
-6720.728349064173
 30
0.0
 41
5.0
 42
5.0
 43
5.0
  0
INSERT
  5
38C7
330
22
100
AcDbEntity
  8
__-1
  6
Continuous
100
AcDbBlockReference
  2
A$C19575CB4
 10
40251.43506271211
 20
-7003.098492756899
 30
0.0
 41
0.4
 42
0.4
 43
0.4
  0
TEXT
  5
38C8
330
22
100
AcDbEntity
  8
__
 62
     4
100
AcDbText
 10
40063.16743436463
 20
-6387.933219363263
 30
0.0
 40
8.0
  1
+0
  7
________
100
AcDbText
  0
TEXT
  5
38C9
330
22
100
AcDbEntity
  8
__
 62
     4
100
AcDbText
 10
40063.16743436463
 20
-6397.196525609635
 30
0.0
 40
8.0
  1
-1
  7
________
100
AcDbText
  0
TEXT
  5
38CA
330
22
100
AcDbEntity
  8
__
 62
     4
100
AcDbText
 10
40063.16743436463
 20
-6413.14337229226
 30
0.0
 40
8.0
  1
+0
  7
________
100
AcDbText
  0
TEXT
  5
38CB
330
22
100
AcDbEntity
  8
__
 62
     4
100
AcDbText
 10
40063.16743436463
 20
-6422.406678538632
 30
0.0
 40
8.0
  1
-1
  7
________
100
AcDbText
  0
TEXT
  5
38CC
330
22
100
AcDbEntity
  8
__
 62
     4
100
AcDbText
 10
40063.16743436463
 20
-6438.254910849619
 30
0.0
 40
8.0
  1
+0
  7
________
100
AcDbText
  0
TEXT
  5
38CD
330
22
100
AcDbEntity
  8
__
 62
     4
100
AcDbText
 10
40063.16743436463
 20
-6447.518217095991
 30
0.0
 40
8.0
  1
-1
  7
________
100
AcDbText
  0
TEXT
  5
38CE
330
22
100
AcDbEntity
  8
__
 62
     4
100
AcDbText
 10
40063.16743436463
 20
-6557.603559977543
 30
0.0
 40
8.0
  1
+0
  7
________
100
AcDbText
  0
TEXT
  5
38CF
330
22
100
AcDbEntity
  8
__
 62
     4
100
AcDbText
 10
40063.16743436463
 20
-6566.866866223915
 30
0.0
 40
8.0
  1
-1
  7
________
100
AcDbText
  0
TEXT
  5
38D0
330
22
100
AcDbEntity
  8
__
 62
     4
100
AcDbText
 10
40328.52436376722
 20
-6597.007218431443
 30
0.0
 40
8.0
  1
+0
  7
________
100
AcDbText
  0
TEXT
  5
38D1
330
22
100
AcDbEntity
  8
__
 62
     4
100
AcDbText
 10
40328.52436376722
 20
-6606.270524677815
 30
0.0
 40
8.0
  1
-1
  7
________
100
AcDbText
  0
TEXT
  5
38D2
330
22
100
AcDbEntity
  8
__
 62
     4
100
AcDbText
 10
40291.13538504808
 20
-6622.81217341027
 30
0.0
 40
8.0
  1
+0
  7
________
100
AcDbText
  0
TEXT
  5
38D3
330
22
100
AcDbEntity
  8
__
 62
     4
100
AcDbText
 10
40291.13538504808
 20
-6632.075479656641
 30
0.0
 40
8.0
  1
-1
  7
________
100
AcDbText
  0
TEXT
  5
38D4
330
22
100
AcDbEntity
  8
__
 62
     4
100
AcDbText
 10
40267.42311306267
 20
-6645.690694314652
 30
0.0
 40
8.0
  1
+0
  7
________
100
AcDbText
  0
TEXT
  5
38D5
330
22
100
AcDbEntity
  8
__
 62
     4
100
AcDbText
 10
40267.42311306267
 20
-6654.954000561024
 30
0.0
 40
8.0
  1
-1
  7
________
100
AcDbText
  0
TEXT
  5
38D6
330
22
100
AcDbEntity
  8
__
 62
     4
100
AcDbText
 10
40291.50238328206
 20
-6771.388172906663
 30
0.0
 40
8.0
  1
+0
  7
________
100
AcDbText
  0
TEXT
  5
38D7
330
22
100
AcDbEntity
  8
__
 62
     4
100
AcDbText
 10
40291.50238328206
 20
-6780.651479153036
 30
0.0
 40
8.0
  1
-1
  7
________
100
AcDbText
  0
TEXT
  5
38D8
330
22
100
AcDbEntity
  8
__
 62
     4
100
AcDbText
 10
40203.20911102531
 20
-5954.034157447343
 30
0.0
 40
8.0
  1
+0
 50
14.00000000002806
  7
________
100
AcDbText
  0
TEXT
  5
38D9
330
22
100
AcDbEntity
  8
__
 62
     4
100
AcDbText
 10
40205.45010763195
 20
-5963.022303909383
 30
0.0
 40
8.0
  1
-1
 50
14.00000000002806
  7
________
100
AcDbText
  0
TEXT
  5
38DA
330
22
100
AcDbEntity
  8
__
 62
     4
100
AcDbText
 10
40170.11343625283
 20
-5910.502861635939
 30
0.0
 40
8.0
  1
+0
 50
34.00000000000272
  7
________
100
AcDbText
  0
TEXT
  5
38DB
330
22
100
AcDbEntity
  8
__
 62
     4
100
AcDbText
 10
40175.29341136847
 20
-5918.182490560264
 30
0.0
 40
8.0
  1
-1
 50
34.00000000000272
  7
________
100
AcDbText
  0
TEXT
  5
38DC
330
22
100
AcDbEntity
  8
__
 62
     4
100
AcDbText
 10
40126.76759389038
 20
-5870.611127360445
 30
0.0
 40
8.0
  1
+0
 50
56.99999999994542
  7
________
100
AcDbText
  0
TEXT
  5
38DD
330
22
100
AcDbEntity
  8
__
 62
     4
100
AcDbText
 10
40134.53645620107
 20
-5875.656285535517
 30
0.0
 40
8.0
  1
-1
 50
56.99999999994542
  7
________
100
AcDbText
  0
ENDSEC
  0
SECTION
  2
OBJECTS
  0
DICTIONARY
  5
C
330
0
100
AcDbDictionary
281
     1
  3
ACAD_2007HEADERVARS_RT
350
3B1D
  3
ACAD_COLOR
350
1B
  3
ACAD_GROUP
350
D
  3
ACAD_LAYOUT
350
19
  3
ACAD_MATERIAL
350
1A
  3
ACAD_MLEADERSTYLE
350
2CB3
  3
ACAD_MLINESTYLE
350
16
  3
ACAD_PLOTSETTINGS
350
18
  3
ACAD_PLOTSTYLENAME
350
E
  3
ACAD_SCALELIST
350
2C91
  3
ACAD_TABLESTYLE
350
1C
  3
ACAD_VISUALSTYLE
350
2C80
  3
ACDB_RECOMPOSE_DATA
350
3B1B
  3
AcDbVariableDictionary
350
562
  3
ASE_INDEX_DICTIONARY
350
2421
  3
DWGPROPS
350
3B1C
  0
DICTIONARY
  5
2D62
330
8
100
AcDbDictionary
280
     1
281
     1
  0
DICTIONARY
  5
2CC0
330
10
100
AcDbDictionary
280
     1
281
     1
  3
ADSK_XREC_LAYER_RECONCILED
360
2CC1
  0
DICTIONARY
  5
2CC2
330
44
100
AcDbDictionary
280
     1
281
     1
  3
ADSK_XREC_LAYER_RECONCILED
360
2CC3
  0
DICTIONARY
  5
2CC4
330
45
100
AcDbDictionary
280
     1
281
     1
  3
ADSK_XREC_LAYER_RECONCILED
360
2CC5
  0
DICTIONARY
  5
2D1C
330
5B5
100
AcDbDictionary
280
     1
281
     1
  3
ADSK_XREC_LAYER_RECONCILED
360
2D1D
  0
DICTIONARY
  5
2EB9
330
22
100
AcDbDictionary
280
     1
281
     1
  3
ACAD_SORTENTS
360
2EBA
  0
DICTIONARY
  5
3B5F
330
3A78
100
AcDbDictionary
280
     1
281
     1
  3
ACAD_MTEXT_RT
360
3B60
  0
DICTIONARY
  5
3B5B
330
3A6A
100
AcDbDictionary
280
     1
281
     1
  3
ACAD_MTEXT_RT
360
3B5C
  0
DICTIONARY
  5
3B5D
330
3A71
100
AcDbDictionary
280
     1
281
     1
  3
ACAD_MTEXT_RT
360
3B5E
  0
DICTIONARY
  5
3040
330
3036
100
AcDbDictionary
280
     1
281
     1
  3
ACAD_DIMASSOC
360
3047
  0
DICTIONARY
  5
305E
330
3054
100
AcDbDictionary
280
     1
281
     1
  3
ACAD_DIMASSOC
360
3065
  0
DICTIONARY
  5
307C
330
3072
100
AcDbDictionary
280
     1
281
     1
  3
ACAD_DIMASSOC
360
3083
  0
DICTIONARY
  5
3B1D
102
{ACAD_REACTORS
330
C
102
}
330
C
100
AcDbDictionary
281
     1
  3
DIMFXL
350
3B1E
  0
DICTIONARY
  5
1B
102
{ACAD_REACTORS
330
C
102
}
330
C
100
AcDbDictionary
281
     1
  0
DICTIONARY
  5
D
102
{ACAD_REACTORS
330
C
102
}
330
C
100
AcDbDictionary
281
     1
  0
DICTIONARY
  5
19
102
{ACAD_REACTORS
330
C
102
}
330
C
100
AcDbDictionary
281
     1
  3
Model
350
25
  3
レイアウト1
350
21
  0
DICTIONARY
  5
1A
102
{ACAD_REACTORS
330
C
102
}
330
C
100
AcDbDictionary
281
     1
  3
ByBlock
350
2C70
  3
ByLayer
350
2C68
  3
Global
350
2C78
  0
DICTIONARY
  5
2CB3
102
{ACAD_REACTORS
330
C
102
}
330
C
100
AcDbDictionary
281
     1
  3
Standard
350
2CB4
  0
DICTIONARY
  5
16
102
{ACAD_REACTORS
330
C
102
}
330
C
100
AcDbDictionary
281
     1
  3
Standard
350
17
  0
DICTIONARY
  5
18
102
{ACAD_REACTORS
330
C
102
}
330
C
100
AcDbDictionary
281
     1
  0
ACDBDICTIONARYWDFLT
  5
E
102
{ACAD_REACTORS
330
C
102
}
330
C
100
AcDbDictionary
281
     1
  3
Normal
350
F
100
AcDbDictionaryWithDefault
340
F
  0
DICTIONARY
  5
2C91
102
{ACAD_REACTORS
330
C
102
}
330
C
100
AcDbDictionary
281
     1
  3
A0
350
2C92
  3
A1
350
2C93
  3
A2
350
2C94
  3
A3
350
2C95
  3
A4
350
2C96
  3
A5
350
2C97
  3
A6
350
2C98
  3
A7
350
2C99
  3
A8
350
2C9A
  3
A9
350
2C9B
  3
B0
350
2C9C
  3
B1
350
2C9D
  3
B2
350
2C9E
  3
B3
350
2C9F
  3
B4
350
2CA0
  3
B5
350
2CA1
  3
B6
350
2CA2
  3
B7
350
2CA3
  3
B8
350
2CA4
  3
B9
350
2CA5
  3
C0
350
2CA6
  3
C1
350
2CA7
  3
C2
350
2CA8
  3
C3
350
2CA9
  3
C4
350
2CAA
  3
C5
350
2CAB
  3
C6
350
2CAC
  3
C7
350
2CAD
  3
C8
350
2CAE
  3
C9
350
2CAF
  3
D0
350
2CB0
  3
D1
350
2CB1
  3
D2
350
2CB2
  0
DICTIONARY
  5
1C
102
{ACAD_REACTORS
330
C
102
}
330
C
100
AcDbDictionary
281
     1
  3
Standard
350
1D
  0
DICTIONARY
  5
2C80
102
{ACAD_REACTORS
330
C
102
}
330
C
100
AcDbDictionary
281
     1
  3
2dWireframe
350
2C86
  3
3D Hidden
350
2C88
  3
3dWireframe
350
2C87
  3
Basic
350
2C85
  3
Brighten
350
2C8C
  3
ColorChange
350
2C90
  3
Conceptual
350
2C89
  3
Dim
350
2C8B
  3
EdgeColorOff
350
3020
  3
Facepattern
350
2C8F
  3
Flat
350
2C81
  3
FlatWithEdges
350
2C82
  3
Gouraud
350
2C83
  3
GouraudWithEdges
350
2C84
  3
Hidden
350
3018
  3
JitterOff
350
301E
  3
Linepattern
350
2C8E
  3
OverhangOff
350
301F
  3
Realistic
350
2C8A
  3
Shaded
350
301D
  3
Shaded with edges
350
301C
  3
Shades of Gray
350
3019
  3
Sketchy
350
301A
  3
Thicken
350
2C8D
  3
Wireframe
350
3017
  3
X-Ray
350
301B
  0
XRECORD
  5
3B1B
102
{ACAD_REACTORS
330
C
102
}
330
C
100
AcDbXrecord
280
     1
 90
        1
330
1D
  0
DICTIONARY
  5
562
102
{ACAD_REACTORS
330
C
102
}
330
C
100
AcDbDictionary
281
     1
  3
CANNOSCALE
350
2D6D
  3
CMLEADERSTYLE
350
2D6C
  3
CTABLESTYLE
350
563
  3
DIMASSOC
350
2D71
  3
HIDETEXT
350
2D70
  3
INDEXCTL
350
2D6F
  3
SORTENTS
350
2D6E
  3
XCLIPFRAME
350
3B19
  0
DICTIONARY
  5
2421
102
{ACAD_REACTORS
330
C
102
}
330
C
100
AcDbDictionary
281
     1
  3
ASEBlockHierarchyIndexRecord
350
2423
1001
DCO15
1040
1685546211.562
  0
XRECORD
  5
3B1C
102
{ACAD_REACTORS
330
C
102
}
330
C
100
AcDbXrecord
280
     1
  1
DWGPROPS COOKIE
  2

  3

  4

  6

  7

  8
toshi
  9

300
=
301
=
302
=
303
=
304
=
305
=
306
=
307
=
308
=
309
=
 40
0.4900685995370371
 41
2455027.645046296
 42
2455703.006048299
  1

 90
        0
  0
XRECORD
  5
2CC1
102
{ACAD_REACTORS
330
2CC0
102
}
330
2CC0
100
AcDbXrecord
280
     1
290
     1
  0
XRECORD
  5
2CC3
102
{ACAD_REACTORS
330
2CC2
102
}
330
2CC2
100
AcDbXrecord
280
     1
290
     1
  0
XRECORD
  5
2CC5
102
{ACAD_REACTORS
330
2CC4
102
}
330
2CC4
100
AcDbXrecord
280
     1
290
     1
  0
XRECORD
  5
2D1D
102
{ACAD_REACTORS
330
2D1C
102
}
330
2D1C
100
AcDbXrecord
280
     1
290
     1
  0
SORTENTSTABLE
  5
2EBA
102
{ACAD_REACTORS
330
2EB9
102
}
330
2EB9
100
AcDbSortentsTable
330
22
331
37E0
  5
37E1
331
344B
  5
344B
331
3095
  5
3095
331
137
  5
137
331
36F9
  5
36EB
331
37E8
  5
37E9
331
3453
  5
3453
331
345B
  5
345B
331
30AD
  5
30AD
331
35FA
  5
35FC
331
3424
  5
3424
331
342C
  5
342C
331
3711
  5
3711
331
36E2
  5
36F7
331
3434
  5
3434
331
37B1
  5
37B1
331
343C
  5
343C
331
36F2
  5
3707
331
3444
  5
3444
331
308E
  5
308E
331
E8
  5
E8
331
2F6
  5
2F6
331
37E1
  5
37E2
331
344C
  5
344C
331
1E7
  5
1E7
331
138
  5
138
331
35BB
  5
35BB
331
37E9
  5
37EA
331
3702
  5
36F1
331
3454
  5
3454
331
35F3
  5
35FD
331
345C
  5
345C
331
35FB
  5
35F8
331
3425
  5
3425
331
28F
  5
28F
331
342D
  5
342D
331
2AF
  5
2AF
331
3712
  5
3712
331
36E3
  5
36F8
331
198
  5
198
331
3435
  5
3435
331
37B2
  5
37B2
331
36EB
  5
3700
331
343D
  5
343D
331
2D7
  5
2D7
331
36F3
  5
36E4
331
3445
  5
3445
331
37E2
  5
37E3
331
36FB
  5
3654
331
344D
  5
344D
331
37EA
  5
37EB
331
3703
  5
36F2
331
230
  5
230
331
3455
  5
3455
331
35F4
  5
35FE
331
345D
  5
345D
331
3426
  5
3426
331
43F
  5
43F
331
3713
  5
3713
331
3029
  5
3029
331
342E
  5
342E
331
37B3
  5
37B3
331
36EC
  5
3701
331
343E
  5
343E
331
36F4
  5
36E6
331
3446
  5
3446
331
37E3
  5
37E4
331
36FC
  5
3684
331
344E
  5
344E
331
33A7
  5
33A7
331
37EB
  5
37DC
331
3456
  5
3456
331
35F5
  5
35FA
331
345E
  5
345E
331
341F
  5
341F
331
35FD
  5
35FF
331
3427
  5
3427
331
4F8
  5
4F8
331
3714
  5
3714
331
342F
  5
342F
331
36E5
  5
36FA
331
3437
  5
3437
331
3388
  5
3388
331
36F5
  5
36E7
331
3447
  5
3447
331
1C2
  5
1C2
331
3091
  5
3091
331
37E4
  5
37E5
331
36FD
  5
369C
331
20A
  5
20A
331
344F
  5
344F
331
3705
  5
36F4
331
35EE
  5
35EE
331
3457
  5
3457
331
35F6
  5
35F3
331
345F
  5
345F
331
3420
  5
3420
331
3428
  5
3428
331
3072
  5
3072
331
3715
  5
3715
331
302B
  5
302B
331
521
  5
521
331
193
  5
193
331
3430
  5
3430
331
36E6
  5
36FB
331
3438
  5
3438
331
36EE
  5
3703
331
3440
  5
3440
331
1C3
  5
1C3
331
3448
  5
3448
331
3092
  5
3092
331
37E5
  5
37E6
331
36FE
  5
36E1
331
3450
  5
3450
331
39A
  5
39A
331
33B9
  5
33B9
331
3706
  5
36F5
331
3458
  5
3458
331
233
  5
233
331
370E
  5
370E
331
35F7
  5
35F6
331
3421
  5
3421
331
35FF
  5
35F2
331
3460
  5
3460
331
3429
  5
3429
331
174
  5
174
331
3716
  5
3716
331
3431
  5
3431
331
194
  5
194
331
B5
  5
B5
331
302C
  5
302C
331
3439
  5
3439
331
BD
  5
BD
331
3034
  5
3034
331
36EF
  5
3704
331
3548
  5
3548
331
3441
  5
3441
331
36F7
  5
36E9
331
1C4
  5
1C4
331
3449
  5
3449
331
3093
  5
3093
331
2FB
  5
2FB
331
37E6
  5
37E7
331
36FF
  5
36E2
331
3451
  5
3451
331
3054
  5
3054
331
3707
  5
36EF
331
35F0
  5
35F7
331
3459
  5
3459
331
370F
  5
370F
331
35F8
  5
35FB
331
3422
  5
3422
331
3600
  5
35F0
331
342A
  5
342A
331
2B4
  5
2B4
331
195
  5
195
331
B6
  5
B6
331
302D
  5
302D
331
36E8
  5
36FD
331
343A
  5
343A
331
BE
  5
BE
331
3442
  5
3442
331
308C
  5
308C
331
37DF
  5
37E0
331
36F8
  5
36EA
331
344A
  5
344A
331
3094
  5
3094
331
2FC
  5
2FC
331
1E5
  5
1E5
331
136
  5
136
331
37E7
  5
37E8
331
3700
  5
36E3
331
39C
  5
39C
331
20D
  5
20D
331
3452
  5
3452
331
345A
  5
345A
331
3423
  5
3423
331
166
  5
166
331
3462
  5
3462
331
342B
  5
342B
331
3710
  5
3710
331
2B5
  5
2B5
331
B7
  5
B7
331
36E9
  5
36FE
331
343B
  5
343B
331
3036
  5
3036
331
36F1
  5
3706
331
3443
  5
3443
  0
XRECORD
  5
3B60
102
{ACAD_REACTORS
330
3B5F
102
}
330
3B5F
100
AcDbXrecord
280
     1
 40
5790.0
  1
\A1;\U+2205514
  0
XRECORD
  5
3B5C
102
{ACAD_REACTORS
330
3B5B
102
}
330
3B5B
100
AcDbXrecord
280
     1
 40
5760.0
  1
\A1;\U+2205530
  0
XRECORD
  5
3B5E
102
{ACAD_REACTORS
330
3B5D
102
}
330
3B5D
100
AcDbXrecord
280
     1
 40
5912.0
  1
\A1;\U+2205559
  0
DIMASSOC
  5
3047
102
{ACAD_REACTORS
330
3040
102
}
330
3040
100
AcDbDimAssoc
330
3036
 90
        2
 70
     0
 71
     0
  1
AcDbOsnapPointRef
 72
     3
331
302C
 73
     2
 91
        0
 40
0.0
 10
0.0
 20
0.0
 30
0.0
 75
     0
  0
DIMASSOC
  5
3065
102
{ACAD_REACTORS
330
305E
102
}
330
305E
100
AcDbDimAssoc
330
3054
 90
        2
 70
     0
 71
     0
  1
AcDbOsnapPointRef
 72
     3
331
3029
 73
     2
 91
        0
 40
0.0
 10
0.0
 20
0.0
 30
0.0
 75
     0
  0
DIMASSOC
  5
3083
102
{ACAD_REACTORS
330
307C
102
}
330
307C
100
AcDbDimAssoc
330
3072
 90
        2
 70
     0
 71
     0
  1
AcDbOsnapPointRef
 72
     3
331
302B
 73
     2
 91
        0
 40
0.0
 10
0.0
 20
0.0
 30
0.0
 75
     0
  0
XRECORD
  5
3B1E
102
{ACAD_REACTORS
330
3B1D
102
}
330
3B1D
100
AcDbXrecord
280
     1
 40
0.18
  0
LAYOUT
  5
25
102
{ACAD_XDICTIONARY
360
3B22
102
}
102
{ACAD_REACTORS
330
19
102
}
330
19
100
AcDbPlotSettings
  1

  2
Adobe PDF
  4
A4
  6

 40
3.174999952316284
 41
3.174999952316284
 42
3.175003051757812
 43
3.17498779296875
 44
209.9098358154297
 45
297.0318298339844
 46
0.0
 47
0.0
 48
0.0
 49
0.0
140
0.0
141
0.0
142
1.0
143
497.270370310351
 70
 11952
 72
     0
 73
     1
 74
     0
  7
Adobe PDF
 75
     0
147
0.002010978452981
148
-978873.8611916146
149
111698.2313758976
100
AcDbLayout
  1
Model
 70
     1
 71
     0
 10
0.0
 20
0.0
 11
12.0
 21
9.0
 12
0.0
 22
0.0
 32
0.0
 14
0.0
 24
0.0
 34
0.0
 15
0.0
 25
0.0
 35
0.0
146
0.0
 13
0.0
 23
0.0
 33
0.0
 16
1.0
 26
0.0
 36
0.0
 17
0.0
 27
1.0
 37
0.0
 76
     0
330
22
331
2C66
1001
ACAD_PSEXT
1000
Adobe PDF
1000
Adobe PDF Converter
1000
My Documents
1000
Creates Adobe PDF
1070
     0
  0
LAYOUT
  5
21
102
{ACAD_XDICTIONARY
360
3B20
102
}
102
{ACAD_REACTORS
330
19
102
}
330
19
100
AcDbPlotSettings
  1

  2
Adobe PDF
  4

  6

 40
0.0
 41
0.0
 42
0.0
 43
0.0
 44
0.0
 45
0.0
 46
0.0
 47
0.0
 48
0.0
 49
0.0
140
0.0
141
0.0
142
1.0
143
1.0
 70
   688
 72
     0
 73
     0
 74
     5
  7
Adobe PDF
 75
    16
147
1.0
148
0.0
149
0.0
100
AcDbLayout
  1
レイアウト1
 70
     0
 71
     1
 10
0.0
 20
0.0
 11
12.0
 21
9.0
 12
0.0
 22
0.0
 32
0.0
 14
1.000000000000000E+20
 24
1.000000000000000E+20
 34
1.000000000000000E+20
 15
-1.000000000000000E+20
 25
-1.000000000000000E+20
 35
-1.000000000000000E+20
146
0.0
 13
0.0
 23
0.0
 33
0.0
 16
1.0
 26
0.0
 36
0.0
 17
0.0
 27
1.0
 37
0.0
 76
     0
330
1E
  0
MATERIAL
  5
2C70
102
{ACAD_XDICTIONARY
360
2C71
102
}
102
{ACAD_REACTORS
330
1A
102
}
330
1A
100
AcDbMaterial
  1
ByBlock
 72
     0
 43
0.0208333333333333
 43
0.0
 43
0.0
 43
0.0
 43
0.0
 43
0.0208333333333333
 43
0.0
 43
0.0
 43
0.0
 43
0.0
 43
1.0
 43
0.0
 43
0.0
 43
0.0
 43
0.0
 43
1.0
 77
     0
 47
0.0208333333333333
 47
0.0
 47
0.0
 47
0.0
 47
0.0
 47
0.0208333333333333
 47
0.0
 47
0.0
 47
0.0
 47
0.0
 47
1.0
 47
0.0
 47
0.0
 47
0.0
 47
0.0
 47
1.0
171
     0
 49
0.0208333333333333
 49
0.0
 49
0.0
 49
0.0
 49
0.0
 49
0.0208333333333333
 49
0.0
 49
0.0
 49
0.0
 49
0.0
 49
1.0
 49
0.0
 49
0.0
 49
0.0
 49
0.0
 49
1.0
175
     0
142
0.0208333333333333
142
0.0
142
0.0
142
0.0
142
0.0
142
0.0208333333333333
142
0.0
142
0.0
142
0.0
142
0.0
142
1.0
142
0.0
142
0.0
142
0.0
142
0.0
142
1.0
179
     0
144
0.0208333333333333
144
0.0
144
0.0
144
0.0
144
0.0
144
0.0208333333333333
144
0.0
144
0.0
144
0.0
144
0.0
144
1.0
144
0.0
144
0.0
144
0.0
144
0.0
144
1.0
147
0.0208333333333333
147
0.0
147
0.0
147
0.0
147
0.0
147
0.0208333333333333
147
0.0
147
0.0
147
0.0
147
0.0
147
1.0
147
0.0
147
0.0
147
0.0
147
0.0
147
1.0
  0
MATERIAL
  5
2C68
102
{ACAD_XDICTIONARY
360
2C69
102
}
102
{ACAD_REACTORS
330
1A
102
}
330
1A
100
AcDbMaterial
  1
ByLayer
 72
     0
 43
0.0208333333333333
 43
0.0
 43
0.0
 43
0.0
 43
0.0
 43
0.0208333333333333
 43
0.0
 43
0.0
 43
0.0
 43
0.0
 43
1.0
 43
0.0
 43
0.0
 43
0.0
 43
0.0
 43
1.0
 77
     0
 47
0.0208333333333333
 47
0.0
 47
0.0
 47
0.0
 47
0.0
 47
0.0208333333333333
 47
0.0
 47
0.0
 47
0.0
 47
0.0
 47
1.0
 47
0.0
 47
0.0
 47
0.0
 47
0.0
 47
1.0
171
     0
 49
0.0208333333333333
 49
0.0
 49
0.0
 49
0.0
 49
0.0
 49
0.0208333333333333
 49
0.0
 49
0.0
 49
0.0
 49
0.0
 49
1.0
 49
0.0
 49
0.0
 49
0.0
 49
0.0
 49
1.0
175
     0
142
0.0208333333333333
142
0.0
142
0.0
142
0.0
142
0.0
142
0.0208333333333333
142
0.0
142
0.0
142
0.0
142
0.0
142
1.0
142
0.0
142
0.0
142
0.0
142
0.0
142
1.0
179
     0
144
0.0208333333333333
144
0.0
144
0.0
144
0.0
144
0.0
144
0.0208333333333333
144
0.0
144
0.0
144
0.0
144
0.0
144
1.0
144
0.0
144
0.0
144
0.0
144
0.0
144
1.0
147
0.0208333333333333
147
0.0
147
0.0
147
0.0
147
0.0
147
0.0208333333333333
147
0.0
147
0.0
147
0.0
147
0.0
147
1.0
147
0.0
147
0.0
147
0.0
147
0.0
147
1.0
  0
MATERIAL
  5
2C78
102
{ACAD_XDICTIONARY
360
2C79
102
}
102
{ACAD_REACTORS
330
1A
102
}
330
1A
100
AcDbMaterial
  1
Global
 72
     0
 43
0.0208333333333333
 43
0.0
 43
0.0
 43
0.0
 43
0.0
 43
0.0208333333333333
 43
0.0
 43
0.0
 43
0.0
 43
0.0
 43
1.0
 43
0.0
 43
0.0
 43
0.0
 43
0.0
 43
1.0
 77
     0
 47
0.0208333333333333
 47
0.0
 47
0.0
 47
0.0
 47
0.0
 47
0.0208333333333333
 47
0.0
 47
0.0
 47
0.0
 47
0.0
 47
1.0
 47
0.0
 47
0.0
 47
0.0
 47
0.0
 47
1.0
171
     0
 49
0.0208333333333333
 49
0.0
 49
0.0
 49
0.0
 49
0.0
 49
0.0208333333333333
 49
0.0
 49
0.0
 49
0.0
 49
0.0
 49
1.0
 49
0.0
 49
0.0
 49
0.0
 49
0.0
 49
1.0
175
     0
142
0.0208333333333333
142
0.0
142
0.0
142
0.0
142
0.0
142
0.0208333333333333
142
0.0
142
0.0
142
0.0
142
0.0
142
1.0
142
0.0
142
0.0
142
0.0
142
0.0
142
1.0
179
     0
144
0.0208333333333333
144
0.0
144
0.0
144
0.0
144
0.0
144
0.0208333333333333
144
0.0
144
0.0
144
0.0
144
0.0
144
1.0
144
0.0
144
0.0
144
0.0
144
0.0
144
1.0
147
0.0208333333333333
147
0.0
147
0.0
147
0.0
147
0.0
147
0.0208333333333333
147
0.0
147
0.0
147
0.0
147
0.0
147
1.0
147
0.0
147
0.0
147
0.0
147
0.0
147
1.0
  0
MLEADERSTYLE
  5
2CB4
102
{ACAD_REACTORS
330
2CB3
102
}
330
2CB3
100
AcDbMLeaderStyle
170
     2
171
     1
172
     0
 90
        2
 40
0.0
 41
0.0
173
     1
 91
-1056964608
340
13
 92
       -2
290
     1
 42
0.09
291
     1
 43
0.36
  3
Standard
 44
0.18
300

342
11
174
     1
178
     6
175
     1
176
     0
 93
-1056964608
 45
0.18
292
     0
297
     0
 46
0.18
 94
-1056964608
 47
1.0
 49
1.0
140
1.0
293
     1
141
0.0
294
     1
177
     0
142
1.0
295
     0
296
     0
143
0.125
1001
ACAD_MLEADERVER
1070
     2
  0
MLINESTYLE
  5
17
102
{ACAD_REACTORS
330
16
102
}
330
16
100
AcDbMlineStyle
  2
STANDARD
 70
     0
  3

 62
   256
 51
90.0
 52
90.0
 71
     2
 49
0.5
 62
   256
  6
BYLAYER
 49
-0.5
 62
   256
  6
BYLAYER
  0
ACDBPLACEHOLDER
  5
F
102
{ACAD_REACTORS
330
E
102
}
330
E
  0
SCALE
  5
2C92
102
{ACAD_REACTORS
330
2C91
102
}
330
2C91
100
AcDbScale
 70
     0
300
1:1
140
1.0
141
1.0
290
     1
  0
SCALE
  5
2C93
102
{ACAD_REACTORS
330
2C91
102
}
330
2C91
100
AcDbScale
 70
     0
300
1:2
140
1.0
141
2.0
290
     0
  0
SCALE
  5
2C94
102
{ACAD_REACTORS
330
2C91
102
}
330
2C91
100
AcDbScale
 70
     0
300
1:4
140
1.0
141
4.0
290
     0
  0
SCALE
  5
2C95
102
{ACAD_REACTORS
330
2C91
102
}
330
2C91
100
AcDbScale
 70
     0
300
1:5
140
1.0
141
5.0
290
     0
  0
SCALE
  5
2C96
102
{ACAD_REACTORS
330
2C91
102
}
330
2C91
100
AcDbScale
 70
     0
300
1:8
140
1.0
141
8.0
290
     0
  0
SCALE
  5
2C97
102
{ACAD_REACTORS
330
2C91
102
}
330
2C91
100
AcDbScale
 70
     0
300
1:10
140
1.0
141
10.0
290
     0
  0
SCALE
  5
2C98
102
{ACAD_REACTORS
330
2C91
102
}
330
2C91
100
AcDbScale
 70
     0
300
1:16
140
1.0
141
16.0
290
     0
  0
SCALE
  5
2C99
102
{ACAD_REACTORS
330
2C91
102
}
330
2C91
100
AcDbScale
 70
     0
300
1:20
140
1.0
141
20.0
290
     0
  0
SCALE
  5
2C9A
102
{ACAD_REACTORS
330
2C91
102
}
330
2C91
100
AcDbScale
 70
     0
300
1:30
140
1.0
141
30.0
290
     0
  0
SCALE
  5
2C9B
102
{ACAD_REACTORS
330
2C91
102
}
330
2C91
100
AcDbScale
 70
     0
300
1:40
140
1.0
141
40.0
290
     0
  0
SCALE
  5
2C9C
102
{ACAD_REACTORS
330
2C91
102
}
330
2C91
100
AcDbScale
 70
     0
300
1:50
140
1.0
141
50.0
290
     0
  0
SCALE
  5
2C9D
102
{ACAD_REACTORS
330
2C91
102
}
330
2C91
100
AcDbScale
 70
     0
300
1:100
140
1.0
141
100.0
290
     0
  0
SCALE
  5
2C9E
102
{ACAD_REACTORS
330
2C91
102
}
330
2C91
100
AcDbScale
 70
     0
300
2:1
140
2.0
141
1.0
290
     0
  0
SCALE
  5
2C9F
102
{ACAD_REACTORS
330
2C91
102
}
330
2C91
100
AcDbScale
 70
     0
300
4:1
140
4.0
141
1.0
290
     0
  0
SCALE
  5
2CA0
102
{ACAD_REACTORS
330
2C91
102
}
330
2C91
100
AcDbScale
 70
     0
300
8:1
140
8.0
141
1.0
290
     0
  0
SCALE
  5
2CA1
102
{ACAD_REACTORS
330
2C91
102
}
330
2C91
100
AcDbScale
 70
     0
300
10:1
140
10.0
141
1.0
290
     0
  0
SCALE
  5
2CA2
102
{ACAD_REACTORS
330
2C91
102
}
330
2C91
100
AcDbScale
 70
     0
300
100:1
140
100.0
141
1.0
290
     0
  0
SCALE
  5
2CA3
102
{ACAD_REACTORS
330
2C91
102
}
330
2C91
100
AcDbScale
 70
     0
300
1/128" = 1'-0"
140
0.0078125
141
12.0
290
     0
  0
SCALE
  5
2CA4
102
{ACAD_REACTORS
330
2C91
102
}
330
2C91
100
AcDbScale
 70
     0
300
1/64" = 1'-0"
140
0.015625
141
12.0
290
     0
  0
SCALE
  5
2CA5
102
{ACAD_REACTORS
330
2C91
102
}
330
2C91
100
AcDbScale
 70
     0
300
1/32" = 1'-0"
140
0.03125
141
12.0
290
     0
  0
SCALE
  5
2CA6
102
{ACAD_REACTORS
330
2C91
102
}
330
2C91
100
AcDbScale
 70
     0
300
1/16" = 1'-0"
140
0.0625
141
12.0
290
     0
  0
SCALE
  5
2CA7
102
{ACAD_REACTORS
330
2C91
102
}
330
2C91
100
AcDbScale
 70
     0
300
3/32" = 1'-0"
140
0.09375
141
12.0
290
     0
  0
SCALE
  5
2CA8
102
{ACAD_REACTORS
330
2C91
102
}
330
2C91
100
AcDbScale
 70
     0
300
1/8" = 1'-0"
140
0.125
141
12.0
290
     0
  0
SCALE
  5
2CA9
102
{ACAD_REACTORS
330
2C91
102
}
330
2C91
100
AcDbScale
 70
     0
300
3/16" = 1'-0"
140
0.1875
141
12.0
290
     0
  0
SCALE
  5
2CAA
102
{ACAD_REACTORS
330
2C91
102
}
330
2C91
100
AcDbScale
 70
     0
300
1/4" = 1'-0"
140
0.25
141
12.0
290
     0
  0
SCALE
  5
2CAB
102
{ACAD_REACTORS
330
2C91
102
}
330
2C91
100
AcDbScale
 70
     0
300
3/8" = 1'-0"
140
0.375
141
12.0
290
     0
  0
SCALE
  5
2CAC
102
{ACAD_REACTORS
330
2C91
102
}
330
2C91
100
AcDbScale
 70
     0
300
1/2" = 1'-0"
140
0.5
141
12.0
290
     0
  0
SCALE
  5
2CAD
102
{ACAD_REACTORS
330
2C91
102
}
330
2C91
100
AcDbScale
 70
     0
300
3/4" = 1'-0"
140
0.75
141
12.0
290
     0
  0
SCALE
  5
2CAE
102
{ACAD_REACTORS
330
2C91
102
}
330
2C91
100
AcDbScale
 70
     0
300
1" = 1'-0"
140
1.0
141
12.0
290
     0
  0
SCALE
  5
2CAF
102
{ACAD_REACTORS
330
2C91
102
}
330
2C91
100
AcDbScale
 70
     0
300
1-1/2" = 1'-0"
140
1.5
141
12.0
290
     0
  0
SCALE
  5
2CB0
102
{ACAD_REACTORS
330
2C91
102
}
330
2C91
100
AcDbScale
 70
     0
300
3" = 1'-0"
140
3.0
141
12.0
290
     0
  0
SCALE
  5
2CB1
102
{ACAD_REACTORS
330
2C91
102
}
330
2C91
100
AcDbScale
 70
     0
300
6" = 1'-0"
140
6.0
141
12.0
290
     0
  0
SCALE
  5
2CB2
102
{ACAD_REACTORS
330
2C91
102
}
330
2C91
100
AcDbScale
 70
     0
300
1'-0" = 1'-0"
140
12.0
141
12.0
290
     0
  0
TABLESTYLE
  5
1D
102
{ACAD_XDICTIONARY
360
2D5C
102
}
102
{ACAD_REACTORS
330
1C
102
}
330
1C
100
AcDbTableStyle
  3
Standard
 70
     0
 71
     0
 40
0.06
 41
0.06
280
     0
281
     0
  7
STANDARD
140
0.18
170
     2
 62
     0
 63
     7
283
     0
274
    -2
284
     1
 64
     0
275
    -2
285
     1
 65
     0
276
    -2
286
     1
 66
     0
277
    -2
287
     1
 67
     0
278
    -2
288
     1
 68
     0
279
    -2
289
     1
 69
     0
  7
STANDARD
140
0.25
170
     5
 62
     0
 63
     7
283
     0
274
    -2
284
     1
 64
     0
275
    -2
285
     1
 65
     0
276
    -2
286
     1
 66
     0
277
    -2
287
     1
 67
     0
278
    -2
288
     1
 68
     0
279
    -2
289
     1
 69
     0
  7
STANDARD
140
0.18
170
     5
 62
     0
 63
     7
283
     0
274
    -2
284
     1
 64
     0
275
    -2
285
     1
 65
     0
276
    -2
286
     1
 66
     0
277
    -2
287
     1
 67
     0
278
    -2
288
     1
 68
     0
279
    -2
289
     1
 69
     0
  0
VISUALSTYLE
  5
2C86
102
{ACAD_XDICTIONARY
360
3B31
102
}
102
{ACAD_REACTORS
330
2C80
102
}
330
2C80
100
AcDbVisualStyle
  2
2dWireframe
 70
     4
 71
     0
 72
     2
 73
     0
 90
        0
 40
-0.6
 41
-30.0
 62
     5
 63
     7
 74
     1
 91
        4
 64
     7
 65
   257
 75
     1
175
     1
 42
1.0
 92
        0
 66
   257
 43
1.0
 76
     1
 77
     6
 78
     2
 67
     7
 79
     5
170
     0
171
     0
290
     0
174
     0
 93
        1
 44
0.0
173
     0
291
     0
 45
0.0
1001
ACAD
1000
AcDbSavedByObjectVersion
1070
     0
  0
VISUALSTYLE
  5
2C88
102
{ACAD_XDICTIONARY
360
3B35
102
}
102
{ACAD_REACTORS
330
2C80
102
}
330
2C80
100
AcDbVisualStyle
  2
3D Hidden
 70
     6
 71
     1
 72
     2
 73
     2
 90
        0
 40
-0.6
 41
-30.0
 62
     5
 63
     7
 74
     2
 91
        2
 64
     7
 65
   257
 75
     2
175
     1
 42
40.0
 92
        0
 66
   257
 43
1.0
 76
     1
 77
     6
 78
     2
 67
     7
 79
     3
170
     0
171
     0
290
     0
174
     0
 93
        1
 44
0.0
173
     0
291
     0
 45
0.0
1001
ACAD
1000
AcDbSavedByObjectVersion
1070
     0
  0
VISUALSTYLE
  5
2C87
102
{ACAD_XDICTIONARY
360
3B33
102
}
102
{ACAD_REACTORS
330
2C80
102
}
330
2C80
100
AcDbVisualStyle
  2
3dWireframe
 70
     5
 71
     0
 72
     2
 73
     0
 90
        0
 40
-0.6
 41
-30.0
 62
     5
 63
     7
 74
     1
 91
        4
 64
     7
 65
   257
 75
     1
175
     1
 42
1.0
 92
        0
 66
   257
 43
1.0
 76
     1
 77
     6
 78
     2
 67
     7
 79
     5
170
     0
171
     0
290
     0
174
     0
 93
        1
 44
0.0
173
     0
291
     0
 45
0.0
1001
ACAD
1000
AcDbSavedByObjectVersion
1070
     0
  0
VISUALSTYLE
  5
2C85
102
{ACAD_XDICTIONARY
360
3B2F
102
}
102
{ACAD_REACTORS
330
2C80
102
}
330
2C80
100
AcDbVisualStyle
  2
Basic
 70
     7
 71
     1
 72
     0
 73
     1
 90
        0
 40
-0.6
 41
-30.0
 62
     5
 63
     7
 74
     0
 91
        4
 64
     7
 65
   257
 75
     1
175
     1
 42
1.0
 92
        8
 66
     7
 43
1.0
 76
     1
 77
     6
 78
     2
 67
     7
 79
     5
170
     0
171
     0
290
     0
174
     0
 93
        1
 44
0.0
173
     0
291
     1
 45
0.0
1001
ACAD
1000
AcDbSavedByObjectVersion
1070
     0
  0
VISUALSTYLE
  5
2C8C
102
{ACAD_XDICTIONARY
360
3B3D
102
}
102
{ACAD_REACTORS
330
2C80
102
}
330
2C80
100
AcDbVisualStyle
  2
Brighten
 70
    12
 71
     2
 72
     2
 73
     0
 90
        0
 40
-0.6
 41
-30.0
 62
     5
 63
     7
 74
     1
 91
        4
 64
     7
 65
   257
 75
     1
175
     1
 42
1.0
 92
        8
 66
     7
 43
1.0
 76
     1
 77
     6
 78
     2
 67
     7
 79
     5
170
     0
171
     0
290
     0
174
     0
 93
        1
 44
50.0
173
     0
291
     1
 45
0.0
1001
ACAD
1000
AcDbSavedByObjectVersion
1070
     0
  0
VISUALSTYLE
  5
2C90
102
{ACAD_XDICTIONARY
360
3B45
102
}
102
{ACAD_REACTORS
330
2C80
102
}
330
2C80
100
AcDbVisualStyle
  2
ColorChange
 70
    16
 71
     2
 72
     2
 73
     3
 90
        0
 40
-0.6
 41
-30.0
 62
     5
 63
     8
 74
     1
 91
        4
 64
     7
 65
   257
 75
     1
175
     1
 42
1.0
 92
        8
 66
     8
 43
1.0
 76
     1
 77
     6
 78
     2
 67
     7
 79
     5
170
     0
171
     0
290
     0
174
     0
 93
        1
 44
0.0
173
     0
291
     1
 45
0.0
1001
ACAD
1000
AcDbSavedByObjectVersion
1070
     0
  0
VISUALSTYLE
  5
2C89
102
{ACAD_XDICTIONARY
360
3B37
102
}
102
{ACAD_REACTORS
330
2C80
102
}
330
2C80
100
AcDbVisualStyle
  2
Conceptual
 70
     9
 71
     3
 72
     2
 73
     0
 90
        0
 40
-0.6
 41
-30.0
 62
     5
 63
     7
 74
     2
 91
        2
 64
     7
 65
   257
 75
     1
175
     1
 42
40.0
 92
        8
 66
     7
 43
1.0
 76
     1
 77
     6
 78
     2
 67
     7
 79
     3
170
     0
171
     0
290
     0
174
     0
 93
        1
 44
0.0
173
     0
291
     0
 45
0.0
1001
ACAD
1000
AcDbSavedByObjectVersion
1070
     0
  0
VISUALSTYLE
  5
2C8B
102
{ACAD_XDICTIONARY
360
3B3B
102
}
102
{ACAD_REACTORS
330
2C80
102
}
330
2C80
100
AcDbVisualStyle
  2
Dim
 70
    11
 71
     2
 72
     2
 73
     0
 90
        0
 40
-0.6
 41
-30.0
 62
     5
 63
     7
 74
     1
 91
        4
 64
     7
 65
   257
 75
     1
175
     1
 42
1.0
 92
        8
 66
     7
 43
1.0
 76
     1
 77
     6
 78
     2
 67
     7
 79
     5
170
     0
171
     0
290
     0
174
     0
 93
        1
 44
-50.0
173
     0
291
     1
 45
0.0
1001
ACAD
1000
AcDbSavedByObjectVersion
1070
     0
  0
VISUALSTYLE
  5
3020
102
{ACAD_XDICTIONARY
360
3B59
102
}
102
{ACAD_REACTORS
330
2C80
102
}
330
2C80
100
AcDbVisualStyle
  2
EdgeColorOff
 70
    22
 71
     2
 72
     2
 73
     0
 90
        0
 40
-0.6
 41
-30.0
 62
     5
 63
     7
 74
     1
 91
        4
 64
     7
 65
   257
 75
     1
175
     1
 42
1.0
 92
        8
 66
     7
 43
1.0
 76
     1
 77
     6
 78
     2
 67
     7
 79
     5
170
     0
171
     0
290
     0
174
     0
 93
        1
 44
0.0
173
     0
291
     1
 45
0.0
1001
ACAD
1000
AcDbSavedByObjectVersion
1070
     0
  0
VISUALSTYLE
  5
2C8F
102
{ACAD_XDICTIONARY
360
3B43
102
}
102
{ACAD_REACTORS
330
2C80
102
}
330
2C80
100
AcDbVisualStyle
  2
Facepattern
 70
    15
 71
     2
 72
     2
 73
     0
 90
        0
 40
-0.6
 41
-30.0
 62
     5
 63
     7
 74
     1
 91
        4
 64
     7
 65
   257
 75
     1
175
     1
 42
1.0
 92
        8
 66
     7
 43
1.0
 76
     1
 77
     6
 78
     2
 67
     7
 79
     5
170
     0
171
     0
290
     0
174
     0
 93
        1
 44
0.0
173
     0
291
     1
 45
0.0
1001
ACAD
1000
AcDbSavedByObjectVersion
1070
     0
  0
VISUALSTYLE
  5
2C81
102
{ACAD_XDICTIONARY
360
3B27
102
}
102
{ACAD_REACTORS
330
2C80
102
}
330
2C80
100
AcDbVisualStyle
  2
Flat
 70
     0
 71
     2
 72
     1
 73
     1
 90
        2
 40
-0.6
 41
30.0
 62
     5
 63
     7
 74
     0
 91
        4
 64
     7
 65
   257
 75
     1
175
     1
 42
1.0
 92
        8
 66
     7
 43
1.0
 76
     1
 77
     6
 78
     2
 67
     7
 79
     5
170
     0
171
     0
290
     0
174
     0
 93
       13
 44
0.0
173
     0
291
     1
 45
0.0
1001
ACAD
1000
AcDbSavedByObjectVersion
1070
     0
  0
VISUALSTYLE
  5
2C82
102
{ACAD_XDICTIONARY
360
3B29
102
}
102
{ACAD_REACTORS
330
2C80
102
}
330
2C80
100
AcDbVisualStyle
  2
FlatWithEdges
 70
     1
 71
     2
 72
     1
 73
     1
 90
        2
 40
-0.6
 41
30.0
 62
     5
 63
     7
 74
     1
 91
        4
 64
     7
 65
   257
 75
     1
175
     1
 42
1.0
 92
        0
 66
   257
 43
1.0
 76
     1
 77
     6
 78
     2
 67
     7
 79
     5
170
     0
171
     0
290
     0
174
     0
 93
       13
 44
0.0
173
     0
291
     1
 45
0.0
1001
ACAD
1000
AcDbSavedByObjectVersion
1070
     0
  0
VISUALSTYLE
  5
2C83
102
{ACAD_XDICTIONARY
360
3B2B
102
}
102
{ACAD_REACTORS
330
2C80
102
}
330
2C80
100
AcDbVisualStyle
  2
Gouraud
 70
     2
 71
     2
 72
     2
 73
     1
 90
        2
 40
-0.6
 41
30.0
 62
     5
 63
     7
 74
     0
 91
        4
 64
     7
 65
   257
 75
     1
175
     1
 42
1.0
 92
        0
 66
     7
 43
1.0
 76
     1
 77
     6
 78
     2
 67
     7
 79
     5
170
     0
171
     0
290
     0
174
     0
 93
       13
 44
0.0
173
     0
291
     1
 45
0.0
1001
ACAD
1000
AcDbSavedByObjectVersion
1070
     0
  0
VISUALSTYLE
  5
2C84
102
{ACAD_XDICTIONARY
360
3B2D
102
}
102
{ACAD_REACTORS
330
2C80
102
}
330
2C80
100
AcDbVisualStyle
  2
GouraudWithEdges
 70
     3
 71
     2
 72
     2
 73
     1
 90
        2
 40
-0.6
 41
30.0
 62
     5
 63
     7
 74
     1
 91
        4
 64
     7
 65
   257
 75
     1
175
     1
 42
1.0
 92
        0
 66
   257
 43
1.0
 76
     1
 77
     6
 78
     2
 67
     7
 79
     5
170
     0
171
     0
290
     0
174
     0
 93
       13
 44
0.0
173
     0
291
     1
 45
0.0
1001
ACAD
1000
AcDbSavedByObjectVersion
1070
     0
  0
VISUALSTYLE
  5
3018
102
{ACAD_XDICTIONARY
360
3B49
102
}
102
{ACAD_REACTORS
330
2C80
102
}
330
2C80
100
AcDbVisualStyle
  2
Hidden
 70
     6
 71
     1
 72
     2
 73
     2
 90
        0
 40
-0.6
 41
-30.0
 62
     5
 63
     7
 74
     2
 91
        2
 64
     7
 65
   257
 75
     2
175
     1
 42
40.0
 92
        0
 66
   257
 43
1.0
 76
     1
 77
     6
 78
     2
 67
     7
 79
     3
170
     0
171
     0
290
     0
174
     0
 93
        1
 44
0.0
173
     0
291
     0
 45
0.0
1001
ACAD
1000
AcDbSavedByObjectVersion
1070
     0
  0
VISUALSTYLE
  5
301E
102
{ACAD_XDICTIONARY
360
3B55
102
}
102
{ACAD_REACTORS
330
2C80
102
}
330
2C80
100
AcDbVisualStyle
  2
JitterOff
 70
    20
 71
     2
 72
     2
 73
     0
 90
        0
 40
-0.6
 41
-30.0
 62
     5
 63
     7
 74
     1
 91
        4
 64
     7
 65
   257
 75
     1
175
     1
 42
1.0
 92
       10
 66
     7
 43
1.0
 76
     1
 77
     6
 78
     2
 67
     7
 79
     5
170
     0
171
     0
290
     0
174
     0
 93
        1
 44
0.0
173
     0
291
     1
 45
0.0
1001
ACAD
1000
AcDbSavedByObjectVersion
1070
     0
  0
VISUALSTYLE
  5
2C8E
102
{ACAD_XDICTIONARY
360
3B41
102
}
102
{ACAD_REACTORS
330
2C80
102
}
330
2C80
100
AcDbVisualStyle
  2
Linepattern
 70
    14
 71
     2
 72
     2
 73
     0
 90
        0
 40
-0.6
 41
-30.0
 62
     5
 63
     7
 74
     1
 91
        4
 64
     7
 65
   257
 75
     7
175
     7
 42
1.0
 92
        8
 66
     7
 43
1.0
 76
     1
 77
     6
 78
     2
 67
     7
 79
     5
170
     0
171
     0
290
     0
174
     0
 93
        1
 44
0.0
173
     0
291
     1
 45
0.0
1001
ACAD
1000
AcDbSavedByObjectVersion
1070
     0
  0
VISUALSTYLE
  5
301F
102
{ACAD_XDICTIONARY
360
3B57
102
}
102
{ACAD_REACTORS
330
2C80
102
}
330
2C80
100
AcDbVisualStyle
  2
OverhangOff
 70
    21
 71
     2
 72
     2
 73
     0
 90
        0
 40
-0.6
 41
-30.0
 62
     5
 63
     7
 74
     1
 91
        4
 64
     7
 65
   257
 75
     1
175
     1
 42
1.0
 92
        9
 66
     7
 43
1.0
 76
     1
 77
     6
 78
     2
 67
     7
 79
     5
170
     0
171
     0
290
     0
174
     0
 93
        1
 44
0.0
173
     0
291
     1
 45
0.0
1001
ACAD
1000
AcDbSavedByObjectVersion
1070
     0
  0
VISUALSTYLE
  5
2C8A
102
{ACAD_XDICTIONARY
360
3B39
102
}
102
{ACAD_REACTORS
330
2C80
102
}
330
2C80
100
AcDbVisualStyle
  2
Realistic
 70
     8
 71
     2
 72
     2
 73
     0
 90
        0
 40
-0.6
 41
-30.0
 62
     5
 63
     7
 74
     1
 91
        0
 64
     7
 65
   257
 75
     1
175
     1
 42
1.0
 92
        8
 66
     8
 43
1.0
 76
     1
 77
     6
 78
     2
 67
     7
 79
     5
170
     0
171
     0
290
     0
174
     0
 93
       13
 44
0.0
173
     0
291
     0
 45
0.0
1001
ACAD
1000
AcDbSavedByObjectVersion
1070
     0
  0
VISUALSTYLE
  5
301D
102
{ACAD_XDICTIONARY
360
3B53
102
}
102
{ACAD_REACTORS
330
2C80
102
}
330
2C80
100
AcDbVisualStyle
  2
Shaded
 70
    27
 71
     2
 72
     2
 73
     1
 90
        2
 40
-0.6
 41
30.0
 62
     5
 63
     7
 74
     0
 91
        4
 64
     7
 65
   257
 75
     1
175
     1
 42
1.0
 92
        8
 66
   257
 43
1.0
 76
     1
 77
     6
 78
     2
 67
     8
 79
     3
170
     0
171
     0
290
     0
174
     0
 93
        5
 44
0.0
173
     0
291
     0
 45
0.0
1001
ACAD
1000
AcDbSavedByObjectVersion
1070
     0
  0
VISUALSTYLE
  5
301C
102
{ACAD_XDICTIONARY
360
3B51
102
}
102
{ACAD_REACTORS
330
2C80
102
}
330
2C80
100
AcDbVisualStyle
  2
Shaded with edges
 70
    26
 71
     2
 72
     2
 73
     1
 90
        2
 40
-0.6
 41
30.0
 62
     5
 63
     7
 74
     1
 91
       10
 64
     7
 65
   257
 75
     2
175
     1
 42
1.0
 92
        8
 66
   257
 43
1.0
 76
     1
 77
     6
 78
     2
 67
     7
 79
     3
170
     0
171
     0
290
     0
174
     0
 93
        5
 44
0.0
173
     0
291
     0
 45
0.0
1001
ACAD
1000
AcDbSavedByObjectVersion
1070
     0
  0
VISUALSTYLE
  5
3019
102
{ACAD_XDICTIONARY
360
3B4B
102
}
102
{ACAD_REACTORS
330
2C80
102
}
330
2C80
100
AcDbVisualStyle
  2
Shades of Gray
 70
    23
 71
     2
 72
     2
 73
     3
 90
        0
 40
-0.6
 41
-30.0
 62
     5
 63
     7
 74
     2
 91
        2
 64
     7
 65
     7
 75
     1
175
     1
 42
40.0
 92
        8
 66
     7
 43
1.0
 76
     1
 77
     6
 78
     2
 67
     7
 79
     3
170
     0
171
     0
290
     0
174
     0
 93
        1
 44
0.0
173
     0
291
     0
 45
0.0
1001
ACAD
1000
AcDbSavedByObjectVersion
1070
     0
  0
VISUALSTYLE
  5
301A
102
{ACAD_XDICTIONARY
360
3B4D
102
}
102
{ACAD_REACTORS
330
2C80
102
}
330
2C80
100
AcDbVisualStyle
  2
Sketchy
 70
    24
 71
     1
 72
     2
 73
     2
 90
        0
 40
-0.6
 41
-30.0
 62
     5
 63
     7
 74
     2
 91
        2
 64
     7
 65
     7
 75
     1
175
     1
 42
40.0
 92
       11
 66
     7
 43
1.0
 76
     1
 77
     6
 78
     2
 67
     7
 79
     6
170
     0
171
     0
290
     0
174
     0
 93
        1
 44
0.0
173
     0
291
     0
 45
0.0
1001
ACAD
1000
AcDbSavedByObjectVersion
1070
     0
  0
VISUALSTYLE
  5
2C8D
102
{ACAD_XDICTIONARY
360
3B3F
102
}
102
{ACAD_REACTORS
330
2C80
102
}
330
2C80
100
AcDbVisualStyle
  2
Thicken
 70
    13
 71
     2
 72
     2
 73
     0
 90
        0
 40
-0.6
 41
-30.0
 62
     5
 63
     7
 74
     1
 91
        4
 64
     7
 65
   257
 75
     1
175
     1
 42
1.0
 92
       12
 66
     7
 43
1.0
 76
     1
 77
     6
 78
     2
 67
     7
 79
     5
170
     0
171
     0
290
     0
174
     0
 93
        1
 44
0.0
173
     0
291
     1
 45
0.0
1001
ACAD
1000
AcDbSavedByObjectVersion
1070
     0
  0
VISUALSTYLE
  5
3017
102
{ACAD_XDICTIONARY
360
3B47
102
}
102
{ACAD_REACTORS
330
2C80
102
}
330
2C80
100
AcDbVisualStyle
  2
Wireframe
 70
     5
 71
     0
 72
     2
 73
     0
 90
        0
 40
-0.6
 41
-30.0
 62
     5
 63
     7
 74
     1
 91
        4
 64
     7
 65
   257
 75
     1
175
     1
 42
1.0
 92
        0
 66
   257
 43
1.0
 76
     1
 77
     6
 78
     2
 67
     7
 79
     3
170
     0
171
     0
290
     0
174
     0
 93
        1
 44
0.0
173
     0
291
     0
 45
0.0
1001
ACAD
1000
AcDbSavedByObjectVersion
1070
     0
  0
VISUALSTYLE
  5
301B
102
{ACAD_XDICTIONARY
360
3B4F
102
}
102
{ACAD_REACTORS
330
2C80
102
}
330
2C80
100
AcDbVisualStyle
  2
X-Ray
 70
    25
 71
     2
 72
     2
 73
     1
 90
        1
 40
0.5
 41
-30.0
 62
     5
 63
     7
 74
     1
 91
        0
 64
     7
 65
   257
 75
     1
175
     1
 42
1.0
 92
        8
 66
     7
 43
1.0
 76
     1
 77
     6
 78
     2
 67
     7
 79
     3
170
     0
171
     0
290
     0
174
     0
 93
       13
 44
0.0
173
     0
291
     0
 45
0.0
1001
ACAD
1000
AcDbSavedByObjectVersion
1070
     0
  0
DICTIONARYVAR
  5
2D6D
102
{ACAD_REACTORS
330
562
102
}
330
562
100
DictionaryVariables
280
     0
  1
1:1
  0
DICTIONARYVAR
  5
2D6C
102
{ACAD_REACTORS
330
562
102
}
330
562
100
DictionaryVariables
280
     0
  1
STANDARD
  0
DICTIONARYVAR
  5
563
102
{ACAD_REACTORS
330
562
102
}
330
562
100
DictionaryVariables
280
     0
  1
STANDARD
  0
DICTIONARYVAR
  5
2D71
102
{ACAD_REACTORS
330
562
102
}
330
562
100
DictionaryVariables
280
     0
  1
2
  0
DICTIONARYVAR
  5
2D70
102
{ACAD_REACTORS
330
562
102
}
330
562
100
DictionaryVariables
280
     0
  1
1
  0
DICTIONARYVAR
  5
2D6F
102
{ACAD_REACTORS
330
562
102
}
330
562
100
DictionaryVariables
280
     0
  1
0
  0
DICTIONARYVAR
  5
2D6E
102
{ACAD_REACTORS
330
562
102
}
330
562
100
DictionaryVariables
280
     0
  1
127
  0
DICTIONARYVAR
  5
3B19
102
{ACAD_REACTORS
330
562
102
}
330
562
100
DictionaryVariables
280
     0
  1
2
  0
XRECORD
  5
2423
102
{ACAD_REACTORS
330
2421
102
}
330
2421
100
AcDbXrecord
280
     1
330
0
330
5B7
330
0
330
0
330
0
330
0
330
0
330
0
330
0
330
0
330
0
330
0
330
0
330
0
330
0
330
0
330
0
330
0
330
0
330
0
330
0
330
0
330
0
330
0
330
0
330
0
330
0
330
0
330
0
330
0
330
0
330
0
330
0
330
0
330
0
330
0
330
0
330
0
330
0
330
0
330
0
330
0
330
0
330
0
330
0
330
0
330
0
330
0
330
0
330
0
330
0
330
0
330
0
330
0
330
0
330
0
330
0
330
0
330
0
330
0
330
0
330
0
  0
DICTIONARY
  5
3B22
330
25
100
AcDbDictionary
280
     1
281
     1
  3
ACAD_XREC_ROUNDTRIP
360
3B23
  0
DICTIONARY
  5
3B20
330
21
100
AcDbDictionary
280
     1
281
     1
  3
ACAD_XREC_ROUNDTRIP
360
3B21
  0
DICTIONARY
  5
2C71
330
2C70
100
AcDbDictionary
280
     1
281
     1
  3
ACAD_XREC_ROUNDTRIP
360
3B25
  3
BUMPTILE
360
2C73
  3
DIFFUSETILE
360
2C72
  3
OPACITYTILE
360
2C76
  3
REFLECTIONTILE
360
2C75
  3
REFRACTIONTILE
360
2C77
  3
SPECULARTILE
360
2C74
  0
DICTIONARY
  5
2C69
330
2C68
100
AcDbDictionary
280
     1
281
     1
  3
ACAD_XREC_ROUNDTRIP
360
3B24
  3
BUMPTILE
360
2C6B
  3
DIFFUSETILE
360
2C6A
  3
OPACITYTILE
360
2C6E
  3
REFLECTIONTILE
360
2C6D
  3
REFRACTIONTILE
360
2C6F
  3
SPECULARTILE
360
2C6C
  0
DICTIONARY
  5
2C79
330
2C78
100
AcDbDictionary
280
     1
281
     1
  3
ACAD_XREC_ROUNDTRIP
360
3B26
  3
BUMPTILE
360
2C7B
  3
DIFFUSETILE
360
2C7A
  3
OPACITYTILE
360
2C7E
  3
REFLECTIONTILE
360
2C7D
  3
REFRACTIONTILE
360
2C7F
  3
SPECULARTILE
360
2C7C
  0
DICTIONARY
  5
2D5C
330
1D
100
AcDbDictionary
280
     1
281
     1
  3
ACAD_ROUNDTRIP_2008_TABLESTYLE_CELLSTYLEMAP
360
3B1A
  3
ACAD_XREC_ROUNDTRIP
360
3B1F
  0
DICTIONARY
  5
3B31
330
2C86
100
AcDbDictionary
280
     1
281
     1
  3
ACAD_XREC_ROUNDTRIP
360
3B32
  0
DICTIONARY
  5
3B35
330
2C88
100
AcDbDictionary
280
     1
281
     1
  3
ACAD_XREC_ROUNDTRIP
360
3B36
  0
DICTIONARY
  5
3B33
330
2C87
100
AcDbDictionary
280
     1
281
     1
  3
ACAD_XREC_ROUNDTRIP
360
3B34
  0
DICTIONARY
  5
3B2F
330
2C85
100
AcDbDictionary
280
     1
281
     1
  3
ACAD_XREC_ROUNDTRIP
360
3B30
  0
DICTIONARY
  5
3B3D
330
2C8C
100
AcDbDictionary
280
     1
281
     1
  3
ACAD_XREC_ROUNDTRIP
360
3B3E
  0
DICTIONARY
  5
3B45
330
2C90
100
AcDbDictionary
280
     1
281
     1
  3
ACAD_XREC_ROUNDTRIP
360
3B46
  0
DICTIONARY
  5
3B37
330
2C89
100
AcDbDictionary
280
     1
281
     1
  3
ACAD_XREC_ROUNDTRIP
360
3B38
  0
DICTIONARY
  5
3B3B
330
2C8B
100
AcDbDictionary
280
     1
281
     1
  3
ACAD_XREC_ROUNDTRIP
360
3B3C
  0
DICTIONARY
  5
3B59
330
3020
100
AcDbDictionary
280
     1
281
     1
  3
ACAD_XREC_ROUNDTRIP
360
3B5A
  0
DICTIONARY
  5
3B43
330
2C8F
100
AcDbDictionary
280
     1
281
     1
  3
ACAD_XREC_ROUNDTRIP
360
3B44
  0
DICTIONARY
  5
3B27
330
2C81
100
AcDbDictionary
280
     1
281
     1
  3
ACAD_XREC_ROUNDTRIP
360
3B28
  0
DICTIONARY
  5
3B29
330
2C82
100
AcDbDictionary
280
     1
281
     1
  3
ACAD_XREC_ROUNDTRIP
360
3B2A
  0
DICTIONARY
  5
3B2B
330
2C83
100
AcDbDictionary
280
     1
281
     1
  3
ACAD_XREC_ROUNDTRIP
360
3B2C
  0
DICTIONARY
  5
3B2D
330
2C84
100
AcDbDictionary
280
     1
281
     1
  3
ACAD_XREC_ROUNDTRIP
360
3B2E
  0
DICTIONARY
  5
3B49
330
3018
100
AcDbDictionary
280
     1
281
     1
  3
ACAD_XREC_ROUNDTRIP
360
3B4A
  0
DICTIONARY
  5
3B55
330
301E
100
AcDbDictionary
280
     1
281
     1
  3
ACAD_XREC_ROUNDTRIP
360
3B56
  0
DICTIONARY
  5
3B41
330
2C8E
100
AcDbDictionary
280
     1
281
     1
  3
ACAD_XREC_ROUNDTRIP
360
3B42
  0
DICTIONARY
  5
3B57
330
301F
100
AcDbDictionary
280
     1
281
     1
  3
ACAD_XREC_ROUNDTRIP
360
3B58
  0
DICTIONARY
  5
3B39
330
2C8A
100
AcDbDictionary
280
     1
281
     1
  3
ACAD_XREC_ROUNDTRIP
360
3B3A
  0
DICTIONARY
  5
3B53
330
301D
100
AcDbDictionary
280
     1
281
     1
  3
ACAD_XREC_ROUNDTRIP
360
3B54
  0
DICTIONARY
  5
3B51
330
301C
100
AcDbDictionary
280
     1
281
     1
  3
ACAD_XREC_ROUNDTRIP
360
3B52
  0
DICTIONARY
  5
3B4B
330
3019
100
AcDbDictionary
280
     1
281
     1
  3
ACAD_XREC_ROUNDTRIP
360
3B4C
  0
DICTIONARY
  5
3B4D
330
301A
100
AcDbDictionary
280
     1
281
     1
  3
ACAD_XREC_ROUNDTRIP
360
3B4E
  0
DICTIONARY
  5
3B3F
330
2C8D
100
AcDbDictionary
280
     1
281
     1
  3
ACAD_XREC_ROUNDTRIP
360
3B40
  0
DICTIONARY
  5
3B47
330
3017
100
AcDbDictionary
280
     1
281
     1
  3
ACAD_XREC_ROUNDTRIP
360
3B48
  0
DICTIONARY
  5
3B4F
330
301B
100
AcDbDictionary
280
     1
281
     1
  3
ACAD_XREC_ROUNDTRIP
360
3B50
  0
XRECORD
  5
3B23
102
{ACAD_REACTORS
330
3B22
102
}
330
3B22
100
AcDbXrecord
280
     1
102
SHADEPLOT
 70
     0
102
SHADEPLOTRESLEVEL
 70
     2
102
SHADEPLOTCUSTOMDPI
 70
   300
  0
XRECORD
  5
3B21
102
{ACAD_REACTORS
330
3B20
102
}
330
3B20
100
AcDbXrecord
280
     1
102
SHADEPLOT
 70
     0
102
SHADEPLOTRESLEVEL
 70
     2
102
SHADEPLOTCUSTOMDPI
 70
   300
  0
XRECORD
  5
3B25
102
{ACAD_REACTORS
330
2C71
102
}
330
2C71
100
AcDbXrecord
280
     1
102
MATERIAL
148
0.0
149
0.0
149
0.0
 93
        0
 94
      127
282
     0
 72
     0
 77
     0
171
     0
175
     0
179
     0
273
     0
  0
XRECORD
  5
2C73
102
{ACAD_REACTORS
330
2C71
102
}
330
2C71
100
AcDbXrecord
280
     1
270
     1
271
     1
  0
XRECORD
  5
2C72
102
{ACAD_REACTORS
330
2C71
102
}
330
2C71
100
AcDbXrecord
280
     1
270
     1
271
     1
  0
XRECORD
  5
2C76
102
{ACAD_REACTORS
330
2C71
102
}
330
2C71
100
AcDbXrecord
280
     1
270
     1
271
     1
  0
XRECORD
  5
2C75
102
{ACAD_REACTORS
330
2C71
102
}
330
2C71
100
AcDbXrecord
280
     1
270
     1
271
     1
  0
XRECORD
  5
2C77
102
{ACAD_REACTORS
330
2C71
102
}
330
2C71
100
AcDbXrecord
280
     1
270
     1
271
     1
  0
XRECORD
  5
2C74
102
{ACAD_REACTORS
330
2C71
102
}
330
2C71
100
AcDbXrecord
280
     1
270
     1
271
     1
  0
XRECORD
  5
3B24
102
{ACAD_REACTORS
330
2C69
102
}
330
2C69
100
AcDbXrecord
280
     1
102
MATERIAL
148
0.0
149
0.0
149
0.0
 93
        0
 94
      127
282
     0
 72
     0
 77
     0
171
     0
175
     0
179
     0
273
     0
  0
XRECORD
  5
2C6B
102
{ACAD_REACTORS
330
2C69
102
}
330
2C69
100
AcDbXrecord
280
     1
270
     1
271
     1
  0
XRECORD
  5
2C6A
102
{ACAD_REACTORS
330
2C69
102
}
330
2C69
100
AcDbXrecord
280
     1
270
     1
271
     1
  0
XRECORD
  5
2C6E
102
{ACAD_REACTORS
330
2C69
102
}
330
2C69
100
AcDbXrecord
280
     1
270
     1
271
     1
  0
XRECORD
  5
2C6D
102
{ACAD_REACTORS
330
2C69
102
}
330
2C69
100
AcDbXrecord
280
     1
270
     1
271
     1
  0
XRECORD
  5
2C6F
102
{ACAD_REACTORS
330
2C69
102
}
330
2C69
100
AcDbXrecord
280
     1
270
     1
271
     1
  0
XRECORD
  5
2C6C
102
{ACAD_REACTORS
330
2C69
102
}
330
2C69
100
AcDbXrecord
280
     1
270
     1
271
     1
  0
XRECORD
  5
3B26
102
{ACAD_REACTORS
330
2C79
102
}
330
2C79
100
AcDbXrecord
280
     1
102
MATERIAL
148
0.0
149
0.0
149
0.0
 93
        0
 94
      127
282
     0
 72
     0
 77
     0
171
     0
175
     0
179
     0
273
     0
  0
XRECORD
  5
2C7B
102
{ACAD_REACTORS
330
2C79
102
}
330
2C79
100
AcDbXrecord
280
     1
270
     1
271
     1
  0
XRECORD
  5
2C7A
102
{ACAD_REACTORS
330
2C79
102
}
330
2C79
100
AcDbXrecord
280
     1
270
     1
271
     1
  0
XRECORD
  5
2C7E
102
{ACAD_REACTORS
330
2C79
102
}
330
2C79
100
AcDbXrecord
280
     1
270
     1
271
     1
  0
XRECORD
  5
2C7D
102
{ACAD_REACTORS
330
2C79
102
}
330
2C79
100
AcDbXrecord
280
     1
270
     1
271
     1
  0
XRECORD
  5
2C7F
102
{ACAD_REACTORS
330
2C79
102
}
330
2C79
100
AcDbXrecord
280
     1
270
     1
271
     1
  0
XRECORD
  5
2C7C
102
{ACAD_REACTORS
330
2C79
102
}
330
2C79
100
AcDbXrecord
280
     1
270
     1
271
     1
  0
CELLSTYLEMAP
  5
3B1A
102
{ACAD_REACTORS
330
2D5C
102
}
330
2D5C
100
AcDbCellStyleMap
 90
        3
300
CELLSTYLE
  1
TABLEFORMAT_BEGIN
 90
        5
170
     1
 91
        0
 92
    32768
 62
   257
 93
        1
300
CONTENTFORMAT
  1
CONTENTFORMAT_BEGIN
 90
        0
 91
        0
 92
        4
 93
        0
300

 40
0.0
140
1.0
 94
        5
 62
     0
340
11
144
0.25
309
CONTENTFORMAT_END
171
     0
 94
        6
 95
        1
302
GRIDFORMAT
  1
GRIDFORMAT_BEGIN
 90
        0
 91
        1
 62
     0
 92
       -2
340
0
 93
        0
 40
0.045
309
GRIDFORMAT_END
 95
        2
302
GRIDFORMAT
  1
GRIDFORMAT_BEGIN
 90
        0
 91
        1
 62
     0
 92
       -2
340
0
 93
        0
 40
0.045
309
GRIDFORMAT_END
 95
        4
302
GRIDFORMAT
  1
GRIDFORMAT_BEGIN
 90
        0
 91
        1
 62
     0
 92
       -2
340
0
 93
        0
 40
0.045
309
GRIDFORMAT_END
 95
        8
302
GRIDFORMAT
  1
GRIDFORMAT_BEGIN
 90
        0
 91
        1
 62
     0
 92
       -2
340
0
 93
        0
 40
0.045
309
GRIDFORMAT_END
 95
       16
302
GRIDFORMAT
  1
GRIDFORMAT_BEGIN
 90
        0
 91
        1
 62
     0
 92
       -2
340
0
 93
        0
 40
0.045
309
GRIDFORMAT_END
 95
       32
302
GRIDFORMAT
  1
GRIDFORMAT_BEGIN
 90
        0
 91
        1
 62
     0
 92
       -2
340
0
 93
        0
 40
0.045
309
GRIDFORMAT_END
309
TABLEFORMAT_END
  1
CELLSTYLE_BEGIN
 90
        1
 91
        1
300
_TITLE
309
CELLSTYLE_END
300
CELLSTYLE
  1
TABLEFORMAT_BEGIN
 90
        5
170
     1
 91
        0
 92
        0
 62
   257
 93
        1
300
CONTENTFORMAT
  1
CONTENTFORMAT_BEGIN
 90
        0
 91
        0
 92
        4
 93
        0
300

 40
0.0
140
1.0
 94
        5
 62
     0
340
11
144
0.18
309
CONTENTFORMAT_END
171
     0
 94
        6
 95
        1
302
GRIDFORMAT
  1
GRIDFORMAT_BEGIN
 90
        0
 91
        1
 62
     0
 92
       -2
340
0
 93
        0
 40
0.045
309
GRIDFORMAT_END
 95
        2
302
GRIDFORMAT
  1
GRIDFORMAT_BEGIN
 90
        0
 91
        1
 62
     0
 92
       -2
340
0
 93
        0
 40
0.045
309
GRIDFORMAT_END
 95
        4
302
GRIDFORMAT
  1
GRIDFORMAT_BEGIN
 90
        0
 91
        1
 62
     0
 92
       -2
340
0
 93
        0
 40
0.045
309
GRIDFORMAT_END
 95
        8
302
GRIDFORMAT
  1
GRIDFORMAT_BEGIN
 90
        0
 91
        1
 62
     0
 92
       -2
340
0
 93
        0
 40
0.045
309
GRIDFORMAT_END
 95
       16
302
GRIDFORMAT
  1
GRIDFORMAT_BEGIN
 90
        0
 91
        1
 62
     0
 92
       -2
340
0
 93
        0
 40
0.045
309
GRIDFORMAT_END
 95
       32
302
GRIDFORMAT
  1
GRIDFORMAT_BEGIN
 90
        0
 91
        1
 62
     0
 92
       -2
340
0
 93
        0
 40
0.045
309
GRIDFORMAT_END
309
TABLEFORMAT_END
  1
CELLSTYLE_BEGIN
 90
        2
 91
        1
300
_HEADER
309
CELLSTYLE_END
300
CELLSTYLE
  1
TABLEFORMAT_BEGIN
 90
        5
170
     1
 91
        0
 92
        0
 62
   257
 93
        1
300
CONTENTFORMAT
  1
CONTENTFORMAT_BEGIN
 90
        0
 91
        0
 92
        4
 93
        0
300

 40
0.0
140
1.0
 94
        2
 62
     0
340
11
144
0.18
309
CONTENTFORMAT_END
171
     0
 94
        6
 95
        1
302
GRIDFORMAT
  1
GRIDFORMAT_BEGIN
 90
        0
 91
        1
 62
     0
 92
       -2
340
0
 93
        0
 40
0.045
309
GRIDFORMAT_END
 95
        2
302
GRIDFORMAT
  1
GRIDFORMAT_BEGIN
 90
        0
 91
        1
 62
     0
 92
       -2
340
0
 93
        0
 40
0.045
309
GRIDFORMAT_END
 95
        4
302
GRIDFORMAT
  1
GRIDFORMAT_BEGIN
 90
        0
 91
        1
 62
     0
 92
       -2
340
0
 93
        0
 40
0.045
309
GRIDFORMAT_END
 95
        8
302
GRIDFORMAT
  1
GRIDFORMAT_BEGIN
 90
        0
 91
        1
 62
     0
 92
       -2
340
0
 93
        0
 40
0.045
309
GRIDFORMAT_END
 95
       16
302
GRIDFORMAT
  1
GRIDFORMAT_BEGIN
 90
        0
 91
        1
 62
     0
 92
       -2
340
0
 93
        0
 40
0.045
309
GRIDFORMAT_END
 95
       32
302
GRIDFORMAT
  1
GRIDFORMAT_BEGIN
 90
        0
 91
        1
 62
     0
 92
       -2
340
0
 93
        0
 40
0.045
309
GRIDFORMAT_END
309
TABLEFORMAT_END
  1
CELLSTYLE_BEGIN
 90
        3
 91
        2
300
_DATA
309
CELLSTYLE_END
  0
XRECORD
  5
3B1F
102
{ACAD_REACTORS
330
2D5C
102
}
330
2D5C
100
AcDbXrecord
280
     1
102
ACAD_ROUNDTRIP_PRE2007_TABLESTYLE
 90
        4
 91
        0
  1

 92
        4
 93
        0
  2

 94
        4
 95
        0
  3

  0
XRECORD
  5
3B32
102
{ACAD_REACTORS
330
3B31
102
}
330
3B31
100
AcDbXrecord
280
     1
102
RTVSPropertyOp0
 70
     1
102
RTVSPropertyOp1
 70
     1
102
RTVSPropertyOp2
 70
     1
102
RTVSPropertyOp3
 70
     1
102
RTVSPropertyOp4
 70
     1
102
RTVSPropertyOp5
 70
     1
102
RTVSPropertyOp6
 70
     1
102
RTVSPropertyOp7
 70
     1
102
RTVSPropertyOp8
 70
     1
102
RTVSPropertyOp9
 70
     1
102
RTVSPropertyOp10
 70
     1
102
RTVSPropertyOp11
 70
     1
102
RTVSPropertyOp12
 70
     1
102
RTVSPropertyOp13
 70
     1
102
RTVSPropertyOp14
 70
     1
102
RTVSPropertyOp15
 70
     1
102
RTVSPropertyOp16
 70
     1
102
RTVSPropertyOp17
 70
     1
102
RTVSPropertyOp18
 70
     1
102
RTVSPropertyOp19
 70
     1
102
RTVSPropertyOp20
 70
     1
102
RTVSPropertyOp21
 70
     1
102
RTVSPropertyOp22
 70
     1
102
RTVSPropertyOp23
 70
     1
102
RTVSPropertyOp24
 70
     1
102
RTVSPropertyOp25
 70
     1
102
RTVSPropertyOp26
 70
     1
102
RTVSPropertyOp27
 70
     1
102
RTVSPropertyOp28
 70
     1
102
RTVSPropertyOp29
 70
     1
102
RTVSPropertyOp30
 70
     1
102
RTVSPropertyOp31
 70
     1
102
RTVSPropertyOp32
 70
     1
  0
XRECORD
  5
3B36
102
{ACAD_REACTORS
330
3B35
102
}
330
3B35
100
AcDbXrecord
280
     1
102
RTVSPropertyOp0
 70
     1
102
RTVSPropertyOp1
 70
     1
102
RTVSPropertyOp2
 70
     1
102
RTVSPropertyOp3
 70
     1
102
RTVSPropertyOp4
 70
     1
102
RTVSPropertyOp5
 70
     1
102
RTVSPropertyOp6
 70
     1
102
RTVSPropertyOp7
 70
     1
102
RTVSPropertyOp8
 70
     1
102
RTVSPropertyOp9
 70
     1
102
RTVSPropertyOp10
 70
     1
102
RTVSPropertyOp11
 70
     1
102
RTVSPropertyOp12
 70
     1
102
RTVSPropertyOp13
 70
     1
102
RTVSPropertyOp14
 70
     1
102
RTVSPropertyOp15
 70
     1
102
RTVSPropertyOp16
 70
     1
102
RTVSPropertyOp17
 70
     1
102
RTVSPropertyOp18
 70
     1
102
RTVSPropertyOp19
 70
     1
102
RTVSPropertyOp20
 70
     1
102
RTVSPropertyOp21
 70
     1
102
RTVSPropertyOp22
 70
     1
102
RTVSPropertyOp23
 70
     1
102
RTVSPropertyOp24
 70
     1
102
RTVSPropertyOp25
 70
     1
102
RTVSPropertyOp26
 70
     1
102
RTVSPropertyOp27
 70
     1
102
RTVSPropertyOp28
 70
     1
102
RTVSPropertyOp29
 70
     1
102
RTVSPropertyOp30
 70
     1
102
RTVSPropertyOp31
 70
     1
102
RTVSPropertyOp32
 70
     1
  0
XRECORD
  5
3B34
102
{ACAD_REACTORS
330
3B33
102
}
330
3B33
100
AcDbXrecord
280
     1
102
RTVSPropertyOp0
 70
     1
102
RTVSPropertyOp1
 70
     1
102
RTVSPropertyOp2
 70
     1
102
RTVSPropertyOp3
 70
     1
102
RTVSPropertyOp4
 70
     1
102
RTVSPropertyOp5
 70
     1
102
RTVSPropertyOp6
 70
     1
102
RTVSPropertyOp7
 70
     1
102
RTVSPropertyOp8
 70
     1
102
RTVSPropertyOp9
 70
     1
102
RTVSPropertyOp10
 70
     1
102
RTVSPropertyOp11
 70
     1
102
RTVSPropertyOp12
 70
     1
102
RTVSPropertyOp13
 70
     1
102
RTVSPropertyOp14
 70
     1
102
RTVSPropertyOp15
 70
     1
102
RTVSPropertyOp16
 70
     1
102
RTVSPropertyOp17
 70
     1
102
RTVSPropertyOp18
 70
     1
102
RTVSPropertyOp19
 70
     1
102
RTVSPropertyOp20
 70
     1
102
RTVSPropertyOp21
 70
     1
102
RTVSPropertyOp22
 70
     1
102
RTVSPropertyOp23
 70
     1
102
RTVSPropertyOp24
 70
     1
102
RTVSPropertyOp25
 70
     1
102
RTVSPropertyOp26
 70
     1
102
RTVSPropertyOp27
 70
     1
102
RTVSPropertyOp28
 70
     1
102
RTVSPropertyOp29
 70
     1
102
RTVSPropertyOp30
 70
     1
102
RTVSPropertyOp31
 70
     1
102
RTVSPropertyOp32
 70
     1
  0
XRECORD
  5
3B30
102
{ACAD_REACTORS
330
3B2F
102
}
330
3B2F
100
AcDbXrecord
280
     1
102
RTVSPropertyOp0
 70
     1
102
RTVSPropertyOp1
 70
     1
102
RTVSPropertyOp2
 70
     1
102
RTVSPropertyOp3
 70
     1
102
RTVSPropertyOp4
 70
     1
102
RTVSPropertyOp5
 70
     1
102
RTVSPropertyOp6
 70
     1
102
RTVSPropertyOp7
 70
     1
102
RTVSPropertyOp8
 70
     1
102
RTVSPropertyOp9
 70
     1
102
RTVSPropertyOp10
 70
     1
102
RTVSPropertyOp11
 70
     1
102
RTVSPropertyOp12
 70
     1
102
RTVSPropertyOp13
 70
     1
102
RTVSPropertyOp14
 70
     1
102
RTVSPropertyOp15
 70
     1
102
RTVSPropertyOp16
 70
     1
102
RTVSPropertyOp17
 70
     1
102
RTVSPropertyOp18
 70
     1
102
RTVSPropertyOp19
 70
     1
102
RTVSPropertyOp20
 70
     1
102
RTVSPropertyOp21
 70
     1
102
RTVSPropertyOp22
 70
     1
102
RTVSPropertyOp23
 70
     1
102
RTVSPropertyOp24
 70
     1
102
RTVSPropertyOp25
 70
     1
102
RTVSPropertyOp26
 70
     1
102
RTVSPropertyOp27
 70
     1
102
RTVSPropertyOp28
 70
     1
102
RTVSPropertyOp29
 70
     1
102
RTVSPropertyOp30
 70
     1
102
RTVSPropertyOp31
 70
     1
102
RTVSPropertyOp32
 70
     1
  0
XRECORD
  5
3B3E
102
{ACAD_REACTORS
330
3B3D
102
}
330
3B3D
100
AcDbXrecord
280
     1
102
RTVSPropertyOp0
 70
     1
102
RTVSPropertyOp1
 70
     1
102
RTVSPropertyOp2
 70
     1
102
RTVSPropertyOp3
 70
     1
102
RTVSPropertyOp4
 70
     1
102
RTVSPropertyOp5
 70
     1
102
RTVSPropertyOp6
 70
     1
102
RTVSPropertyOp7
 70
     1
102
RTVSPropertyOp8
 70
     1
102
RTVSPropertyOp9
 70
     1
102
RTVSPropertyOp10
 70
     1
102
RTVSPropertyOp11
 70
     1
102
RTVSPropertyOp12
 70
     1
102
RTVSPropertyOp13
 70
     1
102
RTVSPropertyOp14
 70
     1
102
RTVSPropertyOp15
 70
     1
102
RTVSPropertyOp16
 70
     1
102
RTVSPropertyOp17
 70
     1
102
RTVSPropertyOp18
 70
     1
102
RTVSPropertyOp19
 70
     1
102
RTVSPropertyOp20
 70
     1
102
RTVSPropertyOp21
 70
     1
102
RTVSPropertyOp22
 70
     1
102
RTVSPropertyOp23
 70
     1
102
RTVSPropertyOp24
 70
     1
102
RTVSPropertyOp25
 70
     1
102
RTVSPropertyOp26
 70
     1
102
RTVSPropertyOp27
 70
     1
102
RTVSPropertyOp28
 70
     1
102
RTVSPropertyOp29
 70
     1
102
RTVSPropertyOp30
 70
     1
102
RTVSPropertyOp31
 70
     1
102
RTVSPropertyOp32
 70
     1
  0
XRECORD
  5
3B46
102
{ACAD_REACTORS
330
3B45
102
}
330
3B45
100
AcDbXrecord
280
     1
102
RTVSPropertyOp0
 70
     1
102
RTVSPropertyOp1
 70
     1
102
RTVSPropertyOp2
 70
     1
102
RTVSPropertyOp3
 70
     1
102
RTVSPropertyOp4
 70
     1
102
RTVSPropertyOp5
 70
     1
102
RTVSPropertyOp6
 70
     1
102
RTVSPropertyOp7
 70
     1
102
RTVSPropertyOp8
 70
     1
102
RTVSPropertyOp9
 70
     1
102
RTVSPropertyOp10
 70
     1
102
RTVSPropertyOp11
 70
     1
102
RTVSPropertyOp12
 70
     1
102
RTVSPropertyOp13
 70
     1
102
RTVSPropertyOp14
 70
     1
102
RTVSPropertyOp15
 70
     1
102
RTVSPropertyOp16
 70
     1
102
RTVSPropertyOp17
 70
     1
102
RTVSPropertyOp18
 70
     1
102
RTVSPropertyOp19
 70
     1
102
RTVSPropertyOp20
 70
     1
102
RTVSPropertyOp21
 70
     1
102
RTVSPropertyOp22
 70
     1
102
RTVSPropertyOp23
 70
     1
102
RTVSPropertyOp24
 70
     1
102
RTVSPropertyOp25
 70
     1
102
RTVSPropertyOp26
 70
     1
102
RTVSPropertyOp27
 70
     1
102
RTVSPropertyOp28
 70
     1
102
RTVSPropertyOp29
 70
     1
102
RTVSPropertyOp30
 70
     1
102
RTVSPropertyOp31
 70
     1
102
RTVSPropertyOp32
 70
     1
  0
XRECORD
  5
3B38
102
{ACAD_REACTORS
330
3B37
102
}
330
3B37
100
AcDbXrecord
280
     1
102
RTVSPropertyOp0
 70
     1
102
RTVSPropertyOp1
 70
     1
102
RTVSPropertyOp2
 70
     1
102
RTVSPropertyOp3
 70
     1
102
RTVSPropertyOp4
 70
     1
102
RTVSPropertyOp5
 70
     1
102
RTVSPropertyOp6
 70
     1
102
RTVSPropertyOp7
 70
     1
102
RTVSPropertyOp8
 70
     1
102
RTVSPropertyOp9
 70
     1
102
RTVSPropertyOp10
 70
     1
102
RTVSPropertyOp11
 70
     1
102
RTVSPropertyOp12
 70
     1
102
RTVSPropertyOp13
 70
     1
102
RTVSPropertyOp14
 70
     1
102
RTVSPropertyOp15
 70
     1
102
RTVSPropertyOp16
 70
     1
102
RTVSPropertyOp17
 70
     1
102
RTVSPropertyOp18
 70
     1
102
RTVSPropertyOp19
 70
     1
102
RTVSPropertyOp20
 70
     1
102
RTVSPropertyOp21
 70
     1
102
RTVSPropertyOp22
 70
     1
102
RTVSPropertyOp23
 70
     1
102
RTVSPropertyOp24
 70
     1
102
RTVSPropertyOp25
 70
     1
102
RTVSPropertyOp26
 70
     1
102
RTVSPropertyOp27
 70
     1
102
RTVSPropertyOp28
 70
     1
102
RTVSPropertyOp29
 70
     1
102
RTVSPropertyOp30
 70
     1
102
RTVSPropertyOp31
 70
     1
102
RTVSPropertyOp32
 70
     1
  0
XRECORD
  5
3B3C
102
{ACAD_REACTORS
330
3B3B
102
}
330
3B3B
100
AcDbXrecord
280
     1
102
RTVSPropertyOp0
 70
     1
102
RTVSPropertyOp1
 70
     1
102
RTVSPropertyOp2
 70
     1
102
RTVSPropertyOp3
 70
     1
102
RTVSPropertyOp4
 70
     1
102
RTVSPropertyOp5
 70
     1
102
RTVSPropertyOp6
 70
     1
102
RTVSPropertyOp7
 70
     1
102
RTVSPropertyOp8
 70
     1
102
RTVSPropertyOp9
 70
     1
102
RTVSPropertyOp10
 70
     1
102
RTVSPropertyOp11
 70
     1
102
RTVSPropertyOp12
 70
     1
102
RTVSPropertyOp13
 70
     1
102
RTVSPropertyOp14
 70
     1
102
RTVSPropertyOp15
 70
     1
102
RTVSPropertyOp16
 70
     1
102
RTVSPropertyOp17
 70
     1
102
RTVSPropertyOp18
 70
     1
102
RTVSPropertyOp19
 70
     1
102
RTVSPropertyOp20
 70
     1
102
RTVSPropertyOp21
 70
     1
102
RTVSPropertyOp22
 70
     1
102
RTVSPropertyOp23
 70
     1
102
RTVSPropertyOp24
 70
     1
102
RTVSPropertyOp25
 70
     1
102
RTVSPropertyOp26
 70
     1
102
RTVSPropertyOp27
 70
     1
102
RTVSPropertyOp28
 70
     1
102
RTVSPropertyOp29
 70
     1
102
RTVSPropertyOp30
 70
     1
102
RTVSPropertyOp31
 70
     1
102
RTVSPropertyOp32
 70
     1
  0
XRECORD
  5
3B5A
102
{ACAD_REACTORS
330
3B59
102
}
330
3B59
100
AcDbXrecord
280
     1
102
RTVSPropertyOp0
 70
     0
102
RTVSPropertyOp1
 70
     0
102
RTVSPropertyOp2
 70
     0
102
RTVSPropertyOp3
 70
     0
102
RTVSPropertyOp4
 70
     0
102
RTVSPropertyOp5
 70
     0
102
RTVSPropertyOp6
 70
     0
102
RTVSPropertyOp7
 70
     0
102
RTVSPropertyOp8
 70
     0
102
RTVSPropertyOp9
 70
     0
102
RTVSPropertyOp10
 70
     0
102
RTVSPropertyOp11
 70
     0
102
RTVSPropertyOp12
 70
     0
102
RTVSPropertyOp13
 70
     0
102
RTVSPropertyOp14
 70
     2
102
RTVSPropertyOp15
 70
     0
102
RTVSPropertyOp16
 70
     0
102
RTVSPropertyOp17
 70
     0
102
RTVSPropertyOp18
 70
     0
102
RTVSPropertyOp19
 70
     0
102
RTVSPropertyOp20
 70
     0
102
RTVSPropertyOp21
 70
     0
102
RTVSPropertyOp22
 70
     0
102
RTVSPropertyOp23
 70
     0
102
RTVSPropertyOp24
 70
     0
102
RTVSPropertyOp25
 70
     0
102
RTVSPropertyOp26
 70
     0
102
RTVSPropertyOp27
 70
     0
102
RTVSPropertyOp28
 70
     0
102
RTVSPropertyOp29
 70
     0
102
RTVSPropertyOp30
 70
     0
102
RTVSPropertyOp31
 70
     0
102
RTVSPropertyOp32
 70
     0
  0
XRECORD
  5
3B44
102
{ACAD_REACTORS
330
3B43
102
}
330
3B43
100
AcDbXrecord
280
     1
102
RTVSPropertyOp0
 70
     1
102
RTVSPropertyOp1
 70
     1
102
RTVSPropertyOp2
 70
     1
102
RTVSPropertyOp3
 70
     1
102
RTVSPropertyOp4
 70
     1
102
RTVSPropertyOp5
 70
     1
102
RTVSPropertyOp6
 70
     1
102
RTVSPropertyOp7
 70
     1
102
RTVSPropertyOp8
 70
     1
102
RTVSPropertyOp9
 70
     1
102
RTVSPropertyOp10
 70
     1
102
RTVSPropertyOp11
 70
     1
102
RTVSPropertyOp12
 70
     1
102
RTVSPropertyOp13
 70
     1
102
RTVSPropertyOp14
 70
     1
102
RTVSPropertyOp15
 70
     1
102
RTVSPropertyOp16
 70
     1
102
RTVSPropertyOp17
 70
     1
102
RTVSPropertyOp18
 70
     1
102
RTVSPropertyOp19
 70
     1
102
RTVSPropertyOp20
 70
     1
102
RTVSPropertyOp21
 70
     1
102
RTVSPropertyOp22
 70
     1
102
RTVSPropertyOp23
 70
     1
102
RTVSPropertyOp24
 70
     1
102
RTVSPropertyOp25
 70
     1
102
RTVSPropertyOp26
 70
     1
102
RTVSPropertyOp27
 70
     1
102
RTVSPropertyOp28
 70
     1
102
RTVSPropertyOp29
 70
     1
102
RTVSPropertyOp30
 70
     1
102
RTVSPropertyOp31
 70
     1
102
RTVSPropertyOp32
 70
     1
  0
XRECORD
  5
3B28
102
{ACAD_REACTORS
330
3B27
102
}
330
3B27
100
AcDbXrecord
280
     1
102
RTVSPropertyOp0
 70
     1
102
RTVSPropertyOp1
 70
     1
102
RTVSPropertyOp2
 70
     1
102
RTVSPropertyOp3
 70
     1
102
RTVSPropertyOp4
 70
     1
102
RTVSPropertyOp5
 70
     1
102
RTVSPropertyOp6
 70
     1
102
RTVSPropertyOp7
 70
     1
102
RTVSPropertyOp8
 70
     1
102
RTVSPropertyOp9
 70
     1
102
RTVSPropertyOp10
 70
     1
102
RTVSPropertyOp11
 70
     1
102
RTVSPropertyOp12
 70
     1
102
RTVSPropertyOp13
 70
     1
102
RTVSPropertyOp14
 70
     1
102
RTVSPropertyOp15
 70
     1
102
RTVSPropertyOp16
 70
     1
102
RTVSPropertyOp17
 70
     1
102
RTVSPropertyOp18
 70
     1
102
RTVSPropertyOp19
 70
     1
102
RTVSPropertyOp20
 70
     1
102
RTVSPropertyOp21
 70
     1
102
RTVSPropertyOp22
 70
     1
102
RTVSPropertyOp23
 70
     1
102
RTVSPropertyOp24
 70
     1
102
RTVSPropertyOp25
 70
     1
102
RTVSPropertyOp26
 70
     1
102
RTVSPropertyOp27
 70
     1
102
RTVSPropertyOp28
 70
     1
102
RTVSPropertyOp29
 70
     1
102
RTVSPropertyOp30
 70
     1
102
RTVSPropertyOp31
 70
     1
102
RTVSPropertyOp32
 70
     1
  0
XRECORD
  5
3B2A
102
{ACAD_REACTORS
330
3B29
102
}
330
3B29
100
AcDbXrecord
280
     1
102
RTVSPropertyOp0
 70
     1
102
RTVSPropertyOp1
 70
     1
102
RTVSPropertyOp2
 70
     1
102
RTVSPropertyOp3
 70
     1
102
RTVSPropertyOp4
 70
     1
102
RTVSPropertyOp5
 70
     1
102
RTVSPropertyOp6
 70
     1
102
RTVSPropertyOp7
 70
     1
102
RTVSPropertyOp8
 70
     1
102
RTVSPropertyOp9
 70
     1
102
RTVSPropertyOp10
 70
     1
102
RTVSPropertyOp11
 70
     1
102
RTVSPropertyOp12
 70
     1
102
RTVSPropertyOp13
 70
     1
102
RTVSPropertyOp14
 70
     1
102
RTVSPropertyOp15
 70
     1
102
RTVSPropertyOp16
 70
     1
102
RTVSPropertyOp17
 70
     1
102
RTVSPropertyOp18
 70
     1
102
RTVSPropertyOp19
 70
     1
102
RTVSPropertyOp20
 70
     1
102
RTVSPropertyOp21
 70
     1
102
RTVSPropertyOp22
 70
     1
102
RTVSPropertyOp23
 70
     1
102
RTVSPropertyOp24
 70
     1
102
RTVSPropertyOp25
 70
     1
102
RTVSPropertyOp26
 70
     1
102
RTVSPropertyOp27
 70
     1
102
RTVSPropertyOp28
 70
     1
102
RTVSPropertyOp29
 70
     1
102
RTVSPropertyOp30
 70
     1
102
RTVSPropertyOp31
 70
     1
102
RTVSPropertyOp32
 70
     1
  0
XRECORD
  5
3B2C
102
{ACAD_REACTORS
330
3B2B
102
}
330
3B2B
100
AcDbXrecord
280
     1
102
RTVSPropertyOp0
 70
     1
102
RTVSPropertyOp1
 70
     1
102
RTVSPropertyOp2
 70
     1
102
RTVSPropertyOp3
 70
     1
102
RTVSPropertyOp4
 70
     1
102
RTVSPropertyOp5
 70
     1
102
RTVSPropertyOp6
 70
     1
102
RTVSPropertyOp7
 70
     1
102
RTVSPropertyOp8
 70
     1
102
RTVSPropertyOp9
 70
     1
102
RTVSPropertyOp10
 70
     1
102
RTVSPropertyOp11
 70
     1
102
RTVSPropertyOp12
 70
     1
102
RTVSPropertyOp13
 70
     1
102
RTVSPropertyOp14
 70
     1
102
RTVSPropertyOp15
 70
     1
102
RTVSPropertyOp16
 70
     1
102
RTVSPropertyOp17
 70
     1
102
RTVSPropertyOp18
 70
     1
102
RTVSPropertyOp19
 70
     1
102
RTVSPropertyOp20
 70
     1
102
RTVSPropertyOp21
 70
     1
102
RTVSPropertyOp22
 70
     1
102
RTVSPropertyOp23
 70
     1
102
RTVSPropertyOp24
 70
     1
102
RTVSPropertyOp25
 70
     1
102
RTVSPropertyOp26
 70
     1
102
RTVSPropertyOp27
 70
     1
102
RTVSPropertyOp28
 70
     1
102
RTVSPropertyOp29
 70
     1
102
RTVSPropertyOp30
 70
     1
102
RTVSPropertyOp31
 70
     1
102
RTVSPropertyOp32
 70
     1
  0
XRECORD
  5
3B2E
102
{ACAD_REACTORS
330
3B2D
102
}
330
3B2D
100
AcDbXrecord
280
     1
102
RTVSPropertyOp0
 70
     1
102
RTVSPropertyOp1
 70
     1
102
RTVSPropertyOp2
 70
     1
102
RTVSPropertyOp3
 70
     1
102
RTVSPropertyOp4
 70
     1
102
RTVSPropertyOp5
 70
     1
102
RTVSPropertyOp6
 70
     1
102
RTVSPropertyOp7
 70
     1
102
RTVSPropertyOp8
 70
     1
102
RTVSPropertyOp9
 70
     1
102
RTVSPropertyOp10
 70
     1
102
RTVSPropertyOp11
 70
     1
102
RTVSPropertyOp12
 70
     1
102
RTVSPropertyOp13
 70
     1
102
RTVSPropertyOp14
 70
     1
102
RTVSPropertyOp15
 70
     1
102
RTVSPropertyOp16
 70
     1
102
RTVSPropertyOp17
 70
     1
102
RTVSPropertyOp18
 70
     1
102
RTVSPropertyOp19
 70
     1
102
RTVSPropertyOp20
 70
     1
102
RTVSPropertyOp21
 70
     1
102
RTVSPropertyOp22
 70
     1
102
RTVSPropertyOp23
 70
     1
102
RTVSPropertyOp24
 70
     1
102
RTVSPropertyOp25
 70
     1
102
RTVSPropertyOp26
 70
     1
102
RTVSPropertyOp27
 70
     1
102
RTVSPropertyOp28
 70
     1
102
RTVSPropertyOp29
 70
     1
102
RTVSPropertyOp30
 70
     1
102
RTVSPropertyOp31
 70
     1
102
RTVSPropertyOp32
 70
     1
  0
XRECORD
  5
3B4A
102
{ACAD_REACTORS
330
3B49
102
}
330
3B49
100
AcDbXrecord
280
     1
102
RTVSPropertyOp0
 70
     1
102
RTVSPropertyOp1
 70
     1
102
RTVSPropertyOp2
 70
     1
102
RTVSPropertyOp3
 70
     1
102
RTVSPropertyOp4
 70
     1
102
RTVSPropertyOp5
 70
     1
102
RTVSPropertyOp6
 70
     1
102
RTVSPropertyOp7
 70
     1
102
RTVSPropertyOp8
 70
     1
102
RTVSPropertyOp9
 70
     1
102
RTVSPropertyOp10
 70
     1
102
RTVSPropertyOp11
 70
     1
102
RTVSPropertyOp12
 70
     1
102
RTVSPropertyOp13
 70
     1
102
RTVSPropertyOp14
 70
     1
102
RTVSPropertyOp15
 70
     1
102
RTVSPropertyOp16
 70
     1
102
RTVSPropertyOp17
 70
     1
102
RTVSPropertyOp18
 70
     1
102
RTVSPropertyOp19
 70
     1
102
RTVSPropertyOp20
 70
     1
102
RTVSPropertyOp21
 70
     1
102
RTVSPropertyOp22
 70
     1
102
RTVSPropertyOp23
 70
     1
102
RTVSPropertyOp24
 70
     1
102
RTVSPropertyOp25
 70
     1
102
RTVSPropertyOp26
 70
     1
102
RTVSPropertyOp27
 70
     1
102
RTVSPropertyOp28
 70
     1
102
RTVSPropertyOp29
 70
     1
102
RTVSPropertyOp30
 70
     1
102
RTVSPropertyOp31
 70
     1
102
RTVSPropertyOp32
 70
     1
  0
XRECORD
  5
3B56
102
{ACAD_REACTORS
330
3B55
102
}
330
3B55
100
AcDbXrecord
280
     1
102
RTVSPropertyOp0
 70
     0
102
RTVSPropertyOp1
 70
     0
102
RTVSPropertyOp2
 70
     0
102
RTVSPropertyOp3
 70
     0
102
RTVSPropertyOp4
 70
     0
102
RTVSPropertyOp5
 70
     0
102
RTVSPropertyOp6
 70
     0
102
RTVSPropertyOp7
 70
     0
102
RTVSPropertyOp8
 70
     0
102
RTVSPropertyOp9
 70
     0
102
RTVSPropertyOp10
 70
     0
102
RTVSPropertyOp11
 70
     0
102
RTVSPropertyOp12
 70
     0
102
RTVSPropertyOp13
 70
     0
102
RTVSPropertyOp14
 70
     2
102
RTVSPropertyOp15
 70
     0
102
RTVSPropertyOp16
 70
     0
102
RTVSPropertyOp17
 70
     0
102
RTVSPropertyOp18
 70
     0
102
RTVSPropertyOp19
 70
     0
102
RTVSPropertyOp20
 70
     0
102
RTVSPropertyOp21
 70
     0
102
RTVSPropertyOp22
 70
     0
102
RTVSPropertyOp23
 70
     0
102
RTVSPropertyOp24
 70
     0
102
RTVSPropertyOp25
 70
     0
102
RTVSPropertyOp26
 70
     0
102
RTVSPropertyOp27
 70
     0
102
RTVSPropertyOp28
 70
     0
102
RTVSPropertyOp29
 70
     0
102
RTVSPropertyOp30
 70
     0
102
RTVSPropertyOp31
 70
     0
102
RTVSPropertyOp32
 70
     0
  0
XRECORD
  5
3B42
102
{ACAD_REACTORS
330
3B41
102
}
330
3B41
100
AcDbXrecord
280
     1
102
RTVSPropertyOp0
 70
     1
102
RTVSPropertyOp1
 70
     1
102
RTVSPropertyOp2
 70
     1
102
RTVSPropertyOp3
 70
     1
102
RTVSPropertyOp4
 70
     1
102
RTVSPropertyOp5
 70
     1
102
RTVSPropertyOp6
 70
     1
102
RTVSPropertyOp7
 70
     1
102
RTVSPropertyOp8
 70
     1
102
RTVSPropertyOp9
 70
     1
102
RTVSPropertyOp10
 70
     1
102
RTVSPropertyOp11
 70
     1
102
RTVSPropertyOp12
 70
     1
102
RTVSPropertyOp13
 70
     1
102
RTVSPropertyOp14
 70
     1
102
RTVSPropertyOp15
 70
     1
102
RTVSPropertyOp16
 70
     1
102
RTVSPropertyOp17
 70
     1
102
RTVSPropertyOp18
 70
     1
102
RTVSPropertyOp19
 70
     1
102
RTVSPropertyOp20
 70
     1
102
RTVSPropertyOp21
 70
     1
102
RTVSPropertyOp22
 70
     1
102
RTVSPropertyOp23
 70
     1
102
RTVSPropertyOp24
 70
     1
102
RTVSPropertyOp25
 70
     1
102
RTVSPropertyOp26
 70
     1
102
RTVSPropertyOp27
 70
     1
102
RTVSPropertyOp28
 70
     1
102
RTVSPropertyOp29
 70
     1
102
RTVSPropertyOp30
 70
     1
102
RTVSPropertyOp31
 70
     1
102
RTVSPropertyOp32
 70
     1
  0
XRECORD
  5
3B58
102
{ACAD_REACTORS
330
3B57
102
}
330
3B57
100
AcDbXrecord
280
     1
102
RTVSPropertyOp0
 70
     0
102
RTVSPropertyOp1
 70
     0
102
RTVSPropertyOp2
 70
     0
102
RTVSPropertyOp3
 70
     0
102
RTVSPropertyOp4
 70
     0
102
RTVSPropertyOp5
 70
     0
102
RTVSPropertyOp6
 70
     0
102
RTVSPropertyOp7
 70
     0
102
RTVSPropertyOp8
 70
     0
102
RTVSPropertyOp9
 70
     0
102
RTVSPropertyOp10
 70
     0
102
RTVSPropertyOp11
 70
     0
102
RTVSPropertyOp12
 70
     0
102
RTVSPropertyOp13
 70
     0
102
RTVSPropertyOp14
 70
     2
102
RTVSPropertyOp15
 70
     0
102
RTVSPropertyOp16
 70
     0
102
RTVSPropertyOp17
 70
     0
102
RTVSPropertyOp18
 70
     0
102
RTVSPropertyOp19
 70
     0
102
RTVSPropertyOp20
 70
     0
102
RTVSPropertyOp21
 70
     0
102
RTVSPropertyOp22
 70
     0
102
RTVSPropertyOp23
 70
     0
102
RTVSPropertyOp24
 70
     0
102
RTVSPropertyOp25
 70
     0
102
RTVSPropertyOp26
 70
     0
102
RTVSPropertyOp27
 70
     0
102
RTVSPropertyOp28
 70
     0
102
RTVSPropertyOp29
 70
     0
102
RTVSPropertyOp30
 70
     0
102
RTVSPropertyOp31
 70
     0
102
RTVSPropertyOp32
 70
     0
  0
XRECORD
  5
3B3A
102
{ACAD_REACTORS
330
3B39
102
}
330
3B39
100
AcDbXrecord
280
     1
102
RTVSPropertyOp0
 70
     1
102
RTVSPropertyOp1
 70
     1
102
RTVSPropertyOp2
 70
     1
102
RTVSPropertyOp3
 70
     1
102
RTVSPropertyOp4
 70
     1
102
RTVSPropertyOp5
 70
     1
102
RTVSPropertyOp6
 70
     1
102
RTVSPropertyOp7
 70
     1
102
RTVSPropertyOp8
 70
     1
102
RTVSPropertyOp9
 70
     1
102
RTVSPropertyOp10
 70
     1
102
RTVSPropertyOp11
 70
     1
102
RTVSPropertyOp12
 70
     1
102
RTVSPropertyOp13
 70
     1
102
RTVSPropertyOp14
 70
     1
102
RTVSPropertyOp15
 70
     1
102
RTVSPropertyOp16
 70
     1
102
RTVSPropertyOp17
 70
     1
102
RTVSPropertyOp18
 70
     1
102
RTVSPropertyOp19
 70
     1
102
RTVSPropertyOp20
 70
     1
102
RTVSPropertyOp21
 70
     1
102
RTVSPropertyOp22
 70
     1
102
RTVSPropertyOp23
 70
     1
102
RTVSPropertyOp24
 70
     1
102
RTVSPropertyOp25
 70
     1
102
RTVSPropertyOp26
 70
     1
102
RTVSPropertyOp27
 70
     1
102
RTVSPropertyOp28
 70
     1
102
RTVSPropertyOp29
 70
     1
102
RTVSPropertyOp30
 70
     1
102
RTVSPropertyOp31
 70
     1
102
RTVSPropertyOp32
 70
     1
  0
XRECORD
  5
3B54
102
{ACAD_REACTORS
330
3B53
102
}
330
3B53
100
AcDbXrecord
280
     1
102
RTVSPropertyOp0
 70
     1
102
RTVSPropertyOp1
 70
     1
102
RTVSPropertyOp2
 70
     1
102
RTVSPropertyOp3
 70
     1
102
RTVSPropertyOp4
 70
     1
102
RTVSPropertyOp5
 70
     1
102
RTVSPropertyOp6
 70
     1
102
RTVSPropertyOp7
 70
     1
102
RTVSPropertyOp8
 70
     1
102
RTVSPropertyOp9
 70
     1
102
RTVSPropertyOp10
 70
     1
102
RTVSPropertyOp11
 70
     1
102
RTVSPropertyOp12
 70
     1
102
RTVSPropertyOp13
 70
     1
102
RTVSPropertyOp14
 70
     1
102
RTVSPropertyOp15
 70
     1
102
RTVSPropertyOp16
 70
     1
102
RTVSPropertyOp17
 70
     1
102
RTVSPropertyOp18
 70
     1
102
RTVSPropertyOp19
 70
     1
102
RTVSPropertyOp20
 70
     1
102
RTVSPropertyOp21
 70
     1
102
RTVSPropertyOp22
 70
     1
102
RTVSPropertyOp23
 70
     1
102
RTVSPropertyOp24
 70
     1
102
RTVSPropertyOp25
 70
     1
102
RTVSPropertyOp26
 70
     1
102
RTVSPropertyOp27
 70
     1
102
RTVSPropertyOp28
 70
     1
102
RTVSPropertyOp29
 70
     1
102
RTVSPropertyOp30
 70
     1
102
RTVSPropertyOp31
 70
     1
102
RTVSPropertyOp32
 70
     1
  0
XRECORD
  5
3B52
102
{ACAD_REACTORS
330
3B51
102
}
330
3B51
100
AcDbXrecord
280
     1
102
RTVSPropertyOp0
 70
     1
102
RTVSPropertyOp1
 70
     1
102
RTVSPropertyOp2
 70
     1
102
RTVSPropertyOp3
 70
     1
102
RTVSPropertyOp4
 70
     1
102
RTVSPropertyOp5
 70
     1
102
RTVSPropertyOp6
 70
     1
102
RTVSPropertyOp7
 70
     1
102
RTVSPropertyOp8
 70
     1
102
RTVSPropertyOp9
 70
     1
102
RTVSPropertyOp10
 70
     1
102
RTVSPropertyOp11
 70
     1
102
RTVSPropertyOp12
 70
     1
102
RTVSPropertyOp13
 70
     1
102
RTVSPropertyOp14
 70
     1
102
RTVSPropertyOp15
 70
     1
102
RTVSPropertyOp16
 70
     1
102
RTVSPropertyOp17
 70
     1
102
RTVSPropertyOp18
 70
     1
102
RTVSPropertyOp19
 70
     1
102
RTVSPropertyOp20
 70
     1
102
RTVSPropertyOp21
 70
     1
102
RTVSPropertyOp22
 70
     1
102
RTVSPropertyOp23
 70
     1
102
RTVSPropertyOp24
 70
     1
102
RTVSPropertyOp25
 70
     1
102
RTVSPropertyOp26
 70
     1
102
RTVSPropertyOp27
 70
     1
102
RTVSPropertyOp28
 70
     1
102
RTVSPropertyOp29
 70
     1
102
RTVSPropertyOp30
 70
     1
102
RTVSPropertyOp31
 70
     1
102
RTVSPropertyOp32
 70
     1
  0
XRECORD
  5
3B4C
102
{ACAD_REACTORS
330
3B4B
102
}
330
3B4B
100
AcDbXrecord
280
     1
102
RTVSPropertyOp0
 70
     1
102
RTVSPropertyOp1
 70
     1
102
RTVSPropertyOp2
 70
     1
102
RTVSPropertyOp3
 70
     1
102
RTVSPropertyOp4
 70
     1
102
RTVSPropertyOp5
 70
     1
102
RTVSPropertyOp6
 70
     1
102
RTVSPropertyOp7
 70
     1
102
RTVSPropertyOp8
 70
     1
102
RTVSPropertyOp9
 70
     1
102
RTVSPropertyOp10
 70
     1
102
RTVSPropertyOp11
 70
     1
102
RTVSPropertyOp12
 70
     1
102
RTVSPropertyOp13
 70
     1
102
RTVSPropertyOp14
 70
     1
102
RTVSPropertyOp15
 70
     1
102
RTVSPropertyOp16
 70
     1
102
RTVSPropertyOp17
 70
     1
102
RTVSPropertyOp18
 70
     1
102
RTVSPropertyOp19
 70
     1
102
RTVSPropertyOp20
 70
     1
102
RTVSPropertyOp21
 70
     1
102
RTVSPropertyOp22
 70
     1
102
RTVSPropertyOp23
 70
     1
102
RTVSPropertyOp24
 70
     1
102
RTVSPropertyOp25
 70
     1
102
RTVSPropertyOp26
 70
     1
102
RTVSPropertyOp27
 70
     1
102
RTVSPropertyOp28
 70
     1
102
RTVSPropertyOp29
 70
     1
102
RTVSPropertyOp30
 70
     1
102
RTVSPropertyOp31
 70
     1
102
RTVSPropertyOp32
 70
     1
  0
XRECORD
  5
3B4E
102
{ACAD_REACTORS
330
3B4D
102
}
330
3B4D
100
AcDbXrecord
280
     1
102
RTVSPropertyOp0
 70
     1
102
RTVSPropertyOp1
 70
     1
102
RTVSPropertyOp2
 70
     1
102
RTVSPropertyOp3
 70
     1
102
RTVSPropertyOp4
 70
     1
102
RTVSPropertyOp5
 70
     1
102
RTVSPropertyOp6
 70
     1
102
RTVSPropertyOp7
 70
     1
102
RTVSPropertyOp8
 70
     1
102
RTVSPropertyOp9
 70
     1
102
RTVSPropertyOp10
 70
     1
102
RTVSPropertyOp11
 70
     1
102
RTVSPropertyOp12
 70
     1
102
RTVSPropertyOp13
 70
     1
102
RTVSPropertyOp14
 70
     1
102
RTVSPropertyOp15
 70
     1
102
RTVSPropertyOp16
 70
     1
102
RTVSPropertyOp17
 70
     1
102
RTVSPropertyOp18
 70
     1
102
RTVSPropertyOp19
 70
     1
102
RTVSPropertyOp20
 70
     1
102
RTVSPropertyOp21
 70
     1
102
RTVSPropertyOp22
 70
     1
102
RTVSPropertyOp23
 70
     1
102
RTVSPropertyOp24
 70
     1
102
RTVSPropertyOp25
 70
     1
102
RTVSPropertyOp26
 70
     1
102
RTVSPropertyOp27
 70
     1
102
RTVSPropertyOp28
 70
     1
102
RTVSPropertyOp29
 70
     1
102
RTVSPropertyOp30
 70
     1
102
RTVSPropertyOp31
 70
     1
102
RTVSPropertyOp32
 70
     1
  0
XRECORD
  5
3B40
102
{ACAD_REACTORS
330
3B3F
102
}
330
3B3F
100
AcDbXrecord
280
     1
102
RTVSPropertyOp0
 70
     1
102
RTVSPropertyOp1
 70
     1
102
RTVSPropertyOp2
 70
     1
102
RTVSPropertyOp3
 70
     1
102
RTVSPropertyOp4
 70
     1
102
RTVSPropertyOp5
 70
     1
102
RTVSPropertyOp6
 70
     1
102
RTVSPropertyOp7
 70
     1
102
RTVSPropertyOp8
 70
     1
102
RTVSPropertyOp9
 70
     1
102
RTVSPropertyOp10
 70
     1
102
RTVSPropertyOp11
 70
     1
102
RTVSPropertyOp12
 70
     1
102
RTVSPropertyOp13
 70
     1
102
RTVSPropertyOp14
 70
     1
102
RTVSPropertyOp15
 70
     1
102
RTVSPropertyOp16
 70
     1
102
RTVSPropertyOp17
 70
     1
102
RTVSPropertyOp18
 70
     1
102
RTVSPropertyOp19
 70
     1
102
RTVSPropertyOp20
 70
     1
102
RTVSPropertyOp21
 70
     1
102
RTVSPropertyOp22
 70
     1
102
RTVSPropertyOp23
 70
     1
102
RTVSPropertyOp24
 70
     1
102
RTVSPropertyOp25
 70
     1
102
RTVSPropertyOp26
 70
     1
102
RTVSPropertyOp27
 70
     1
102
RTVSPropertyOp28
 70
     1
102
RTVSPropertyOp29
 70
     1
102
RTVSPropertyOp30
 70
     1
102
RTVSPropertyOp31
 70
     1
102
RTVSPropertyOp32
 70
     1
  0
XRECORD
  5
3B48
102
{ACAD_REACTORS
330
3B47
102
}
330
3B47
100
AcDbXrecord
280
     1
102
RTVSPropertyOp0
 70
     1
102
RTVSPropertyOp1
 70
     1
102
RTVSPropertyOp2
 70
     1
102
RTVSPropertyOp3
 70
     1
102
RTVSPropertyOp4
 70
     1
102
RTVSPropertyOp5
 70
     1
102
RTVSPropertyOp6
 70
     1
102
RTVSPropertyOp7
 70
     1
102
RTVSPropertyOp8
 70
     1
102
RTVSPropertyOp9
 70
     1
102
RTVSPropertyOp10
 70
     1
102
RTVSPropertyOp11
 70
     1
102
RTVSPropertyOp12
 70
     1
102
RTVSPropertyOp13
 70
     1
102
RTVSPropertyOp14
 70
     1
102
RTVSPropertyOp15
 70
     1
102
RTVSPropertyOp16
 70
     1
102
RTVSPropertyOp17
 70
     1
102
RTVSPropertyOp18
 70
     1
102
RTVSPropertyOp19
 70
     1
102
RTVSPropertyOp20
 70
     1
102
RTVSPropertyOp21
 70
     1
102
RTVSPropertyOp22
 70
     1
102
RTVSPropertyOp23
 70
     1
102
RTVSPropertyOp24
 70
     1
102
RTVSPropertyOp25
 70
     1
102
RTVSPropertyOp26
 70
     1
102
RTVSPropertyOp27
 70
     1
102
RTVSPropertyOp28
 70
     1
102
RTVSPropertyOp29
 70
     1
102
RTVSPropertyOp30
 70
     1
102
RTVSPropertyOp31
 70
     1
102
RTVSPropertyOp32
 70
     1
  0
XRECORD
  5
3B50
102
{ACAD_REACTORS
330
3B4F
102
}
330
3B4F
100
AcDbXrecord
280
     1
102
RTVSPropertyOp0
 70
     1
102
RTVSPropertyOp1
 70
     1
102
RTVSPropertyOp2
 70
     1
102
RTVSPropertyOp3
 70
     1
102
RTVSPropertyOp4
 70
     1
102
RTVSPropertyOp5
 70
     1
102
RTVSPropertyOp6
 70
     1
102
RTVSPropertyOp7
 70
     1
102
RTVSPropertyOp8
 70
     1
102
RTVSPropertyOp9
 70
     1
102
RTVSPropertyOp10
 70
     1
102
RTVSPropertyOp11
 70
     1
102
RTVSPropertyOp12
 70
     1
102
RTVSPropertyOp13
 70
     1
102
RTVSPropertyOp14
 70
     1
102
RTVSPropertyOp15
 70
     1
102
RTVSPropertyOp16
 70
     1
102
RTVSPropertyOp17
 70
     1
102
RTVSPropertyOp18
 70
     1
102
RTVSPropertyOp19
 70
     1
102
RTVSPropertyOp20
 70
     1
102
RTVSPropertyOp21
 70
     1
102
RTVSPropertyOp22
 70
     1
102
RTVSPropertyOp23
 70
     1
102
RTVSPropertyOp24
 70
     1
102
RTVSPropertyOp25
 70
     1
102
RTVSPropertyOp26
 70
     1
102
RTVSPropertyOp27
 70
     1
102
RTVSPropertyOp28
 70
     1
102
RTVSPropertyOp29
 70
     1
102
RTVSPropertyOp30
 70
     1
102
RTVSPropertyOp31
 70
     1
102
RTVSPropertyOp32
 70
     1
  0
ENDSEC
  0
EOF
